osu file format v14

[General]
AudioFilename: audio.mp3
AudioLeadIn: 0
PreviewTime: 113919
Countdown: 0
SampleSet: Soft
StackLeniency: 0.5
Mode: 0
LetterboxInBreaks: 0
WidescreenStoryboard: 1

[Editor]
DistanceSpacing: 1.5
BeatDivisor: 4
GridSize: 4
TimelineZoom: 1

[Metadata]
Title:Betrayal
TitleUnicode:Betrayal
Artist:Ruler (CV: Yoko Hikasa), Swim Swim (CV: Inori Minase)
ArtistUnicode:ルーラ (CV:日笠陽子), スイムスイム (CV:水瀬いのり)
Creator:october
Version:Betrayed
Source:魔法少女育成計画
Tags:Mahou Shoujo Ikusei Keikaku Magical Girl Raising Project まほいく Mahoiku vinxis timing
BeatmapID:1346791
BeatmapSetID:634770

[Difficulty]
HPDrainRate:6
CircleSize:4.2
OverallDifficulty:8.5
ApproachRate:9.5
SliderMultiplier:3.59999990463257
SliderTickRate:1

[Events]
//Background and Video events
0,0,"bg.png",0,0
//Break Periods
//Storyboard Layer 0 (Background)
//Storyboard Layer 1 (Fail)
//Storyboard Layer 2 (Pass)
//Storyboard Layer 3 (Foreground)
//Storyboard Sound Samples

[TimingPoints]
348,535.714285714286,4,2,1,25,1,0
5437,-200,4,2,1,25,0,0
6776,-111.111111111111,4,2,1,30,0,0
9723,-142.857142857143,4,2,1,30,0,0
11062,-111.111111111111,4,2,1,40,0,0
14008,-90.9090909090908,4,2,1,40,0,0
15348,-111.111111111111,4,2,1,40,0,0
18294,-90.9090909090908,4,2,1,40,0,0
19633,-142.857142857143,4,2,1,35,0,0
27133,-90.9090909090908,4,2,1,45,0,0
27535,-200,4,2,1,45,0,0
27602,-200,4,2,1,5,0,0
28205,-125,4,2,1,40,0,0
32490,-125,4,2,1,45,0,0
35437,-200,4,2,1,45,0,0
36776,-166.666666666667,4,2,1,30,0,0
53919,-90.9090909090908,4,2,1,50,0,1
70526,-166.666666666667,4,2,1,40,0,1
71062,-111.111111111111,4,2,1,40,0,0
74008,-90.9090909090908,4,2,1,40,0,0
75348,-111.111111111111,4,2,1,40,0,0
78294,-90.9090909090908,4,2,1,40,0,0
79633,-142.857142857143,4,2,1,40,0,0
87133,-90.9090909090908,4,2,1,45,0,0
88205,-125,4,2,1,45,0,0
95437,-166.666666666667,4,2,1,40,0,0
96776,-166.666666666667,4,2,1,30,0,0
112848,-166.666666666666,4,2,1,40,0,0
113919,-90.9090909090908,4,2,1,50,0,1
131062,-142.857142857143,4,2,1,35,0,0
146062,-200,4,2,1,20,0,0
148205,-111.111111111111,4,2,1,40,0,0
165348,-166.666666666666,4,2,1,30,0,0
178205,-166.666666666666,4,2,1,20,0,0
195348,-142.857142857142,4,2,1,30,0,0
196419,-142.857142857142,4,2,1,35,0,0
196955,-142.857142857142,4,2,1,40,0,0
199633,-90.9090909090908,4,2,1,50,0,1
216776,-133.333333333333,4,2,1,30,0,0
220526,-133.333333333333,4,2,1,40,0,0
221062,-111.111111111111,4,2,1,40,0,0
224008,-90.9090909090908,4,2,1,40,0,0
225348,-111.111111111111,4,2,1,40,0,0
228294,-90.9090909090908,4,2,1,40,0,0
229633,-111.111111111111,4,2,1,30,0,0
231776,-111.111111111111,4,2,1,25,0,0
232580,-200,4,2,1,25,0,0

[HitObjects]
316,148,79633,6,0,P|224:152|200:136,1,62.9999964084627
128,104,79901,1,0,0:0:0:0:
216,212,80035,1,0,0:0:0:0:
272,92,80169,2,0,P|360:92|388:152,1,125.999992816925
320,244,80571,5,0,0:0:0:0:
320,244,80705,2,0,P|424:256|448:232,1,125.999992816925
320,152,81106,1,0,0:0:0:0:
320,152,81240,2,0,P|232:144|208:112,1,125.999992816925
84,180,81642,5,0,0:0:0:0:
84,180,81776,2,0,P|140:228|172:232,1,62.9999964084627
268,212,82044,2,0,P|288:284|268:312,1,62.9999964084627
176,344,82312,2,0,P|84:320|56:268,1,125.999992816925
104,164,82714,1,0,0:0:0:0:
104,164,82848,2,0,P|84:96|48:72,1,62.9999964084627
244,168,83115,1,0,0:0:0:0:
244,168,83249,2,0,P|264:100|300:76,1,62.9999964084627
196,148,83919,6,0,P|288:152|312:136,1,62.9999964084627,0|0,0:3|0:3,0:3:0:0:
384,104,84187,1,0,0:3:0:0:
296,212,84321,1,0,0:3:0:0:
240,92,84455,2,0,P|152:92|124:152,1,125.999992816925,0|0,0:3|0:3,0:3:0:0:
192,244,84857,5,0,0:3:0:0:
192,244,84991,2,0,P|88:256|64:232,1,125.999992816925,0|0,0:3|0:3,0:3:0:0:
192,152,85392,1,0,0:3:0:0:
192,152,85526,2,0,P|280:144|304:112,1,125.999992816925,0|0,0:3|0:3,0:3:0:0:
428,180,85928,5,0,0:3:0:0:
428,180,86062,2,0,P|372:228|340:232,1,62.9999964084627,0|0,0:3|0:3,0:3:0:0:
244,212,86330,2,0,P|224:284|244:312,1,62.9999964084627,0|0,0:3|0:3,0:3:0:0:
336,344,86598,2,0,P|428:320|456:268,1,125.999992816925,0|0,0:3|0:3,0:3:0:0:
408,164,87000,1,0,0:3:0:0:
408,164,87134,2,0,P|428:96|464:68,1,99.0000003986359,0|0,0:3|0:3,0:3:0:0:
268,168,87401,1,0,0:3:0:0:
268,168,87535,2,0,P|248:100|192:64,1,99.0000003986359,0|0,0:3|0:3,0:3:0:0:
76,112,88205,5,0,0:0:0:0:
148,252,88339,1,0,0:0:0:0:
236,120,88473,1,0,0:0:0:0:
284,268,88606,1,0,0:0:0:0:
284,268,88740,2,0,P|388:288|412:264,1,143.999996185303
316,140,89142,5,0,0:0:0:0:
316,140,89276,2,0,P|424:108|456:128,1,143.999996185303
384,268,89678,1,0,0:0:0:0:
384,268,89812,2,0,P|276:300|244:280,1,143.999996185303
184,144,90214,5,0,0:0:0:0:
184,144,90348,2,0,P|76:112|44:132,1,143.999996185303
112,272,90749,1,0,0:0:0:0:
112,272,90883,2,0,P|208:264|288:328,1,143.999996185303
364,176,91419,6,0,P|272:128|184:136,1,143.999996185303
136,252,91821,1,0,0:0:0:0:
136,252,91955,2,0,P|216:284|252:276,1,71.9999980926514
272,140,92223,2,0,P|332:196|336:224,1,71.9999980926514
368,336,92490,6,0,P|472:272|460:224,1,143.999996185303
358,245,92892,1,0,0:0:0:0:
358,245,93026,2,0,P|326:173|330:153,1,71.9999980926514
476,132,93294,2,0,P|400:80|368:84,1,71.9999980926514
268,52,93562,6,0,P|152:92|136:136,1,143.999996185303
124,260,93964,1,0,0:0:0:0:
124,260,94098,2,0,P|180:256|216:228,1,71.9999980926514
284,120,94365,6,0,P|320:208|304:236,1,71.9999980926514
232,308,94633,1,0,0:0:0:0:
152,172,94767,1,0,0:0:0:0:
296,236,94901,1,0,0:0:0:0:
212,100,95035,1,0,0:0:0:0:
352,176,95169,2,0,P|384:272|364:304,1,143.999996185303
168,132,96776,6,0,P|264:152|288:140,1,107.999993843079
408,240,97312,2,0,P|312:260|288:248,1,107.999993843079
414,128,97848,2,0,P|314:116|258:164,1,161.999990764618
268,149,98383,2,0,P|172:128|144:88,1,107.999993843079
64,260,98919,2,0,P|110:285|164:284,1,107.999993843079
224,120,99455,2,0,P|324:164|332:200,1,107.999993843079
232,304,99990,6,0,P|296:312|320:296,1,53.9999969215394
320,236,100258,2,0,P|392:236|416:252,1,53.9999969215394
456,208,100526,2,0,P|472:116|428:92,1,107.999993843079
296,104,101062,2,0,P|192:160|104:112,1,215.999987686158
200,64,101865,1,0,0:0:0:0:
192,236,102133,2,0,P|284:232|324:200,1,107.999993843079
380,104,102669,6,0,P|388:184|380:192,1,53.9999969215394
464,220,102937,2,0,P|456:300|464:308,1,53.9999969215394
328,336,103205,2,0,P|248:264|292:180,1,215.999987686158
336,256,104008,5,0,0:0:0:0:
164,272,104276,2,0,P|132:204|140:184,1,53.9999969215394
216,196,104544,2,0,P|184:128|192:108,1,53.9999969215394
264,116,104812,1,0,0:0:0:0:
348,100,104946,1,0,0:0:0:0:
428,136,105080,2,0,P|428:200|408:224,1,53.9999969215394
344,192,105348,6,0,P|364:268|476:280,1,161.999990764618
420,216,105883,2,0,P|476:156|456:88,1,107.999993843079
404,144,106419,2,0,P|348:120|292:140,1,107.999993843079
160,208,106955,2,0,P|72:152|76:112,1,107.999993843079
228,104,107490,6,0,P|312:112|336:152,1,107.999993843079
228,104,108026,2,0,P|312:112|336:152,1,107.999993843079
228,104,108562,2,0,P|312:112|336:152,1,107.999993843079
244,268,109098,2,0,P|308:296|360:288,1,107.999993843079
484,224,109633,6,0,P|436:156|308:172,1,215.999987686158
184,264,110437,1,0,0:0:0:0:
88,136,110705,2,0,P|168:84|208:92,1,107.999993843079
328,140,111240,1,0,0:0:0:0:
196,236,111508,1,0,0:0:0:0:
348,288,111776,2,0,P|408:264|432:216,1,107.999993843079
164,288,112312,2,0,P|104:264|80:216,1,107.999993843079
160,156,112848,6,0,P|240:124|280:136,1,107.999993843079
276,240,113383,2,0,P|356:208|396:220,1,107.999993843079
232,128,113919,6,0,P|120:140|112:148,1,99.0000003986359
68,236,114187,1,0,0:0:0:0:
196,232,114321,1,0,0:0:0:0:
128,340,114455,2,0,P|224:352|276:308,1,99.0000003986359
416,252,114723,6,0,P|304:240|268:260,1,99.0000003986359
68,284,114990,1,0,0:0:0:0:
208,144,115124,1,0,0:0:0:0:
260,336,115258,1,0,0:0:0:0:
116,200,115392,1,0,0:0:0:0:
312,184,115526,2,0,P|384:116|380:84,1,99.0000003986359
192,68,115794,6,0,P|112:120|104:148,1,99.0000003986359
152,316,116062,2,0,P|308:284|316:248,1,198.000000797272
144,164,116464,1,0,0:0:0:0:
324,80,116598,2,0,P|424:132|436:164,1,99.0000003986359
248,228,116865,2,0,P|348:280|360:312,1,99.0000003986359
144,316,117133,2,0,P|72:236|128:156,1,198.000000797272
304,140,117535,5,0,0:0:0:0:
232,324,117669,1,0,0:0:0:0:
328,148,117803,1,0,0:0:0:0:
416,324,117937,1,0,0:0:0:0:
308,156,118071,1,0,0:0:0:0:
200,324,118205,6,0,P|76:284|64:256,1,99.0000003986359
20,136,118473,1,0,0:0:0:0:
192,232,118606,1,0,0:0:0:0:
208,36,118740,2,0,P|328:24|368:48,1,99.0000003986359
428,172,119008,2,0,P|316:168|304:152,1,99.0000003986359
148,112,119276,2,0,P|104:204|168:284,1,198.000000797272
340,208,119678,1,0,0:0:0:0:
340,208,119812,2,0,P|296:100|260:96,1,99.0000003986359
152,120,120080,6,0,P|220:24|248:20,1,99.0000003986359
372,128,120348,2,0,P|416:220|360:288,1,198.000000797272
180,212,120749,1,0,0:0:0:0:
180,212,120816,1,0,0:0:0:0:
180,212,120883,2,0,P|208:116|232:104,1,99.0000003986359
432,52,121151,1,0,0:0:0:0:
356,276,121285,1,0,0:0:0:0:
356,276,121352,1,0,0:0:0:0:
356,276,121419,2,0,P|264:296|184:216,1,198.000000797272
184,52,121821,5,0,0:0:0:0:
184,52,121888,1,0,0:0:0:0:
184,52,121955,2,0,P|268:32|336:56,1,99.0000003986359
488,148,122223,1,0,0:0:0:0:
252,176,122356,1,0,0:0:0:0:
412,352,122490,6,0,P|472:268|464:252,1,99.0000003986359
316,132,122758,2,0,P|176:136|164:156,1,99.0000003986359
36,216,123026,1,0,0:0:0:0:
244,288,123160,1,0,0:0:0:0:
176,80,123294,1,0,0:0:0:0:
120,292,123428,1,0,0:0:0:0:
312,184,123562,2,0,P|416:192|464:224,1,99.0000003986359
263,49,123830,2,0,P|167:93|159:121,1,99.0000003986359
120,292,124098,2,0,P|240:320|308:276,1,198.000000797272
428,104,124499,5,0,0:0:0:0:
428,104,124633,2,0,P|296:68|232:96,1,198.000000797272
112,264,125035,1,0,0:0:0:0:
320,196,125169,2,0,P|300:292|264:304,1,99.0000003986359
172,112,125437,2,0,P|160:228|180:244,1,99.0000003986359
308,344,125705,1,0,0:0:0:0:
308,344,125772,1,0,0:0:0:0:
308,344,125839,2,0,P|376:324|404:296,1,99.0000003986359
408,108,126106,5,0,0:0:0:0:
408,108,126240,2,0,P|292:132|284:148,1,99.0000003986359
196,292,126508,1,0,0:0:0:0:
96,72,126642,1,0,0:0:0:0:
96,72,126709,1,0,0:0:0:0:
96,72,126776,2,0,P|40:120|100:232,1,198.000000797272
344,256,127312,6,0,P|396:168|384:140,1,99.0000003986359
228,44,127580,1,0,0:0:0:0:
112,228,127714,1,0,0:0:0:0:
112,228,127781,1,0,0:0:0:0:
112,228,127848,2,0,P|168:284|204:284,1,99.0000003986359
380,196,128115,1,0,0:0:0:0:
176,116,128249,1,0,0:0:0:0:
380,40,128383,2,0,P|452:132|436:192,1,99.0000003986359
488,324,128651,5,0,0:0:0:0:
304,240,128785,1,0,0:0:0:0:
447,107,128919,1,0,0:0:0:0:
252,56,129321,2,0,P|152:104|148:128,1,99.0000003986359
280,244,129723,2,0,P|384:240|440:164,1,198.000000797272
280,88,130258,5,0,0:0:0:0:
280,88,130526,1,0,0:0:0:0:
280,88,130794,1,0,0:0:0:0:
