osu file format v14

[General]
AudioFilename: audio.mp3
AudioLeadIn: 0
PreviewTime:348
Countdown: 0
SampleSet: Soft
StackLeniency: 0.5
Mode: 0
LetterboxInBreaks: 0
WidescreenStoryboard: 1

[Editor]
DistanceSpacing: 1
BeatDivisor: 4
GridSize: 4
TimelineZoom: 1

[Metadata]
Title:Betrayal
TitleUnicode:Betrayal
Artist:Ruler (CV: Hikasa Youko) x Swim Swim (CV: Minase Inori)
ArtistUnicode:ルーラ(CV: 日笠陽子)×スイムスイム(CV: 水瀬いのり)
Creator:VINXIS
Version:Simple
Source:魔法少女育成計画
Tags:Mahou Shoujo Ikusei Keikaku Magical Girl Raising Project まほいく Mahoiku japanese anime やいり yairi キャラクターソングアルバム character song album musica magica track # 4 #4 number 2016 ムジカ マギカ jpop j-pop pop
BeatmapID:1889115
BeatmapSetID:555864

[Difficulty]
HPDrainRate:3
CircleSize:2
OverallDifficulty:5
ApproachRate:5.4
SliderMultiplier:1.29999990463257
SliderTickRate:1

[Events]
//Background and Video events
0,0,"51078930_p0.jpg",0,0
//Break Periods
2,11262,17155
2,36976,44209
2,71261,77423
2,79833,85994
2,96976,104209
2,131261,137423
2,139833,142780
2,165547,177066
2,182490,194209
2,216976,219387
//Storyboard Layer 0 (Background)
//Storyboard Layer 1 (Fail)
//Storyboard Layer 2 (Pass)
//Storyboard Layer 3 (Foreground)
//Storyboard Layer 4 (Overlay)
//Storyboard Sound Samples

[TimingPoints]
348,535.714285714286,4,2,1,25,1,0
6776,-125,4,2,1,30,0,0
11062,-125,4,2,1,40,0,0
19633,-125,4,2,1,35,0,0
27133,-125,4,2,1,45,0,0
28205,-125,4,2,1,40,0,0
32490,-125,4,2,1,45,0,0
36776,-125,4,2,1,30,0,0
53919,-125,4,2,1,50,0,1
70526,-125,4,2,1,40,0,1
71062,-125,4,2,1,40,0,0
87133,-125,4,2,1,45,0,0
95437,-125,4,2,1,40,0,0
96776,-125,4,2,1,30,0,0
112848,-125,4,2,1,40,0,0
113919,-125,4,2,1,50,0,1
131062,-125,4,2,1,35,0,0
146062,-125,4,2,1,20,0,0
148205,-125,4,2,1,40,0,0
165348,-125,4,2,1,30,0,0
178205,-125,4,2,1,20,0,0
195348,-125,4,2,1,30,0,0
196419,-125,4,2,1,35,0,0
196955,-125,4,2,1,40,0,0
197490,-125,4,2,1,80,0,0
197624,-125,4,2,1,40,0,0
199633,-125,4,2,1,50,0,1
216776,-125,4,2,1,30,0,0
220526,-125,4,2,1,40,0,0
229633,-125,4,2,1,30,0,0
231776,-125,4,2,1,25,0,0

[Colours]
Combo1 : 210,216,179
Combo2 : 129,46,116
Combo3 : 212,170,125
Combo4 : 68,75,110
Combo5 : 239,208,158
Combo6 : 236,115,87
Combo7 : 144,169,183
Combo8 : 87,70,129

[HitObjects]
256,192,348,12,2,2490,0:0:0:0:
82,92,6776,5,2,0:0:0:0:
162,284,7848,1,2,0:0:0:0:
270,107,8919,1,2,0:0:0:0:
256,192,9723,12,6,11062,1:2:0:0:
256,192,18294,12,6,19633,1:2:0:0:
393,89,20705,6,0,B|419:192|419:192|398:314,1,207.999984741211,2|2,1:2|1:2,0:0:0:0:
205,361,22848,2,0,L|203:244,1,103.999992370606,2|8,1:2|0:0,0:0:0:0:
141,173,23919,5,2,1:2:0:0:
292,315,24990,2,0,B|393:343|393:343|511:332,1,207.999984741211,2|2,1:2|1:2,0:0:0:0:
366,170,27133,2,0,L|367:50,1,103.999992370606,2|0,1:1|0:0,0:0:0:0:
264,85,28205,6,0,B|185:99|185:99|142:87|142:87|51:102,1,207.999984741211,6|2,1:2|1:2,0:0:0:0:
113,189,29812,1,0,0:0:0:0:
19,235,30348,2,0,L|5:360,2,103.999992370606,2|0|2,1:2|0:0|1:2,0:0:0:0:
122,246,31955,1,10,0:0:0:0:
225,258,32490,6,0,B|259:159|259:159|243:40,1,207.999984741211,6|0,1:2|1:0,0:0:0:0:
343,20,34098,1,8,0:0:0:0:
428,78,34633,2,0,L|432:248,1,155.999988555908,0|6,1:0|1:2,0:0:0:0:
256,192,35705,12,2,36776,1:2:0:0:
112,142,45348,6,0,P|155:103|305:75,1,207.999984741211,2|2,1:2|1:2,0:0:0:0:
400,242,47490,2,0,P|357:281|207:309,1,207.999984741211,2|2,1:2|1:2,0:0:0:0:
140,115,49633,5,2,0:0:0:0:
274,273,50705,1,2,0:0:0:0:
69,303,51776,1,2,0:0:0:0:
69,303,53919,6,0,B|171:324|171:324|274:299,1,207.999984741211,6|0,1:2|3:0,0:0:0:0:
360,245,55526,1,8,0:1:0:0:
458,277,56062,2,0,L|465:61,1,207.999984741211,2|0,1:2|3:0,0:0:0:0:
370,24,57669,1,8,0:1:0:0:
283,81,58205,6,0,B|217:73|217:73|180:54|180:54|66:40,1,207.999984741211,6|0,1:2|3:0,0:0:0:0:
23,128,59812,1,8,0:1:0:0:
112,181,60348,1,2,1:2:0:0:
84,281,60883,1,10,1:2:0:0:
168,341,61419,2,0,L|286:346,1,103.999992370606,0|0,3:0|3:0,0:0:0:0:
365,299,62490,6,0,B|386:218|386:218|379:178|379:178|405:98,1,207.999984741211,6|0,1:2|3:0,0:0:0:0:
315,45,64098,1,8,0:1:0:0:
275,141,64633,2,0,L|60:129,1,207.999984741211,2|0,1:2|3:0,0:0:0:0:
17,220,66240,1,8,0:1:0:0:
106,272,66776,6,0,L|319:269,1,207.999984741211,2|0,1:2|3:0,0:0:0:0:
402,214,68383,1,8,0:1:0:0:
488,151,68919,1,6,1:2:0:0:
401,92,69455,1,8,1:1:0:0:
315,150,69990,2,0,P|253:134|202:135,2,103.999992370606,0|2|6,3:0|0:0|1:2,0:0:0:0:
256,228,78562,6,0,P|260:192|253:119,2,103.999992370606,2|0|0,1:2|1:2|1:2,0:0:0:0:
135,331,87133,6,0,P|207:305|249:312,1,103.999992370606,2|2,1:1|0:0,0:0:0:0:
334,332,88205,6,0,P|359:251|345:125,1,207.999984741211,6|2,1:2|1:2,0:0:0:0:
284,46,89812,1,0,0:0:0:0:
234,137,90348,2,0,P|144:167|111:167,2,103.999992370606,2|0|2,1:2|0:0|1:2,0:0:0:0:
284,46,91955,1,10,0:0:0:0:
182,26,92490,6,0,P|113:33|39:147,1,207.999984741211,6|0,1:2|1:0,0:0:0:0:
122,203,94098,1,8,0:0:0:0:
110,306,94633,2,0,P|171:335|272:331,1,155.999988555908,0|6,1:0|1:2,0:0:0:0:
256,192,95705,12,2,96776,1:2:0:0:
256,192,105348,12,2,109633,1:2:0:0:
256,192,110705,5,2,1:2:0:0:
60,124,111776,1,2,1:2:0:0:
147,68,112312,1,2,1:2:0:0:
246,97,112848,2,0,P|315:100|359:95,1,103.999992370606,8|8,0:1|0:1,0:0:0:0:
442,48,113919,6,0,P|461:126|463:264,1,207.999984741211,6|0,1:2|3:0,0:0:0:0:
397,332,115526,1,8,0:1:0:0:
299,296,116062,2,0,P|206:292|91:327,1,207.999984741211,2|0,1:2|3:0,0:0:0:0:
10,265,117669,1,8,0:1:0:0:
95,205,118205,6,0,P|123:128|27:41,1,207.999984741211,6|0,1:2|3:0,0:0:0:0:
7,139,119812,1,8,0:1:0:0:
77,215,120348,1,2,1:2:0:0:
19,301,120883,1,10,1:2:0:0:
112,346,121419,2,0,P|192:353|223:355,1,103.999992370606,0|0,3:0|3:0,0:0:0:0:
318,368,122490,6,0,P|341:303|332:165,1,207.999984741211,6|0,1:2|3:0,0:0:0:0:
384,75,124098,1,8,0:1:0:0:
295,21,124633,2,0,P|243:40|91:45,1,207.999984741211,2|0,1:2|3:0,0:0:0:0:
43,137,126240,1,8,0:1:0:0:
146,145,126776,6,0,P|149:220|124:365,1,207.999984741211,2|0,1:2|3:0,0:0:0:0:
231,335,128383,1,8,0:1:0:0:
331,363,128919,1,6,1:2:0:0:
425,320,129455,1,8,1:1:0:0:
340,259,129990,2,0,B|332:207|332:207|344:149,2,103.999992370606,0|8|2,3:0|0:3|1:2,0:0:0:0:
301,184,138562,6,0,L|200:190,3,69.3333282470704,2|0|0|2,1:2|1:2|1:2|1:2,0:0:0:0:
256,192,143919,12,4,146062,3:2:0:0:
65,291,148205,6,0,P|108:309|281:306,1,207.999984741211,6|0,1:2|0:0,0:0:0:0:
236,211,149812,1,8,0:0:0:0:
335,239,150348,2,0,B|350:135|350:135|321:35,1,207.999984741211,2|0,1:2|0:0,0:0:0:0:
227,80,151955,1,2,1:2:0:0:
130,40,152490,6,0,L|7:37,1,103.999992370606,2|8,1:2|0:0,0:0:0:0:
22,141,153562,2,0,L|125:143,1,103.999992370606,0|8,0:0|0:0,0:0:0:0:
215,196,154633,2,0,P|238:266|236:311,2,103.999992370606,2|8|2,1:2|0:2|0:2,0:0:0:0:
128,138,156240,1,0,1:0:0:0:
208,72,156776,6,0,B|257:58|257:58|331:71,1,103.999992370606,6|10,1:2|0:0,0:0:0:0:
309,171,157848,2,0,B|256:180|256:180|207:166,1,103.999992370606,2|8,1:2|0:0,0:0:0:0:
108,134,158919,2,0,P|95:182|92:344,1,207.999984741211,2|0,1:2|0:0,0:0:0:0:
192,365,160526,1,2,1:2:0:0:
285,319,161062,6,0,P|287:251|280:206,1,103.999992370606,2|8,1:2|0:0,0:0:0:0:
240,119,162133,2,0,B|291:100|291:100|364:107,1,103.999992370606,2|8,1:2|0:0,0:0:0:0:
431,53,163205,5,2,1:2:0:0:
462,151,163740,1,8,0:0:0:0:
399,234,164276,2,0,L|411:338,2,103.999992370606,2|0|2,0:0|1:0|1:2,0:0:0:0:
163,241,178205,6,0,P|243:254|257:137,2,207.999984741211,2|2|2,0:0|0:0|0:0,0:0:0:0:
256,192,195348,12,2,197490,0:0:0:0:
30,291,199633,6,0,P|71:307|154:307,1,103.999992370606,6|8,1:2|0:1,0:0:0:0:
197,231,200705,2,0,P|238:215|321:215,1,103.999992370606,0|8,3:0|0:1,0:0:0:0:
389,259,201776,2,0,B|418:214|389:154|389:154|435:132|485:137,1,207.999984741211,2|0,1:2|3:0,0:0:0:0:
444,40,203383,1,8,0:1:0:0:
343,67,203919,6,0,B|289:81|289:81|223:73,1,103.999992370606,6|8,1:2|0:1,0:0:0:0:
230,178,204990,2,0,B|176:164|176:164|110:172,1,103.999992370606,0|8,3:0|0:1,0:0:0:0:
29,137,206062,2,0,B|21:214|21:214|45:244|45:244|34:340,1,207.999984741211,2|0,1:2|3:0,0:0:0:0:
133,366,207669,1,0,3:0:0:0:
217,305,208205,6,0,L|323:298,1,103.999992370606,6|8,1:2|0:1,0:0:0:0:
309,194,209276,2,0,L|205:200,1,103.999992370606,0|8,3:0|0:1,0:0:0:0:
117,257,210348,2,0,P|97:192|100:148,2,103.999992370606,2|8|0,1:2|0:1|3:0,0:0:0:0:
324,244,212490,6,0,L|321:136,1,103.999992370606,2|8,1:2|0:1,0:0:0:0:
217,147,213562,2,0,L|219:250,1,103.999992370606,0|8,3:0|0:1,0:0:0:0:
144,322,214633,2,0,B|92:337|92:337|35:330,2,103.999992370606,6|8|0,1:2|1:1|3:0,0:0:0:0:
229,262,216240,1,8,0:3:0:0:
322,308,216776,5,6,1:2:0:0:
256,192,220526,6,0,L|256:304,1,103.999992370606,6|6,2:0|1:2,0:0:0:0:
