osu file format v14

[General]
AudioFilename: audio.mp3
AudioLeadIn: 0
PreviewTime:348
Countdown: 0
SampleSet: Soft
StackLeniency: 0.5
Mode: 0
LetterboxInBreaks: 0
WidescreenStoryboard: 1

[Editor]
DistanceSpacing: 0.8
BeatDivisor: 4
GridSize: 4
TimelineZoom: 1

[Metadata]
Title:Betrayal
TitleUnicode:Betrayal
Artist:Ruler (CV: Hikasa Youko) x Swim Swim (CV: Minase Inori)
ArtistUnicode:ルーラ(CV: 日笠陽子)×スイムスイム(CV: 水瀬いのり)
Creator:VINXIS
Version:Normal
Source:魔法少女育成計画
Tags:Mahou Shoujo Ikusei Keikaku Magical Girl Raising Project まほいく Mahoiku japanese anime やいり yairi キャラクターソングアルバム character song album musica magica track # 4 #4 number 2016 ムジカ マギカ jpop j-pop pop
BeatmapID:1888533
BeatmapSetID:555864

[Difficulty]
HPDrainRate:3
CircleSize:2.2
OverallDifficulty:5.5
ApproachRate:5.6
SliderMultiplier:1.49999990463257
SliderTickRate:1

[Events]
//Background and Video events
0,0,"51078930_p0.jpg",0,0
//Break Periods
2,2690,5666
2,19833,26023
2,36975,44238
2,71261,77452
2,79833,86023
2,96975,104238
2,131261,147095
2,165547,172809
2,182490,194238
2,197690,198523
2,216975,219416
//Storyboard Layer 0 (Background)
//Storyboard Layer 1 (Fail)
//Storyboard Layer 2 (Pass)
//Storyboard Layer 3 (Foreground)
//Storyboard Layer 4 (Overlay)
//Storyboard Sound Samples

[TimingPoints]
348,535.714285714286,4,2,1,25,1,0
6776,-100,4,2,1,30,0,0
11062,-100,4,2,1,40,0,0
19633,-100,4,2,1,35,0,0
27133,-100,4,2,1,45,0,0
27602,-100,4,2,0,5,0,0
28205,-100,4,2,1,40,0,0
32490,-100,4,2,1,45,0,0
36776,-100,4,2,1,30,0,0
53919,-100,4,2,1,50,0,1
70526,-100,4,2,1,40,0,1
71062,-100,4,2,1,40,0,0
87133,-100,4,2,1,45,0,0
95437,-100,4,2,1,40,0,0
96776,-100,4,2,1,30,0,0
112848,-100,4,2,1,40,0,0
113919,-100,4,2,1,50,0,1
131062,-100,4,2,1,35,0,0
146062,-100,4,2,1,20,0,0
148205,-100,4,2,1,40,0,0
165348,-100,4,2,1,30,0,0
178205,-100,4,2,1,20,0,0
195348,-100,4,2,1,30,0,0
196419,-100,4,2,1,35,0,0
196955,-100,4,2,1,40,0,0
197490,-100,4,2,1,80,0,0
197624,-100,4,2,1,40,0,0
199633,-100,4,2,1,50,0,1
216776,-100,4,2,1,30,0,0
220526,-100,4,2,1,40,0,0
229633,-100,4,2,1,30,0,0
231776,-100,4,2,1,25,0,0

[Colours]
Combo1 : 210,216,179
Combo2 : 129,46,116
Combo3 : 212,170,125
Combo4 : 68,75,110
Combo5 : 239,208,158
Combo6 : 236,115,87
Combo7 : 144,169,183
Combo8 : 87,70,129

[HitObjects]
256,192,348,12,2,2490,0:0:0:0:
81,71,6776,6,0,L|93:239,1,149.999990463257,2|2,0:0|0:0,0:0:0:0:
211,220,7848,2,0,L|200:70,1,149.999990463257,2|2,0:0|0:0,0:0:0:0:
303,9,8919,6,0,L|463:29,1,149.999990463257,2|0,0:0|0:0,0:0:0:0:
482,78,9723,2,0,B|485:155|485:155|469:228,1,149.999990463257,2|0,0:0|0:0,0:0:0:0:
425,267,10526,2,0,B|387:271|387:271|350:261,1,74.9999952316285,2|0,0:0|0:0,0:0:0:0:
306,221,11062,6,0,L|123:224,1,149.999990463257,6|8,1:2|0:0,0:0:0:0:
119,109,12133,2,0,L|268:106,1,149.999990463257,2|8,1:2|0:0,0:0:0:0:
324,84,12937,1,0,0:0:0:0:
378,109,13205,6,0,B|391:181|391:181|366:278,1,149.999990463257,2|8,1:2|0:0,0:0:0:0:
324,292,14008,1,2,1:1:0:0:
277,329,14276,2,0,L|112:319,1,149.999990463257,2|2,0:0|1:2,0:0:0:0:
31,246,15348,6,0,B|41:183|41:183|57:167|57:167|68:100,1,149.999990463257,2|8,1:2|0:0,0:0:0:0:
171,45,16419,2,0,L|348:56,1,149.999990463257,2|8,1:2|0:0,0:0:0:0:
380,56,17223,1,0,0:0:0:0:
439,56,17490,6,0,B|422:130|422:130|439:229,1,149.999990463257,2|8,1:2|0:0,0:0:0:0:
410,258,18294,1,2,1:1:0:0:
383,312,18562,2,0,L|202:294,1,149.999990463257,2|10,0:0|0:0,0:0:0:0:
236,177,19633,5,6,1:2:0:0:
132,78,27133,6,0,L|139:213,1,112.499992847443,2|2,1:1|1:1,0:0:0:0:
234,305,28205,6,0,B|309:289|309:289|381:298,1,149.999990463257,6|0,1:2|0:0,0:0:0:0:
384,178,29276,2,0,B|311:187|311:187|236:171,1,149.999990463257,2|0,1:2|0:0,0:0:0:0:
116,175,30348,2,0,L|116:325,1,149.999990463257,2|0,1:2|0:0,0:0:0:0:
236,321,31419,2,0,L|236:171,1,149.999990463257,2|10,1:2|0:0,0:0:0:0:
232,50,32490,6,0,B|295:47|295:47|316:59|316:59|389:55,1,149.999990463257,6|8,1:2|0:0,0:0:0:0:
430,86,33294,1,0,0:0:0:0:
486,106,33562,2,0,L|482:264,1,149.999990463257,0|8,1:0|0:0,0:0:0:0:
435,293,34365,1,0,1:0:0:0:
379,316,34633,6,0,L|298:306,1,74.9999952316285,0|0,1:0|0:0,0:0:0:0:
246,321,35169,2,0,L|165:311,1,74.9999952316285,8|6,0:0|1:2,0:0:0:0:
54,174,36240,2,0,L|65:69,2,74.9999952316285,0|8|2,3:0|0:3|1:2,0:0:0:0:
93,290,45348,6,0,B|167:307|167:307|255:300,3,149.999990463257,2|2|2|2,1:2|1:2|1:2|1:2,0:0:0:0:
241,181,47490,2,0,B|167:175|167:175|93:192,3,149.999990463257,2|2|2|2,1:2|1:2|1:2|1:2,0:0:0:0:
57,306,49633,5,2,0:0:0:0:
9,132,50437,1,0,0:0:0:0:
9,132,50705,1,2,0:0:0:0:
162,38,51508,1,0,0:0:0:0:
162,38,51776,1,2,0:0:0:0:
162,38,53919,6,0,B|235:51|235:51|338:39,1,149.999990463257,6|8,1:2|0:1,0:0:0:0:
367,62,54723,1,0,1:0:0:0:
424,79,54990,2,0,B|430:159|430:159|418:228,1,149.999990463257,0|8,3:0|0:1,0:0:0:0:
384,277,55794,1,0,0:0:0:0:
342,321,56062,6,0,B|266:331|266:331|186:318,1,149.999990463257,2|8,1:2|0:1,0:0:0:0:
144,284,56865,1,0,1:0:0:0:
140,224,57133,1,0,3:0:0:0:
258,245,57669,1,8,0:1:0:0:
378,266,58205,6,0,B|389:194|389:194|383:116,1,149.999990463257,6|8,1:2|0:1,0:0:0:0:
338,77,59008,1,0,1:0:0:0:
290,39,59276,2,0,B|216:31|216:31|117:48,1,149.999990463257,0|8,3:0|0:1,0:0:0:0:
94,81,60080,1,0,0:0:0:0:
47,119,60348,6,0,L|55:278,1,149.999990463257,2|10,1:2|1:2,0:0:0:0:
168,308,61419,2,0,L|160:158,1,149.999990463257,0|0,3:0|3:0,0:0:0:0:
216,52,62490,6,0,B|289:67|289:67|386:45,1,149.999990463257,6|8,1:2|0:1,0:0:0:0:
417,75,63294,1,0,1:0:0:0:
474,93,63562,2,0,B|460:168|460:168|465:242,1,149.999990463257,0|8,3:0|0:1,0:0:0:0:
421,283,64365,1,0,0:0:0:0:
378,324,64633,6,0,B|301:323|301:323|229:303,1,149.999990463257,2|8,1:2|0:1,0:0:0:0:
181,268,65437,1,0,0:0:0:0:
170,208,65705,1,0,3:0:0:0:
288,190,66240,1,8,0:1:0:0:
410,175,66776,5,2,1:2:0:0:
350,77,67312,2,0,L|267:80,1,74.9999952316285,8|0,0:1|1:0,0:0:0:0:
216,95,67848,2,0,B|211:171|211:171|225:251,1,149.999990463257,0|8,3:0|0:1,0:0:0:0:
195,297,68651,1,0,0:0:0:0:
158,344,68919,6,0,L|41:356,2,112.499992847443,6|0|0,1:2|0:0|1:0,0:0:0:0:
273,205,70526,2,0,P|330:220|423:225,1,149.999990463257,2|6,0:0|1:2,0:0:0:0:
256,192,78562,12,6,79633,1:2:0:0:
256,106,87133,6,0,P|199:102|144:110,1,112.499992847443,2|2,1:1|1:1,0:0:0:0:
211,244,88205,6,0,P|336:237|383:224,1,149.999990463257,6|0,1:2|0:0,0:0:0:0:
352,111,89276,2,0,P|278:97|203:98,1,149.999990463257,2|0,1:2|0:0,0:0:0:0:
93,147,90348,2,0,B|58:237|111:207|78:298,1,149.999990463257,2|0,1:2|0:0,0:0:0:0:
199,283,91419,2,0,B|230:197|177:227|212:137,1,149.999990463257,2|10,1:2|0:0,0:0:0:0:
182,21,92490,6,0,P|271:47|340:48,1,149.999990463257,6|8,1:2|0:0,0:0:0:0:
382,74,93294,1,0,0:0:0:0:
436,99,93562,2,0,P|429:177|408:279,1,149.999990463257,0|8,1:0|0:0,0:0:0:0:
371,288,94365,1,0,1:0:0:0:
319,319,94633,6,0,P|263:320|221:313,1,74.9999952316285,0|0,1:0|0:0,0:0:0:0:
200,275,95169,2,0,P|144:274|102:281,1,74.9999952316285,8|6,0:0|1:2,0:0:0:0:
46,114,96240,2,0,P|40:173|44:205,2,74.9999952316285,8|4|2,3:3|0:3|1:2,0:0:0:0:
46,114,105348,6,0,P|99:132|199:134,1,149.999990463257,2|2,1:2|1:2,0:0:0:0:
257,236,106419,2,0,P|182:235|110:257,1,149.999990463257,2|2,1:2|1:2,0:0:0:0:
19,335,107490,6,0,P|9:253|13:167,1,149.999990463257,2|2,1:2|1:2,0:0:0:0:
129,205,108562,2,0,P|138:130|137:55,1,149.999990463257,2|2,1:2|1:2,0:0:0:0:
252,23,109633,6,0,P|313:39|408:42,1,149.999990463257,2|2,1:2|1:2,0:0:0:0:
453,69,110437,1,0,0:0:0:0:
507,94,110705,2,0,P|499:216|491:278,1,149.999990463257,2|2,1:2|1:2,0:0:0:0:
447,279,111508,1,0,0:0:0:0:
400,316,111776,6,0,P|366:317|311:314,1,74.9999952316285,2|0,1:2|0:0,0:0:0:0:
285,270,112312,2,0,P|251:268|196:272,1,74.9999952316285,2|0,1:2|0:0,0:0:0:0:
155,296,112848,2,0,P|106:299|20:230,1,149.999990463257,8|8,0:1|0:1,0:0:0:0:
130,183,113919,6,0,P|137:121|119:16,1,149.999990463257,6|8,1:2|0:1,0:0:0:0:
178,7,114723,1,0,1:0:0:0:
233,30,114990,2,0,P|324:49|408:42,1,149.999990463257,0|8,3:0|0:1,0:0:0:0:
437,26,115794,1,0,0:0:0:0:
497,27,116062,6,0,P|508:82|501:190,1,149.999990463257,2|8,1:2|0:1,0:0:0:0:
477,229,116865,1,0,1:0:0:0:
487,288,117133,1,0,3:0:0:0:
372,325,117669,1,8,0:1:0:0:
258,355,118205,6,0,P|185:342|90:356,1,149.999990463257,6|8,1:2|0:1,0:0:0:0:
59,317,119008,1,0,1:0:0:0:
8,284,119276,2,0,P|22:214|56:105,1,149.999990463257,0|8,3:0|0:1,0:0:0:0:
103,131,120080,1,0,0:0:0:0:
162,125,120348,6,0,P|236:129|342:158,1,149.999990463257,2|10,1:2|1:2,0:0:0:0:
370,42,121419,2,0,P|295:37|222:20,1,149.999990463257,0|0,3:0|3:0,0:0:0:0:
132,99,122490,6,0,B|125:181|157:165|151:259,1,149.999990463257,6|8,1:2|0:1,0:0:0:0:
140,305,123294,1,0,1:0:0:0:
124,362,123562,2,0,P|176:329|274:342,1,149.999990463257,0|8,3:0|0:1,0:0:0:0:
315,362,124365,1,0,0:0:0:0:
373,347,124633,6,0,P|394:263|399:168,1,149.999990463257,2|8,1:2|0:1,0:0:0:0:
342,180,125437,1,0,0:0:0:0:
282,169,125705,1,0,3:0:0:0:
222,273,126240,1,8,0:1:0:0:
149,370,126776,5,2,1:2:0:0:
119,253,127312,2,0,L|44:255,1,74.9999952316285,8|0,0:1|1:0,0:0:0:0:
1,212,127848,2,0,P|24:148|39:51,1,149.999990463257,0|8,3:0|0:1,0:0:0:0:
83,28,128651,1,0,0:0:0:0:
142,35,128919,6,0,L|253:23,2,112.499992847443,6|0|0,1:2|0:0|1:0,0:0:0:0:
220,197,130526,2,0,B|292:214|292:214|371:207,1,149.999990463257,8|2,0:3|1:2,0:0:0:0:
252,192,148205,6,0,P|308:212|432:212,1,149.999990463257,6|8,1:2|0:0,0:0:0:0:
451,191,149008,2,0,B|462:116|462:116|452:32,1,149.999990463257
400,13,149812,1,8,0:0:0:0:
345,37,150080,1,0,0:0:0:0:
286,25,150348,6,0,P|228:27|133:54,1,149.999990463257,2|8,1:2|0:0,0:0:0:0:
95,91,151151,1,0,1:0:0:0:
177,178,151687,2,0,B|186:255|186:255|173:327,1,149.999990463257,2|2,0:0|0:0,0:0:0:0:
211,373,152490,6,0,L|314:371,1,74.9999952316285,2|0,1:2|0:0,0:0:0:0:
341,348,153026,1,8,0:0:0:0:
398,364,153294,2,0,P|416:305|412:207,1,149.999990463257,0|0,0:0|0:1,0:0:0:0:
381,166,154098,2,0,L|387:82,1,74.9999952316285,8|0,0:0|0:0,0:0:0:0:
361,36,154633,6,0,B|260:43|260:43|218:30|218:30|55:42,1,299.999980926514,2|2,1:2|0:2,0:0:0:0:
19,153,156240,2,0,L|24:244,1,74.9999952316285,0|0,1:0|0:0,0:0:0:0:
23,227,156776,5,6,1:2:0:0:
118,300,157312,1,10,0:0:0:0:
232,273,157848,1,2,1:2:0:0:
344,315,158383,1,8,0:0:0:0:
443,248,158919,6,0,L|439:67,1,149.999990463257,2|8,1:2|0:0,0:0:0:0:
398,53,159723,2,0,L|236:72,1,149.999990463257,0|2,1:0|0:0,0:0:0:0:
192,89,160526,2,0,L|206:177,1,74.9999952316285,2|2,1:2|0:0,0:0:0:0:
183,219,161062,6,0,P|109:201|26:207,1,149.999990463257,2|8,1:2|0:0,0:0:0:0:
18,319,162133,2,0,B|89:338|89:338|164:328,1,149.999990463257,2|8,1:2|0:0,0:0:0:0:
284,318,163205,6,0,L|440:328,2,149.999990463257,2|8|2,1:2|0:0|0:0,0:0:0:0:
181,260,164812,2,0,L|185:161,2,74.9999952316285,0|0|2,1:0|0:0|1:2,0:0:0:0:
39,124,173919,6,0,P|111:127|210:119,3,149.999990463257,2|2|2|2,1:2|1:2|1:2|1:2,0:0:0:0:
266,30,176062,2,0,P|338:27|437:35,3,149.999990463257,2|2|2|2,1:2|1:2|1:2|1:2,0:0:0:0:
490,125,178205,6,0,P|489:196|307:165,2,299.999980926514,2|2|2,0:0|0:0|0:0,0:0:0:0:
256,192,195348,12,2,197490,0:0:0:0:
139,253,199633,6,0,B|179:274|221:273|221:273|264:242|264:242|295:260|349:254,1,224.999985694886,6|0,1:2|1:0,0:0:0:0:
397,219,200705,2,0,L|393:57,1,149.999990463257,0|8,3:0|0:1,0:0:0:0:
341,38,201508,1,0,0:0:0:0:
282,49,201776,6,0,B|235:59|202:84|202:84|121:70,1,149.999990463257,2|8,1:2|0:1,0:0:0:0:
65,167,202848,2,0,B|112:177|145:202|145:202|226:188,1,149.999990463257,0|8,3:0|0:1,0:0:0:0:
259,218,203651,1,0,0:0:0:0:
319,218,203919,6,0,B|374:194|445:199|445:199|468:165|447:99,1,224.999985694886,6|0,1:2|1:0,0:0:0:0:
419,53,204990,2,0,L|251:47,1,149.999990463257,0|8,3:0|0:1,0:0:0:0:
209,40,205794,1,0,0:0:0:0:
155,66,206062,6,0,B|145:105|145:105|156:132|156:132|149:162|144:223,1,149.999990463257,2|10,1:2|1:2,0:0:0:0:
246,275,207133,2,0,B|256:236|256:236|245:209|245:209|252:179|257:118,1,149.999990463257,0|0,3:0|3:0,0:0:0:0:
309,102,207937,1,8,0:3:0:0:
368,112,208205,6,0,B|396:163|374:221|374:221|393:271|361:334,1,224.999985694886,6|0,1:2|1:0,0:0:0:0:
309,355,209276,2,0,L|149:334,1,149.999990463257,0|8,3:0|0:1,0:0:0:0:
110,301,210080,1,0,0:0:0:0:
50,307,210348,6,0,B|50:263|50:263|62:236|45:212|45:212|51:185|51:185|66:149,1,149.999990463257,2|8,1:2|0:1,0:0:0:0:
172,206,211419,2,0,B|181:183|181:183|187:156|187:156|170:132|182:105|182:105|182:61,1,149.999990463257,0|8,3:0|0:1,0:0:0:0:
225,19,212223,1,0,0:0:0:0:
282,36,212490,6,0,P|336:50|386:54,1,74.9999952316285,2|0,1:2|0:0,0:0:0:0:
414,40,213026,2,0,L|404:203,1,149.999990463257,8|0,0:1|3:0,0:0:0:0:
371,239,213830,1,2,0:3:0:0:
326,279,214098,2,0,L|221:268,1,74.9999952316285,8|0,0:1|1:0,0:0:0:0:
199,240,214633,6,0,B|100:221|100:221|107:245|97:301,1,149.999990463257,6|8,1:2|1:1,0:0:0:0:
75,324,215437,2,0,L|244:349,1,149.999990463257,0|0,1:0|1:0,0:0:0:0:
281,361,216240,2,0,L|290:256,2,74.9999952316285,8|8|6,0:3|0:3|1:2,0:0:0:0:
389,63,220526,5,6,2:0:0:0:
285,124,221062,2,0,L|106:116,1,149.999990463257,6|8,1:2|0:0,0:0:0:0:
111,235,222133,2,0,L|260:241,1,149.999990463257,2|8,1:2|0:0,0:0:0:0:
313,270,222937,1,0,0:0:0:0:
367,295,223205,6,0,L|362:121,1,149.999990463257,2|8,1:2|0:0,0:0:0:0:
324,98,224008,1,2,1:1:0:0:
287,49,224276,2,0,L|458:47,1,149.999990463257,2|2,0:0|1:2,0:0:0:0:
512,143,225348,6,0,L|362:144,1,149.999990463257,2|8,1:2|0:0,0:0:0:0:
315,255,226419,2,0,L|165:256,1,149.999990463257,2|8,1:2|0:0,0:0:0:0:
105,251,227223,1,0,0:0:0:0:
45,242,227490,6,0,L|55:91,1,149.999990463257,2|8,1:2|0:0,0:0:0:0:
101,54,228294,1,2,1:1:0:0:
150,20,228562,2,0,L|301:28,2,149.999990463257,2|10|6,0:0|0:0|0:2,0:0:0:0:
