osu file format v14

[General]
AudioFilename: audio.mp3
AudioLeadIn: 0
PreviewTime:348
Countdown: 0
SampleSet: Soft
StackLeniency: 0.5
Mode: 0
LetterboxInBreaks: 0
WidescreenStoryboard: 1

[Editor]
Bookmarks: 19633
DistanceSpacing: 1
BeatDivisor: 8
GridSize: 4
TimelineZoom: 1

[Metadata]
Title:Betrayal
TitleUnicode:Betrayal
Artist:Ruler (CV: Hikasa Youko) x Swim Swim (CV: Minase Inori)
ArtistUnicode:ルーラ(CV: 日笠陽子)×スイムスイム(CV: 水瀬いのり)
Creator:VINXIS
Version:Insane
Source:魔法少女育成計画
Tags:Mahou Shoujo Ikusei Keikaku Magical Girl Raising Project まほいく Mahoiku japanese anime やいり yairi キャラクターソングアルバム character song album musica magica track # 4 #4 number 2016 ムジカ マギカ jpop j-pop pop
BeatmapID:1280060
BeatmapSetID:555864

[Difficulty]
HPDrainRate:5
CircleSize:3.6
OverallDifficulty:7.5
ApproachRate:8
SliderMultiplier:2.9
SliderTickRate:1

[Events]
//Background and Video events
0,0,"51078930_p0.jpg",0,0
//Break Periods
2,71262,77812
2,131262,136740
2,139833,143169
2,182490,190312
//Storyboard Layer 0 (Background)
//Storyboard Layer 1 (Fail)
//Storyboard Layer 2 (Pass)
//Storyboard Layer 3 (Foreground)
//Storyboard Layer 4 (Overlay)
//Storyboard Sound Samples

[TimingPoints]
348,535.714285714286,4,2,1,25,1,0
2490,-200,4,2,1,25,0,0
6776,-111.111111111111,4,2,1,30,0,0
9723,-200,4,2,1,30,0,0
11062,-111.111111111111,4,2,1,40,0,0
14008,-90.9090909090908,4,2,1,40,0,0
14276,-125,4,2,1,40,0,0
15348,-111.111111111111,4,2,1,40,0,0
18294,-90.9090909090908,4,2,1,40,0,0
18562,-125,4,2,1,40,0,0
19633,-142.857142857143,4,2,1,35,0,0
23383,-200,4,2,1,35,0,0
23919,-142.857142857143,4,2,1,35,0,0
27133,-90.9090909090908,4,2,1,45,0,0
27535,-200,4,2,1,45,0,0
27602,-200,4,2,0,5,0,0
28205,-125,4,2,1,40,0,0
32490,-125,4,2,1,45,0,0
35437,-166.666666666667,4,2,1,45,0,0
36776,-166.666666666667,4,2,1,30,0,0
42401,-142.857142857143,4,2,1,30,0,0
42669,-125,4,2,1,30,0,0
42937,-111.111111111111,4,2,1,30,0,0
43205,-166.666666666667,4,2,1,30,0,0
44544,-142.857142857143,4,2,1,30,0,0
44812,-125,4,2,1,30,0,0
45080,-111.111111111111,4,2,1,30,0,0
45348,-166.666666666667,4,2,1,30,0,0
53919,-90.9090909090908,4,2,1,50,0,1
55794,-133.333333333333,4,2,1,50,0,1
56062,-90.9090909090908,4,2,1,50,0,1
57937,-133.333333333333,4,2,1,50,0,1
58205,-90.9090909090908,4,2,1,50,0,1
60080,-133.333333333333,4,2,1,50,0,1
60348,-90.9090909090908,4,2,1,50,0,1
61419,-111.111111111111,4,2,1,50,0,1
62490,-90.9090909090908,4,2,1,50,0,1
64365,-133.333333333333,4,2,1,50,0,1
64633,-90.9090909090908,4,2,1,50,0,1
68651,-133.333333333333,4,2,1,50,0,1
68919,-90.9090909090908,4,2,1,50,0,1
69990,-111.111111111111,4,2,1,50,0,1
70526,-166.666666666667,4,2,1,40,0,1
71062,-111.111111111111,4,2,1,40,0,0
79633,-142.857142857143,4,2,1,40,0,0
87133,-90.9090909090908,4,2,1,45,0,0
87535,-200,4,2,1,45,0,0
87669,-200,4,2,1,45,0,0
88070,-200,4,2,1,5,0,0
88205,-125,4,2,1,45,0,0
95437,-166.666666666667,4,2,1,40,0,0
96776,-166.666666666667,4,2,1,30,0,0
102401,-142.857142857143,4,2,1,30,0,0
102669,-125,4,2,1,30,0,0
102937,-111.111111111111,4,2,1,30,0,0
103205,-166.666666666667,4,2,1,30,0,0
104544,-142.857142857143,4,2,1,30,0,0
104812,-125,4,2,1,30,0,0
105080,-111.111111111111,4,2,1,30,0,0
105348,-166.666666666666,4,2,1,30,0,0
112848,-166.666666666666,4,2,1,40,0,0
113919,-90.9090909090908,4,2,1,50,0,1
115794,-133.333333333333,4,2,1,50,0,1
116062,-90.9090909090908,4,2,1,50,0,1
117937,-133.333333333333,4,2,1,50,0,1
118205,-90.9090909090908,4,2,1,50,0,1
120080,-133.333333333333,4,2,1,50,0,1
120348,-90.9090909090908,4,2,1,50,0,1
121419,-111.111111111111,4,2,1,50,0,1
122490,-90.9090909090908,4,2,1,50,0,1
124365,-133.333333333333,4,2,1,50,0,1
124633,-90.9090909090908,4,2,1,50,0,1
131062,-142.857142857143,4,2,1,35,0,0
146062,-200,4,2,1,20,0,0
148205,-111.111111111111,4,2,1,40,0,0
165348,-166.666666666666,4,2,1,30,0,0
178205,-166.666666666666,4,2,1,20,0,0
191062,-142.857142857142,4,2,1,20,0,0
195348,-142.857142857142,4,2,1,30,0,0
196419,-142.857142857142,4,2,1,35,0,0
196955,-142.857142857142,4,2,1,40,0,0
197490,-142.857142857142,4,2,1,80,0,0
197624,-142.857142857142,4,2,1,40,0,0
199633,-90.9090909090908,4,2,1,50,0,1
201508,-133.333333333333,4,2,1,50,0,1
201776,-90.9090909090908,4,2,1,50,0,1
203651,-133.333333333333,4,2,1,50,0,1
203919,-90.9090909090908,4,2,1,50,0,1
205526,-133.333333333333,4,2,1,50,0,1
206062,-90.9090909090908,4,2,1,50,0,1
207133,-111.111111111111,4,2,1,50,0,1
208205,-90.9090909090908,4,2,1,50,0,1
210080,-133.333333333333,4,2,1,50,0,1
210348,-90.9090909090908,4,2,1,50,0,1
216776,-133.333333333333,4,2,1,30,0,0
219723,-200,4,2,1,30,0,0
220526,-133.333333333333,4,2,1,40,0,0
221062,-111.111111111111,4,2,1,40,0,0
224008,-90.9090909090908,4,2,1,40,0,0
224276,-125,4,2,1,40,0,0
225348,-111.111111111111,4,2,1,40,0,0
228294,-90.9090909090908,4,2,1,40,0,0
228562,-125,4,2,1,40,0,0
229633,-111.111111111111,4,2,1,30,0,0
231776,-111.111111111111,4,2,1,25,0,0
232580,-200,4,2,1,25,0,0

[Colours]
Combo1 : 210,216,179
Combo2 : 129,46,116
Combo3 : 212,170,125
Combo4 : 68,75,110
Combo5 : 239,208,158
Combo6 : 236,115,87
Combo7 : 144,169,183
Combo8 : 87,70,129

[HitObjects]
300,102,2490,6,0,L|302:146,3,36.25,2|0|0|2,0:0|0:0|0:0|0:0,0:0:0:0:
210,237,3562,6,0,L|207:280,3,36.25,2|0|0|2,0:0|0:0|0:0|0:0,0:0:0:0:
337,306,4633,6,0,L|339:355,3,36.25,2|0|0|2,0:0|0:0|0:0|0:0,0:0:0:0:
330,213,5437,6,0,B|400:200|400:200|472:214,1,145,2|0,0:0|0:0,0:0:0:0:
283,104,6240,2,0,B|249:115|249:115|213:119,1,72.5,2|0,0:0|0:0,0:0:0:0:
97,98,6776,5,2,0:0:0:0:
97,98,6909,1,0,0:0:0:0:
97,98,7043,1,0,0:0:0:0:
97,98,7178,1,0,0:0:0:0:
319,337,7848,5,2,0:0:0:0:
319,337,7982,1,0,0:0:0:0:
319,337,8116,1,0,0:0:0:0:
319,337,8249,1,0,0:0:0:0:
135,77,8919,5,2,0:0:0:0:
135,77,9053,1,0,0:0:0:0:
135,77,9187,1,0,0:0:0:0:
135,77,9321,1,2,0:0:0:0:
264,68,9723,6,0,L|253:221,1,145,2|0,0:0|0:0,0:0:0:0:
366,125,10526,2,0,L|372:38,1,72.5,2|0,0:0|0:0,0:0:0:0:
374,268,11062,5,6,1:2:0:0:
405,277,11195,1,0,0:0:0:0:
437,281,11329,1,0,0:0:0:0:
469,277,11463,1,0,0:0:0:0:
268,307,11865,1,0,0:0:0:0:
291,330,11998,1,0,0:0:0:0:
319,347,12133,5,2,1:2:0:0:
354,359,12266,1,0,0:0:0:0:
269,158,12535,2,0,B|238:166|238:166|208:180,1,65.2499980087281,0|8,1:2|0:0,0:0:0:0:
150,245,12803,2,0,B|145:309|145:309|157:373,1,130.499996017456,2|0,0:0|0:0,0:0:0:0:
270,157,13205,6,0,B|275:93|275:93|263:29,1,130.499996017456,2|0,1:2|0:0,0:0:0:0:
263,29,13606,1,0,0:0:0:0:
263,29,13740,1,8,0:0:0:0:
72,63,14008,6,0,B|111:73|111:73|151:71,1,79.7500024337769,2|0,1:1|0:0,0:0:0:0:
391,27,14276,6,0,B|429:34|429:34|463:53,2,77.3333333333333,2|0|0,0:0|0:0|0:0,0:0:0:0:
321,161,14812,2,0,B|354:143|354:143|392:136,2,77.3333333333333,2|0|0,1:2|0:0|0:0,0:0:0:0:
315,348,15348,5,2,1:2:0:0:
328,319,15481,1,0,0:0:0:0:
347,292,15615,1,0,0:0:0:0:
371,270,15749,1,0,0:0:0:0:
264,240,16151,1,0,0:0:0:0:
278,211,16284,1,0,0:0:0:0:
297,184,16418,5,2,1:2:0:0:
321,162,16552,1,0,0:0:0:0:
176,356,16821,2,0,B|166:326|166:326|162:294,1,65.2499980087281,0|8,0:0|0:0,0:0:0:0:
121,182,17089,2,0,B|185:183|185:183|245:208,1,130.499996017456
276,240,17490,6,0,B|305:254|305:254|337:258,1,65.2499980087281,2|0,1:2|0:0,0:0:0:0:
382,143,17758,2,0,B|350:147|350:147|320:160,1,65.2499980087281,0|0,0:0|1:0,0:0:0:0:
261,342,18026,1,8,0:0:0:0:
458,246,18294,6,0,L|435:342,1,79.7500024337769,2|0,1:1|0:0,0:0:0:0:
383,144,18562,6,0,L|401:68,2,77.3333333333333,2|0|0,0:0|0:0|0:0,0:0:0:0:
276,241,19098,2,0,L|257:316,2,77.3333333333333,10|0|0,0:0|0:0|0:0,0:0:0:0:
240,123,19633,6,0,B|190:112|190:112|140:119,1,101.499996902466,6|0,1:2|0:0,0:0:0:0:
401,68,20169,2,0,B|451:56|451:56|500:64,1,101.499996902466,8|0,0:0|0:0,0:0:0:0:
331,290,20705,2,0,L|325:125,1,152.249995353699,2|0,1:2|0:0,0:0:0:0:
324,27,21240,1,8,0:0:0:0:
324,27,21374,1,0,0:0:0:0:
324,27,21508,1,0,0:0:0:0:
438,149,21776,5,2,1:2:0:0:
216,123,22044,1,0,0:0:0:0:
352,300,22312,1,8,0:0:0:0:
340,77,22580,1,0,0:0:0:0:
210,260,22848,2,0,B|136:274|136:274|61:262,1,152.249995353699,2|0,1:2|0:0,0:0:0:0:
60,261,23383,1,8,0:0:0:0:
240,123,23919,6,0,B|190:112|190:112|140:119,1,101.499996902466,2|0,1:2|0:0,0:0:0:0:
401,68,24455,2,0,B|451:56|451:56|500:64,1,101.499996902466,8|0,0:0|0:0,0:0:0:0:
326,133,24990,2,0,L|331:285,1,152.249995353699,2|0,1:2|0:0,0:0:0:0:
344,384,25525,1,8,0:0:0:0:
344,384,25659,1,0,0:0:0:0:
344,384,25793,1,0,0:0:0:0:
202,212,26062,5,2,1:2:0:0:
421,238,26330,1,0,0:0:0:0:
236,322,26598,1,8,0:0:0:0:
360,153,26865,1,0,0:0:0:0:
145,108,27133,6,0,B|224:121|224:121|297:88,1,159.500004867554,2|0,1:1|0:0,0:0:0:0:
297,89,27535,6,0,B|366:67|366:67|435:99,1,145,2|0,1:1|0:0,0:0:0:0:
431,97,28205,6,0,L|424:279,1,174,6|2,1:2|1:2,0:0:0:0:
189,31,29008,1,0,0:0:0:0:
81,97,29276,6,0,L|88:279,1,174,2|2,1:2|0:0,0:0:0:0:
323,31,30079,1,0,1:0:0:0:
431,97,30348,6,0,L|424:279,1,174,2|2,1:2|1:2,0:0:0:0:
189,31,31151,1,0,0:0:0:0:
81,97,31419,5,2,1:2:0:0:
83,155,31686,1,0,0:0:0:0:
86,213,31954,1,10,0:0:0:0:
88,271,32222,1,0,0:0:0:0:
192,335,32490,6,0,B|276:310|276:310|362:323,1,174,6|0,1:2|0:0,0:0:0:0:
361,322,33026,1,8,0:0:0:0:
495,178,33294,2,0,B|370:186,1,116,0|0,0:0|1:0,0:0:0:0:
133,89,33830,1,0,0:0:0:0:
133,89,33964,1,0,0:0:0:0:
133,89,34098,1,8,0:0:0:0:
165,356,34365,1,0,1:0:0:0:
255,204,34633,6,0,B|261:146|261:146|254:89,2,116,0|0|8,1:0|0:0|0:0,0:0:0:0:
255,204,35437,6,0,B|277:120|277:120|279:33,1,173.999994689942,6|0,1:2|0:0,0:0:0:0:
279,33,36106,2,0,L|245:24,2,21.7499993362427,0|0|0,3:0|3:0|3:0,0:0:0:0:
379,77,36508,1,8,0:3:0:0:
481,27,36776,5,2,1:2:0:0:
406,213,37312,1,2,1:2:0:0:
481,27,37848,5,2,1:2:0:0:
406,213,38115,1,2,0:0:0:0:
481,27,38383,2,0,L|495:88,1,43.4999986724854,2|0,1:2|0:0,0:0:0:0:
406,213,38651,2,0,L|415:170,1,43.4999986724854,2|0,0:0|0:0,0:0:0:0:
502,350,38919,5,2,1:2:0:0:
273,283,39455,1,2,1:2:0:0:
502,350,39990,5,2,1:2:0:0:
273,283,40258,1,2,0:0:0:0:
502,350,40526,2,0,L|441:337,1,43.4999986724854,2|0,1:2|0:0,0:0:0:0:
273,283,40794,2,0,L|334:270,1,43.4999986724854,2|0,0:0|0:0,0:0:0:0:
55,351,41062,5,2,1:2:0:0:
120,293,41330,1,0,0:0:0:0:
139,164,41598,1,2,1:2:0:0:
285,70,41865,1,0,0:0:0:0:
285,70,42133,6,0,L|326:95,1,43.4999986724854,2|0,1:2|0:0,0:0:0:0:
139,164,42401,6,0,L|94:137,1,50.749998451233,2|0,0:0|0:0,0:0:0:0:
120,293,42669,6,0,L|175:326,1,58,2|0,1:2|0:0,0:0:0:0:
55,351,42937,6,0,L|0:318,1,65.2499980087281,2|0,0:0|0:0,0:0:0:0:
325,282,43205,5,2,1:2:0:0:
260,224,43473,1,0,0:0:0:0:
241,95,43741,1,2,1:2:0:0:
95,1,44008,1,0,0:0:0:0:
95,1,44276,6,0,L|54:26,1,43.4999986724854,2|0,1:2|0:0,0:0:0:0:
241,95,44544,6,0,L|287:68,1,50.749998451233,2|0,0:0|0:0,0:0:0:0:
260,224,44812,6,0,L|206:257,1,58,2|0,1:2|0:0,0:0:0:0:
325,282,45080,6,0,L|381:249,1,65.2499980087281,2|0,0:0|0:0,0:0:0:0:
47,296,45348,6,0,L|47:113,1,173.999994689942,2|2,1:2|1:2,0:0:0:0:
47,296,46419,6,0,B|55:233|55:233|38:191|38:191|48:115,1,173.999994689942,2|2,1:2|1:2,0:0:0:0:
465,296,47490,6,0,B|457:233|457:233|474:191|474:191|464:115,1,173.999994689942,2|2,1:2|1:2,0:0:0:0:
465,296,48562,6,0,L|465:113,1,173.999994689942,2|2,1:2|1:2,0:0:0:0:
256,192,49633,5,2,0:0:0:0:
256,192,50437,5,0,0:0:0:0:
256,192,50705,1,2,0:0:0:0:
256,192,51508,5,0,0:0:0:0:
256,192,51776,1,2,0:0:0:0:
117,138,53919,6,0,B|192:111|192:111|271:122,1,159.500004867554,6|0,1:2|0:0,0:0:0:0:
509,251,54455,2,0,B|429:262|429:262|355:234,1,159.500004867554,8|0,0:1|1:0,0:0:0:0:
328,222,54856,1,0,3:0:0:0:
328,222,54990,2,0,B|341:301|341:301|314:378,1,159.500004867554,0|0,3:0|3:0,0:0:0:0:
443,165,55526,1,8,0:1:0:0:
198,260,55794,1,0,0:0:0:0:
198,260,56062,6,0,B|180:183|180:183|186:102,1,159.500004867554,2|0,1:2|0:0,0:0:0:0:
319,376,56598,2,0,B|337:299|337:299|330:218,1,159.500004867554,8|0,0:1|1:0,0:0:0:0:
327,185,56999,1,0,3:0:0:0:
327,185,57133,2,0,B|320:146|320:146|333:96,2,79.7500024337769,0|0|0,3:0|3:0|0:0,0:0:0:0:
327,185,57669,2,0,B|296:112|296:112|317:25,1,159.500004867554,8|0,0:1|0:0,0:0:0:0:
134,347,58205,6,0,B|212:362|212:362|301:325,1,159.500004867554,6|0,1:2|0:0,0:0:0:0:
478,200,58740,2,0,B|404:169|404:169|326:184,1,159.500004867554,8|0,0:1|1:0,0:0:0:0:
303,198,59142,1,0,3:0:0:0:
303,198,59276,2,0,B|327:121|327:121|295:46,1,159.500004867554,0|0,3:0|3:0,0:0:0:0:
21,50,59812,1,8,0:1:0:0:
239,124,60080,1,0,0:0:0:0:
56,280,60348,6,0,B|51:203|51:203|72:124,1,159.500004867554,2|0,1:2|0:0,0:0:0:0:
463,266,60883,2,0,B|468:188|468:188|447:109,1,159.500004867554,10|0,1:2|0:0,0:0:0:0:
436,88,61285,1,0,3:0:0:0:
436,88,61419,6,0,B|427:57|427:57|428:23,2,65.2499980087281,0|0|0,3:0|0:0|1:0,0:0:0:0:
324,197,61821,1,0,3:0:0:0:
324,197,61955,6,0,B|334:165|334:165|331:133,1,65.2499980087281,0|8,3:0|0:3,0:0:0:0:
470,202,62223,2,0,B|460:234|460:234|462:265,1,65.2499980087281,8|8,0:3|0:3,0:0:0:0:
354,331,62490,6,0,B|276:350|276:350|208:307,1,159.500004867554,6|0,1:2|0:0,0:0:0:0:
208,76,63026,2,0,B|276:34|276:34|354:53,1,159.500004867554,8|0,0:1|1:0,0:0:0:0:
384,66,63428,1,0,3:0:0:0:
384,66,63562,2,0,B|338:130|338:130|331:214,1,159.500004867554,0|0,3:0|3:0,0:0:0:0:
331,210,63964,1,0,3:0:0:0:
331,210,64098,1,8,0:1:0:0:
88,187,64365,1,0,0:0:0:0:
88,187,64499,1,0,0:0:0:0:
88,187,64633,6,0,B|168:195|168:195|245:178,2,159.500004867554,2|0|8,1:2|0:0|0:1,0:0:0:0:
194,308,65437,2,0,B|230:292|230:292|262:269,1,79.7500024337769,0|0,0:0|3:0,0:0:0:0:
262,268,65705,1,0,3:0:0:0:
262,268,65839,1,0,3:0:0:0:
261,18,66240,2,0,L|243:184,1,159.500004867554,8|0,0:1|0:0,0:0:0:0:
217,384,66776,5,2,1:2:0:0:
407,18,67312,2,0,L|425:184,1,159.500004867554,8|0,0:1|1:0,0:0:0:0:
424,176,67714,1,0,3:0:0:0:
424,176,67848,1,0,3:0:0:0:
451,384,68115,1,0,3:0:0:0:
268,301,68383,1,8,0:1:0:0:
431,184,68651,2,0,L|427:259,1,54.3750020742417
268,301,68919,6,0,L|276:132,1,159.500004867554,6|0,1:2|0:0,0:0:0:0:
276,141,69321,1,0,0:0:0:0:
276,141,69455,1,8,1:1:0:0:
179,331,69723,1,0,1:0:0:0:
179,331,69856,1,0,3:0:0:0:
179,331,69990,6,0,B|84:356|84:356|3:303,1,195.749994026184,0|0,3:0|0:0,0:0:0:0:
2,302,70526,6,0,L|16:165,1,130.499996017456,2|0,0:0|0:0,0:0:0:0:
15,172,71062,5,6,1:2:0:0:
256,192,78562,12,0,79455,1:2:0:0:
91,297,79633,6,0,P|139:283|189:289,1,101.499996902466,6|0,1:2|0:0,0:0:0:0:
368,206,80169,2,0,P|318:212|269:198,1,101.499996902466,8|0,0:0|0:0,0:0:0:0:
224,119,80705,2,0,L|226:283,1,152.249995353699,2|0,1:2|0:0,0:0:0:0:
237,376,81240,1,8,0:0:0:0:
237,376,81374,1,0,0:0:0:0:
237,376,81508,1,0,0:0:0:0:
333,131,81776,5,2,1:2:0:0:
125,191,82044,1,0,0:0:0:0:
333,251,82312,1,8,0:0:0:0:
125,191,82580,1,0,0:0:0:0:
333,131,82848,6,0,P|403:121|488:130,1,152.249995353699,2|0,1:2|0:0,0:0:0:0:
498,150,83383,2,0,L|493:178,1,25.3749992256165,8|0,0:0|0:0,0:0:0:0:
90,297,83919,6,0,P|139:282|189:289,1,101.499996902466,2|0,1:2|0:0,0:0:0:0:
368,206,84455,2,0,P|318:211|270:198,1,101.499996902466,8|0,0:0|0:0,0:0:0:0:
225,271,84991,2,0,L|224:119,1,152.249995353699,2|0,1:2|0:0,0:0:0:0:
228,25,85526,1,8,0:0:0:0:
228,25,85660,1,0,0:0:0:0:
228,25,85794,1,0,0:0:0:0:
114,186,86062,5,2,1:2:0:0:
325,190,86330,1,0,0:0:0:0:
202,119,86598,1,8,0:0:0:0:
203,271,86865,1,0,0:0:0:0:
203,271,86999,1,0,0:0:0:0:
203,271,87133,2,0,P|277:295|354:276,1,159.500004867554,2|0,1:1|0:0,0:0:0:0:
355,276,87535,6,0,P|429:251|503:267,1,145,2|0,1:1|0:0,0:0:0:0:
494,263,88205,6,0,P|473:178|486:93,1,174,6|2,1:2|1:2,0:0:0:0:
189,353,89008,1,0,0:0:0:0:
19,260,89276,6,0,P|39:176|27:91,1,174,2|2,1:2|0:0,0:0:0:0:
323,353,90079,1,0,1:0:0:0:
491,260,90348,6,0,P|471:177|483:91,1,174,2|2,1:2|1:2,0:0:0:0:
189,353,91151,1,0,0:0:0:0:
19,260,91419,5,2,1:2:0:0:
36,205,91687,1,0,0:0:0:0:
39,147,91955,1,10,0:0:0:0:
27,91,92223,1,0,0:0:0:0:
192,49,92490,6,0,P|275:77|362:61,1,174,6|0,1:2|0:0,0:0:0:0:
358,62,93026,1,8,0:0:0:0:
39,147,93294,2,0,B|164:139,1,116,0|0,0:0|1:0,0:0:0:0:
133,295,93830,1,0,0:0:0:0:
133,295,93964,1,0,0:0:0:0:
133,295,94098,1,8,0:0:0:0:
165,28,94365,1,0,1:0:0:0:
255,180,94633,6,0,P|268:238|254:295,2,116,0|0|8,1:0|0:0|0:0,0:0:0:0:
256,179,95437,6,0,P|290:265|286:356,1,173.999994689942,6|0,1:2|0:0,0:0:0:0:
101,186,96240,1,8,3:3:0:0:
247,81,96508,1,4,0:3:0:0:
31,27,96776,5,2,1:2:0:0:
106,213,97312,1,2,1:2:0:0:
31,27,97848,5,2,1:2:0:0:
106,213,98115,1,2,0:0:0:0:
31,27,98383,2,0,L|17:88,1,43.4999986724854,2|0,1:2|0:0,0:0:0:0:
106,213,98651,2,0,L|97:170,1,43.4999986724854,2|0,0:0|0:0,0:0:0:0:
10,350,98919,5,2,1:2:0:0:
239,283,99455,1,2,1:2:0:0:
10,350,99990,5,2,1:2:0:0:
239,283,100258,1,2,0:0:0:0:
10,350,100526,2,0,L|71:337,1,43.4999986724854,2|0,1:2|0:0,0:0:0:0:
239,283,100794,2,0,L|178:270,1,43.4999986724854,2|0,0:0|0:0,0:0:0:0:
106,213,101062,5,2,1:2:0:0:
135,100,101330,1,0,0:0:0:0:
235,42,101598,1,2,1:2:0:0:
347,71,101865,1,0,0:0:0:0:
347,71,102133,6,0,P|338:51|325:33,1,43.4999986724854,2|0,1:2|0:0,0:0:0:0:
235,42,102401,6,0,P|215:35|183:31,1,50.749998451233,2|0,0:0|0:0,0:0:0:0:
135,100,102669,6,0,P|115:109|83:137,1,58,2|0,1:2|0:0,0:0:0:0:
105,213,102937,6,0,P|98:233|97:286,1,65.2499980087281,2|0,0:0|0:0,0:0:0:0:
376,242,103205,5,2,1:2:0:0:
347,130,103473,1,0,0:0:0:0:
247,71,103741,1,2,1:2:0:0:
135,100,104008,1,0,0:0:0:0:
135,100,104276,6,0,P|143:80|156:62,1,43.4999986724854,2|0,1:2|0:0,0:0:0:0:
247,71,104544,6,0,P|267:63|299:59,1,50.749998451233,2|0,0:0|0:0,0:0:0:0:
347,130,104812,6,0,P|366:138|399:166,1,58,2|0,1:2|0:0,0:0:0:0:
376,242,105080,6,0,P|383:262|384:314,1,65.2499980087281,2|0,0:0|0:0,0:0:0:0:
47,296,105348,6,0,L|47:113,1,173.999994689942,2|2,1:2|1:2,0:0:0:0:
47,296,106419,6,0,B|65:182|30:232|48:115,1,173.999994689942,2|2,1:2|1:2,0:0:0:0:
465,296,107490,6,0,B|447:182|482:232|464:115,1,173.999994689942,2|2,1:2|1:2,0:0:0:0:
465,296,108562,6,0,L|465:113,1,173.999994689942,2|2,1:2|1:2,0:0:0:0:
256,192,109633,5,2,1:2:0:0:
163,101,109901,1,0,0:0:0:0:
349,101,110169,1,2,1:2:0:0:
256,192,110437,5,0,0:0:0:0:
256,192,110705,1,2,1:2:0:0:
163,283,110973,1,0,0:0:0:0:
349,283,111241,1,2,1:2:0:0:
256,192,111508,5,0,0:0:0:0:
256,192,111776,1,2,1:2:0:0:
117,192,112044,1,0,0:0:0:0:
394,192,112312,1,2,1:2:0:0:
256,192,112580,1,0,0:0:0:0:
256,340,112848,5,8,0:1:0:0:
256,44,113115,1,0,1:0:0:0:
256,44,113249,1,0,1:0:0:0:
256,44,113383,1,8,0:1:0:0:
328,152,113651,1,0,1:0:0:0:
131,233,113919,6,0,P|115:172|146:72,1,159.500004867554,6|0,1:2|0:0,0:0:0:0:
321,0,114455,2,0,P|345:74|329:152,1,159.500004867554,8|0,0:1|1:0,0:0:0:0:
297,168,114856,1,0,3:0:0:0:
297,168,114990,2,0,P|351:202|453:195,1,159.500004867554,0|0,3:0|3:0,0:0:0:0:
237,271,115526,1,8,0:1:0:0:
321,0,115794,1,0,0:0:0:0:
321,0,116062,6,0,P|241:6|169:37,1,159.500004867554,2|0,1:2|0:0,0:0:0:0:
0,122,116598,2,0,P|72:153|151:159,1,159.500004867554,8|0,0:1|1:0,0:0:0:0:
187,143,116999,1,0,3:0:0:0:
187,143,117133,2,0,P|251:146|286:156,2,79.7500024337769,0|0|0,3:0|3:0|0:0,0:0:0:0:
187,143,117669,2,0,P|270:119|368:124,1,159.500004867554,8|0,0:1|0:0,0:0:0:0:
119,262,118205,6,0,P|96:185|94:106,1,159.500004867554,6|0,1:2|0:0,0:0:0:0:
342,119,118740,2,0,P|339:198|317:274,1,159.500004867554,8|0,0:1|1:0,0:0:0:0:
308,302,119142,1,0,3:0:0:0:
308,302,119276,2,0,P|231:317|153:286,1,159.500004867554,0|0,3:0|3:0,0:0:0:0:
202,45,119812,1,8,0:1:0:0:
237,224,120080,1,0,0:0:0:0:
359,37,120348,6,0,P|280:30|202:45,1,159.500004867554,2|0,1:2|0:0,0:0:0:0:
359,346,120883,2,0,P|280:353|201:338,1,159.500004867554,10|0,1:2|0:0,0:0:0:0:
178,323,121285,1,0,3:0:0:0:
178,323,121419,6,0,P|164:293|160:261,2,65.2499980087281,0|0|0,3:0|0:0|1:0,0:0:0:0:
86,218,121821,1,0,3:0:0:0:
86,218,121955,6,0,P|88:185|101:155,1,65.2499980087281,0|8,3:0|0:3,0:0:0:0:
58,81,122223,2,0,P|76:54|102:34,1,65.2499980087281,8|8,0:3|0:3,0:0:0:0:
207,7,122490,6,0,P|287:14|359:46,1,159.500004867554,6|0,1:2|0:0,0:0:0:0:
512,194,123026,2,0,P|432:187|360:155,1,159.500004867554,8|0,0:1|1:0,0:0:0:0:
330,134,123428,1,0,3:0:0:0:
330,134,123562,2,0,P|345:213|313:285,1,159.500004867554,0|0,3:0|3:0,0:0:0:0:
314,283,123964,1,0,3:0:0:0:
314,283,124098,1,8,0:1:0:0:
92,288,124365,1,0,0:0:0:0:
92,288,124499,1,0,0:0:0:0:
92,288,124633,6,0,P|170:296|251:259,2,159.500004867554,2|0|8,1:2|0:0|0:1,0:0:0:0:
304,319,125437,2,0,P|325:286|322:245,1,79.7500024337769,0|0,0:0|3:0,0:0:0:0:
322,246,125705,1,0,3:0:0:0:
322,246,125839,1,0,3:0:0:0:
253,18,126240,2,0,L|271:184,1,159.500004867554,8|0,0:1|0:0,0:0:0:0:
297,384,126776,5,2,1:2:0:0:
107,18,127312,2,0,L|89:184,1,159.500004867554,8|0,0:1|1:0,0:0:0:0:
90,176,127714,1,0,3:0:0:0:
90,176,127848,1,0,3:0:0:0:
63,384,128115,1,0,3:0:0:0:
246,301,128383,1,8,0:1:0:0:
97,183,128651,2,0,L|101:269,1,79.7500024337769
246,301,128919,6,0,L|238:132,1,159.500004867554,6|0,1:2|0:0,0:0:0:0:
238,141,129321,1,0,0:0:0:0:
238,141,129455,1,8,1:1:0:0:
63,44,129723,1,0,1:0:0:0:
63,44,129856,1,0,3:0:0:0:
63,44,129990,6,0,P|126:56|251:30,2,159.500004867554,0|0|8,3:0|1:0|0:3,0:0:0:0:
248,26,130794,1,8,0:3:0:0:
152,197,131062,5,2,1:2:0:0:
367,192,137490,5,2,1:2:0:0:
311,288,137758,1,0,0:0:0:0:
144,191,138026,1,2,1:2:0:0:
200,95,138294,1,0,0:0:0:0:
200,288,138562,6,0,L|193:369,1,67.6666646016439,2|0,1:2|1:2,0:0:0:0:
311,95,138919,1,0,1:2:0:0:
311,95,139098,2,0,L|318:14,1,67.6666646016439,2|0,1:2|1:2,0:0:0:0:
256,192,139455,1,0,1:2:0:0:
256,192,139633,5,2,1:2:0:0:
311,95,143919,5,2,1:2:0:0:
367,192,144187,1,0,0:0:0:0:
311,288,144455,1,0,0:0:0:0:
200,288,144723,1,8,0:0:0:0:
144,191,144990,1,8,0:0:0:0:
200,95,145258,1,8,0:0:0:0:
256,196,145526,1,8,0:0:0:0:
256,196,145794,1,8,0:0:0:0:
256,196,146062,6,0,P|256:248|232:344,3,145,4|0|0|0,3:2|3:0|3:0|3:0,0:0:0:0:
198,76,148071,1,0,0:0:0:0:
198,76,148205,6,0,B|259:55|327:75|327:75|388:96|454:71,1,260.999992034912,6|8,1:2|0:0,0:0:0:0:
376,206,149008,1,0,0:0:0:0:
461,372,149276,2,0,B|481:310|481:310|472:245,1,130.499996017456,0|0,1:0|0:0,0:0:0:0:
291,40,149812,2,0,B|271:102|271:102|279:166,1,130.499996017456,8|0,0:0|0:0,0:0:0:0:
212,330,150348,6,0,L|79:319,2,130.499996017456,2|0|8,1:2|0:0|0:0,0:0:0:0:
376,206,151151,2,0,L|86:182,1,260.999992034912,0|2,1:0|0:0,0:0:0:0:
90,166,151821,1,0,0:0:0:0:
79,139,151954,1,2,1:2:0:0:
78,110,152088,1,0,0:0:0:0:
88,83,152222,1,2,0:0:0:0:
106,61,152356,1,0,0:0:0:0:
132,47,152490,5,2,1:2:0:0:
141,303,152758,1,0,0:0:0:0:
380,210,153026,1,8,0:0:0:0:
198,185,153294,2,0,B|253:170|295:206|295:206|297:180|321:125|368:120|424:136,1,260.999992034912,0|0,0:0|0:1,0:0:0:0:
422,103,153964,1,0,1:0:0:0:
425,77,154097,1,8,0:0:0:0:
429,51,154231,1,0,0:0:0:0:
432,25,154365,1,0,0:0:0:0:
380,210,154633,6,0,L|367:308,2,86.9999973449708,2|2|2,1:2|0:1|0:1,0:0:0:0:
246,96,155169,2,0,L|257:9,2,86.9999973449708,8|2|2,0:2|0:1|0:1,0:0:0:0:
313,156,155705,1,2,0:2:0:0:
193,209,155973,1,0,1:1:0:0:
297,285,156240,1,0,1:0:0:0:
178,339,156508,1,0,0:0:0:0:
74,259,156776,5,6,1:2:0:0:
193,209,157044,1,2,0:0:0:0:
196,169,157177,1,0,1:0:0:0:
199,130,157311,1,10,0:0:0:0:
202,91,157445,1,0,0:0:0:0:
389,350,157848,1,2,1:2:0:0:
392,310,157981,1,0,0:0:0:0:
395,271,158115,1,2,0:0:0:0:
398,232,158249,1,0,1:0:0:0:
401,193,158383,1,8,0:0:0:0:
414,9,158651,1,2,0:0:0:0:
414,9,158785,1,0,1:0:0:0:
414,9,158919,5,2,1:2:0:0:
293,105,159187,2,0,B|282:197|282:197|304:260|304:260|289:362,1,260.999992034912,0|0,0:0|1:0,0:0:0:0:
289,360,160258,1,2,0:0:0:0:
295,317,160391,1,0,0:0:0:0:
301,274,160525,1,2,1:2:0:0:
294,232,160659,1,2,0:0:0:0:
282,191,160793,1,2,0:0:0:0:
287,148,160927,1,0,0:0:0:0:
293,104,161062,6,0,P|388:92|474:137,1,195.749994026184,2|0,1:2|0:0,0:0:0:0:
474,246,161598,2,0,P|388:291|293:279,1,195.749994026184,8|0,0:0|0:0,0:0:0:0:
218,190,162133,1,2,1:2:0:0:
131,304,162401,1,2,0:1:0:0:
98,90,162669,1,8,0:0:0:0:
11,204,162937,1,0,0:0:0:0:
11,204,163071,1,0,1:0:0:0:
11,204,163205,5,2,1:2:0:0:
162,159,163473,2,0,B|181:98|181:98|174:32,2,130.499996017456,0|8|0,0:0|0:0|1:0,0:0:0:0:
132,289,164276,2,0,L|278:285,1,130.499996017456,2|2,0:0|1:0,0:0:0:0:
493,279,164812,1,0,1:0:0:0:
493,279,164946,1,0,0:0:0:0:
493,279,165080,1,0,0:0:0:0:
256,192,165348,5,2,1:2:0:0:
256,192,165883,1,0,1:0:0:0:
264,199,166419,5,2,1:2:0:0:
264,199,166687,1,2,0:0:0:0:
264,199,166955,2,0,L|246:276,1,43.4999986724854,2|0,1:2|0:0,0:0:0:0:
264,199,167223,2,0,L|278:139,1,43.4999986724854,2|0,0:0|0:0,0:0:0:0:
177,115,167490,5,2,1:2:0:0:
177,115,168025,1,0,1:0:0:0:
185,122,168561,5,2,1:2:0:0:
185,122,168829,1,2,0:0:0:0:
185,122,169097,2,0,L|167:199,1,43.4999986724854,2|0,1:2|0:0,0:0:0:0:
185,122,169365,2,0,L|197:68,1,43.4999986724854,2|0,0:0|0:0,0:0:0:0:
106,45,169633,5,2,1:2:0:0:
185,122,169901,1,0,0:0:0:0:
256,192,170169,1,0,1:0:0:0:
327,262,170437,1,0,0:0:0:0:
326,262,170705,6,0,P|319:282|310:302,1,43.4999986724854,2|0,1:2|0:0,0:0:0:0:
256,192,170973,2,0,P|263:171|272:151,1,43.4999986724854
185,122,171240,2,0,P|177:142|168:162,1,43.4999986724854,0|0,1:0|0:0,0:0:0:0:
106,45,171508,2,0,P|113:24|122:4,1,43.4999986724854
262,43,171776,5,2,1:2:0:0:
185,122,172044,1,0,0:0:0:0:
115,193,172312,1,0,1:0:0:0:
45,264,172580,1,0,0:0:0:0:
44,263,172848,6,0,P|23:255|3:246,1,43.4999986724854,2|0,1:2|0:0,0:0:0:0:
115,193,173116,2,0,P|135:200|155:209,1,43.4999986724854
185,122,173383,2,0,P|164:114|144:105,1,43.4999986724854,0|0,1:0|0:0,0:0:0:0:
262,43,173651,2,0,P|282:50|302:59,1,43.4999986724854
465,88,173919,6,0,L|465:271,1,173.999994689942,2|2,1:2|1:2,0:0:0:0:
465,88,174991,6,0,B|447:202|482:152|464:269,1,173.999994689942,2|2,1:2|1:2,0:0:0:0:
47,88,176062,6,0,B|65:202|30:152|48:269,1,173.999994689942,2|2,1:2|1:2,0:0:0:0:
47,88,177133,6,0,L|47:271,1,173.999994689942,2|2,1:2|1:2,0:0:0:0:
273,288,178205,6,0,B|276:227|332:192|307:256|422:217|427:94|336:39|272:83|256:120|256:120|231:63|129:53|85:143|135:233|183:228|192:193|250:228|256:296,1,695.999978759766
249,138,191062,6,0,B|148:131|148:131|48:142,1,202.999993804932,2|2,0:0|0:0,0:0:0:0:
46,142,191865,1,0,0:0:0:0:
48,259,192133,2,0,B|149:266|149:266|249:255,1,202.999993804932,2|0,0:0|0:0,0:0:0:0:
250,254,192936,1,0,0:0:0:0:
512,187,193205,2,0,L|309:197,1,202.999993804932,2|2,0:0|0:0,0:0:0:0:
309,196,194008,1,0,0:0:0:0:
323,11,194276,6,0,B|346:58|346:58|337:106,1,101.499996902466,2|0,0:0|0:0,0:0:0:0:
295,383,194812,2,0,B|272:336|272:336|280:287,1,101.499996902466
387,319,195348,5,2,0:0:0:0:
165,351,195615,1,0,0:0:0:0:
0,198,195883,1,10,0:0:0:0:
223,227,196151,1,8,0:0:0:0:
23,316,196419,5,10,0:0:0:0:
122,120,196687,1,8,0:0:0:0:
237,310,196955,1,10,0:0:0:0:
290,93,197223,1,0,0:0:0:0:
131,243,197490,5,2,0:0:0:0:
256,192,197624,12,0,199098,0:0:0:0:
114,118,199633,6,0,B|170:100|231:121|231:121|190:146,1,159.500004867554,6|0,1:2|0:0,0:0:0:0:
419,270,200169,2,0,B|363:288|302:267|302:267|343:242,1,159.500004867554,8|0,0:1|1:0,0:0:0:0:
336,245,200571,1,0,3:0:0:0:
336,245,200705,1,0,3:0:0:0:
238,339,200973,1,2,0:3:0:0:
196,142,201240,1,8,0:1:0:0:
380,98,201508,1,0,0:0:0:0:
114,118,201776,6,0,B|149:140|157:183|157:183|141:226|99:232,1,159.500004867554,2|0,1:2|0:0,0:0:0:0:
223,384,202312,2,0,B|188:362|180:319|180:319|196:276|237:269,1,159.500004867554,8|0,0:1|1:0,0:0:0:0:
264,260,202714,1,0,3:0:0:0:
264,260,202848,2,0,L|360:264,2,79.7500024337769,0|0|0,3:0|3:0|0:0,0:0:0:0:
264,260,203383,2,0,L|450:295,1,159.500004867554,8|0,0:1|0:0,0:0:0:0:
109,227,203919,6,0,B|122:188|120:159|120:159|104:138|79:139|79:139|65:150|63:177,1,159.500004867554,6|0,1:2|0:0,0:0:0:0:
185,2,204455,2,0,B|172:41|174:70|174:70|190:91|215:90|215:90|229:79|232:51,1,159.500004867554,8|0,0:1|1:0,0:0:0:0:
231,52,204856,1,0,3:0:0:0:
231,52,204990,1,0,3:0:0:0:
84,6,205258,1,2,0:3:0:0:
71,200,205526,1,8,0:1:0:0:
270,203,205794,1,0,0:0:0:0:
51,103,206062,6,0,B|98:96|136:108|136:108|155:100|155:100|171:113|205:114,1,159.500004867554,2|0,1:2|0:0,0:0:0:0:
312,286,206598,2,0,B|265:293|227:281|227:281|208:289|208:289|192:276|158:275,1,159.500004867554,10|0,1:2|0:0,0:0:0:0:
126,294,206999,1,0,3:0:0:0:
96,305,207133,6,0,B|55:314|44:312|44:312|4:322,2,65.2499980087281,0|0|0,3:0|0:0|1:0,0:0:0:0:
162,191,207535,1,0,3:0:0:0:
162,191,207669,6,0,B|203:200|214:198|214:198|254:208,1,65.2499980087281,0|8,3:0|0:3,0:0:0:0:
270,90,207937,2,0,B|311:99|322:97|322:97|362:107,1,65.2499980087281,8|8,0:3|0:3,0:0:0:0:
447,49,208205,6,0,B|435:109|453:150|453:150|396:152,1,159.500004867554,6|0,1:2|0:0,0:0:0:0:
246,354,208740,2,0,B|258:294|240:253|240:253|296:250,1,159.500004867554,8|0,0:1|1:0,0:0:0:0:
335,249,209142,1,0,3:0:0:0:
335,249,209276,2,0,L|500:241,1,159.500004867554,0|2,3:0|0:3,0:0:0:0:
351,100,209812,1,8,0:1:0:0:
348,354,210080,1,0,0:0:0:0:
153,218,210348,6,0,L|333:237,2,159.500004867554,2|0|8,1:2|0:0|0:1,0:0:0:0:
62,103,211151,2,0,L|159:92,1,79.7500024337769,0|0,0:0|3:0,0:0:0:0:
141,94,211419,1,0,3:0:0:0:
141,94,211553,1,0,3:0:0:0:
316,0,211955,6,0,B|315:12|318:23|318:23|324:36|319:52|319:52|315:75|324:86|324:86|329:102|328:116|328:116|328:140|333:153|333:153|340:189,1,159.500004867554,8|0,0:1|0:0,0:0:0:0:
364,327,212490,1,2,1:2:0:0:
115,26,213026,2,0,B|116:38|112:48|112:48|107:62|111:77|111:77|116:101|106:111|106:111|101:127|102:141|102:141|102:165|97:178|97:178|91:215,1,159.500004867554,8|0,0:1|1:0,0:0:0:0:
96,182,213428,1,0,3:0:0:0:
96,182,213562,1,0,3:0:0:0:
106,383,213830,1,2,0:3:0:0:
271,224,214098,1,8,0:1:0:0:
104,190,214365,2,0,L|108:265,1,54.3750020742417,0|0,1:0|0:0,0:0:0:0:
279,384,214633,6,0,L|271:215,1,159.500004867554,6|0,1:2|0:0,0:0:0:0:
271,224,215035,1,0,0:0:0:0:
271,224,215169,1,8,1:1:0:0:
140,40,215437,1,0,1:0:0:0:
140,40,215570,1,0,3:0:0:0:
140,40,215705,5,0,3:0:0:0:
371,19,215973,1,0,1:0:0:0:
140,40,216240,5,8,0:3:0:0:
140,40,216374,1,8,0:3:0:0:
140,40,216508,1,8,0:3:0:0:
371,19,216776,5,6,1:2:0:0:
371,19,217312,2,0,P|351:67|355:137,1,108.750004148483
375,334,217848,2,0,P|375:279|355:229,1,108.750004148483
330,227,218249,2,0,L|151:237,1,163.125006222725
13,139,218919,6,0,L|175:129,2,163.125006222725
13,139,220526,6,0,L|206:128,1,163.125006222725,6|0,2:0|0:0,0:0:0:0:
274,144,221062,5,6,1:2:0:0:
271,176,221195,1,0,0:0:0:0:
269,209,221329,1,0,0:0:0:0:
267,241,221463,1,0,0:0:0:0:
142,347,221865,1,0,0:0:0:0:
144,315,221999,1,0,0:0:0:0:
146,282,222133,5,2,1:2:0:0:
149,250,222266,1,0,0:0:0:0:
280,61,222535,2,0,L|275:133,1,65.2499980087281,0|8,1:2|0:0,0:0:0:0:
269,209,222803,2,0,L|259:344,1,130.499996017456
356,384,223205,6,0,L|365:253,1,130.499996017456,2|0,1:2|0:0,0:0:0:0:
365,253,223606,1,0,0:0:0:0:
365,253,223740,1,8,0:0:0:0:
135,155,224008,6,0,L|235:139,1,79.7500024337769,2|0,1:1|0:0,0:0:0:0:
391,39,224276,6,0,L|300:21,2,77.3333333333333,2|0|0,0:0|0:0|0:0,0:0:0:0:
303,138,224812,2,0,L|394:156,2,77.3333333333333,2|0|0,1:2|0:0|0:0,0:0:0:0:
243,263,225348,5,2,1:2:0:0:
211,260,225481,1,0,0:0:0:0:
178,258,225615,1,0,0:2:0:0:
146,256,225749,1,0,0:0:0:0:
40,131,226151,1,0,0:0:0:0:
72,133,226285,1,0,0:0:0:0:
105,135,226419,5,2,1:2:0:0:
137,138,226552,1,0,0:0:0:0:
326,269,226821,2,0,L|254:264,1,65.2499980087281,0|8,0:0|0:0,0:0:0:0:
178,258,227089,2,0,L|42:248,1,130.499996017456
40,131,227491,6,0,L|131:137,1,65.2499980087281,2|0,1:2|0:0,0:0:0:0:
131,365,227758,2,0,L|39:358,1,65.2499980087281,0|0,0:0|1:0,0:0:0:0:
52,253,228026,1,8,0:0:0:0:
52,253,228294,6,0,L|183:263,1,79.7500024337769,2|0,1:1|0:0,0:0:0:0:
326,253,228562,6,0,L|336:370,2,77.3333333333333,2|0|0,0:0|0:0|0:0,0:0:0:0:
236,143,229098,2,0,L|242:65,2,77.3333333333333,10|0|0,0:0|0:0|0:0,0:0:0:0:
227,244,229633,5,6,0:2:0:0:
227,244,229767,1,0,0:0:0:0:
227,244,229901,1,0,0:2:0:0:
227,244,230035,1,0,0:0:0:0:
227,244,230169,2,0,L|211:383,1,130.499996017456,2|0,0:0|0:0,0:0:0:0:
429,226,230705,5,2,0:2:0:0:
429,226,230839,1,0,0:0:0:0:
429,226,230973,1,0,0:2:0:0:
429,226,231107,1,0,0:0:0:0:
428,225,231240,2,0,L|440:121,3,65.2499980087281,2|0|0|0,0:0|0:0|0:0|0:0,0:0:0:0:
303,85,231776,5,2,0:0:0:0:
303,85,231910,1,0,0:0:0:0:
303,85,232044,1,0,0:0:0:0:
303,85,232178,1,2,0:0:0:0:
454,197,232580,2,0,L|304:191,1,145,2|0,0:0|0:0,0:0:0:0:
230,87,233383,2,0,L|333:82,1,72.5,2|0,0:0|0:0,0:0:0:0:
285,244,233919,5,2,0:0:0:0:
285,244,234053,1,0,0:0:0:0:
285,244,234187,1,0,0:0:0:0:
285,244,234321,1,2,0:0:0:0:
285,244,234455,2,0,L|273:346,1,72.5
83,226,234991,5,2,0:0:0:0:
83,226,235125,1,0,0:0:0:0:
83,226,235259,1,0,0:0:0:0:
83,226,235393,1,2,0:0:0:0:
83,226,235526,2,0,L|75:295,3,36.25
167,344,236062,5,2,0:0:0:0:
167,344,236196,1,0,0:0:0:0:
167,344,236330,1,0,0:0:0:0:
167,344,236464,1,2,0:0:0:0:
188,181,236865,2,0,L|338:187,1,145,2|0,0:0|0:0,0:0:0:0:
480,274,237669,1,2,0:0:0:0:
167,344,237937,1,2,0:0:0:0:
