osu file format v14

[General]
AudioFilename: audio.mp3
AudioLeadIn: 0
PreviewTime: 348
Countdown: 0
SampleSet: Soft
StackLeniency: 0.5
Mode: 0
LetterboxInBreaks: 0
WidescreenStoryboard: 1

[Editor]
DistanceSpacing: 1
BeatDivisor: 4
GridSize: 4
TimelineZoom: 1.7

[Metadata]
Title:Betrayal
TitleUnicode:Betrayal
Artist:Ruler (CV: Hikasa Youko) x Swim Swim (CV: Minase Inori)
ArtistUnicode:ルーラ(CV: 日笠陽子)×スイムスイム(CV: 水瀬いのり)
Creator:VINXIS
Version:Extra: Modification
Source:魔法少女育成計画
Tags:Mahou Shoujo Ikusei Keikaku Magical Girl Raising Project まほいく Mahoiku japanese anime やいり yairi キャラクターソングアルバム character song album musica magica track # 4 #4 number 2016 ムジカ マギカ jpop j-pop pop
BeatmapID:1178479
BeatmapSetID:555864

[Difficulty]
HPDrainRate:6
CircleSize:4.3
OverallDifficulty:8.5
ApproachRate:9.2
SliderMultiplier:3.59999990463257
SliderTickRate:1

[Events]
//Background and Video events
0,0,"51078930_p0.jpg",0,0
//Break Periods
2,183026,190492
//Storyboard Layer 0 (Background)
//Storyboard Layer 1 (Fail)
//Storyboard Layer 2 (Pass)
//Storyboard Layer 3 (Foreground)
//Storyboard Layer 4 (Overlay)
//Storyboard Sound Samples

[TimingPoints]
348,535.714285714286,4,2,1,25,1,0
5437,-200,4,2,1,25,0,0
6776,-111.111111111111,4,2,1,30,0,0
9723,-142.857142857143,4,2,1,30,0,0
11062,-111.111111111111,4,2,1,40,0,0
14008,-90.9090909090908,4,2,1,40,0,0
15348,-111.111111111111,4,2,1,40,0,0
18294,-90.9090909090908,4,2,1,40,0,0
19633,-142.857142857143,4,2,1,35,0,0
27133,-90.9090909090908,4,2,1,45,0,0
27535,-200,4,2,1,45,0,0
27602,-200,4,2,0,5,0,0
28205,-125,4,2,1,40,0,0
32490,-125,4,2,1,45,0,0
35437,-200,4,2,1,45,0,0
36776,-166.666666666667,4,2,1,30,0,0
53919,-90.9090909090908,4,2,1,50,0,1
70526,-166.666666666667,4,2,1,40,0,1
71062,-111.111111111111,4,2,1,40,0,0
74008,-90.9090909090908,4,2,1,40,0,0
75348,-111.111111111111,4,2,1,40,0,0
78294,-90.9090909090908,4,2,1,40,0,0
79633,-142.857142857143,4,2,1,40,0,0
87133,-90.9090909090908,4,2,1,45,0,0
88205,-125,4,2,1,45,0,0
95437,-166.666666666667,4,2,1,40,0,0
96776,-166.666666666667,4,2,1,30,0,0
112848,-166.666666666666,4,2,1,40,0,0
113919,-90.9090909090908,4,2,1,50,0,1
131062,-142.857142857143,4,2,1,35,0,0
146062,-200,4,2,1,20,0,0
148205,-111.111111111111,4,2,1,40,0,0
165348,-166.666666666666,4,2,1,30,0,0
178205,-166.666666666666,4,2,1,20,0,0
195348,-142.857142857142,4,2,1,30,0,0
196419,-142.857142857142,4,2,1,35,0,0
196955,-142.857142857142,4,2,1,40,0,0
197490,-333.333333333329,4,2,1,80,0,0
197557,-333.333333333329,4,2,0,30,0,0
199633,-90.9090909090908,4,2,1,50,0,1
216776,-181.818181818181,4,2,1,30,0,0
220526,-133.333333333333,4,2,1,40,0,0
221062,-111.111111111111,4,2,1,40,0,0
224008,-90.9090909090908,4,2,1,40,0,0
225348,-111.111111111111,4,2,1,40,0,0
228294,-90.9090909090908,4,2,1,40,0,0
229633,-111.111111111111,4,2,1,30,0,0
231776,-111.111111111111,4,2,1,25,0,0
232580,-200,4,2,1,25,0,0

[Colours]
Combo1 : 210,216,179
Combo2 : 129,46,116
Combo3 : 212,170,125
Combo4 : 68,75,110
Combo5 : 239,208,158
Combo6 : 236,115,87
Combo7 : 144,169,183
Combo8 : 87,70,129

[HitObjects]
256,192,348,12,0,2312,0:0:0:0:
107,153,2490,5,2,0:0:0:0:
91,55,2624,1,0,0:0:0:0:
189,39,2758,1,0,0:0:0:0:
204,137,2892,1,2,0:0:0:0:
405,231,3562,5,2,0:0:0:0:
421,329,3696,1,0,0:0:0:0:
323,345,3830,1,0,0:0:0:0:
308,247,3964,1,2,0:0:0:0:
107,231,4633,5,2,0:0:0:0:
91,329,4767,1,0,0:0:0:0:
189,345,4901,1,0,0:0:0:0:
204,247,5035,1,2,0:0:0:0:
204,247,5437,6,0,B|294:233|294:233|379:269,1,179.999995231629,2|0,0:0|0:0,0:0:0:0:
308,137,6240,1,2,0:0:0:0:
281,317,6508,1,0,0:0:0:0:
308,137,6776,6,0,B|203:153,1,80.9999953823091,2|0,0:0|0:0,0:0:0:0:
421,55,7044,2,0,B|526:71,1,80.9999953823091
323,39,7312,1,2,0:0:0:0:
405,153,7580,1,0,0:0:0:0:
204,247,7848,6,0,B|309:231,1,80.9999953823091,2|0,0:0|0:0,0:0:0:0:
91,329,8116,2,0,B|-14:313,1,80.9999953823091
189,345,8384,1,2,0:0:0:0:
107,231,8652,1,0,0:0:0:0:
281,317,8919,6,0,B|321:312|321:312|352:286,1,80.9999953823091,2|0,0:0|0:0,0:0:0:0:
476,122,9187,2,0,B|436:127|436:127|404:152,1,80.9999953823091,0|2,0:0|0:0,0:0:0:0:
489,233,9455,1,0,0:0:0:0:
237,142,9723,6,0,B|185:305|185:305|199:384,1,251.999985633851,2|0,0:0|0:0,0:0:0:0:
103,275,10526,2,0,L|141:151,1,125.999992816925,2|0,0:0|0:0,0:0:0:0:
315,145,11062,6,0,B|275:153|275:153|237:142,1,80.9999953823091,6|0,1:2|0:0,0:0:0:0:
398,53,11330,2,0,B|436:42|436:42|476:50,1,80.9999953823091
470,212,11598,1,8,0:0:0:0:
470,212,11865,2,0,L|464:312,1,80.9999953823091
331,145,12133,6,0,B|339:182|339:182|330:224,1,80.9999953823091,2|0,1:2|0:0,0:0:0:0:
236,189,12401,1,0,0:0:0:0:
139,233,12535,2,0,B|130:191|130:191|139:153,1,80.9999953823091,0|8,1:2|0:0,0:0:0:0:
37,128,12803,2,0,B|17:189|17:189|47:319,1,161.999990764618,2|0,0:0|0:0,0:0:0:0:
236,189,13205,6,0,B|316:172|316:172|395:184,1,161.999990764618,2|0,1:2|0:0,0:0:0:0:
395,184,13606,1,0,0:0:0:0:
306,22,13740,1,8,0:0:0:0:
306,22,14008,6,0,L|180:26,1,99.0000003986359,2|0,1:1|0:0,0:0:0:0:
31,134,14276,5,2,0:0:0:0:
261,107,14455,5,0,0:0:0:0:
160,268,14633,5,0,0:0:0:0:
398,167,14812,5,2,1:2:0:0:
151,151,14990,5,0,0:0:0:0:
294,346,15169,5,0,0:0:0:0:
58,351,15348,6,0,B|51:270,1,80.9999953823091,2|0,1:2|0:0,0:0:0:0:
261,107,15615,2,0,B|250:189,1,80.9999953823091
151,151,15883,2,0,B|166:51|166:51|227:-9,1,161.999990764618,8|0,0:0|0:0,0:0:0:0:
261,107,16285,1,0,0:0:0:0:
132,277,16419,6,0,L|28:268,2,80.9999953823091,2|0|0,1:2|0:0|0:0,0:0:0:0:
213,352,16821,2,0,L|294:346,1,80.9999953823091,0|8,0:0|0:0,0:0:0:0:
436,250,17089,2,0,B|379:236|379:236|236:250,1,161.999990764618
402,337,17490,5,2,1:2:0:0:
456,235,17624,1,0,0:0:0:0:
370,155,17758,1,0,0:0:0:0:
424,53,17892,1,0,1:0:0:0:
214,53,18026,1,8,0:0:0:0:
214,53,18294,6,0,L|341:60,1,99.0000003986359,2|0,1:1|0:0,0:0:0:0:
330,165,18562,5,2,0:0:0:0:
156,281,18740,5,0,0:0:0:0:
363,281,18919,5,0,0:0:0:0:
202,162,19098,5,10,0:0:0:0:
262,369,19276,5,0,0:0:0:0:
47,339,19455,5,0,0:0:0:0:
104,198,19633,6,0,B|100:149|100:149|111:117|111:117|108:75,1,125.999992816925,6|0,1:2|0:0,0:0:0:0:
107,74,20035,1,0,0:0:0:0:
202,162,20169,2,0,L|285:156,2,62.9999964084627,8|0|0,0:0|0:0|0:0,0:0:0:0:
479,314,20705,6,0,L|295:324,1,125.999992816925,2|0,1:2|0:0,0:0:0:0:
353,320,21106,1,0,0:0:0:0:
289,244,21240,2,0,L|372:238,2,62.9999964084627,8|0|0,0:0|0:0|0:0,0:0:0:0:
104,198,21776,6,0,B|100:149|100:149|111:117|111:117|108:75,1,125.999992816925,2|0,1:2|0:0,0:0:0:0:
107,74,22178,1,0,0:0:0:0:
264,157,22312,2,0,L|181:163,2,62.9999964084627,8|0|0,0:0|0:0|0:0,0:0:0:0:
479,314,22848,6,0,L|295:324,1,125.999992816925,2|0,1:2|0:0,0:0:0:0:
353,320,23249,1,0,0:0:0:0:
289,244,23383,1,8,0:0:0:0:
104,198,23919,6,0,B|100:149|100:149|111:117|111:117|108:75,1,125.999992816925,2|0,1:2|0:0,0:0:0:0:
107,74,24321,1,0,0:0:0:0:
13,185,24455,2,0,L|24:263,2,62.9999964084627,8|0|0,0:0|0:0|0:0,0:0:0:0:
479,314,24990,6,0,L|295:324,1,125.999992816925,2|0,1:2|0:0,0:0:0:0:
353,320,25392,1,0,0:0:0:0:
227,324,25526,2,0,L|238:246,2,62.9999964084627,8|0|0,0:0|0:0|0:0,0:0:0:0:
104,198,26062,6,0,B|100:149|100:149|111:117|111:117|108:75,1,125.999992816925,2|0,1:2|0:0,0:0:0:0:
107,74,26464,1,0,0:0:0:0:
201,161,26598,2,0,L|212:239,2,62.9999964084627,8|0|0,0:0|0:0|0:0,0:0:0:0:
476,313,27134,6,0,B|378:335|378:335|281:323,1,198.000000797272,2|0,1:1|0:0,0:0:0:0:
81,332,27535,6,0,B|180:311|180:311|281:323,1,202.499994635582,2|0,1:1|0:0,0:0:0:0:
281,323,28205,6,0,L|293:115,1,143.999996185303,6|0,1:2|0:0,0:0:0:0:
96,54,28606,2,0,L|103:197,1,143.999996185303,2|0,1:2|0:0,0:0:0:0:
107,226,29008,1,0,0:0:0:0:
280,323,29276,6,0,B|285:282|285:282|278:231|278:231|284:181,1,143.999996185303,2|0,1:2|0:0,0:0:0:0:
96,54,29678,2,0,B|100:95|100:95|93:146|93:146|99:196,1,143.999996185303,2|0,0:0|0:0,0:0:0:0:
107,226,30080,1,0,1:0:0:0:
280,323,30348,6,0,B|272:296|272:296|283:270|283:270|271:243|271:243|280:217|280:217|273:188,1,143.999996185303,2|0,1:2|0:0,0:0:0:0:
96,54,30749,2,0,B|104:81|104:81|93:107|93:107|105:134|105:134|96:160|96:160|103:189,1,143.999996185303,2|0,1:2|0:0,0:0:0:0:
107,226,31151,1,0,0:0:0:0:
401,90,31419,5,2,1:2:0:0:
271,92,31687,1,0,0:0:0:0:
246,219,31955,1,10,0:0:0:0:
356,289,32223,1,0,0:0:0:0:
456,208,32490,6,0,B|481:157|481:157|451:0,1,215.999994277954,6|0,1:2|0:0,0:0:0:0:
314,138,33026,2,0,L|386:142,1,71.9999980926514,8|0,0:0|0:0,0:0:0:0:
238,68,33294,2,0,B|185:59|185:59|130:63,1,107.999997138977
103,78,33562,6,0,L|119:252,1,143.999996185303,0|0,1:0|0:0,0:0:0:0:
116,221,33964,1,0,0:0:0:0:
8,106,34098,2,0,L|17:34,1,71.9999980926514,8|0,0:0|0:0,0:0:0:0:
205,170,34365,2,0,L|214:241,1,71.9999980926514,0|0,1:0|0:0,0:0:0:0:
433,129,34633,6,0,L|281:116,1,143.999996185303,0|0,1:0|0:0,0:0:0:0:
289,116,35035,1,0,0:0:0:0:
284,317,35169,1,8,0:0:0:0:
284,317,35437,6,0,B|232:334|232:334|184:332|184:332|145:315|145:315|104:328,1,179.999995231629,6|0,1:2|0:0,0:0:0:0:
214,241,36106,1,0,3:0:0:0:
214,241,36173,1,0,3:0:0:0:
214,241,36240,2,0,L|200:134,1,89.9999976158143,0|8,3:0|0:3,0:0:0:0:
459,181,36776,5,2,1:2:0:0:
53,163,37312,1,2,1:2:0:0:
376,139,37848,5,2,1:2:0:0:
136,205,38115,1,2,0:0:0:0:
346,111,38383,5,2,1:2:0:0:
300,184,38517,1,0,0:0:0:0:
168,87,38651,5,2,0:0:0:0:
212,161,38785,1,0,0:0:0:0:
262,84,38919,5,2,1:2:0:0:
196,301,39455,1,2,1:2:0:0:
366,154,39990,5,2,1:2:0:0:
146,230,40258,1,2,0:0:0:0:
351,175,40526,5,2,1:2:0:0:
306,249,40660,1,0,0:0:0:0:
437,291,40794,5,2,0:0:0:0:
464,373,40928,1,0,0:0:0:0:
416,273,41062,5,2,1:2:0:0:
278,244,41330,1,0,0:0:0:0:
147,191,41598,1,2,1:2:0:0:
55,84,41865,1,0,0:0:0:0:
416,273,42133,6,0,L|407:219,1,53.9999969215394,2|0,1:2|0:0,0:0:0:0:
278,244,42401,2,0,L|279:190,1,53.9999969215394,2|0,0:0|0:0,0:0:0:0:
147,191,42669,2,0,L|157:138,1,53.9999969215394,2|0,1:2|0:0,0:0:0:0:
55,84,42937,2,0,L|74:33,1,53.9999969215394,2|0,0:0|0:0,0:0:0:0:
140,273,43205,5,2,1:2:0:0:
278,244,43473,1,0,0:0:0:0:
409,191,43741,1,2,1:2:0:0:
501,84,44008,1,0,0:0:0:0:
140,273,44276,6,0,L|152:198,1,53.9999969215394,2|0,1:2|0:0,0:0:0:0:
278,244,44544,2,0,L|276:168,1,53.9999969215394,2|0,0:0|0:0,0:0:0:0:
409,191,44812,2,0,L|394:116,1,53.9999969215394,2|0,1:2|0:0,0:0:0:0:
501,84,45080,2,0,L|473:13,1,53.9999969215394,2|0,0:0|0:0,0:0:0:0:
438,277,45348,6,0,L|449:391,1,107.999993843079,2|0,1:2|0:0,0:0:0:0:
335,190,45883,2,0,L|346:76,1,107.999993843079,2|0,1:2|0:0,0:0:0:0:
457,260,46419,2,0,L|468:374,1,107.999993843079,2|0,1:2|0:0,0:0:0:0:
354,207,46955,2,0,L|365:93,1,107.999993843079,2|0,1:2|0:0,0:0:0:0:
74,277,47490,6,0,L|63:391,1,107.999993843079,2|0,1:2|0:0,0:0:0:0:
177,190,48026,2,0,L|166:76,1,107.999993843079,2|0,1:2|0:0,0:0:0:0:
55,260,48562,2,0,L|44:374,1,107.999993843079,2|0,1:2|0:0,0:0:0:0:
158,207,49098,2,0,L|147:93,1,107.999993843079,2|0,1:2|0:0,0:0:0:0:
55,61,49633,5,2,0:0:0:0:
457,61,50437,1,0,0:0:0:0:
457,61,50705,1,2,0:0:0:0:
256,192,51508,2,0,L|256:64,1,107.999993843079,0|2,0:0|0:0,0:0:0:0:
406,209,53919,6,0,L|184:225,2,198.000000797272,6|0|8,1:2|0:0|0:1,0:0:0:0:
134,140,54723,2,0,B|86:129|86:129|30:155,1,99.0000003986359,0|0,1:0|3:0,0:0:0:0:
41,150,54923,1,0,3:0:0:0:
41,150,54990,6,0,L|75:269,1,99.0000003986359,0|0,3:0|0:0,0:0:0:0:
181,281,55258,2,0,L|277:255,1,99.0000003986359,0|0,3:0|3:0,0:0:0:0:
235,25,55526,1,8,0:1:0:0:
235,25,55794,2,0,L|139:50,1,99.0000003986359
411,55,56062,6,0,L|427:171,1,99.0000003986359,2|0,1:2|0:0,0:0:0:0:
298,277,56330,2,0,L|311:178,1,99.0000003986359
512,322,56598,2,0,B|457:301|457:301|365:343,1,148.500000597954,8|0,0:1|0:0,0:0:0:0:
375,338,56865,1,0,1:0:0:0:
193,282,56999,1,0,3:0:0:0:
201,253,57066,1,0,3:0:0:0:
209,224,57133,5,0,3:0:0:0:
324,263,57267,1,0,3:0:0:0:
241,356,57401,2,0,B|180:371|180:371|117:338|117:338|32:356,2,198.000000797272,0|8|0,0:0|0:1|0:0,0:0:0:0:
512,40,58205,6,0,L|290:56,2,198.000000797272,6|0|8,1:2|0:0|0:1,0:0:0:0:
249,117,59008,2,0,B|235:70|235:70|240:20,1,99.0000003986359,0|0,1:0|3:0,0:0:0:0:
240,20,59209,1,0,3:0:0:0:
240,20,59276,6,0,L|143:32,1,99.0000003986359,0|0,3:0|0:0,0:0:0:0:
352,51,59544,2,0,L|449:62,1,99.0000003986359,0|0,3:0|3:0,0:0:0:0:
293,194,59812,2,0,B|243:205|243:205|121:185,1,148.500000597954,8|0,0:1|0:0,0:0:0:0:
111,183,60080,2,0,L|128:304,1,99.0000003986359
242,110,60348,6,0,B|302:95|302:95|332:96|332:96|387:84,1,148.500000597954,2|0,1:2|0:0,0:0:0:0:
409,77,60615,1,0,0:0:0:0:
270,306,60883,2,0,B|210:291|210:291|180:292|180:292|124:280,1,148.500000597954,10|0,1:2|0:0,0:0:0:0:
103,273,61150,1,0,0:0:0:0:
34,162,61285,1,0,3:0:0:0:
45,126,61352,1,0,3:0:0:0:
56,90,61419,5,0,3:0:0:0:
161,164,61553,1,0,0:0:0:0:
247,51,61687,2,0,L|148:40,1,99.0000003986359,0|0,1:0|3:0,0:0:0:0:
148,40,61888,1,0,3:0:0:0:
148,40,61955,1,0,3:0:0:0:
38,63,62089,1,8,0:3:0:0:
44,180,62222,1,8,0:3:0:0:
161,164,62356,1,8,0:3:0:0:
244,235,62490,6,0,L|255:384,1,148.500000597954,6|0,1:2|0:0,0:0:0:0:
254,383,62758,1,0,0:0:0:0:
315,37,63026,2,0,B|241:31|241:31|169:50,1,148.500000597954,8|0,0:1|0:0,0:0:0:0:
155,74,63294,2,0,L|172:196,1,99.0000003986359,0|0,1:0|3:0,0:0:0:0:
168,172,63495,1,0,3:0:0:0:
168,172,63562,6,0,L|62:195,2,99.0000003986359,0|0|0,3:0|0:0|3:0,0:0:0:0:
270,305,63964,1,0,3:0:0:0:
413,217,64098,1,8,0:1:0:0:
413,217,64365,2,0,L|430:111,1,99.0000003986359
234,299,64633,6,0,B|188:319|188:319|139:318,1,99.0000003986359,2|0,1:2|0:0,0:0:0:0:
156,119,64901,2,0,B|204:118|204:118|250:138,1,99.0000003986359
53,184,65169,2,0,B|38:123|38:123|57:18,1,148.500000597954,8|0,0:1|0:0,0:0:0:0:
53,38,65437,1,0,0:0:0:0:
156,119,65571,1,0,3:0:0:0:
149,157,65638,1,0,3:0:0:0:
143,196,65705,5,0,3:0:0:0:
351,167,65839,1,0,3:0:0:0:
241,16,65973,2,0,L|113:34,1,99.0000003986359
249,236,66240,2,0,L|253:114,1,99.0000003986359,8|0,0:1|0:0,0:0:0:0:
464,122,66508,2,0,L|460:23,1,99.0000003986359
382,177,66776,6,0,L|390:385,1,198.000000797272,2|0,1:2|0:0,0:0:0:0:
249,236,67312,2,0,L|253:114,1,99.0000003986359,8|0,0:1|0:0,0:0:0:0:
472,130,67580,2,0,L|468:31,1,99.0000003986359,0|0,1:0|3:0,0:0:0:0:
468,31,67781,1,0,3:0:0:0:
468,31,67848,6,0,B|419:45|419:45|370:37,1,99.0000003986359,0|0,3:0|0:0,0:0:0:0:
212,0,68115,1,0,3:0:0:0:
277,117,68249,1,0,3:0:0:0:
157,288,68383,2,0,B|145:219|145:219|168:84,1,198.000000797272,8|0,0:1|0:0,0:0:0:0:
66,343,68919,6,0,B|48:221|48:221|68:113,1,198.000000797272,6|0,1:2|0:0,0:0:0:0:
61,147,69321,1,0,0:0:0:0:
254,217,69455,1,8,1:1:0:0:
254,217,69723,1,0,1:0:0:0:
242,88,69856,1,0,3:0:0:0:
204,90,69923,1,0,3:0:0:0:
166,92,69990,5,0,3:0:0:0:
214,331,70258,1,0,1:0:0:0:
425,213,70526,2,0,B|456:160|440:112|440:112|464:77|445:21,1,188.999989225388,2|0,0:0|0:0,0:0:0:0:
374,67,71062,6,0,P|335:73|294:70,1,80.9999953823091,6|0,1:2|0:0,0:0:0:0:
173,213,71330,2,0,P|213:209|253:216,1,80.9999953823091
97,70,71598,1,8,0:0:0:0:
97,70,71865,2,0,P|101:123|93:166,1,80.9999953823091
17,320,72133,6,0,P|72:311|112:314,1,80.9999953823091,2|0,1:2|0:0,0:0:0:0:
200,356,72401,1,0,0:0:0:0:
345,265,72535,2,0,P|352:225|350:184,1,80.9999953823091,0|8,1:2|0:0,0:0:0:0:
278,50,72803,2,0,P|381:59|443:41,1,161.999990764618
160,33,73205,6,0,P|135:101|147:208,1,161.999990764618,2|0,1:2|0:0,0:0:0:0:
140,189,73606,1,0,0:0:0:0:
47,52,73740,1,8,0:0:0:0:
47,51,74008,6,0,P|29:98|23:147,1,99.0000003986359,2|0,1:1|0:0,0:0:0:0:
138,359,74276,5,2,0:0:0:0:
305,176,74455,5,0,0:0:0:0:
31,238,74633,5,0,0:0:0:0:
280,345,74812,5,2,1:2:0:0:
276,62,74990,5,0,0:0:0:0:
204,281,75169,5,0,0:0:0:0:
454,344,75348,6,0,P|469:286|466:221,1,80.9999953823091,2|0,1:2|0:0,0:0:0:0:
305,176,75615,2,0,P|309:216|321:254,1,80.9999953823091
431,84,75883,2,0,P|356:55|276:61,1,161.999990764618,8|0,0:0|0:0,0:0:0:0:
117,172,76285,1,0,0:0:0:0:
187,106,76419,6,0,P|193:64|191:20,2,80.9999953823091,2|0|0,1:2|0:0|0:0,0:0:0:0:
58,243,76821,2,0,P|55:284|61:324,1,80.9999953823091,0|8,0:0|0:0,0:0:0:0:
323,355,77089,2,0,P|244:343|167:365,1,161.999990764618
60,323,77490,5,2,1:2:0:0:
27,249,77623,1,0,0:0:0:0:
20,169,77757,1,0,0:0:0:0:
41,91,77891,1,0,1:0:0:0:
207,0,78025,1,8,0:0:0:0:
207,0,78294,6,0,P|197:40|205:118,1,99.0000003986359,2|0,1:1|0:0,0:0:0:0:
379,257,78562,5,2,1:2:0:0:
323,70,78740,5,0,1:2:0:0:
165,291,78919,5,0,1:2:0:0:
399,152,79098,5,10,1:2:0:0:
129,181,79276,5,0,1:2:0:0:
279,325,79455,5,0,1:2:0:0:
312,97,79633,6,0,P|302:21|367:5,1,125.999992816925,6|0,1:2|0:0,0:0:0:0:
336,0,80035,1,0,0:0:0:0:
231,131,80169,2,0,P|212:86|208:56,2,62.9999964084627,8|0|0,0:0|0:0|0:0,0:0:0:0:
479,314,80705,6,0,L|295:324,1,125.999992816925,2|0,1:2|0:0,0:0:0:0:
353,320,81106,1,0,0:0:0:0:
270,250,81240,2,0,P|251:295|247:325,2,62.9999964084627,8|0|0,0:0|0:0|0:0,0:0:0:0:
312,97,81776,6,0,P|302:21|367:5,1,125.999992816925,2|0,1:2|0:0,0:0:0:0:
336,0,82178,1,0,0:0:0:0:
402,96,82312,2,0,P|394:126|380:154,2,62.9999964084627,8|0|0,0:0|0:0|0:0,0:0:0:0:
479,314,82848,6,0,L|295:324,1,125.999992816925,2|0,1:2|0:0,0:0:0:0:
353,320,83249,1,0,0:0:0:0:
331,95,83383,2,0,P|328:106|289:110,1,31.4999982042313,8|0,0:0|0:0,0:0:0:0:
312,97,83919,6,0,P|302:21|367:5,1,125.999992816925,2|0,1:2|0:0,0:0:0:0:
336,0,84321,1,0,0:0:0:0:
312,97,84455,2,0,P|293:142|289:172,2,62.9999964084627,8|0|0,0:0|0:0|0:0,0:0:0:0:
479,314,84991,6,0,L|295:324,1,125.999992816925,2|0,1:2|0:0,0:0:0:0:
227,324,85392,1,0,0:0:0:0:
227,324,85526,2,0,P|208:279|204:249,2,62.9999964084627,8|0|0,0:0|0:0|0:0,0:0:0:0:
312,97,86062,6,0,P|302:21|367:5,1,125.999992816925,2|0,1:2|0:0,0:0:0:0:
336,0,86464,1,0,0:0:0:0:
393,153,86598,2,0,P|340:193|268:184,1,125.999992816925,8|0,0:0|0:0,0:0:0:0:
282,190,86999,1,0,0:0:0:0:
479,314,87133,6,0,P|382:325|267:325,1,198.000000797272,2|0,1:1|0:0,0:0:0:0:
217,70,87535,2,0,P|266:77|312:97,1,99.0000003986359,2|2,1:1|0:0,0:0:0:0:
312,97,88205,6,0,L|143:106,1,143.999996185303,6|0,1:2|0:0,0:0:0:0:
137,316,88606,2,0,L|281:324,1,143.999996185303,2|0,1:2|0:0,0:0:0:0:
309,309,89008,1,0,0:0:0:0:
312,97,89276,6,0,P|234:94|143:106,1,143.999996185303,2|0,1:2|0:0,0:0:0:0:
137,316,89678,2,0,P|208:323|280:319,1,143.999996185303,2|0,0:0|0:0,0:0:0:0:
309,309,90079,1,0,1:0:0:0:
312,97,90348,6,0,B|213:76|265:135|143:106,1,143.999996185303,2|0,1:2|0:0,0:0:0:0:
140,308,90749,2,0,B|239:287|187:346|309:317,1,143.999996185303,2|0,1:2|0:0,0:0:0:0:
309,309,91151,1,0,0:0:0:0:
193,0,91419,5,2,1:2:0:0:
156,94,91687,1,0,0:0:0:0:
175,192,91955,1,10,0:0:0:0:
256,252,92223,1,0,0:0:0:0:
356,251,92490,6,0,P|285:252|219:378,1,215.999994277954,6|0,1:2|0:0,0:0:0:0:
128,279,93026,2,0,P|74:264|14:274,1,71.9999980926514,8|0,0:0|0:0,0:0:0:0:
0,204,93294,1,0,0:0:0:0:
0,204,93562,6,0,P|27:99|6:11,1,143.999996185303,0|0,1:0|0:0,0:0:0:0:
122,135,93964,1,0,0:0:0:0:
175,47,94098,2,0,P|245:29|301:40,1,71.9999980926514,8|0,0:0|0:0,0:0:0:0:
340,66,94365,2,0,P|370:102|397:185,1,107.999997138977,0|0,1:0|0:0,0:0:0:0:
393,158,94633,6,0,L|465:124,1,71.9999980926514,0|0,1:0|0:0,0:0:0:0:
274,238,94901,2,0,P|264:203|264:168,1,71.9999980926514
399,293,95169,1,8,0:0:0:0:
399,293,95437,6,0,B|287:291|318:376|206:373,1,215.999987686158,6|0,1:2|0:0,0:0:0:0:
112,257,96240,2,0,P|166:254|218:270,1,107.999993843079,8|4,3:3|0:3,0:0:0:0:
24,294,96776,5,2,1:2:0:0:
34,99,97312,1,2,1:2:0:0:
228,113,97848,5,2,1:2:0:0:
218,308,98115,1,2,0:0:0:0:
24,294,98383,5,2,1:2:0:0:
1,250,98517,1,0,0:0:0:0:
34,99,98651,1,2,0:0:0:0:
77,77,98785,1,0,0:0:0:0:
121,217,98919,5,2,1:2:0:0:
132,22,99455,1,2,1:2:0:0:
311,36,99991,5,2,1:2:0:0:
311,231,100258,1,2,0:0:0:0:
121,217,100526,5,2,1:2:0:0:
98,173,100660,1,0,0:0:0:0:
132,22,100794,1,2,0:0:0:0:
174,0,100928,1,0,0:0:0:0:
188,116,101062,5,2,1:2:0:0:
313,157,101330,1,0,0:0:0:0:
417,235,101598,1,2,1:2:0:0:
461,357,101865,1,0,0:0:0:0:
459,346,102133,6,0,P|494:346|526:337,1,53.9999969215394,2|0,1:2|0:0,0:0:0:0:
414,224,102401,2,0,P|444:206|469:183,1,53.9999969215394,2|0,0:0|0:0,0:0:0:0:
310,146,102669,2,0,P|328:116|336:83,1,53.9999969215394,2|0,1:2|0:0,0:0:0:0:
185,104,102937,2,0,P|185:68|176:36,1,53.9999969215394,2|0,0:0|0:0,0:0:0:0:
54,244,103205,5,2,1:2:0:0:
186,243,103473,1,0,0:0:0:0:
309,201,103741,1,2,1:2:0:0:
389,99,104008,1,0,0:0:0:0:
383,109,104276,6,0,P|417:120|445:138,1,53.9999969215394,2|0,1:2|0:0,0:0:0:0:
303,211,104544,2,0,P|326:237|342:267,1,53.9999969215394,2|0,0:0|0:0,0:0:0:0:
180,253,104812,2,0,P|187:287|185:321,1,53.9999969215394,2|0,1:2|0:0,0:0:0:0:
48,254,105080,2,0,P|37:288|19:316,1,53.9999969215394,2|0,0:0|0:0,0:0:0:0:
114,137,105348,6,0,P|175:103|221:96,1,107.999993843079,2|0,1:2|0:0,0:0:0:0:
425,108,105883,2,0,P|372:95|327:67,1,107.999993843079,2|0,1:2|0:0,0:0:0:0:
105,159,106419,2,0,P|166:125|212:118,1,107.999993843079,2|0,1:2|0:0,0:0:0:0:
434,130,106955,2,0,P|381:117|336:89,1,107.999993843079,2|0,1:2|0:0,0:0:0:0:
186,203,107490,6,0,P|247:237|293:244,1,107.999993843079,2|0,1:2|0:0,0:0:0:0:
497,232,108026,2,0,P|444:244|399:272,1,107.999993843079,2|0,1:2|0:0,0:0:0:0:
177,181,108562,2,0,P|238:215|284:222,1,107.999993843079,2|0,1:2|0:0,0:0:0:0:
506,210,109097,2,0,P|453:222|408:250,1,107.999993843079,2|0,1:2|0:0,0:0:0:0:
371,65,109633,5,2,1:2:0:0:
275,222,109901,1,0,0:0:0:0:
176,73,110169,1,2,1:2:0:0:
176,73,110303,1,0,0:0:0:0:
176,73,110437,1,0,0:0:0:0:
399,174,110705,5,2,1:2:0:0:
199,318,110973,1,0,0:0:0:0:
464,346,111240,1,2,1:2:0:0:
464,346,111374,1,0,0:0:0:0:
464,346,111508,1,0,0:0:0:0:
271,199,111776,5,2,1:2:0:0:
317,369,112044,1,0,0:0:0:0:
445,73,112312,1,2,1:2:0:0:
491,243,112580,1,0,0:0:0:0:
188,107,112848,5,8,0:1:0:0:
188,107,113115,1,0,1:0:0:0:
300,209,113249,1,0,1:0:0:0:
352,67,113383,1,8,0:1:0:0:
352,67,113651,1,0,1:0:0:0:
466,341,113919,6,0,L|480:133,2,198.000000797272,6|0|8,1:2|0:0|0:1,0:0:0:0:
281,0,114723,2,0,P|346:14|394:4,1,99.0000003986359,0|0,1:0|3:0,0:0:0:0:
377,10,114923,1,0,3:0:0:0:
377,10,114990,6,0,L|390:117,1,99.0000003986359,0|0,3:0|0:0,0:0:0:0:
322,281,115258,2,0,L|311:183,1,99.0000003986359,0|0,3:0|3:0,0:0:0:0:
405,131,115526,1,8,0:1:0:0:
405,131,115794,2,0,P|370:98|323:83,1,99.0000003986359
229,232,116062,6,0,P|275:217|311:183,1,99.0000003986359,2|0,1:2|0:0,0:0:0:0:
139,84,116330,2,0,P|175:117|222:132,1,99.0000003986359
405,131,116598,2,0,P|440:97|487:82,2,99.0000003986359,8|0|0,0:1|0:0|1:0,0:0:0:0:
174,211,116999,1,0,3:0:0:0:
176,247,117066,1,0,3:0:0:0:
181,284,117133,5,0,3:0:0:0:
289,231,117267,1,0,3:0:0:0:
222,132,117401,2,0,B|115:89|134:178|33:132,2,198.000000797272,0|8|0,0:0|0:1|0:0,0:0:0:0:
452,361,118205,6,0,L|257:330,2,198.000000797272,6|0|8,1:2|0:0|0:1,0:0:0:0:
162,380,119008,2,0,P|151:322|168:269,1,99.0000003986359,0|0,1:0|3:0,0:0:0:0:
160,283,119209,1,0,3:0:0:0:
160,283,119276,6,0,L|46:302,1,99.0000003986359,0|0,3:0|0:0,0:0:0:0:
336,254,119544,2,0,L|450:272,1,99.0000003986359,0|0,3:0|3:0,0:0:0:0:
222,120,119812,2,0,P|214:173|253:275,1,148.500000597954,8|0,0:1|0:0,0:0:0:0:
242,261,120080,2,0,L|223:363,1,99.0000003986359
353,165,120348,6,0,B|454:153|392:192|514:177,1,148.500000597954,2|0,1:2|0:0,0:0:0:0:
498,178,120615,1,0,0:0:0:0:
242,261,120883,2,0,B|141:249|203:288|81:273,1,148.500000597954,10|0,1:2|0:0,0:0:0:0:
96,274,121150,1,0,0:0:0:0:
38,161,121285,1,0,3:0:0:0:
45,132,121352,1,0,3:0:0:0:
52,103,121419,5,0,3:0:0:0:
164,143,121553,1,0,0:0:0:0:
281,127,121687,2,0,L|384:138,1,99.0000003986359,0|0,1:0|3:0,0:0:0:0:
379,137,121888,1,0,3:0:0:0:
379,137,121955,1,0,3:0:0:0:
505,249,122089,1,8,0:3:0:0:
397,253,122223,1,8,0:3:0:0:
496,141,122356,1,8,0:3:0:0:
377,276,122490,6,0,L|229:277,1,148.500000597954,6|0,1:2|0:0,0:0:0:0:
228,277,122758,1,0,0:0:0:0:
54,92,123026,2,0,P|114:98|207:61,1,148.500000597954,8|0,0:1|0:0,0:0:0:0:
195,70,123294,2,0,L|201:176,1,99.0000003986359,0|0,1:0|3:0,0:0:0:0:
200,169,123495,1,0,3:0:0:0:
200,169,123562,6,0,L|78:185,2,99.0000003986359,0|0|0,3:0|0:0|3:0,0:0:0:0:
352,257,123964,1,0,3:0:0:0:
209,359,124098,1,8,0:1:0:0:
209,359,124365,2,0,L|225:237,1,99.0000003986359
486,150,124633,6,0,P|436:150|390:134,1,99.0000003986359,2|0,1:2|0:0,0:0:0:0:
352,257,124901,2,0,P|309:232|276:195,1,99.0000003986359
182,282,125169,2,0,P|156:239|162:124,1,148.500000597954,8|0,0:1|0:0,0:0:0:0:
154,142,125437,1,0,0:0:0:0:
37,291,125571,1,0,3:0:0:0:
46,328,125638,1,0,3:0:0:0:
54,364,125705,5,0,3:0:0:0:
245,357,125839,2,0,L|361:344,1,99.0000003986359,0|0,3:0|0:0,0:0:0:0:
182,282,126106,1,0,0:0:0:0:
276,195,126240,6,0,P|323:180|373:182,1,99.0000003986359,8|0,0:1|0:0,0:0:0:0:
512,280,126508,2,0,P|466:295|413:293,1,99.0000003986359
475,101,126776,1,2,1:2:0:0:
475,101,127312,6,0,P|458:168|468:218,1,99.0000003986359,8|0,0:1|0:0,0:0:0:0:
271,311,127580,2,0,P|273:261|257:215,1,99.0000003986359,0|0,1:0|3:0,0:0:0:0:
258,215,127781,1,0,3:0:0:0:
258,215,127848,2,0,L|387:226,1,99.0000003986359,0|0,3:0|0:0,0:0:0:0:
291,97,128115,1,0,3:0:0:0:
160,153,128249,1,0,3:0:0:0:
214,0,128383,2,0,L|419:18,1,198.000000797272,8|0,0:1|0:0,0:0:0:0:
88,92,128919,6,0,P|66:136|97:299,1,198.000000797272,6|0,1:2|0:0,0:0:0:0:
82,279,129321,1,0,0:0:0:0:
294,172,129455,1,8,1:1:0:0:
294,172,129723,1,0,1:0:0:0:
288,276,129856,1,0,3:0:0:0:
251,277,129923,1,0,3:0:0:0:
214,278,129990,5,0,3:0:0:0:
176,83,130258,1,0,1:0:0:0:
373,62,130526,1,8,0:3:0:0:
411,256,130794,2,0,B|380:325|380:325|321:376,1,148.500000597954,8|0,0:3|0:0,0:0:0:0:
324,372,131062,5,2,1:2:0:0:
294,172,131330,1,0,0:0:0:0:
477,73,131598,1,0,0:0:0:0:
509,276,131865,2,0,B|510:308|510:308|490:331,1,62.9999964084627,2|0,1:2|0:0,0:0:0:0:
411,256,132133,5,2,0:0:0:0:
373,62,132401,1,0,0:0:0:0:
176,83,132669,1,0,0:0:0:0:
214,278,132937,2,0,B|184:285|184:285|152:279,1,62.9999964084627,2|0,1:2|0:0,0:0:0:0:
191,189,133205,6,0,L|342:194,1,125.999992816925,2|0,0:0|0:0,0:0:0:0:
498,66,133740,2,0,L|373:62,1,125.999992816925,2|0,0:0|1:0,0:0:0:0:
176,83,134276,2,0,B|117:157|117:157|111:270,2,188.999989225388,2|0|0,1:2|0:0|1:0,0:0:0:0:
157,374,135348,6,0,L|116:254,1,125.999992816925,2|0,0:0|0:0,0:0:0:0:
157,374,135883,1,0,0:0:0:0:
355,374,136151,2,0,L|439:129,1,251.999985633851,2|0,1:2|0:0,0:0:0:0:
437,136,136955,2,0,B|252:80,1,188.999989225388,2|0,0:0|0:0,0:0:0:0:
256,81,137490,6,0,L|269:212,1,125.999992816925,2|0,1:2|0:0,0:0:0:0:
424,369,138026,2,0,L|411:244,1,125.999992816925,2|0,1:2|0:0,0:0:0:0:
512,182,138562,5,2,1:2:0:0:
450,237,138741,5,0,1:2:0:0:
369,237,138919,5,0,1:2:0:0:
303,186,139098,5,2,1:2:0:0:
238,133,139276,5,0,1:2:0:0:
157,124,139455,5,0,1:2:0:0:
83,162,139633,6,0,P|76:193|74:225,1,62.9999964084627,2|0,1:2|0:0,0:0:0:0:
186,213,139901,2,0,P|195:242|209:271,1,62.9999964084627,2|0,0:0|0:0,0:0:0:0:
300,204,140169,2,0,P|323:224|349:242,1,62.9999964084627,2|0,1:2|0:0,0:0:0:0:
394,139,140437,2,0,P|424:145|456:147,1,62.9999964084627,2|0,0:0|0:0,0:0:0:0:
442,35,140705,6,0,P|349:37|282:100,1,188.999989225388,2|0,1:2|0:0,0:0:0:0:
282,100,141240,2,0,P|250:97|219:91,2,62.9999964084627,2|0|0,1:2|0:0|0:0,0:0:0:0:
38,154,141776,6,0,P|31:185|29:217,1,62.9999964084627,2|0,1:2|0:0,0:0:0:0:
154,215,142044,2,0,P|163:244|177:273,1,62.9999964084627,2|0,0:0|0:0,0:0:0:0:
284,209,142312,2,0,P|306:229|332:247,1,62.9999964084627,2|0,1:2|0:0,0:0:0:0:
394,139,142580,2,0,P|423:145|455:148,1,62.9999964084627,2|0,0:0|0:0,0:0:0:0:
442,35,142848,6,0,P|349:37|282:100,2,188.999989225388,2|0|0,1:2|0:0|0:0,0:0:0:0:
299,187,143919,6,0,P|391:189|458:252,2,188.999989225388,2|0|8,1:2|0:0|0:0,0:0:0:0:
254,358,144990,5,8,0:0:0:0:
299,187,145258,1,8,0:0:0:0:
210,34,145526,1,8,0:0:0:0:
36,63,145794,1,8,0:0:0:0:
5,185,146062,6,0,L|94:177,1,89.9999976158143,4|0,3:2|0:0,0:0:0:0:
94,176,146598,2,0,L|183:184,1,89.9999976158143,0|0,3:0|0:0,0:0:0:0:
183,184,147133,2,0,L|272:176,1,89.9999976158143,0|0,3:0|0:0,0:0:0:0:
272,175,147669,2,0,L|361:183,1,89.9999976158143,0|0,3:0|0:0,0:0:0:0:
465,197,148071,1,0,0:0:0:0:
465,197,148138,1,0,0:0:0:0:
464,198,148205,6,0,B|471:308|424:237|432:353,1,161.999990764618,6|0,1:2|0:0,0:0:0:0:
431,351,148606,1,0,0:0:0:0:
246,281,148740,2,0,B|285:264|285:264|339:267,1,80.9999953823091,8|0,0:0|0:0,0:0:0:0:
303,363,149008,6,0,L|45:338,1,242.999986146927
61,339,149544,2,0,L|53:237,1,80.9999953823091
130,216,149812,2,0,L|121:113,1,80.9999953823091,8|0,0:0|0:0,0:0:0:0:
198,92,150080,2,0,L|189:-10,1,80.9999953823091,0|0,0:0|1:0,0:0:0:0:
272,137,150348,6,0,P|351:150|431:141,2,161.999990764618,2|0|8,1:2|0:0|0:0,0:0:0:0:
124,234,151151,2,0,P|203:220|411:306,1,283.499983838082,0|0,1:0|0:0,0:0:0:0:
390,286,151687,6,0,B|404:248|404:248|400:207,1,80.9999953823091,2|0,0:0|0:0,0:0:0:0:
282,58,151955,2,0,B|268:96|268:96|272:137,1,80.9999953823091,2|0,1:2|0:0,0:0:0:0:
447,115,152223,2,0,B|408:104|408:104|368:108,1,80.9999953823091,2|0,0:0|0:0,0:0:0:0:
291,225,152490,6,0,L|193:214,1,80.9999953823091,2|0,1:2|0:0,0:0:0:0:
13,90,152758,2,0,P|82:128|160:111,1,161.999990764618,0|8,0:0|0:0,0:0:0:0:
483,139,153294,6,0,L|160:111,1,323.999981529237,0|0,0:0|0:1,0:0:0:0:
210,215,153964,1,0,1:0:0:0:
112,366,154098,2,0,L|120:286,1,80.9999953823091,8|0,0:0|0:0,0:0:0:0:
289,228,154365,2,0,P|248:226|210:215,1,80.9999953823091,0|0,0:0|1:0,0:0:0:0:
134,57,154633,5,2,1:2:0:0:
0,235,154812,5,2,0:1:0:0:
248,143,154990,5,2,0:1:0:0:
252,352,155169,5,8,0:0:0:0:
367,167,155348,5,2,0:1:0:0:
439,295,155526,5,2,0:1:0:0:
72,295,155705,6,0,L|89:134,1,161.999990764618,2|0,0:2|1:1,0:0:0:0:
439,295,156240,2,0,L|423:134,1,161.999990764618,0|0,1:0|0:0,0:0:0:0:
319,51,156642,1,0,0:0:0:0:
319,51,156776,6,0,P|222:67|162:57,1,80.9999953823091,6|0,1:2|0:0,0:0:0:0:
52,48,157044,2,0,B|91:40|91:40|130:50,1,80.9999953823091,2|0,0:0|1:0,0:0:0:0:
282,144,157312,2,0,B|242:154|242:154|203:146,1,80.9999953823091,10|0,0:0|0:0,0:0:0:0:
203,146,157848,6,0,L|211:260,1,80.9999953823091,2|0,1:2|0:0,0:0:0:0:
323,384,158115,2,0,L|328:303,1,80.9999953823091,2|0,0:0|1:0,0:0:0:0:
188,343,158383,1,8,0:0:0:0:
188,343,158651,2,0,P|147:338|108:326,1,80.9999953823091,2|0,0:0|1:0,0:0:0:0:
329,217,158919,6,0,P|366:218|431:228,2,80.9999953823091,2|0|0,1:2|0:0|0:0,0:0:0:0:
234,100,159321,1,0,0:0:0:0:
96,125,159455,1,8,0:0:0:0:
96,125,159723,2,0,P|102:246|97:367,1,242.999986146927,0|0,1:0|0:0,0:0:0:0:
97,367,160258,6,0,B|133:350|133:350|173:343,1,80.9999953823091,2|0,0:0|0:0,0:0:0:0:
403,369,160526,2,0,B|362:362|362:362|326:345,1,80.9999953823091,2|2,1:2|0:0,0:0:0:0:
249,141,160794,2,0,L|249:239,1,80.9999953823091,2|0,0:0|0:0,0:0:0:0:
18,213,161062,6,0,P|11:134|129:133,1,161.999990764618,2|0,1:2|0:0,0:0:0:0:
228,132,161464,1,0,0:0:0:0:
228,132,161531,1,0,0:0:0:0:
228,132,161598,2,0,L|398:119,1,161.999990764618,8|2,0:0|0:1,0:0:0:0:
406,276,161999,1,0,0:0:0:0:
406,276,162066,1,0,0:0:0:0:
406,276,162133,6,0,B|380:200|380:200|389:118,1,161.999990764618,2|2,1:2|0:1,0:0:0:0:
473,189,162535,1,0,1:0:0:0:
274,281,162669,2,0,L|90:265,1,161.999990764618,8|0,0:0|0:0,0:0:0:0:
296,303,163071,1,0,1:0:0:0:
296,303,163205,6,0,P|319:237|293:112,1,161.999990764618,2|0,1:2|0:0,0:0:0:0:
309,146,163606,1,0,0:0:0:0:
119,172,163740,2,0,B|112:112|112:112|129:53,1,121.499993073464,8|0,0:0|0:0,0:0:0:0:
129,53,164008,2,0,L|223:58,1,80.9999953823091,0|0,1:0|0:0,0:0:0:0:
471,138,164276,6,0,L|299:146,1,161.999990764618,2|2,0:0|1:0,0:0:0:0:
316,153,164812,1,0,1:0:0:0:
366,288,164946,1,0,0:0:0:0:
316,153,165080,2,0,P|313:83|320:44,1,80.9999953823091
372,312,165348,6,0,P|280:312|172:240,1,215.999987686158,2|0,1:2|1:0,0:0:0:0:
177,247,166419,2,0,P|160:217|153:192,1,53.9999969215394,2|0,1:2|0:0,0:0:0:0:
255,183,166687,2,0,P|255:149|261:123,1,53.9999969215394,2|0,0:0|0:0,0:0:0:0:
355,167,166955,1,2,1:2:0:0:
385,123,167088,1,0,0:0:0:0:
449,203,167223,1,2,0:0:0:0:
497,180,167356,1,0,0:0:0:0:
509,283,167490,6,0,P|505:175|494:67,1,215.999987686158,2|0,1:2|1:0,0:0:0:0:
494,67,168562,2,0,P|489:40|482:14,1,53.9999969215394,2|0,1:2|0:0,0:0:0:0:
391,61,168830,2,0,P|373:40|354:21,1,53.9999969215394,2|0,0:0|0:0,0:0:0:0:
298,107,169098,1,2,1:2:0:0:
246,90,169231,1,0,0:0:0:0:
241,193,169365,1,2,0:0:0:0:
188,204,169498,1,0,0:0:0:0:
234,296,169633,5,2,1:2:0:0:
375,348,169901,1,0,0:0:0:0:
506,272,170169,1,0,1:0:0:0:
506,120,170437,1,0,0:0:0:0:
506,271,170705,6,0,P|505:298|502:325,1,53.9999969215394,2|0,1:2|0:0,0:0:0:0:
401,293,170973,2,0,P|400:319|397:346,1,53.9999969215394
296,269,171240,1,0,1:0:0:0:
296,269,171374,1,0,0:0:0:0:
190,247,171508,1,0,0:0:0:0:
190,247,171642,1,0,0:0:0:0:
85,264,171776,5,2,1:2:0:0:
192,157,172044,1,0,0:0:0:0:
116,25,172312,1,0,1:0:0:0:
9,132,172580,1,0,0:0:0:0:
85,264,172848,6,0,P|85:290|88:317,1,53.9999969215394,2|0,1:2|0:0,0:0:0:0:
190,285,173116,2,0,P|190:311|193:338,1,53.9999969215394
294,262,173383,1,0,1:0:0:0:
294,262,173517,1,0,0:0:0:0:
400,240,173651,1,0,0:0:0:0:
400,240,173785,1,0,0:0:0:0:
505,257,173919,6,0,P|502:167|487:135,1,107.999993843079,2|0,1:2|0:0,0:0:0:0:
397,120,174455,2,0,P|349:43|320:23,1,107.999993843079,2|0,1:2|0:0,0:0:0:0:
234,55,174990,2,0,P|154:12|119:9,1,107.999993843079,2|0,1:2|0:0,0:0:0:0:
60,80,175526,2,0,P|41:102|26:126,2,53.9999969215394,2|0|0,1:2|0:0|0:0,0:0:0:0:
482,73,176062,6,0,P|479:163|464:195,1,107.999993843079,2|0,1:2|0:0,0:0:0:0:
374,210,176598,2,0,P|327:286|298:306,1,107.999993843079,2|0,1:2|0:0,0:0:0:0:
211,275,177133,2,0,P|132:317|97:320,1,107.999993843079,2|0,1:2|0:0,0:0:0:0:
37,250,177669,2,0,P|18:228|3:204,2,53.9999969215394,2|0|0,1:2|0:0|0:0,0:0:0:0:
140,170,178205,6,0,B|118:113|152:48|262:55|274:126|274:126|283:52|409:20|479:127|431:222|343:247|369:180|266:238|266:321|266:321|264:237|143:193,1,863.999950744631,2|0,1:2|0:0,0:0:0:0:
226,238,182490,5,6,1:2:0:0:
85,124,191062,6,0,B|75:71|75:71|92:19,1,107.999993843079,2|0,0:0|0:0,0:0:0:0:
191,18,191598,2,0,B|208:70|208:70|198:123,1,107.999993843079,2|0,0:0|0:0,0:0:0:0:
143,224,192133,6,0,B|202:236|202:236|244:223|244:223|320:239,1,161.999990764618,2|0,0:0|0:0,0:0:0:0:
300,234,192669,1,0,0:0:0:0:
243,116,192937,1,0,0:0:0:0:
243,116,193071,1,0,0:0:0:0:
243,116,193205,6,0,B|233:63|233:63|250:11,1,107.999993843079,2|0,0:0|0:0,0:0:0:0:
367,25,193740,2,0,B|377:78|377:78|360:130,1,107.999993843079,2|0,0:0|0:0,0:0:0:0:
145,25,194276,6,0,B|135:78|135:78|153:129,1,107.999993843079,2|0,0:0|0:0,0:0:0:0:
26,86,194812,2,0,L|82:238,1,161.999990764618
136,344,195348,5,2,0:0:0:0:
136,344,195615,1,0,0:0:0:0:
284,312,195883,1,10,0:0:0:0:
430,358,196151,1,8,0:0:0:0:
378,40,196419,5,10,0:0:0:0:
299,183,196687,1,8,0:0:0:0:
464,179,196955,1,10,0:0:0:0:
378,40,197223,1,0,0:0:0:0:
430,358,197490,6,0,L|444:271,2,80.9999953823091,2|0|0,0:0|0:0|0:0,0:0:0:0:
256,192,198428,12,0,199098,0:0:0:0:
387,43,199633,6,0,L|255:191,2,198.000000797272,6|0|8,1:2|0:0|0:1,0:0:0:0:
391,343,200437,2,0,L|294:259,1,99.0000003986359,0|0,1:0|3:0,0:0:0:0:
316,278,200638,1,0,3:0:0:0:
316,278,200705,6,0,B|314:310|303:326|303:326|317:338|320:370,1,99.0000003986359,0|0,3:0|0:0,0:0:0:0:
354,173,200973,1,2,0:3:0:0:
354,173,201106,1,2,0:3:0:0:
467,229,201240,1,8,0:1:0:0:
467,229,201508,2,0,B|469:169|453:151|453:151|438:171,1,99.0000003986359
192,174,201776,6,0,B|229:192|274:192|274:192|261:198,1,99.0000003986359,2|0,1:2|0:0,0:0:0:0:
511,141,202044,2,0,B|474:159|429:159|429:159|441:165,1,99.0000003986359
344,335,202312,2,0,B|362:298|362:253|362:253|368:265,1,99.0000003986359,8|0,0:1|0:0,0:0:0:0:
311,16,202580,2,0,B|329:53|329:98|329:98|335:85,1,99.0000003986359,0|0,1:0|3:0,0:0:0:0:
334,85,202781,1,0,3:0:0:0:
334,85,202848,5,0,3:0:0:0:
190,88,202981,1,0,3:0:0:0:
190,88,203115,2,0,B|149:74|110:92|110:92|76:80|76:80|41:103|-1:87,2,198.000000797272,0|8|0,0:0|0:1|0:0,0:0:0:0:
289,335,203919,6,0,L|157:187,2,198.000000797272,6|0|8,1:2|0:0|0:1,0:0:0:0:
0,119,204723,2,0,L|128:112,1,99.0000003986359,0|0,1:0|3:0,0:0:0:0:
98,114,204923,1,0,3:0:0:0:
98,114,204990,6,0,B|133:111|133:111|154:89|190:88,1,99.0000003986359,0|0,3:0|0:0,0:0:0:0:
194,171,205258,1,2,0:3:0:0:
194,171,205392,1,2,0:3:0:0:
63,247,205526,2,0,B|101:226|136:234|136:234|136:272|164:300,1,148.500000597954,8|0,0:1|0:0,0:0:0:0:
188,308,205794,2,0,L|301:297,1,99.0000003986359
470,372,206062,6,0,B|435:370|435:370|389:384|351:365|351:365|381:334,1,148.500000597954,2|0,1:2|0:0,0:0:0:0:
370,345,206330,1,0,0:0:0:0:
268,129,206598,2,0,B|303:131|303:131|349:117|387:136|387:136|357:167,1,148.500000597954,10|0,1:2|0:0,0:0:0:0:
369,155,206866,1,0,0:0:0:0:
463,105,206999,1,0,3:0:0:0:
453,60,207066,1,0,3:0:0:0:
444,16,207133,5,0,3:0:0:0:
337,3,207267,1,0,0:0:0:0:
239,50,207401,1,0,1:0:0:0:
144,19,207535,1,0,3:0:0:0:
144,19,207602,1,0,3:0:0:0:
144,19,207669,1,0,3:0:0:0:
130,147,207803,1,8,0:3:0:0:
0,133,207937,1,8,0:3:0:0:
15,5,208071,1,8,0:3:0:0:
7,156,208205,6,0,L|156:166,1,148.500000597954,6|0,1:2|0:0,0:0:0:0:
155,165,208473,1,0,0:0:0:0:
505,127,208740,2,0,B|457:144|436:122|436:122|409:113|362:129,1,148.500000597954,8|0,0:1|0:0,0:0:0:0:
362,129,209008,2,0,L|379:243,1,99.0000003986359,0|0,1:0|3:0,0:0:0:0:
376,227,209209,1,0,3:0:0:0:
376,227,209276,6,0,L|478:234,1,99.0000003986359,0|0,3:0|0:0,0:0:0:0:
268,174,209544,1,2,0:3:0:0:
237,332,209678,1,2,0:3:0:0:
410,368,209812,1,8,0:1:0:0:
410,368,210080,2,0,L|308:374,1,99.0000003986359
170,249,210348,6,0,B|187:235|215:231|215:231|187:223|173:204,1,99.0000003986359,2|0,1:2|0:0,0:0:0:0:
355,122,210615,2,0,B|338:108|310:104|310:104|338:96|351:77,1,99.0000003986359
191,107,210883,2,0,B|153:101|119:119|119:119|85:98|47:110,1,148.500000597954,8|0,0:1|0:0,0:0:0:0:
47,109,211151,1,0,0:0:0:0:
194,17,211285,1,0,3:0:0:0:
243,21,211352,1,0,3:0:0:0:
292,26,211419,5,0,3:0:0:0:
289,185,211553,1,0,3:0:0:0:
444,148,211687,2,0,L|469:52,1,99.0000003986359
380,249,211955,2,0,B|426:266|426:266|449:267|471:248,1,99.0000003986359,8|0,0:1|0:0,0:0:0:0:
339,120,212223,2,0,B|293:103|293:103|270:102|248:121,1,99.0000003986359
224,273,212490,6,0,L|16:268,1,198.000000797272,2|0,1:2|0:0,0:0:0:0:
27,269,213026,2,0,B|40:228|33:205|33:205|40:171,1,99.0000003986359,8|0,0:1|0:0,0:0:0:0:
242,20,213294,2,0,B|229:67|236:91|236:91|229:117,1,99.0000003986359,0|0,1:0|3:0,0:0:0:0:
228,117,213495,1,0,3:0:0:0:
228,117,213562,2,0,L|334:123,1,99.0000003986359,0|0,3:0|0:0,0:0:0:0:
104,42,213830,1,2,0:3:0:0:
40,171,213964,1,2,0:3:0:0:
166,246,214098,2,0,L|373:262,1,198.000000797272,8|0,0:1|1:0,0:0:0:0:
25,183,214633,6,0,B|45:133|21:84|21:84|141:58,1,198.000000797272,6|0,1:2|0:0,0:0:0:0:
114,63,215035,1,0,0:0:0:0:
320,34,215169,1,8,1:1:0:0:
320,34,215437,1,0,1:0:0:0:
219,171,215571,1,0,3:0:0:0:
222,121,215638,1,0,3:0:0:0:
225,72,215705,5,0,3:0:0:0:
259,379,215973,1,0,1:0:0:0:
225,72,216240,5,8,0:3:0:0:
373,139,216374,1,8,0:3:0:0:
223,250,216508,2,0,B|191:278|178:351|178:351|109:304,1,148.500000597954,8|0,0:3|0:0,0:0:0:0:
148,330,216776,5,6,1:2:0:0:
152,334,217312,6,0,B|201:345|244:345|244:345|273:326|274:246,1,198.000000797272
160,184,218115,1,0,0:0:0:0:
160,184,218249,2,0,B|187:136|187:136|187:100|164:31,1,148.500000597954
169,45,218919,6,0,L|331:38,2,148.500000597954
136,279,220526,6,0,L|170:37,1,236.250002753735,6|0,2:0|0:0,0:0:0:0:
168,45,221062,6,0,B|248:53,1,80.9999953823091,6|0,1:2|0:0,0:0:0:0:
442,119,221330,2,0,B|362:127,1,80.9999953823091
266,236,221598,1,8,0:0:0:0:
266,236,221865,2,0,L|272:125,1,80.9999953823091
139,292,222133,6,0,B|49:321,1,80.9999953823091,2|0,1:2|0:0,0:0:0:0:
252,324,222401,1,0,0:0:0:0:
154,193,222535,2,0,L|52:221,1,80.9999953823091,0|8,1:2|0:0,0:0:0:0:
18,131,222803,2,0,B|175:93,1,161.999990764618
472,43,223205,6,0,B|315:81,1,161.999990764618,6|0,1:2|0:0,0:0:0:0:
472,43,223606,1,0,0:0:0:0:
494,229,223740,1,8,0:0:0:0:
494,229,224008,6,0,L|487:115,1,99.0000003986359,2|0,1:1|0:0,0:0:0:0:
271,142,224276,5,2,0:0:0:0:
374,303,224455,5,0,0:0:0:0:
387,83,224633,5,0,0:0:0:0:
226,257,224812,5,2,1:2:0:0:
381,197,224990,5,0,0:0:0:0:
134,127,225169,5,0,0:0:0:0:
185,361,225348,6,0,L|273:366,1,80.9999953823091,2|0,1:2|0:0,0:0:0:0:
475,239,225615,2,0,L|386:244,1,80.9999953823091,0|0,0:2|0:0,0:0:0:0:
225,256,225883,2,0,L|247:70,1,161.999990764618,8|0,0:0|0:0,0:0:0:0:
120,162,226285,1,0,0:0:0:0:
24,80,226419,6,0,L|37:-2,2,80.9999953823091,2|0|0,1:2|0:0|0:0,0:0:0:0:
57,258,226821,2,0,L|69:338,1,80.9999953823091,0|8,0:0|0:0,0:0:0:0:
281,170,227089,2,0,L|119:161,1,161.999990764618
243,279,227490,5,2,1:2:0:0:
350,259,227624,1,0,0:0:0:0:
404,353,227758,1,0,0:0:0:0:
511,333,227892,1,0,1:0:0:0:
480,141,228026,1,8,0:0:0:0:
480,140,228294,6,0,L|469:238,1,99.0000003986359,2|0,1:1|0:0,0:0:0:0:
357,53,228562,5,2,0:0:0:0:
206,126,228740,5,0,0:0:0:0:
343,212,228919,5,0,0:0:0:0:
243,22,229098,5,10,0:0:0:0:
144,249,229276,5,0,0:0:0:0:
372,226,229455,5,0,0:0:0:0:
191,113,229633,6,0,L|91:119,1,80.9999953823091,6|0,0:2|0:0,0:0:0:0:
161,259,229901,2,0,L|261:265,1,80.9999953823091,0|0,0:2|0:0,0:0:0:0:
33,201,230169,2,0,L|49:367,1,161.999990764618,2|0,0:0|0:0,0:0:0:0:
321,113,230705,6,0,L|421:119,1,80.9999953823091,2|0,0:2|0:0,0:0:0:0:
351,259,230973,2,0,L|251:265,1,80.9999953823091,0|0,0:2|0:0,0:0:0:0:
479,201,231241,1,2,0:0:0:0:
473,254,231374,1,0,0:0:0:0:
468,308,231508,1,0,0:0:0:0:
463,362,231642,1,0,0:0:0:0:
350,359,231776,6,0,L|265:365,2,80.9999953823091,2|0|0,0:0|0:0|0:0,0:0:0:0:
374,269,232178,1,2,0:0:0:0:
374,269,232580,6,0,L|172:281,1,179.999995231629,2|0,0:0|0:0,0:0:0:0:
104,285,233383,2,0,L|193:279,1,89.9999976158143,2|0,0:0|0:0,0:0:0:0:
97,123,233919,6,0,L|86:177,1,44.9999988079071,2|0,0:0|0:0,0:0:0:0:
195,145,234187,2,0,L|184:199,1,44.9999988079071,0|2,0:0|0:0,0:0:0:0:
293,123,234455,1,0,0:0:0:0:
391,101,234723,1,0,0:0:0:0:
489,123,234990,6,0,L|499:188,2,44.9999988079071,2|0|0,0:0|0:0|0:0,0:0:0:0:
391,101,235392,1,2,0:0:0:0:
391,101,235526,5,0,0:0:0:0:
346,99,235659,1,0,0:0:0:0:
301,97,235793,1,0,0:0:0:0:
256,95,235927,1,0,0:0:0:0:
211,93,236062,6,0,L|221:158,2,44.9999988079071,2|0|0,0:0|0:0|0:0,0:0:0:0:
113,115,236464,1,2,0:0:0:0:
113,115,236865,6,0,L|119:299,1,179.999995231629,2|0,0:0|0:0,0:0:0:0:
19,311,237669,1,2,0:0:0:0:
338,331,237937,1,2,0:0:0:0:
