osu file format v14

[General]
AudioFilename: audio.mp3
AudioLeadIn: 0
PreviewTime:348
Countdown: 0
SampleSet: Soft
StackLeniency: 0.5
Mode: 0
LetterboxInBreaks: 0
WidescreenStoryboard: 0

[Editor]
DistanceSpacing: 1.8
BeatDivisor: 4
GridSize: 4
TimelineZoom: 1.7

[Metadata]
Title:Betrayal
TitleUnicode:Betrayal
Artist:Ruler (CV: Hikasa Youko) x Swim Swim (CV: Minase Inori)
ArtistUnicode:ルーラ(CV: 日笠陽子)×スイムスイム(CV: 水瀬いのり)
Creator:VINXIS
Version:Extra: Adoration
Source:魔法少女育成計画
Tags:Mahou Shoujo Ikusei Keikaku Magical Girl Raising Project まほいく Mahoiku japanese anime やいり yairi キャラクターソングアルバム character song album musica magica track # 4 #4 number 2016 ムジカ マギカ jpop j-pop pop
BeatmapID:1176384
BeatmapSetID:555864

[Difficulty]
HPDrainRate:6
CircleSize:4.1
OverallDifficulty:8
ApproachRate:9
SliderMultiplier:3.4
SliderTickRate:1

[Events]
//Background and Video events
0,0,"51078930_p0.jpg",0,0
//Break Periods
2,51975,53319
2,182490,190462
//Storyboard Layer 0 (Background)
//Storyboard Layer 1 (Fail)
//Storyboard Layer 2 (Pass)
//Storyboard Layer 3 (Foreground)
//Storyboard Layer 4 (Overlay)
//Storyboard Sound Samples

[TimingPoints]
348,535.714285714286,4,2,1,25,1,0
5437,-200,4,2,1,25,0,0
6776,-111.111111111111,4,2,1,30,0,0
9723,-200,4,2,1,30,0,0
11062,-111.111111111111,4,2,1,40,0,0
14008,-90.9090909090908,4,2,1,40,0,0
14276,-125,4,2,1,40,0,0
15348,-111.111111111111,4,2,1,40,0,0
19633,-142.857142857143,4,2,1,35,0,0
23383,-200,4,2,1,35,0,0
23919,-142.857142857143,4,2,1,35,0,0
27133,-90.9090909090908,4,2,1,45,0,0
27535,-200,4,2,1,45,0,0
27602,-200,4,2,0,5,0,0
28205,-125,4,2,1,40,0,0
32490,-125,4,2,1,45,0,0
35437,-166.666666666667,4,2,1,45,0,0
36776,-166.666666666667,4,2,1,30,0,0
42401,-142.857142857143,4,2,1,30,0,0
42669,-125,4,2,1,30,0,0
42937,-111.111111111111,4,2,1,30,0,0
43205,-166.666666666667,4,2,1,30,0,0
44544,-142.857142857143,4,2,1,30,0,0
44812,-125,4,2,1,30,0,0
45080,-111.111111111111,4,2,1,30,0,0
45348,-166.666666666667,4,2,1,30,0,0
53919,-90.9090909090908,4,2,1,50,0,1
55794,-133.333333333333,4,2,1,50,0,1
56062,-90.9090909090908,4,2,1,50,0,1
57937,-133.333333333333,4,2,1,50,0,1
58205,-90.9090909090908,4,2,1,50,0,1
60080,-133.333333333333,4,2,1,50,0,1
60348,-90.9090909090908,4,2,1,50,0,1
61419,-111.111111111111,4,2,1,50,0,1
62490,-90.9090909090908,4,2,1,50,0,1
64365,-133.333333333333,4,2,1,50,0,1
64633,-90.9090909090908,4,2,1,50,0,1
68651,-133.333333333333,4,2,1,50,0,1
68919,-90.9090909090908,4,2,1,50,0,1
69990,-111.111111111111,4,2,1,50,0,1
70526,-166.666666666667,4,2,1,40,0,1
71062,-111.111111111111,4,2,1,40,0,0
74008,-90.9090909090908,4,2,1,40,0,0
74276,-125,4,2,1,40,0,0
75348,-111.111111111111,4,2,1,40,0,0
79633,-142.857142857143,4,2,1,40,0,0
87133,-90.9090909090908,4,2,1,45,0,0
88205,-125,4,2,1,45,0,0
95437,-166.666666666667,4,2,1,40,0,0
96776,-166.666666666667,4,2,1,30,0,0
102401,-142.857142857143,4,2,1,30,0,0
102669,-125,4,2,1,30,0,0
102937,-111.111111111111,4,2,1,30,0,0
103205,-166.666666666667,4,2,1,30,0,0
104544,-142.857142857143,4,2,1,30,0,0
104812,-125,4,2,1,30,0,0
105080,-111.111111111111,4,2,1,30,0,0
105348,-166.666666666666,4,2,1,30,0,0
112848,-166.666666666666,4,2,1,40,0,0
113919,-90.9090909090908,4,2,1,50,0,1
115794,-133.333333333333,4,2,1,50,0,1
116062,-90.9090909090908,4,2,1,50,0,1
117937,-133.333333333333,4,2,1,50,0,1
118205,-90.9090909090908,4,2,1,50,0,1
120080,-133.333333333333,4,2,1,50,0,1
120348,-90.9090909090908,4,2,1,50,0,1
121419,-111.111111111111,4,2,1,50,0,1
122490,-90.9090909090908,4,2,1,50,0,1
124365,-133.333333333333,4,2,1,50,0,1
124633,-90.9090909090908,4,2,1,50,0,1
131062,-142.857142857143,4,2,1,35,0,0
146062,-200,4,2,1,20,0,0
148205,-111.111111111111,4,2,1,40,0,0
165348,-166.666666666666,4,2,1,30,0,0
178205,-166.666666666666,4,2,1,20,0,0
191062,-142.857142857142,4,2,1,20,0,0
195348,-142.857142857142,4,2,1,30,0,0
196419,-142.857142857142,4,2,1,35,0,0
196955,-142.857142857142,4,2,1,40,0,0
197490,-333.333333333329,4,2,1,80,0,0
197624,-333.333333333329,4,2,0,30,0,0
199633,-90.9090909090908,4,2,1,50,0,1
201508,-133.333333333333,4,2,1,50,0,1
201776,-90.9090909090908,4,2,1,50,0,1
203651,-133.333333333333,4,2,1,50,0,1
203919,-90.9090909090908,4,2,1,50,0,1
205526,-133.333333333333,4,2,1,50,0,1
206062,-90.9090909090908,4,2,1,50,0,1
207133,-111.111111111111,4,2,1,50,0,1
208205,-90.9090909090908,4,2,1,50,0,1
210080,-133.333333333333,4,2,1,50,0,1
210348,-90.9090909090908,4,2,1,50,0,1
216776,-133.333333333333,4,2,1,30,0,0
219723,-200,4,2,1,30,0,0
220526,-133.333333333333,4,2,1,40,0,0
221062,-111.111111111111,4,2,1,40,0,0
224008,-90.9090909090908,4,2,1,40,0,0
224276,-125,4,2,1,40,0,0
225348,-111.111111111111,4,2,1,40,0,0
229633,-111.111111111111,4,2,1,30,0,0
231776,-111.111111111111,4,2,1,25,0,0
232580,-200,4,2,1,25,0,0

[Colours]
Combo1 : 210,216,179
Combo2 : 129,46,116
Combo3 : 212,170,125
Combo4 : 68,75,110
Combo5 : 239,208,158
Combo6 : 236,115,87
Combo7 : 144,169,183
Combo8 : 87,70,129

[HitObjects]
256,192,348,12,0,2312,0:0:0:0:
264,73,2490,5,2,0:0:0:0:
224,179,2624,1,0,0:0:0:0:
335,206,2758,1,0,0:0:0:0:
290,310,2892,1,2,0:0:0:0:
264,73,3562,5,2,0:0:0:0:
248,158,3696,1,0,0:0:0:0:
302,225,3830,1,0,0:0:0:0:
290,310,3964,1,2,0:0:0:0:
264,73,4633,5,2,0:0:0:0:
274,152,4767,1,0,0:0:0:0:
283,231,4901,1,0,0:0:0:0:
290,310,5035,1,2,0:0:0:0:
290,310,5437,6,0,B|361:304|361:304|387:320|387:320|456:312,1,170,2|0,0:0|0:0,0:0:0:0:
410,168,6240,1,2,0:0:0:0:
410,168,6508,1,0,0:0:0:0:
218,270,6776,6,0,B|179:274|179:274|141:271,1,76.4999976654053,2|0,0:0|0:0,0:0:0:0:
141,65,7044,2,0,B|180:62|180:62|218:65,1,76.4999976654053
184,172,7312,5,2,0:0:0:0:
184,172,7580,1,0,0:0:0:0:
375,266,7848,6,0,B|414:270|414:270|452:267,1,76.4999976654053,2|0,0:0|0:0,0:0:0:0:
452,61,8115,2,0,B|413:58|413:58|375:61,1,76.4999976654053
410,168,8383,5,2,0:0:0:0:
184,172,8652,1,0,0:0:0:0:
280,225,8919,6,0,B|290:189|290:189|292:151,2,76.4999976654053,2|0|0,0:0|0:0|0:0,0:0:0:0:
133,271,9321,1,2,0:0:0:0:
133,270,9723,6,0,B|211:297|211:297|245:389,1,170,2|0,0:0|0:0,0:0:0:0:
121,241,10526,2,0,B|163:236|163:236|202:218,1,85,2|0,0:0|0:0,0:0:0:0:
404,293,11062,6,0,B|367:296|367:296|331:311,1,76.4999976654053,6|0,1:2|0:0,0:0:0:0:
277,119,11330,2,0,B|312:136|312:136|349:143,1,76.4999976654053
228,242,11598,1,8,0:0:0:0:
228,241,11865,2,0,B|190:246|190:246|151:246,1,76.4999976654053
112,128,12133,6,0,B|121:90|121:90|126:52,1,76.4999976654053,2|0,1:2|0:0,0:0:0:0:
0,91,12401,1,0,0:0:0:0:
0,223,12535,2,0,B|4:261|4:261|13:299,1,76.4999976654053,0|8,1:2|0:0,0:0:0:0:
129,155,12803,2,0,B|205:147|205:147|281:151,1,152.999995330811,2|0,0:0|0:0,0:0:0:0:
359,279,13205,6,0,B|435:286|435:286|511:283,1,152.999995330811,2|0,1:2|0:0,0:0:0:0:
511,283,13606,1,0,0:0:0:0:
396,130,13740,1,8,0:0:0:0:
396,130,14008,6,0,B|349:123|349:123|304:134,1,93.5000028533936,2|0,1:1|0:0,0:0:0:0:
103,189,14276,6,0,L|-22:192,2,90.6666666666667,2|0|0,0:0|0:0|0:0,0:0:0:0:
359,279,14812,2,0,L|484:282,2,90.6666666666667,2|0|0,1:2|0:0|0:0,0:0:0:0:
192,5,15348,6,0,B|183:43|183:43|185:81,1,76.4999976654053,2|0,1:2|0:0,0:0:0:0:
264,235,15615,2,0,B|271:198|271:198|271:160,1,76.4999976654053
38,171,15883,2,0,B|103:207|103:207|183:186,1,152.999995330811,8|0,0:0|0:0,0:0:0:0:
114,117,16285,1,0,0:0:0:0:
49,282,16419,6,0,L|38:373,1,76.4999976654053,2|0,1:2|0:0,0:0:0:0:
193,288,16687,1,0,0:0:0:0:
314,362,16821,2,0,B|351:367|351:367|389:362,1,76.4999976654053,0|8,0:0|0:0,0:0:0:0:
482,232,17089,2,0,B|445:227|445:227|407:232,2,76.4999976654053
182,257,17490,6,0,L|191:147,1,76.4999976654053,2|0,1:2|0:0,0:0:0:0:
304,290,17758,2,0,L|310:366,1,76.4999976654053,0|0,0:0|1:0,0:0:0:0:
115,325,18026,2,0,B|149:341|149:341|186:348,1,76.4999976654053,8|0,0:0|0:0,0:0:0:0:
378,200,18294,2,0,B|304:183|304:183|229:192,1,152.999995330811,2|2,1:1|0:0,0:0:0:0:
336,62,18740,5,0,0:0:0:0:
409,227,18919,5,0,0:0:0:0:
336,62,19098,5,10,0:0:0:0:
219,272,19276,5,0,0:0:0:0:
131,111,19455,5,0,0:0:0:0:
454,125,19633,6,0,L|448:5,1,118.999996368408,6|0,1:2|0:0,0:0:0:0:
448,6,20035,1,0,0:0:0:0:
403,206,20169,2,0,L|481:214,1,59.4999981842042,8|0,0:0|0:0,0:0:0:0:
352,119,20437,2,0,L|274:127,1,59.4999981842042
0,260,20705,6,0,B|84:275|84:275|153:206,1,178.499994552612,2|0,1:2|0:0,0:0:0:0:
131,111,21240,2,0,L|72:105,2,59.4999981842042,8|0|0,0:0|0:0|0:0,0:0:0:0:
454,125,21776,6,0,L|448:5,1,118.999996368408,2|0,1:2|0:0,0:0:0:0:
448,6,22178,1,0,0:0:0:0:
365,196,22312,2,0,B|357:225|357:225|353:254,1,59.4999981842042,8|0,0:0|0:0,0:0:0:0:
337,93,22580,2,0,B|307:104|307:104|284:121,1,59.4999981842042
0,260,22848,6,0,B|84:275|84:275|153:206,1,178.499994552612,2|0,1:2|0:0,0:0:0:0:
144,82,23383,6,0,L|149:209,1,127.5,8|0,0:0|0:0,0:0:0:0:
454,125,23919,6,0,L|448:5,1,118.999996368408,2|0,1:2|0:0,0:0:0:0:
448,6,24321,1,0,0:0:0:0:
299,121,24455,2,0,L|377:129,1,59.4999981842042,8|0,0:0|0:0,0:0:0:0:
468,213,24723,2,0,L|390:221,1,59.4999981842042
0,260,24990,6,0,B|84:275|84:275|153:206,1,178.499994552612,2|0,1:2|0:0,0:0:0:0:
144,361,25526,2,0,L|222:353,2,59.4999981842042,8|0|0,0:0|0:0|0:0,0:0:0:0:
454,125,26062,6,0,L|448:5,1,118.999996368408,2|0,1:2|0:0,0:0:0:0:
448,6,26464,1,0,0:0:0:0:
404,205,26598,2,0,B|432:216|432:216|462:220,1,59.4999981842042,8|0,0:0|0:0,0:0:0:0:
361,123,26865,2,0,B|332:126|332:126|304:137,1,59.4999981842042
0,261,27133,6,0,B|84:275|84:275|156:203,1,187.000005706787,2|0,1:1|0:0,0:0:0:0:
423,189,27535,6,0,L|406:359,1,170,2|0,1:1|0:0,0:0:0:0:
405,358,28205,6,0,B|343:333|343:333|275:339,1,136,6|0,1:2|0:0,0:0:0:0:
101,234,28606,2,0,B|163:259|163:259|235:255,1,136,2|0,1:2|0:0,0:0:0:0:
66,327,29008,2,0,B|32:319|32:319|0:320,1,68
184,132,29276,6,0,B|200:66|200:66|186:0,1,136,2|0,1:2|0:0,0:0:0:0:
320,113,29678,2,0,B|306:179|306:179|322:245,1,136,2|0,0:0|0:0,0:0:0:0:
354,20,30080,2,0,B|315:15|315:15|263:28,1,68,0|0,1:0|0:0,0:0:0:0:
351,258,30348,6,0,L|505:244,1,136,2|0,1:2|0:0,0:0:0:0:
198,160,30749,2,0,L|44:146,1,136,2|0,1:2|0:0,0:0:0:0:
242,332,31151,2,0,L|254:244,1,68
282,7,31419,5,2,1:2:0:0:
328,384,31687,1,0,0:0:0:0:
224,121,31955,1,10,0:0:0:0:
386,270,32223,1,0,0:0:0:0:
137,274,32490,6,0,L|2:287,1,136,6|0,1:2|0:0,0:0:0:0:
1,287,32892,1,0,0:0:0:0:
207,338,33026,2,0,B|222:309|222:309|230:276,1,68,8|0,0:0|0:0,0:0:0:0:
142,146,33294,2,0,L|18:151,1,102
163,170,33562,6,0,B|202:116|202:116|219:50,1,136,0|0,1:0|0:0,0:0:0:0:
219,50,33964,1,0,0:0:0:0:
100,258,34098,2,0,L|111:325,2,68,8|0|0,0:0|0:0|1:0,0:0:0:0:
318,136,34633,6,0,B|336:200|336:200|316:268,1,136,0|0,1:0|0:0,0:0:0:0:
316,266,35035,1,0,0:0:0:0:
213,81,35169,1,8,0:0:0:0:
322,272,35437,6,0,B|382:285|382:285|409:272|409:272|470:283,1,152.999995330811,6|0,1:2|0:0,0:0:0:0:
469,282,35973,1,0,0:0:0:0:
433,128,36106,1,0,3:0:0:0:
433,128,36173,1,0,3:0:0:0:
433,128,36240,2,0,B|422:78|422:78|430:27,1,101.999996887207,0|8,3:0|0:3,0:0:0:0:
445,325,36776,5,2,1:2:0:0:
88,163,37312,1,2,1:2:0:0:
445,325,37848,5,2,1:2:0:0:
352,311,38115,1,2,0:0:0:0:
263,279,38383,1,2,1:2:0:0:
237,301,38516,1,0,0:0:0:0:
182,230,38651,1,2,0:0:0:0:
151,244,38784,1,0,0:0:0:0:
88,163,38919,5,2,1:2:0:0:
445,1,39455,1,2,1:2:0:0:
88,163,39991,5,2,1:2:0:0:
181,149,40258,1,2,0:0:0:0:
270,117,40526,1,2,1:2:0:0:
296,139,40659,1,0,0:0:0:0:
351,68,40794,1,2,0:0:0:0:
382,82,40927,1,0,0:0:0:0:
445,1,41062,5,2,1:2:0:0:
382,82,41330,1,0,0:0:0:0:
296,139,41598,1,2,1:2:0:0:
200,177,41865,1,0,0:0:0:0:
99,195,42133,6,0,L|105:267,1,50.9999984436036,2|0,1:2|0:0,0:0:0:0:
200,177,42401,2,0,L|206:249,1,59.4999981842042,2|0,0:0|0:0,0:0:0:0:
296,139,42669,2,0,L|302:211,1,68,2|0,1:2|0:0,0:0:0:0:
382,82,42937,2,0,L|389:168,1,76.4999976654053,2|0,0:0|0:0,0:0:0:0:
445,277,43205,5,2,1:2:0:0:
382,196,43473,1,0,0:0:0:0:
296,139,43741,1,2,1:2:0:0:
200,101,44008,1,0,0:0:0:0:
99,83,44276,6,0,L|105:11,1,50.9999984436036,2|0,1:2|0:0,0:0:0:0:
200,101,44544,2,0,L|206:29,1,59.4999981842042,2|0,0:0|0:0,0:0:0:0:
296,139,44812,2,0,L|302:67,1,68,2|0,1:2|0:0,0:0:0:0:
382,196,45080,2,0,L|390:109,1,76.4999976654053,2|0,0:0|0:0,0:0:0:0:
361,299,45348,6,0,B|411:289|411:289|462:293,1,101.999996887207,2|0,1:2|0:0,0:0:0:0:
204,384,45883,2,0,B|154:374|154:374|103:378,1,101.999996887207,2|0,1:2|0:0,0:0:0:0:
411,90,46419,2,0,B|461:80|461:80|512:84,1,101.999996887207,2|0,1:2|0:0,0:0:0:0:
100,226,46955,2,0,B|50:216|50:216|0:220,1,101.999996887207,2|0,1:2|0:0,0:0:0:0:
400,351,47490,6,0,L|411:233,1,101.999996887207,2|0,1:2|0:0,0:0:0:0:
112,33,48026,2,0,L|101:151,1,101.999996887207,2|0,1:2|0:0,0:0:0:0:
326,258,48562,2,0,L|337:140,1,101.999996887207,2|0,1:2|0:0,0:0:0:0:
186,126,49098,2,0,L|175:244,1,101.999996887207,2|0,1:2|0:0,0:0:0:0:
277,57,49633,5,2,0:0:0:0:
360,127,50437,1,0,0:0:0:0:
424,40,50705,1,2,0:0:0:0:
424,40,51508,2,0,L|493:138,1,101.999996887207,0|2,0:0|0:0,0:0:0:0:
249,174,53919,6,0,L|259:362,2,187.000005706787,6|0|8,1:2|0:0|0:1,0:0:0:0:
258,361,54723,2,0,B|304:370|304:370|350:359,1,93.5000028533936,0|0,1:0|3:0,0:0:0:0:
400,290,54923,1,0,3:0:0:0:
400,290,54990,6,0,B|374:202|374:202|394:106,1,187.000005706787,0|0,3:0|3:0,0:0:0:0:
393,109,55392,1,0,3:0:0:0:
304,283,55526,1,8,0:1:0:0:
304,283,55794,6,0,B|277:266|277:266|246:256,1,63.7500024318696
37,318,56062,6,0,B|84:316|84:316|128:301,1,93.5000028533936,2|0,1:2|0:0,0:0:0:0:
286,173,56330,2,0,B|241:158|241:158|194:156,1,93.5000028533936
72,233,56598,1,8,0:1:0:0:
233,72,56865,2,0,B|223:117|223:117|196:155,1,93.5000028533936,0|0,1:0|3:0,0:0:0:0:
140,81,57066,1,0,3:0:0:0:
140,81,57133,6,0,B|93:75|93:75|49:88,1,93.5000028533936,0|0,3:0|3:0,0:0:0:0:
225,261,57401,2,0,B|271:271|271:271|318:272,1,93.5000028533936
346,43,57669,1,8,0:1:0:0:
346,43,57937,6,0,B|346:75|346:75|341:107,1,63.7500024318696
226,262,58205,6,0,L|235:75,2,187.000005706787,6|0|8,1:2|0:0|0:1,0:0:0:0:
235,75,59008,2,0,B|189:67|189:67|143:76,1,93.5000028533936,0|0,1:0|3:0,0:0:0:0:
73,176,59209,1,0,3:0:0:0:
73,176,59276,6,0,B|31:95|31:95|54:2,1,187.000005706787,0|0,3:0|3:0,0:0:0:0:
53,2,59678,1,0,3:0:0:0:
186,153,59812,1,8,0:1:0:0:
60,9,60080,6,0,B|92:15|92:15|124:16,1,63.7500024318696
291,92,60348,6,0,B|360:79|360:79|430:86,1,140.25000428009,2|0,1:2|0:0,0:0:0:0:
429,85,60615,1,0,0:0:0:0:
488,313,60883,2,0,L|307:313,1,140.25000428009,10|0,1:2|0:0,0:0:0:0:
323,312,61151,2,0,B|336:267|336:267|328:220,1,93.5000028533936,0|0,0:0|3:0,0:0:0:0:
249,266,61352,1,0,3:0:0:0:
249,266,61419,6,0,B|211:269|211:269|173:263,1,76.4999976654053,0|0,3:0|0:0,0:0:0:0:
96,172,61687,2,0,B|58:168|58:168|21:173,1,76.4999976654053,0|0,1:0|3:0,0:0:0:0:
20,173,61888,1,0,3:0:0:0:
20,173,61955,1,0,3:0:0:0:
113,56,62089,1,8,0:3:0:0:
214,176,62223,2,0,B|214:137|214:137|206:100,1,76.4999976654053,8|8,0:3|0:3,0:0:0:0:
126,307,62490,6,0,B|218:296|218:296|312:321,1,187.000005706787,6|0,1:2|0:0,0:0:0:0:
511,191,63026,2,0,B|419:202|419:202|328:179,1,187.000005706787,8|0,0:1|1:0,0:0:0:0:
187,98,63428,1,0,3:0:0:0:
187,98,63495,1,0,3:0:0:0:
186,98,63562,6,0,B|232:89|232:89|277:100,1,93.5000028533936,0|0,3:0|0:0,0:0:0:0:
373,2,63830,1,0,3:0:0:0:
373,2,63964,1,0,3:0:0:0:
507,106,64098,2,0,B|462:116|462:116|415:114,1,93.5000028533936,8|0,0:1|0:0,0:0:0:0:
270,38,64365,6,0,B|278:68|278:68|277:100,1,63.7500024318696
324,270,64633,6,0,B|320:224|320:224|328:178,1,93.5000028533936,2|0,1:2|0:0,0:0:0:0:
171,224,64901,2,0,B|173:270|173:270|168:316,1,93.5000028533936
267,357,65169,2,0,B|334:374|334:374|404:368,1,140.25000428009,8|0,0:1|0:0,0:0:0:0:
404,368,65437,1,0,0:0:0:0:
483,217,65571,1,0,3:0:0:0:
483,217,65638,1,0,3:0:0:0:
483,217,65705,6,0,B|437:208|437:208|391:216,1,93.5000028533936,0|0,3:0|3:0,0:0:0:0:
391,217,66240,2,0,L|384:116,1,93.5000028533936,8|0,0:1|0:0,0:0:0:0:
201,99,66508,2,0,L|208:-2,1,93.5000028533936
254,246,66776,6,0,B|165:268|165:268|72:243,1,187.000005706787,2|0,1:2|0:0,0:0:0:0:
377,243,67312,2,0,L|369:141,1,93.5000028533936,8|0,0:1|0:0,0:0:0:0:
192,30,67580,2,0,L|186:124,1,93.5000028533936,0|0,1:0|3:0,0:0:0:0:
271,197,67781,1,0,3:0:0:0:
271,197,67848,6,0,L|265:395,1,187.000005706787,0|0,3:0|3:0,0:0:0:0:
102,346,68249,1,0,3:0:0:0:
56,265,68383,2,0,B|56:218|56:218|67:172,1,93.5000028533936,8|0,0:1|0:0,0:0:0:0:
315,271,68651,6,0,B|284:282|284:282|253:283,1,63.7500024318696
156,234,68919,6,0,B|178:145|178:145|248:81,1,187.000005706787,6|0,1:2|0:0,0:0:0:0:
248,80,69321,1,0,0:0:0:0:
15,123,69455,1,8,1:1:0:0:
15,123,69723,2,0,L|9:221,1,93.5000028533936,0|0,1:0|3:0,0:0:0:0:
0,314,69923,1,0,3:0:0:0:
0,313,69990,6,0,B|35:301|35:301|73:298,1,76.4999976654053,0|0,3:0|0:0,0:0:0:0:
301,350,70258,2,0,B|263:347|263:347|227:335,1,76.4999976654053,0|0,1:0|0:0,0:0:0:0:
177,203,70526,6,0,L|170:39,1,152.999995330811,2|0,0:0|0:0,0:0:0:0:
170,50,71062,6,0,P|230:63|277:56,1,76.4999976654053,6|0,1:2|0:0,0:0:0:0:
420,97,71330,2,0,P|381:98|345:109,1,76.4999976654053
253,243,71598,1,8,0:0:0:0:
253,243,71865,2,0,P|258:193|253:158,1,76.4999976654053
213,327,72133,6,0,P|250:332|288:328,2,76.4999976654053,2|0|0,1:2|0:0|0:0,0:0:0:0:
145,200,72535,2,0,P|141:162|146:125,1,76.4999976654053,0|8,1:2|0:0,0:0:0:0:
252,17,72803,2,0,P|268:92|254:167,1,152.999995330811
369,316,73205,6,0,P|355:241|371:167,1,152.999995330811,2|0,1:2|0:0,0:0:0:0:
371,166,73606,1,0,0:0:0:0:
250,277,73740,1,8,0:0:0:0:
250,277,74008,6,0,P|179:274|148:280,1,93.5000028533936,2|0,1:1|0:0,0:0:0:0:
358,151,74276,6,0,L|372:24,2,90.6666666666667,2|0|0,0:0|0:0|0:0,0:0:0:0:
250,277,74812,2,0,L|259:367,2,90.6666666666667,2|0|0,1:2|0:0|0:0,0:0:0:0:
368,169,75348,6,0,P|406:169|444:171,1,76.4999976654053,2|0,1:2|0:0,0:0:0:0:
463,347,75615,2,0,P|424:349|386:349,1,76.4999976654053
222,266,75883,2,0,P|296:272|387:252,1,152.999995330811,8|0,0:0|0:0,0:0:0:0:
358,151,76285,1,0,0:0:0:0:
265,101,76419,6,0,L|173:94,1,76.4999976654053,2|0,1:2|0:0,0:0:0:0:
164,197,76687,1,0,0:0:0:0:
77,254,76821,2,0,L|69:177,1,76.4999976654053,0|8,0:0|0:0,0:0:0:0:
96,0,77089,2,0,L|88:76,2,76.4999976654053
227,45,77490,6,0,P|265:41|303:40,1,76.4999976654053,2|0,1:2|0:0,0:0:0:0:
240,201,77758,2,0,P|201:200|163:196,1,76.4999976654053,0|0,0:0|1:0,0:0:0:0:
303,134,78026,2,0,L|403:138,1,76.4999976654053,8|0,0:0|0:0,0:0:0:0:
353,384,78294,2,0,P|337:296|359:194,1,152.999995330811,2|2,1:1|1:2,0:0:0:0:
298,18,78740,5,0,1:2:0:0:
136,150,78919,5,0,1:2:0:0:
403,115,79098,5,10,1:2:0:0:
213,267,79276,5,0,1:2:0:0:
172,32,79455,5,0,1:2:0:0:
330,262,79633,6,0,P|271:255|213:267,1,118.999996368408,6|0,1:2|0:0,0:0:0:0:
96,345,80035,1,0,0:0:0:0:
96,345,80169,2,0,L|103:258,1,59.4999981842042,8|0,0:0|0:0,0:0:0:0:
136,150,80437,2,0,L|140:209,1,59.4999981842042
19,208,80705,6,0,L|63:30,1,178.499994552612,2|0,1:2|0:0,0:0:0:0:
201,17,81240,2,0,P|169:22|130:17,1,59.4999981842042,8|0,0:0|0:0,0:0:0:0:
270,113,81508,1,0,0:0:0:0:
270,113,81776,6,0,L|403:101,1,118.999996368408,2|0,1:2|0:0,0:0:0:0:
232,264,82178,1,0,0:0:0:0:
232,264,82312,2,0,P|236:226|236:190,1,59.4999981842042,8|0,0:0|0:0,0:0:0:0:
130,153,82580,2,0,P|130:183|134:213,1,59.4999981842042
19,208,82848,6,0,L|63:30,1,178.499994552612,2|0,1:2|0:0,0:0:0:0:
201,17,83383,1,8,0:0:0:0:
201,367,83919,6,0,P|265:353|368:368,1,118.999996368408,2|0,1:2|0:0,0:0:0:0:
413,292,84321,1,0,0:0:0:0:
413,292,84455,2,0,L|341:277,1,59.4999981842042,8|0,0:0|0:0,0:0:0:0:
264,183,84723,2,0,L|322:195,1,59.4999981842042
493,208,84990,6,0,L|449:30,1,178.499994552612,2|0,1:2|0:0,0:0:0:0:
311,17,85526,2,0,P|343:22|382:17,1,59.4999981842042,8|0,0:0|0:0,0:0:0:0:
213,89,85794,1,0,0:0:0:0:
213,89,86062,6,0,L|206:207,1,118.999996368408,2|0,1:2|0:0,0:0:0:0:
293,271,86464,1,0,0:0:0:0:
293,271,86598,2,0,L|370:283,1,59.4999981842042,8|0,0:0|0:0,0:0:0:0:
368,154,86865,2,0,L|309:163,1,59.4999981842042
493,208,87133,6,0,L|445:15,1,187.000005706787,2|0,1:1|0:0,0:0:0:0:
368,154,87535,1,2,1:1:0:0:
484,237,87669,1,2,0:0:0:0:
484,237,88205,6,0,P|425:268|357:270,1,136,6|0,1:2|0:0,0:0:0:0:
129,124,88606,2,0,P|196:126|256:157,1,136,2|0,1:2|0:0,0:0:0:0:
258,258,89008,2,0,P|235:282|188:308,1,68
358,159,89276,6,0,P|371:73|357:-23,1,136,2|0,1:2|0:0,0:0:0:0:
456,250,89678,2,0,P|453:317|465:384,1,136,2|0,0:0|0:0,0:0:0:0:
448,158,90080,2,0,P|479:144|513:141,1,68,0|0,1:0|0:0,0:0:0:0:
361,248,90348,6,0,P|271:263|188:248,1,136,2|0,1:2|0:0,0:0:0:0:
133,177,90749,2,0,P|43:162|-40:177,1,136,2|0,1:2|0:0,0:0:0:0:
228,168,91151,2,0,P|241:99|237:76,1,68
132,273,91419,5,2,1:2:0:0:
327,209,91687,1,0,0:0:0:0:
272,368,91955,1,10,0:0:0:0:
399,373,92223,1,0,0:0:0:0:
458,198,92490,6,0,P|371:192|309:222,1,136,6|0,1:2|0:0,0:0:0:0:
272,368,92892,1,0,0:0:0:0:
271,368,93026,2,0,P|273:334|270:300,1,68,8|0,0:0|0:0,0:0:0:0:
211,198,93294,2,0,P|213:134|221:96,1,102
129,30,93562,6,0,P|65:33|-12:90,1,136,0|0,1:0|0:0,0:0:0:0:
22,290,93964,1,0,0:0:0:0:
100,208,94098,2,0,P|100:174|95:141,1,68,8|0,0:0|0:0,0:0:0:0:
13,318,94365,2,0,P|91:346|127:346,1,102,0|0,1:0|0:0,0:0:0:0:
174,291,94633,6,0,P|224:286|323:305,1,136,0|0,1:0|0:0,0:0:0:0:
308,299,95035,1,0,0:0:0:0:
265,72,95169,1,8,0:0:0:0:
312,302,95437,6,0,B|404:249|422:339|508:293,1,203.999993774414,6|0,1:2|0:0,0:0:0:0:
475,40,96240,1,8,3:3:0:0:
456,225,96508,1,4,0:3:0:0:
258,79,96776,6,0,L|100:96,1,152.999995330811,2|0,1:2|0:0,0:0:0:0:
21,146,97312,2,0,L|29:205,2,50.9999984436036,2|0|0,1:2|0:0|0:0,0:0:0:0:
21,125,97848,5,2,1:2:0:0:
98,25,98115,1,2,0:0:0:0:
217,69,98383,2,0,L|275:49,1,50.9999984436036,2|0,1:2|0:0,0:0:0:0:
390,145,98651,2,0,L|332:125,1,50.9999984436036,2|0,0:0|0:0,0:0:0:0:
172,211,98919,6,0,L|330:228,1,152.999995330811,2|0,1:2|0:0,0:0:0:0:
409,278,99455,2,0,L|401:337,2,50.9999984436036,2|0|0,1:2|0:0|0:0,0:0:0:0:
409,257,99990,5,2,1:2:0:0:
332,157,100257,1,2,0:0:0:0:
213,201,100526,2,0,L|155:181,1,50.9999984436036,2|0,1:2|0:0,0:0:0:0:
40,277,100794,2,0,L|98:257,1,50.9999984436036,2|0,0:0|0:0,0:0:0:0:
283,143,101062,5,2,1:2:0:0:
360,243,101330,1,0,0:0:0:0:
147,11,101598,1,2,1:2:0:0:
70,111,101866,1,0,0:0:0:0:
283,143,102133,6,0,L|309:83,1,50.9999984436036,2|0,1:2|0:0,0:0:0:0:
360,243,102401,2,0,L|386:183,1,59.4999981842042,2|0,0:0|0:0,0:0:0:0:
147,11,102669,2,0,L|174:74,1,68,2|0,1:2|0:0,0:0:0:0:
70,111,102937,2,0,L|103:187,1,76.4999976654053,2|0,0:0|0:0,0:0:0:0:
283,143,103205,5,2,1:2:0:0:
360,43,103473,1,0,0:0:0:0:
147,275,103741,1,2,1:2:0:0:
70,175,104009,1,0,0:0:0:0:
283,143,104276,6,0,L|309:203,1,50.9999984436036,2|0,1:2|0:0,0:0:0:0:
360,43,104544,2,0,L|386:103,1,59.4999981842042,2|0,0:0|0:0,0:0:0:0:
147,275,104812,2,0,L|174:212,1,68,2|0,1:2|0:0,0:0:0:0:
70,175,105080,2,0,L|103:99,1,76.4999976654053,2|0,0:0|0:0,0:0:0:0:
48,281,105348,6,0,P|44:331|46:382,1,101.999996887207,2|0,1:2|0:0,0:0:0:0:
283,217,105883,2,0,P|286:267|284:318,1,101.999996887207,2|0,1:2|0:0,0:0:0:0:
46,382,106419,2,0,P|43:331|47:280,1,101.999996887207,2|0,1:2|0:0,0:0:0:0:
283,217,106955,2,0,P|285:166|281:115,1,101.999996887207,2|0,1:2|0:0,0:0:0:0:
61,10,107490,6,0,P|106:35|156:46,1,101.999996887207,2|0,1:2|0:0,0:0:0:0:
399,53,108026,2,0,P|349:64|305:89,1,101.999996887207,2|0,1:2|0:0,0:0:0:0:
179,230,108562,2,0,P|134:205|84:194,1,101.999996887207,2|0,1:2|0:0,0:0:0:0:
329,321,109098,2,0,P|373:296|423:285,1,101.999996887207,2|0,1:2|0:0,0:0:0:0:
401,379,109633,5,2,1:2:0:0:
440,169,109901,1,0,0:0:0:0:
261,250,110169,2,0,P|236:253|211:251,2,50.9999984436036,2|0|0,1:2|0:0|0:0,0:0:0:0:
362,60,110705,5,2,1:2:0:0:
240,169,110973,1,0,0:0:0:0:
462,196,111240,2,0,P|487:199|512:197,2,50.9999984436036,2|0|0,1:2|0:0|0:0,0:0:0:0:
108,65,111776,6,0,L|97:180,1,101.999996887207,2|0,1:2|0:0,0:0:0:0:
274,259,112178,1,0,0:0:0:0:
274,259,112312,2,0,L|283:360,1,101.999996887207,2|0,1:2|0:0,0:0:0:0:
230,131,112848,5,8,0:1:0:0:
230,131,113115,1,0,1:0:0:0:
353,153,113249,1,0,1:0:0:0:
310,36,113383,1,8,0:1:0:0:
65,186,113651,5,0,1:0:0:0:
179,119,113919,6,0,L|170:306,2,187.000005706787,6|0|8,1:2|0:0|0:1,0:0:0:0:
178,314,114723,2,0,P|235:324|288:319,1,93.5000028533936,0|0,1:0|3:0,0:0:0:0:
270,322,114923,1,0,3:0:0:0:
270,322,114990,6,0,P|327:312|449:375,1,187.000005706787,0|0,3:0|3:0,0:0:0:0:
440,364,115392,1,0,3:0:0:0:
348,161,115526,1,8,0:1:0:0:
348,160,115794,6,0,P|343:192|343:224,1,63.7500024318696
368,78,116062,6,0,P|349:35|319:0,1,93.5000028533936,2|0,1:2|0:0,0:0:0:0:
182,137,116330,2,0,P|219:109|263:93,1,93.5000028533936
226,241,116598,2,0,P|179:246|133:238,1,93.5000028533936,8|0,0:1|0:0,0:0:0:0:
104,89,116865,2,0,P|139:119|182:137,1,93.5000028533936,0|0,1:0|3:0,0:0:0:0:
182,137,117066,1,0,3:0:0:0:
182,137,117133,6,0,P|219:109|263:93,1,93.5000028533936,0|0,3:0|3:0,0:0:0:0:
379,168,117401,2,0,P|416:196|460:212,1,93.5000028533936
275,213,117669,1,8,0:1:0:0:
275,213,117937,6,0,P|275:248|282:298,1,63.7500024318696
460,212,118205,6,0,L|442:26,2,187.000005706787,6|0|8,1:2|0:0|0:1,0:0:0:0:
449,32,119008,2,0,P|414:62|371:80,1,93.5000028533936,0|0,1:0|3:0,0:0:0:0:
371,80,119209,1,0,3:0:0:0:
371,80,119276,6,0,P|334:52|290:36,2,93.5000028533936,0|0|0,3:0|0:0|3:0,0:0:0:0:
285,140,119678,1,0,3:0:0:0:
171,32,119812,1,8,0:1:0:0:
171,32,120080,6,0,P|176:82|176:110,1,63.7500024318696
245,271,120348,6,0,P|253:202|285:140,1,140.25000428009,2|0,1:2|0:0,0:0:0:0:
285,140,120615,1,0,0:0:0:0:
171,313,120883,2,0,P|103:277|-5:284,1,187.000005706787,10|0,1:2|0:0,0:0:0:0:
77,172,121285,1,0,3:0:0:0:
77,172,121352,1,0,3:0:0:0:
77,172,121419,6,0,B|73:134|83:97,1,76.4999976654053,0|0,3:0|0:0,0:0:0:0:
187,2,121687,2,0,B|197:38|192:78,1,76.4999976654053,0|0,1:0|3:0,0:0:0:0:
192,77,121888,1,0,3:0:0:0:
192,77,121955,2,0,P|259:65|279:68,1,76.4999976654053,0|8,3:0|0:3,0:0:0:0:
376,219,122223,2,0,P|337:218|301:207,1,76.4999976654053,8|8,0:3|0:3,0:0:0:0:
461,111,122490,6,0,P|491:177|497:309,2,187.000005706787,6|0|8,1:2|0:0|0:1,0:0:0:0:
507,297,123294,2,0,L|385:315,1,93.5000028533936,0|0,1:0|3:0,0:0:0:0:
414,310,123495,1,0,3:0:0:0:
414,310,123562,6,0,P|340:297|245:353,1,187.000005706787,0|0,3:0|3:0,0:0:0:0:
246,350,123964,1,0,3:0:0:0:
354,133,124098,1,8,0:1:0:0:
354,133,124365,6,0,L|346:202,1,63.7500024318696
200,111,124633,6,0,P|242:91|288:85,1,93.5000028533936,2|0,1:2|0:0,0:0:0:0:
106,131,124901,2,0,P|59:124|17:105,1,93.5000028533936
172,199,125169,2,0,P|177:245|173:291,2,93.5000028533936,8|0|0,0:1|0:0|0:0,0:0:0:0:
101,13,125571,1,0,3:0:0:0:
101,13,125638,1,0,3:0:0:0:
101,13,125705,6,0,L|194:22,1,93.5000028533936,0|0,3:0|3:0,0:0:0:0:
194,22,126240,2,0,P|194:68|184:114,1,93.5000028533936,8|0,0:1|0:0,0:0:0:0:
279,257,126508,2,0,P|269:211|269:164,1,93.5000028533936
354,76,126776,5,2,1:2:0:0:
354,76,127312,2,0,P|310:89|264:85,1,93.5000028533936,8|0,0:1|0:0,0:0:0:0:
81,208,127580,2,0,P|125:195|172:199,1,93.5000028533936,0|0,1:0|3:0,0:0:0:0:
172,199,127781,1,0,3:0:0:0:
172,199,127848,6,0,L|166:311,1,93.5000028533936,0|0,3:0|0:0,0:0:0:0:
297,357,128115,1,0,3:0:0:0:
356,256,128249,2,0,P|269:244|243:250,2,93.5000028533936,0|8|0,3:0|0:1|0:0,0:0:0:0:
444,351,128651,2,0,P|476:288|468:186,1,140.25000428009
478,219,128919,6,0,P|402:180|359:73,1,187.000005706787,6|0,1:2|0:0,0:0:0:0:
359,91,129321,1,0,0:0:0:0:
172,199,129455,1,8,1:1:0:0:
172,199,129723,2,0,L|176:105,1,93.5000028533936,0|0,1:0|3:0,0:0:0:0:
176,105,129923,1,0,3:0:0:0:
176,105,129990,5,0,3:0:0:0:
79,275,130258,1,0,1:0:0:0:
243,379,130526,1,8,0:3:0:0:
345,213,130794,2,0,B|380:152|380:152|356:73,1,140.25000428009,8|0,0:3|0:0,0:0:0:0:
359,85,131062,5,2,1:2:0:0:
238,137,131330,1,0,0:0:0:0:
193,260,131598,1,0,0:0:0:0:
243,379,131865,2,0,L|327:369,1,59.4999981842042,2|0,1:2|0:0,0:0:0:0:
180,293,132133,6,0,L|51:313,1,118.999996368408,2|0,0:0|0:0,0:0:0:0:
120,193,132669,1,0,0:0:0:0:
26,98,132937,2,0,B|21:69|21:69|23:40,1,59.4999981842042,2|0,1:2|0:0,0:0:0:0:
310,51,133205,6,0,L|133:65,1,178.499994552612,2|0,0:0|0:0,0:0:0:0:
152,176,133740,2,0,L|329:189,1,178.499994552612,2|0,0:0|0:0,0:0:0:0:
418,254,134276,2,0,B|436:169|436:169|387:93,2,178.499994552612,2|0|0,1:2|0:0|1:0,0:0:0:0:
291,287,135348,6,0,P|246:271|106:324,1,178.499994552612,2|0,0:0|0:0,0:0:0:0:
67,357,135883,1,0,0:0:0:0:
39,256,136151,2,0,L|58:68,1,178.499994552612,2|0,1:2|0:0,0:0:0:0:
66,0,136687,1,0,0:0:0:0:
150,49,136955,2,0,L|131:237,1,178.499994552612,2|0,0:0|0:0,0:0:0:0:
124,304,137491,5,2,1:2:0:0:
251,274,137758,1,0,0:0:0:0:
330,169,138026,1,2,1:2:0:0:
348,39,138294,1,0,0:0:0:0:
227,89,138562,5,2,1:2:0:0:
187,166,138740,5,0,1:2:0:0:
187,253,138919,5,0,1:2:0:0:
246,317,139098,5,2,1:2:0:0:
330,339,139276,5,0,1:2:0:0:
416,326,139455,5,0,1:2:0:0:
487,275,139633,6,0,L|491:205,1,59.4999981842042,2|0,1:2|0:0,0:0:0:0:
400,213,139901,2,0,L|404:143,1,59.4999981842042,2|0,0:0|0:0,0:0:0:0:
313,151,140169,2,0,L|317:81,1,59.4999981842042,2|0,1:2|0:0,0:0:0:0:
226,89,140437,2,0,L|230:19,1,59.4999981842042,2|0,0:0|0:0,0:0:0:0:
139,26,140705,2,0,P|119:111|164:186,1,178.499994552612,2|0,1:2|0:0,0:0:0:0:
164,186,141240,2,0,P|193:180|223:181,2,59.4999981842042,2|0|0,1:2|0:0|0:0,0:0:0:0:
487,275,141776,6,0,L|491:205,1,59.4999981842042,2|0,1:2|0:0,0:0:0:0:
400,213,142044,2,0,L|404:143,1,59.4999981842042,2|0,0:0|0:0,0:0:0:0:
313,151,142312,2,0,L|317:81,1,59.4999981842042,2|0,1:2|0:0,0:0:0:0:
226,89,142580,2,0,L|230:19,1,59.4999981842042,2|0,0:0|0:0,0:0:0:0:
139,26,142848,2,0,P|119:111|164:186,2,178.499994552612,2|0|0,1:2|0:0|0:0,0:0:0:0:
338,310,143919,6,0,P|358:225|313:151,2,178.499994552612,2|0|8,1:2|0:0|0:0,0:0:0:0:
193,174,144990,2,0,L|216:44,1,118.999996368408,8|8,0:0|0:0,0:0:0:0:
275,241,145526,1,8,0:0:0:0:
275,241,145794,1,8,0:0:0:0:
398,367,146062,6,0,L|286:351,1,85,4|0,3:2|0:0,0:0:0:0:
114,367,146598,2,0,L|226:351,1,85,0|0,3:0|0:0,0:0:0:0:
400,344,147133,2,0,L|288:328,1,85,0|0,3:0|0:0,0:0:0:0:
113,344,147669,2,0,L|225:328,1,85,0|0,3:0|0:0,0:0:0:0:
263,246,148071,1,0,0:0:0:0:
263,246,148138,1,0,0:0:0:0:
263,246,148205,6,0,B|316:152|228:120|277:23,1,229.499992996216,6|0,1:2|0:0,0:0:0:0:
277,24,148740,1,8,0:0:0:0:
285,31,149008,2,0,P|177:56|131:157,1,229.499992996216
162,257,149544,6,0,B|164:295|164:295|159:333,1,76.4999976654053
255,359,149812,2,0,B|249:320|249:320|253:283,1,76.4999976654053,8|0,0:0|0:0,0:0:0:0:
371,226,150080,2,0,B|335:209|335:209|299:217,1,76.4999976654053,0|0,0:0|1:0,0:0:0:0:
331,314,150348,6,0,B|403:337|403:337|486:321,2,152.999995330811,2|0|8,1:2|0:0|0:0,0:0:0:0:
263,136,151151,2,0,P|203:114|55:182,1,229.499992996216,0|0,1:0|0:0,0:0:0:0:
299,218,151687,6,0,L|391:207,1,76.4999976654053,2|0,0:0|0:0,0:0:0:0:
376,54,151955,2,0,L|300:44,1,76.4999976654053,2|0,1:2|0:0,0:0:0:0:
477,55,152223,2,0,P|475:108|471:141,1,76.4999976654053,2|0,0:0|0:0,0:0:0:0:
477,335,152490,6,0,P|481:297|482:259,1,76.4999976654053,2|0,1:2|0:0,0:0:0:0:
477,335,152758,2,0,B|401:323|401:323|328:340,1,152.999995330811,0|8,0:0|0:0,0:0:0:0:
51,270,153294,2,0,P|124:287|312:152,1,305.999990661621,0|0,0:0|0:1,0:0:0:0:
261,62,153964,1,0,1:0:0:0:
363,7,154098,2,0,L|453:17,2,76.4999976654053,8|0|0,0:0|0:0|0:0,0:0:0:0:
325,169,154499,1,0,1:0:0:0:
460,267,154633,6,0,B|467:321|467:321|462:378,2,101.999996887207,2|2|2,1:2|0:1|0:1,0:0:0:0:
233,376,155169,2,0,B|226:326|226:326|231:275,2,101.999996887207,8|2|2,0:2|0:1|0:1,0:0:0:0:
268,171,155705,2,0,B|212:166|212:166|181:180|181:180|118:176,1,152.999995330811,2|0,0:2|1:1,0:0:0:0:
268,171,156240,6,0,B|326:191|358:142|419:167,1,152.999995330811,0|0,1:0|0:0,0:0:0:0:
381,261,156642,1,0,0:0:0:0:
294,76,156776,6,0,P|289:40|297:-13,1,76.4999976654053,6|0,1:2|0:0,0:0:0:0:
132,111,157044,2,0,L|35:115,1,76.4999976654053,2|0,0:0|1:0,0:0:0:0:
69,234,157312,2,0,L|166:238,1,76.4999976654053,10|0,0:0|0:0,0:0:0:0:
145,237,157848,6,0,L|242:241,1,76.4999976654053,2|0,1:2|0:0,0:0:0:0:
208,360,158116,2,0,L|111:364,2,76.4999976654053,2|0|8,0:0|1:0|0:0,0:0:0:0:
208,360,158651,2,0,L|285:357,1,76.4999976654053,2|0,0:0|1:0,0:0:0:0:
481,284,158919,6,0,B|488:247|488:247|489:209,1,76.4999976654053,2|0,1:2|0:0,0:0:0:0:
256,245,159187,2,0,P|332:251|406:233,1,152.999995330811,0|8,0:0|0:0,0:0:0:0:
406,233,159723,2,0,L|389:388,1,152.999995330811,0|0,1:0|0:0,0:0:0:0:
304,151,160258,6,0,B|304:113|304:113|313:76,1,76.4999976654053,2|0,0:0|0:0,0:0:0:0:
148,136,160526,2,0,B|147:98|147:98|138:61,1,76.4999976654053,2|2,1:2|0:0,0:0:0:0:
136,277,160794,2,0,B|99:270|99:270|61:267,1,76.4999976654053,2|0,0:0|0:0,0:0:0:0:
326,172,161062,6,0,L|541:141,1,152.999995330811,2|0,1:2|0:0,0:0:0:0:
441,262,161464,1,0,0:0:0:0:
441,262,161531,1,0,0:0:0:0:
441,262,161598,2,0,P|423:313|480:387,1,152.999995330811,8|2,0:0|0:1,0:0:0:0:
322,196,161999,1,0,0:0:0:0:
322,196,162066,1,0,0:0:0:0:
322,196,162133,6,0,P|256:166|149:194,1,152.999995330811,2|2,1:2|0:1,0:0:0:0:
178,176,162535,1,0,1:0:0:0:
95,116,162669,2,0,L|107:17,1,76.4999976654053,8|0,0:0|0:0,0:0:0:0:
86,216,162937,1,0,0:0:0:0:
86,216,163071,1,0,1:0:0:0:
260,129,163205,6,0,L|269:22,1,76.4999976654053,2|0,1:2|0:0,0:0:0:0:
265,318,163473,2,0,L|383:304,1,114.749996498108
405,299,163740,2,0,B|433:272|433:272|445:236,1,76.4999976654053,8|0,0:0|0:0,0:0:0:0:
357,223,164008,2,0,B|368:186|368:186|360:149,1,76.4999976654053,0|0,1:0|0:0,0:0:0:0:
278,181,164276,6,0,P|259:129|166:107,1,152.999995330811,2|2,0:0|1:0,0:0:0:0:
178,112,164812,1,0,1:0:0:0:
260,1,164946,1,0,0:0:0:0:
177,111,165080,2,0,B|178:150|178:150|169:187,1,76.4999976654053
52,341,165348,6,0,L|78:139,1,203.999993774414,2|0,1:2|1:0,0:0:0:0:
22,273,166419,6,0,L|31:202,1,50.9999984436036,2|0,1:2|0:0,0:0:0:0:
102,311,166687,2,0,L|111:240,1,50.9999984436036,2|0,0:0|0:0,0:0:0:0:
187,344,166955,1,2,1:2:0:0:
193,293,167088,1,0,0:0:0:0:
272,377,167223,1,2,0:0:0:0:
278,326,167356,1,0,0:0:0:0:
356,271,167490,6,0,L|330:68,1,203.999993774414,2|0,1:2|1:0,0:0:0:0:
269,244,168562,6,0,L|260:173,1,50.9999984436036,2|0,1:2|0:0,0:0:0:0:
356,271,168830,2,0,L|347:200,1,50.9999984436036,2|0,0:0|0:0,0:0:0:0:
445,296,169098,1,2,1:2:0:0:
438,245,169231,1,0,0:0:0:0:
421,169,169365,1,2,0:0:0:0:
414,118,169498,1,0,0:0:0:0:
330,68,169633,6,0,L|209:78,1,101.999996887207,2|0,1:2|0:0,0:0:0:0:
126,68,170169,2,0,L|247:78,1,101.999996887207,0|0,1:0|0:0,0:0:0:0:
159,169,170705,5,2,1:2:0:0:
124,205,170838,1,0,0:0:0:0:
108,264,170972,1,0,0:0:0:0:
124,323,171106,1,0,0:0:0:0:
174,373,171240,1,0,1:0:0:0:
245,374,171374,1,0,0:0:0:0:
312,328,171508,1,0,0:0:0:0:
341,251,171642,1,0,0:0:0:0:
307,165,171776,6,0,L|317:44,1,101.999996887207,2|0,1:2|0:0,0:0:0:0:
124,57,172312,1,0,1:0:0:0:
124,57,172580,1,0,0:0:0:0:
439,311,172848,5,2,1:2:0:0:
464,267,172981,1,0,0:0:0:0:
459,208,173115,1,0,0:0:0:0:
410,171,173249,1,0,0:0:0:0:
339,164,173383,1,0,1:0:0:0:
272,189,173517,1,0,0:0:0:0:
193,213,173651,1,0,0:0:0:0:
114,189,173785,1,0,0:0:0:0:
43,130,173919,6,0,L|51:10,1,101.999996887207,2|0,1:2|0:0,0:0:0:0:
469,196,174455,2,0,L|461:76,1,101.999996887207,2|0,1:2|0:0,0:0:0:0:
208,288,174990,2,0,L|216:168,1,101.999996887207,2|0,1:2|0:0,0:0:0:0:
320,384,175526,2,0,L|312:264,1,101.999996887207,2|0,1:2|0:0,0:0:0:0:
316,369,176062,6,0,P|360:343|410:340,1,101.999996887207,2|0,1:2|0:0,0:0:0:0:
214,261,176598,2,0,P|170:235|120:232,1,101.999996887207,2|0,1:2|0:0,0:0:0:0:
366,92,177133,2,0,P|410:66|461:64,1,101.999996887207,2|0,1:2|0:0,0:0:0:0:
139,58,177669,2,0,P|95:32|45:29,1,101.999996887207,2|0,1:2|0:0,0:0:0:0:
217,162,178205,6,0,B|199:120|137:96|69:134|33:246|145:325|152:242|220:291|229:368|229:368|238:293|312:217|287:347|464:244|400:58|230:88|232:198,1,815.999975097657,2|0,1:2|0:0,0:0:0:0:
76,123,191062,5,2,0:0:0:0:
76,123,191330,1,0,0:0:0:0:
142,233,191598,1,2,0:0:0:0:
79,126,191865,1,0,0:0:0:0:
145,237,192133,5,2,0:0:0:0:
145,237,192401,1,0,0:0:0:0:
249,179,192669,1,0,0:0:0:0:
148,240,192936,1,0,0:0:0:0:
260,190,193205,5,2,0:0:0:0:
260,190,193473,1,0,0:0:0:0:
260,190,193741,1,2,0:0:0:0:
260,190,194008,1,0,0:0:0:0:
301,86,194276,5,2,0:0:0:0:
301,86,194544,1,0,0:0:0:0:
385,170,194812,1,0,0:0:0:0:
472,90,195079,1,0,0:0:0:0:
495,348,195348,6,0,B|435:355|435:355|377:367,1,118.999996368408,2|0,0:0|0:0,0:0:0:0:
227,315,195883,1,10,0:0:0:0:
79,372,196151,1,8,0:0:0:0:
206,55,196419,5,10,0:0:0:0:
353,156,196687,1,8,0:0:0:0:
176,185,196955,1,10,0:0:0:0:
39,69,197223,1,0,0:0:0:0:
490,272,197490,6,0,L|504:182,2,76.4999976654053,2|0|0,0:0|0:0|0:0,0:0:0:0:
256,192,198428,12,0,199098,0:0:0:0:
401,158,199633,6,0,B|351:169|351:169|316:156|301:179|270:164|270:164|220:184,2,187.000005706787,6|0|8,1:2|0:0|0:1,0:0:0:0:
221,184,200437,2,0,P|204:140|172:106,1,93.5000028533936,0|0,1:0|3:0,0:0:0:0:
172,106,200638,1,0,3:0:0:0:
172,106,200705,5,0,3:0:0:0:
292,361,200973,1,2,0:3:0:0:
292,361,201106,1,2,0:3:0:0:
338,270,201240,1,8,0:1:0:0:
338,270,201508,6,0,P|307:261|269:262,1,63.7500024318696
292,361,201776,6,0,L|385:359,1,93.5000028533936,2|0,1:2|0:0,0:0:0:0:
510,134,202044,2,0,L|416:132,1,93.5000028533936
481,290,202312,1,8,0:1:0:0:
420,42,202580,2,0,B|407:86|407:86|416:133,1,93.5000028533936,0|0,1:0|3:0,0:0:0:0:
314,179,202781,1,0,3:0:0:0:
314,179,202848,6,0,B|267:170|267:170|223:184,1,93.5000028533936,0|0,3:0|3:0,0:0:0:0:
229,337,203115,2,0,B|273:351|273:351|320:342,1,93.5000028533936
126,247,203383,1,8,0:1:0:0:
126,247,203651,6,0,P|122:279|122:311,1,63.7500024318696
189,165,203919,6,0,B|150:177|116:165|116:165|90:178|90:178|57:171|33:108,2,187.000005706787,6|0|8,1:2|0:0|0:1,0:0:0:0:
44,124,204723,2,0,P|38:69|52:26,1,93.5000028533936,0|0,1:0|3:0,0:0:0:0:
48,32,204923,1,0,3:0:0:0:
48,32,204990,6,0,P|103:49|151:48,1,93.5000028533936,0|0,3:0|0:0,0:0:0:0:
239,90,205258,2,0,P|236:43|221:0,1,93.5000028533936,2|2,0:3|0:3,0:0:0:0:
301,158,205526,6,0,P|368:178|431:162,1,127.500004863739,8|0,0:1|0:0,0:0:0:0:
472,40,205928,1,0,0:0:0:0:
363,0,206062,6,0,P|359:46|367:92,1,93.5000028533936,2|0,1:2|0:0,0:0:0:0:
150,136,206330,2,0,P|219:144|278:182,1,140.25000428009
277,181,206598,2,0,L|273:68,2,93.5000028533936,10|0|0,1:2|0:0|0:0,0:0:0:0:
207,283,206999,1,0,3:0:0:0:
207,283,207066,1,0,3:0:0:0:
207,283,207133,6,0,P|150:284|101:289,2,76.4999976654053,0|0|0,3:0|0:0|1:0,0:0:0:0:
335,362,207535,1,0,3:0:0:0:
335,362,207602,1,0,3:0:0:0:
335,362,207669,2,0,P|391:365|438:345,1,76.4999976654053,0|8,3:0|0:3,0:0:0:0:
500,293,207937,1,8,0:3:0:0:
512,183,208071,1,8,0:3:0:0:
402,156,208205,6,0,B|352:155|352:155|310:181|273:170|273:170|220:184,2,187.000005706787,6|0|8,1:2|0:0|0:1,0:0:0:0:
221,183,209008,2,0,L|229:64,1,93.5000028533936,0|0,1:0|3:0,0:0:0:0:
227,89,209209,1,0,3:0:0:0:
227,89,209276,5,0,3:0:0:0:
132,276,209544,1,2,0:3:0:0:
51,352,209678,1,2,0:3:0:0:
16,256,209812,1,8,0:1:0:0:
16,256,210080,6,0,P|17:215|25:175,1,63.7500024318696
224,271,210348,6,0,P|178:281|132:276,1,93.5000028533936,2|0,1:2|0:0,0:0:0:0:
320,272,210615,2,0,P|364:289|400:317,1,93.5000028533936
271,191,210883,2,0,P|276:145|290:101,1,93.5000028533936,8|0,0:1|0:0,0:0:0:0:
434,226,211151,1,0,0:0:0:0:
322,382,211285,1,0,3:0:0:0:
322,382,211352,1,0,3:0:0:0:
322,382,211419,6,0,L|221:356,1,93.5000028533936,0|0,3:0|3:0,0:0:0:0:
231,358,211955,2,0,P|248:315|256:269,1,93.5000028533936,8|0,0:1|0:0,0:0:0:0:
209,7,212223,2,0,P|216:52|234:96,1,93.5000028533936
358,169,212490,6,0,B|326:162|292:172|292:172|239:192|239:192|206:200|176:192,1,187.000005706787,2|0,1:2|0:0,0:0:0:0:
253,357,213026,2,0,B|271:313|271:313|279:267,1,93.5000028533936,8|0,0:1|0:0,0:0:0:0:
232,5,213294,2,0,B|239:52|239:52|257:95,1,93.5000028533936,0|0,1:0|3:0,0:0:0:0:
256,94,213495,1,0,3:0:0:0:
256,94,213562,6,0,P|183:98|154:107,1,93.5000028533936,0|0,3:0|0:0,0:0:0:0:
45,206,213830,1,2,0:3:0:0:
181,285,213964,2,0,L|176:192,2,93.5000028533936,2|8|0,0:3|0:1|0:0,0:0:0:0:
28,185,214365,2,0,L|37:8,1,140.25000428009,0|0,1:0|0:0,0:0:0:0:
38,15,214633,6,0,B|88:40|88:40|103:53|123:51|123:51|153:28|185:59|215:38,1,187.000005706787,6|0,1:2|0:0,0:0:0:0:
212,39,215035,1,0,0:0:0:0:
387,200,215169,1,8,1:1:0:0:
387,200,215437,2,0,B|375:154|375:154|371:108,1,93.5000028533936,0|0,1:0|3:0,0:0:0:0:
429,4,215638,1,0,3:0:0:0:
429,4,215705,6,0,L|313:-1,1,93.5000028533936,0|0,3:0|0:0,0:0:0:0:
106,170,215973,2,0,L|317:160,1,187.000005706787,0|8,1:0|0:3,0:0:0:0:
380,232,216374,1,8,0:3:0:0:
311,319,216508,2,0,P|272:261|299:159,1,140.25000428009,8|0,0:3|0:0,0:0:0:0:
276,193,216776,6,0,L|133:199,1,127.500004863739,6|0,1:2|0:0,0:0:0:0:
148,198,217312,2,0,P|109:140|116:63,1,127.500004863739
148,198,217848,2,0,P|145:260|108:311,1,127.500004863739
53,209,218249,2,0,B|49:114|49:114|77:22,1,191.250007295609
381,71,218919,6,0,B|335:61|287:79|287:79|239:96|194:79,1,191.250007295609
212,311,219723,6,0,L|194:79,1,233.75
216,96,220526,6,0,L|234:328,1,223.125008511544,6|0,2:0|0:0,0:0:0:0:
470,270,221062,6,0,L|455:195,1,76.4999976654053,6|0,1:2|0:0,0:0:0:0:
322,141,221330,2,0,L|307:215,1,76.4999976654053
422,101,221598,1,8,0:0:0:0:
422,101,221865,2,0,P|428:60|430:17,1,76.4999976654053
141,86,222133,6,0,L|225:86,1,76.4999976654053,2|0,1:2|0:0,0:0:0:0:
67,21,222401,1,0,0:0:0:0:
18,125,222535,2,0,L|18:209,1,76.4999976654053,0|8,1:2|0:0,0:0:0:0:
136,353,222803,2,0,L|141:201,1,152.999995330811
299,144,223205,6,0,L|304:316,1,152.999995330811,2|0,1:2|0:0,0:0:0:0:
305,297,223606,1,0,0:0:0:0:
125,167,223740,1,8,0:0:0:0:
125,167,224008,6,0,L|226:153,1,93.5000028533936,2|0,1:1|0:0,0:0:0:0:
401,213,224276,6,0,L|505:208,2,90.6666666666667,2|0|0,0:0|0:0|0:0,0:0:0:0:
187,273,224812,2,0,L|83:268,2,90.6666666666667,2|0|0,1:2|0:0|0:0,0:0:0:0:
302,187,225348,6,0,L|295:104,1,76.4999976654053,2|0,1:2|0:0,0:0:0:0:
130,91,225615,2,0,L|124:167,1,76.4999976654053,0|0,0:2|0:0,0:0:0:0:
271,275,225883,2,0,B|430:266,1,152.999995330811,8|0,0:0|0:0,0:0:0:0:
397,361,226285,1,0,0:0:0:0:
440,241,226419,6,0,L|446:152,1,76.4999976654053,2|0,1:2|0:0,0:0:0:0:
378,66,226687,1,0,0:0:0:0:
275,133,226821,2,0,L|198:133,1,76.4999976654053,0|8,0:0|0:0,0:0:0:0:
91,25,227089,2,0,L|167:24,2,76.4999976654053
18,150,227490,6,0,L|13:229,1,76.4999976654053,2|0,1:2|0:0,0:0:0:0:
199,133,227758,2,0,L|194:57,1,76.4999976654053,0|0,0:0|1:0,0:0:0:0:
132,282,228026,2,0,L|136:361,1,76.4999976654053,8|0,0:0|0:0,0:0:0:0:
409,211,228294,2,0,L|251:225,1,152.999995330811,2|2,1:1|0:0,0:0:0:0:
132,282,228740,5,0,0:0:0:0:
159,136,228919,5,0,0:0:0:0:
260,242,229098,5,10,0:0:0:0:
35,208,229276,5,0,0:0:0:0:
241,109,229455,5,0,0:0:0:0:
224,343,229633,6,0,L|329:346,1,76.4999976654053,6|0,0:2|0:0,0:0:0:0:
336,233,229901,2,0,L|261:242,1,76.4999976654053,0|0,0:2|0:0,0:0:0:0:
386,311,230169,1,2,0:0:0:0:
386,311,230437,1,0,0:0:0:0:
386,311,230705,6,0,L|281:314,1,76.4999976654053,2|0,0:2|0:0,0:0:0:0:
274,201,230973,2,0,L|349:211,1,76.4999976654053,0|0,0:2|0:0,0:0:0:0:
224,279,231241,1,2,0:0:0:0:
224,279,231374,1,0,0:0:0:0:
224,279,231508,1,0,0:0:0:0:
224,279,231642,1,0,0:0:0:0:
144,218,231776,6,0,L|130:126,2,76.4999976654053,2|0|0,0:0|0:0|0:0,0:0:0:0:
79,306,232178,1,2,0:0:0:0:
79,306,232580,6,0,B|47:126,1,170,2|0,0:0|0:0,0:0:0:0:
61,54,233383,2,0,L|50:138,1,85,2|0,0:0|0:0,0:0:0:0:
149,21,233919,6,0,L|204:26,2,42.5,2|0|0,0:0|0:0|0:0,0:0:0:0:
231,100,234321,1,2,0:0:0:0:
231,100,234455,6,0,L|320:108,1,85
308,285,234990,6,0,L|363:280,2,42.5,2|0|0,0:0|0:0|0:0,0:0:0:0:
354,189,235392,1,2,0:0:0:0:
390,206,235526,5,0,0:0:0:0:
390,206,235660,1,0,0:0:0:0:
390,206,235794,1,0,0:0:0:0:
390,206,235928,1,0,0:0:0:0:
461,146,236062,6,0,L|463:103,2,42.5,2|0|0,0:0|0:0|0:0,0:0:0:0:
388,58,236464,1,2,0:0:0:0:
388,58,236865,6,0,L|206:52,1,170,2|0,0:0|0:0,0:0:0:0:
82,131,237669,1,2,0:0:0:0:
184,229,237937,1,2,0:0:0:0:
