osu file format v14

[General]
AudioFilename: audio.mp3
AudioLeadIn: 1152
PreviewTime: 348
Countdown: 0
SampleSet: Soft
StackLeniency: 0.6
Mode: 0
LetterboxInBreaks: 0
WidescreenStoryboard: 0

[Editor]
DistanceSpacing: 1
BeatDivisor: 4
GridSize: 32
TimelineZoom: 1.8

[Metadata]
Title:episode Solo
TitleUnicode:episode Solo
Artist:Ruka. Nanase. Kana. Miho from AIKATSU*STARS!
ArtistUnicode:るか・ななせ・かな・みほ from AIKATSU☆STARS!
Creator:DreaM117er
Version:episode 4. Chaoz
Source:アイカツスターズ!
Tags:Aikatsu STARS! ED ending tv size Streliteela Chaoslitz m1223961117
BeatmapID:973809
BeatmapSetID:449852

[Difficulty]
HPDrainRate:6
CircleSize:3.5
OverallDifficulty:7
ApproachRate:8
SliderMultiplier:1.6
SliderTickRate:1

[Events]
//Background and Video events
0,0,"BG.jpg",0,0
Video,0,"VDO.flv"
//Break Periods
//Storyboard Layer 0 (Background)
//Storyboard Layer 1 (Fail)
//Storyboard Layer 2 (Pass)
//Storyboard Layer 3 (Foreground)
//Storyboard Sound Samples

[TimingPoints]
-995,447.761194029851,4,2,1,40,1,0
796,-133.333333333333,4,2,1,40,0,0
7960,-111.111111111111,4,2,1,40,0,0
12437,-111.111111111111,4,2,1,50,0,0
13221,-111.111111111111,4,2,1,10,0,0
13333,-111.111111111111,4,2,1,40,0,0
14676,-133.333333333333,4,2,1,50,0,0
14900,-111.111111111111,4,2,1,40,0,0
15124,-83.3333333333333,4,2,1,60,0,1
16467,-62.5,4,2,0,60,0,1
16579,-62.5,4,2,1,60,0,1
16915,-83.3333333333333,4,2,1,60,0,1
17139,-100,4,2,1,60,0,1
17363,-83.3333333333333,4,2,1,60,0,1
18146,-133.333333333333,4,2,1,60,0,1
18706,-83.3333333333333,4,2,1,60,0,1
19602,-66.6666666666667,4,2,1,60,0,1
20049,-62.5,4,2,1,60,0,1
20497,-133.333333333333,4,2,1,60,0,1
20945,-83.3333333333333,4,2,1,60,0,1
23631,-62.5,4,2,0,60,0,1
23743,-62.5,4,2,1,60,0,1
24079,-83.3333333333333,4,2,1,60,0,1
24303,-100,4,2,1,60,0,1
24527,-83.3333333333333,4,2,1,60,0,1
25310,-133.333333333333,4,2,1,60,0,1
25870,-133.333333333333,4,2,1,60,0,1
26318,-83.3333333333333,4,2,1,60,0,1
27213,-62.5,4,2,1,60,0,1
27661,-83.3333333333333,4,2,1,60,0,1
28557,-133.333333333333,4,2,1,60,0,1
29005,-83.3333333333333,4,2,1,60,0,1
29452,-100,4,2,1,40,0,0
30796,-133.333333333333,4,2,1,40,0,0
33034,-100,4,2,1,40,0,0
34378,-133.333333333333,4,2,1,40,0,0
36616,-100,4,2,1,40,0,0
37960,-133.333333333333,4,2,1,40,0,0
39303,-100,4,2,1,40,0,0
43333,-100,4,2,1,10,0,0
43781,-100,4,2,1,40,0,0
54527,-100,4,2,1,30,0,0
55422,-100,4,2,1,40,0,0
56318,-100,4,2,1,50,0,0
58109,-83.3333333333333,4,2,1,60,0,1
70646,-133.333333333333,4,2,1,60,0,1
71542,-83.3333333333333,4,2,1,60,0,1
72437,-100,4,2,1,40,0,0
88557,-100,4,2,1,10,0,0

[Colours]
Combo1 : 241,172,69
Combo2 : 126,54,245
Combo3 : 244,250,177
Combo4 : 241,194,99
Combo5 : 237,98,240
Combo6 : 172,73,55
SliderBorder : 255,255,255

[HitObjects]
179,118,572,5,0,0:0:0:0:
99,251,796,2,0,L|10:256,2,90.0000034332277,4|2|2,0:1|0:0|0:0,0:0:0:0:
196,324,1691,2,0,P|198:262|201:200,1,120.000004577637,0|0,0:0|0:0,0:0:0:0:
256,70,2363,1,0,0:0:0:0:
361,119,2587,6,0,P|408:122|458:99,2,90.0000034332277,2|2|0,0:0|0:0|0:0,0:0:0:0:
287,191,3482,2,0,P|242:188|201:204,2,90.0000034332277,2|2|0,0:0|0:0|0:0,0:0:0:0:
435,215,4378,6,0,P|430:277|424:351,1,120.000004577637,2|2,0:0|0:0,0:0:0:0:
343,370,5049,1,0,0:0:0:0:
262,328,5273,2,0,P|259:291|258:260,1,60.0000022888184,0|2,0:0|0:0,0:0:0:0:
181,224,5721,2,0,P|179:253|176:283,1,60.0000022888184,0|2,0:0|0:0,0:0:0:0:
105,170,6169,5,2,0:0:0:0:
183,107,6393,2,0,B|203:111|203:111|224:103|224:103|247:107,2,60.0000022888184,0|2|2,0:0|0:0|0:0,0:0:0:0:
196,22,7064,1,0,0:0:0:0:
313,68,7288,2,0,B|326:97|326:97|321:130,1,60.0000022888184,2|2,0:0|0:0,0:0:0:0:
408,52,7736,1,2,0:0:0:0:
408,216,7960,6,0,P|399:181|404:146,1,71.9999978027344,8|0,0:0|0:0,0:0:0:0:
506,52,8407,2,0,P|467:58|428:61,1,71.9999978027344,8|0,0:0|0:0,0:0:0:0:
320,128,8855,1,8,0:0:0:0:
404,146,9079,1,0,0:0:0:0:
490,165,9303,2,0,P|498:199|494:235,1,71.9999978027344,8|0,0:0|0:0,0:0:0:0:
354,302,9751,6,0,P|393:298|445:295,1,71.9999978027344,8|0,0:0|0:0,0:0:0:0:
262,199,10199,2,0,P|265:238|269:290,1,71.9999978027344,8|0,0:0|0:0,0:0:0:0:
320,128,10646,1,8,0:0:0:0:
348,211,10870,1,0,0:0:0:0:
235,118,11094,2,0,P|200:113|162:108,1,71.9999978027344,8|0,0:0|0:0,0:0:0:0:
86,203,11542,5,8,1:2:0:0:
32,80,11766,1,8,1:2:0:0:
80,234,11990,1,8,1:2:0:0:
116,32,12213,1,8,1:2:0:0:
3,205,12437,5,8,1:2:0:0:
155,21,12661,1,8,1:2:0:0:
10,60,12885,1,8,1:2:0:0:
187,226,13109,6,0,P|189:243|191:261,1,35.9999989013672,4|0,0:3|0:0,0:0:0:0:
196,23,13557,5,0,0:0:0:0:
244,159,13781,2,0,P|248:124|251:88,1,71.9999978027344,0|0,0:0|0:0,0:0:0:0:
187,226,14228,6,0,L|80:234,1,107.999996704102,0|0,0:0|0:0,0:0:0:0:
3,205,14676,6,0,P|21:179|30:172,1,30.0000011444092,4|0,0:0|0:0,0:0:0:0:
15,291,14900,6,0,L|18:327,1,35.9999989013672,0|0,0:0|0:0,0:0:0:0:
84,138,15124,6,0,L|80:234,1,95.9999970703126,6|0,0:1|0:0,0:0:0:0:
116,32,15572,2,0,L|122:127,1,95.9999970703126,2|0,0:1|0:0,0:0:0:0:
122,316,16019,2,0,B|145:323|145:323|166:312,1,47.9999985351563,8|0,1:2|0:0,0:0:0:0:
316,176,16243,2,0,B|293:169|293:169|272:180,1,47.9999985351563
257,327,16467,6,0,B|278:298|276:269|254:250|223:255|223:255|233:265|240:276,1,128,2|0,0:1|0:0,0:0:0:0:
318,268,16803,1,2,0:1:0:0:
384,222,16915,6,0,P|397:190|394:150,1,71.9999978027344,2|0,0:1|0:0,0:0:0:0:
399,134,17139,6,0,L|391:87,1,40,0|0,0:0|0:0,0:0:0:0:
485,181,17363,6,0,L|512:185,1,23.9999992675781,4|0,0:3|0:0,0:0:0:0:
305,87,17587,2,0,L|276:91,1,23.9999992675781,4|0,0:3|0:0,0:0:0:0:
460,265,17810,1,8,1:2:0:0:
485,181,17922,2,0,B|490:124,1,47.9999985351563,2|0,0:1|0:0,0:0:0:0:
429,46,18146,6,0,L|478:97,1,60.0000022888184,2|0,0:1|0:0,0:0:0:0:
382,55,18482,5,2,0:1:0:0:
391,93,18593,1,0,0:0:0:0:
345,162,18706,6,0,L|336:278,1,95.9999970703126,2|0,0:1|0:0,0:0:0:0:
319,297,19042,1,0,0:0:0:0:
319,297,19154,2,0,L|325:379,1,47.9999985351563,2|0,0:1|0:0,0:0:0:0:
236,270,19378,1,0,0:0:0:0:
113,75,19602,6,0,B|134:77|158:101|158:101|130:86|93:92,1,120.000004577637,8|0,1:2|0:0,0:0:0:0:
115,179,19937,1,0,0:0:0:0:
197,150,20049,6,0,P|182:122|159:101,1,64,0|0,3:0|0:0,0:0:0:0:
35,153,20273,2,0,P|30:183|39:215,1,64,2|0,0:1|0:0,0:0:0:0:
204,268,20497,6,0,B|172:260|172:260|115:269,1,90.0000034332277,2|0,0:1|0:0,0:0:0:0:
172,347,20945,6,0,P|203:352|235:346,2,63.9999980468751,2|2|2,0:3|0:3|0:3,0:0:0:0:
287,278,21393,6,0,P|310:276|334:279,1,47.9999985351563,8|0,1:2|0:0,0:0:0:0:
446,344,21616,1,0,0:0:0:0:
485,178,21840,2,0,P|435:174|391:188,1,95.9999970703126,0|0,0:0|1:0,0:0:0:0:
204,268,22288,5,0,3:0:0:0:
181,233,22400,2,0,P|178:197|176:178,2,47.9999985351563,0|0|2,3:0|3:0|0:0,0:0:0:0:
277,60,22848,1,2,0:1:0:0:
277,60,22960,1,2,0:1:0:0:
264,198,23184,2,0,P|266:174|267:150,1,47.9999985351563,8|0,1:2|0:0,0:0:0:0:
309,281,23407,2,0,P|307:304|305:328,1,47.9999985351563,2|0,0:1|0:0,0:0:0:0:
266,150,23631,6,0,B|287:164|287:164|301:149|301:149|322:156|322:156|367:130|423:152|438:197,1,192,2|0,0:1|0:0,0:0:0:0:
374,350,24079,6,0,P|356:318|353:283,1,71.9999978027344,2|0,0:1|0:0,0:0:0:0:
359,265,24303,6,0,P|359:245|364:225,1,40,0|0,0:0|0:0,0:0:0:0:
462,303,24527,6,0,L|423:293,1,23.9999992675781,4|0,0:3|0:0,0:0:0:0:
234,346,24751,2,0,L|257:351,1,23.9999992675781,4|0,0:3|0:0,0:0:0:0:
364,225,24975,1,8,1:2:0:0:
277,241,25087,2,0,P|254:239|231:232,1,47.9999985351563,2|0,0:1|0:0,0:0:0:0:
129,255,25310,6,0,P|158:259|185:247,1,60.0000022888184,2|0,0:1|0:0,0:0:0:0:
185,149,25646,1,2,0:1:0:0:
180,110,25758,1,0,0:0:0:0:
94,89,25870,6,0,B|97:113|88:134|88:134|100:151|104:174,1,90.0000034332277,2|0,0:1|0:0,0:0:0:0:
129,255,26318,6,0,L|118:327,2,63.9999980468751,2|2|2,0:3|0:3|0:3,0:0:0:0:
37,308,26766,2,0,P|36:337|46:364,1,47.9999985351563,8|0,1:2|0:0,0:0:0:0:
200,333,26990,2,0,P|193:356|180:375,1,47.9999985351563,0|0,0:0|0:0,0:0:0:0:
104,174,27213,6,0,P|77:159|41:146,1,64,0|0,3:0|0:0,0:0:0:0:
189,77,27437,2,0,P|177:48|158:15,1,64,2|0,0:1|0:0,0:0:0:0:
270,192,27661,6,0,B|257:144|257:144|284:85,1,95.9999970703126,2|0,0:1|0:0,0:0:0:0:
326,262,28109,2,0,B|339:310|339:310|319:352,1,95.9999970703126,2|0,0:1|0:0,0:0:0:0:
347,150,28557,6,0,P|377:146|414:140,1,60.0000022888184,4|8,0:3|0:3,0:0:0:0:
243,302,29005,6,0,L|215:298,1,23.9999992675781,8|0,0:1|0:0,0:0:0:0:
422,361,29452,6,0,P|424:310|341:238,1,160,4|0,0:1|0:0,0:0:0:0:
243,302,30124,2,0,P|182:343|95:296,1,160,2|0,0:0|0:0,0:0:0:0:
103,218,30796,6,0,B|107:245|88:274|56:285|9:286|-36:232|-21:164|32:120|80:102|152:135|152:135|201:156|254:136|265:87,1,480.000018310548,2|0,0:0|0:0,0:0:0:0:
186,41,33034,6,0,P|163:114|204:184,1,160,2|0,0:0|0:0,0:0:0:0:
305,216,33706,2,0,P|384:210|468:205,1,160,2|0,0:0|0:0,0:0:0:0:
463,330,34378,6,0,B|392:312|353:361|353:361|308:312|246:336|246:336|203:386|144:363|138:353,1,360.000013732911,2|0,0:0|0:0,0:0:0:0:
64,295,35945,1,2,0:1:0:0:
201,182,36169,1,8,0:0:0:0:
103,218,36616,6,0,P|112:118|117:50,1,160,2|0,0:0|0:0,0:0:0:0:
228,22,37288,2,0,P|289:68|289:146,1,160,2|0,0:0|0:0,0:0:0:0:
265,245,37960,6,0,B|307:237|352:258|352:258|364:243|379:229|379:229|441:251|485:207,1,240.000009155274,2|0,0:0|0:0,0:0:0:0:
424,65,39303,6,0,P|420:104|416:144,1,80,0|0,0:0|0:0,0:0:0:0:
379,230,39751,1,2,0:0:0:0:
295,330,40199,6,0,P|215:323|135:316,1,160,2|0,0:0|0:0,0:0:0:0:
46,250,40870,2,0,P|108:203|184:220,1,160,2|0,0:0|0:0,0:0:0:0:
256,120,41542,1,2,0:0:0:0:
256,192,41766,12,0,43333,0:0:0:0:
313,238,43781,6,0,P|316:277|319:317,1,80,4|0,0:1|0:0,0:0:0:0:
353,143,44228,1,8,0:0:0:0:
489,200,44452,1,0,0:0:0:0:
378,38,44676,2,0,P|374:77|371:117,1,80,8|0,0:0|0:0,0:0:0:0:
255,151,45124,1,8,0:0:0:0:
313,238,45348,1,0,0:0:0:0:
174,307,45572,6,0,P|135:303|95:297,1,80,8|0,0:0|0:0,0:0:0:0:
227,185,46019,1,8,0:0:0:0:
136,122,46243,1,0,0:0:0:0:
24,216,46467,2,0,P|63:212|102:206,1,80,8|0,0:0|0:0,0:0:0:0:
204,224,46915,1,8,0:0:0:0:
218,70,47139,1,0,0:0:0:0:
313,238,47363,6,0,P|307:177|304:145,1,80,8|0,0:0|0:0,0:0:0:0:
393,39,47810,1,8,0:0:0:0:
389,134,48034,1,0,0:0:0:0:
341,251,48258,2,0,P|403:264|471:226,1,120,8|0,0:0|0:0,0:0:0:0:
490,256,48706,2,0,P|484:313|482:349,1,80,8|0,0:0|0:0,0:0:0:0:
478,158,49154,6,0,P|474:104|472:70,1,80,8|0,0:0|0:0,0:0:0:0:
393,175,49602,1,8,0:0:0:0:
301,112,49825,1,0,0:0:0:0:
200,237,50049,2,0,P|146:230|88:222,1,80,8|0,0:0|0:0,0:0:0:0:
120,226,50385,1,0,0:0:0:0:
120,226,50497,1,8,0:0:0:0:
179,96,50721,1,0,0:0:0:0:
297,219,50945,5,4,0:1:0:0:
297,219,51169,1,8,0:0:0:0:
200,280,51393,2,0,P|205:341|207:369,1,80,8|8,0:2|0:0,0:0:0:0:
204,183,51840,1,8,0:2:0:0:
319,324,52064,1,8,0:0:0:0:
278,133,52288,1,8,0:2:0:0:
236,366,52512,1,8,0:0:0:0:
124,228,52736,5,8,0:2:0:0:
124,228,52960,1,8,0:0:0:0:
326,237,53184,2,0,P|375:233|420:229,1,80,8|8,0:2|0:0,0:0:0:0:
289,113,53631,1,8,0:2:0:0:
412,43,53855,1,8,0:0:0:0:
503,205,54079,2,0,P|454:201|409:197,1,80,8|8,0:2|0:0,0:0:0:0:
362,314,54527,6,0,P|342:315|322:319,3,40,0|0|0|0,1:0|1:0|1:0|1:0,0:0:0:0:
280,332,54975,2,0,P|260:330|240:326,3,40,0|0|0|0,1:0|1:0|1:0|1:0,0:0:0:0:
196,330,55423,1,0,1:0:0:0:
172,298,55534,1,0,1:0:0:0:
167,259,55646,1,0,1:0:0:0:
182,222,55758,1,0,1:0:0:0:
213,198,55870,1,0,1:0:0:0:
244,172,55982,1,0,1:0:0:0:
259,136,56094,1,0,1:0:0:0:
254,97,56206,1,0,1:0:0:0:
230,65,56318,6,0,L|201:58,7,20,2|0|0|0|0|0|0|0,0:0|0:0|0:0|0:0|0:0|0:0|0:0|0:0,0:0:0:0:
181,69,56766,2,0,L|161:73,7,20,0|0|0|0|2|0|0|0,0:0|0:0|0:0|0:0|0:0|0:0|0:0|0:0,0:0:0:0:
131,74,57213,6,0,L|111:70,3,20
80,74,57437,1,2,0:0:0:0:
25,144,57661,6,0,P|12:139|0:136,2,26.6666666666667,2|2|0,0:0|0:0|0:0,0:0:0:0:
7,225,57885,2,0,P|0:247|-2:258,2,26.6666666666667,2|2|0,0:0|0:0|0:0,0:0:0:0:
81,259,58109,6,0,P|161:253|189:252,1,95.9999970703126,4|0,0:1|0:0,0:0:0:0:
176,252,58445,1,0,0:0:0:0:
176,252,58557,1,8,0:0:0:0:
251,336,58781,1,0,0:0:0:0:
316,172,59005,2,0,P|324:235|328:276,1,95.9999970703126,2|0,0:1|0:0,0:0:0:0:
219,141,59452,1,8,0:0:0:0:
306,82,59676,1,0,0:0:0:0:
417,192,59900,5,2,0:1:0:0:
308,51,60124,1,0,0:0:0:0:
308,51,60236,1,0,0:0:0:0:
308,51,60348,2,0,P|359:56|403:61,1,95.9999970703126,8|0,0:0|0:0,0:0:0:0:
505,99,60796,1,2,0:1:0:0:
316,172,61019,1,0,0:0:0:0:
409,304,61243,1,8,0:0:0:0:
420,151,61467,1,0,0:0:0:0:
236,132,61691,6,0,P|244:223|327:263,1,191.999994140625,2|8,0:1|0:0,0:0:0:0:
423,182,62363,1,0,0:0:0:0:
337,93,62587,2,0,L|145:83,1,191.999994140625,2|8,0:1|0:0,0:0:0:0:
36,170,63258,1,0,0:0:0:0:
132,329,63482,6,0,P|139:254|143:219,1,95.9999970703126,2|0,0:1|0:0,0:0:0:0:
146,200,63818,1,0,0:0:0:0:
146,200,63930,2,0,P|199:205|251:180,1,95.9999970703126,8|0,0:0|0:0,0:0:0:0:
315,66,64378,1,2,0:1:0:0:
406,143,64602,2,0,P|454:148|502:154,1,95.9999970703126,0|8,0:0|0:0,0:0:0:0:
460,52,65049,1,0,0:0:0:0:
332,211,65273,6,0,P|335:275|337:315,1,95.9999970703126,2|0,0:1|0:0,0:0:0:0:
336,306,65609,1,0,0:0:0:0:
336,306,65721,1,8,0:0:0:0:
250,155,65945,1,0,0:0:0:0:
426,248,66169,2,0,P|423:312|421:352,1,95.9999970703126,2|0,0:1|0:0,0:0:0:0:
406,143,66616,1,8,0:0:0:0:
242,250,66840,1,0,0:0:0:0:
58,158,67064,6,0,P|116:152|172:147,1,95.9999970703126,2|0,0:1|0:0,0:0:0:0:
153,148,67400,1,0,0:0:0:0:
153,148,67512,1,8,0:0:0:0:
196,60,67736,1,0,0:0:0:0:
250,155,67960,2,0,P|246:206|242:253,1,95.9999970703126,2|0,0:1|0:0,0:0:0:0:
328,104,68407,1,8,0:0:0:0:
338,204,68631,1,0,0:0:0:0:
414,81,68855,6,0,P|460:84|511:87,1,95.9999970703126,2|0,0:1|0:0,0:0:0:0:
433,198,69303,2,0,P|385:201|338:204,1,95.9999970703126,8|0,0:0|0:0,0:0:0:0:
154,149,69751,2,0,P|200:152|251:155,1,95.9999970703126,2|0,0:1|0:0,0:0:0:0:
321,296,70199,1,8,0:0:0:0:
328,104,70422,1,2,0:1:0:0:
433,198,70646,5,0,0:0:0:0:
261,236,70870,2,0,P|229:235|194:221,2,60.0000022888184,0|0|0,0:0|0:0|0:0,0:0:0:0:
343,283,71542,6,0,P|358:284|374:287,5,31.9999990234375,0|0|0|0|0|0,1:0|1:0|1:0|1:0|1:0|1:0,0:0:0:0:
407,307,71990,6,0,P|398:327|394:343,2,31.9999990234375,2|2|0,0:0|0:0|0:0,0:0:0:0:
488,328,72213,2,0,P|491:343|493:359,2,31.9999990234375,2|2|0,0:0|0:0|0:0,0:0:0:0:
468,245,72438,6,0,P|472:204|476:165,1,80,4|0,0:1|0:0,0:0:0:0:
376,115,72885,2,0,P|371:154|368:194,1,80,8|0,0:0|0:0,0:0:0:0:
261,236,73333,1,2,0:1:0:0:
166,209,73557,1,0,0:0:0:0:
41,232,73781,2,0,P|37:186|34:139,1,80,8|0,0:0|0:0,0:0:0:0:
128,28,74228,5,2,0:1:0:0:
227,120,74452,2,0,P|266:124|306:126,1,80,0|8,0:0|0:0,0:0:0:0:
390,83,74900,1,0,0:0:0:0:
338,228,75124,2,0,P|391:218|438:213,1,80,2|0,0:1|0:0,0:0:0:0:
447,237,75460,1,0,0:0:0:0:
447,237,75572,2,0,P|458:282|430:317,1,80,8|0,0:0|0:0,0:0:0:0:
257,363,76019,6,0,P|260:323|264:283,1,80,2|0,0:1|0:0,0:0:0:0:
227,120,76467,1,8,0:0:0:0:
166,209,76691,1,0,0:0:0:0:
338,228,76915,1,2,0:1:0:0:
279,372,77139,2,0,P|325:369|359:366,1,80,0|8,0:0|0:0,0:0:0:0:
427,261,77587,1,0,0:0:0:0:
322,138,77810,5,2,0:1:0:0:
264,283,78034,1,0,0:0:0:0:
427,261,78258,1,8,0:0:0:0:
427,261,78370,1,0,0:0:0:0:
427,261,78482,1,0,0:0:0:0:
243,197,78706,2,0,P|205:209|166:209,1,80,2|0,0:1|0:0,0:0:0:0:
124,200,79042,1,0,0:0:0:0:
124,200,79154,2,0,L|116:120,1,80,8|0,0:0|0:0,0:0:0:0:
53,266,79602,5,2,0:1:0:0:
158,354,79825,1,0,0:0:0:0:
254,229,80049,2,0,P|249:281|246:319,1,80,8|0,0:0|0:0,0:0:0:0:
263,140,80497,1,2,0:1:0:0:
355,293,80721,1,0,0:0:0:0:
355,293,80833,1,0,0:0:0:0:
355,293,80945,2,0,P|361:352|365:381,1,80,8|0,0:0|0:0,0:0:0:0:
420,206,81393,5,2,0:1:0:0:
300,119,81616,1,0,0:0:0:0:
428,182,81840,1,8,0:0:0:0:
358,45,82064,1,0,0:0:0:0:
288,202,82288,2,0,P|245:185|219:153,1,80,2|0,0:1|0:0,0:0:0:0:
222,160,82624,1,0,0:0:0:0:
222,160,82736,1,8,0:0:0:0:
271,31,82960,1,0,0:0:0:0:
427,150,83184,6,0,P|476:146|512:142,1,80,2|0,0:1|0:0,0:0:0:0:
354,263,83631,1,8,0:0:0:0:
300,119,83855,2,0,P|326:122|350:125,1,40,0|0,0:0|0:0,0:0:0:0:
235,186,84079,2,0,P|195:173|146:179,1,80,2|0,0:1|0:0,0:0:0:0:
263,271,84527,1,8,0:0:0:0:
300,119,84751,2,0,P|296:70|292:37,1,80,2|0,0:1|0:0,0:0:0:0:
361,220,85199,5,0,0:0:0:0:
394,51,85422,1,0,0:0:0:0:
445,187,85646,1,0,0:0:0:0:
300,119,85870,2,0,P|260:121|220:124,1,80,0|0,0:0|0:0,0:0:0:0:
112,192,86318,1,8,0:0:0:0:
177,322,86542,5,4,0:1:0:0:
256,192,86766,12,0,88557,0:0:0:0:
