osu file format v14

[General]
AudioFilename: audio.mp3
AudioLeadIn: 1152
PreviewTime: 348
Countdown: 0
SampleSet: Soft
StackLeniency: 0.6
Mode: 0
LetterboxInBreaks: 0
WidescreenStoryboard: 0

[Editor]
Bookmarks: 7960,15124,43781,49154,50945,54527
DistanceSpacing: 2
BeatDivisor: 4
GridSize: 32
TimelineZoom: 1.8

[Metadata]
Title:episode Solo
TitleUnicode:episode Solo
Artist:Ruka. Nanase. Kana. Miho from AIKATSU*STARS!
ArtistUnicode:るか・ななせ・かな・みほ from AIKATSU☆STARS!
Creator:DreaM117er
Version:episode 3. Stella
Source:アイカツスターズ!
Tags:Aikatsu STARS! ED ending tv size Streliteela Chaoslitz m1223961117
BeatmapID:973396
BeatmapSetID:449852

[Difficulty]
HPDrainRate:5
CircleSize:4
OverallDifficulty:6
ApproachRate:7.5
SliderMultiplier:1.2
SliderTickRate:1

[Events]
//Background and Video events
0,0,"BG.jpg",0,0
Video,0,"VDO.flv"
//Break Periods
2,4578,6911
//Storyboard Layer 0 (Background)
//Storyboard Layer 1 (Fail)
//Storyboard Layer 2 (Pass)
//Storyboard Layer 3 (Foreground)
//Storyboard Sound Samples

[TimingPoints]
-995,447.761194029851,4,2,1,40,1,0
15124,-83.3333333333333,4,2,1,40,0,0
29452,-100,4,2,1,40,0,0
30796,-133.333333333333,4,2,1,40,0,0
32363,-100,4,2,1,40,0,0
34378,-133.333333333333,4,2,1,40,0,0
36169,-100,4,2,1,40,0,0
37960,-133.333333333333,4,2,1,40,0,0
38855,-100,4,2,1,40,0,0
58109,-100,4,2,1,40,0,1
84751,-100,4,2,1,40,0,0
88557,-100,4,2,1,5,0,0

[Colours]
Combo1 : 241,172,69
Combo2 : 126,54,245
Combo3 : 244,250,177
Combo4 : 241,194,99
Combo5 : 237,98,240
Combo6 : 172,73,55
SliderBorder : 255,255,255

[HitObjects]
381,242,572,5,0,0:0:0:0:
381,242,796,2,0,P|420:221|464:228,1,90,4|2,0:1|0:0,0:0:0:0:
314,350,1467,2,0,L|290:168,1,180,2|0,0:0|0:0,0:0:0:0:
133,186,2363,1,0,0:0:0:0:
133,186,2587,6,0,P|172:207|216:201,1,90,2|2,0:0|0:0,0:0:0:0:
66,79,3258,2,0,L|47:260,1,180,2|0,0:0|0:0,0:0:0:0:
255,369,4378,5,2,0:0:0:0:
220,302,7736,5,2,0:0:0:0:
220,302,7960,2,0,P|212:257|206:223,1,60,8|0,0:0|0:0,0:0:0:0:
144,158,8407,2,0,P|189:150|223:144,1,60,8|0,0:0|0:0,0:0:0:0:
288,82,8855,2,0,P|296:127|302:161,1,60,8|0,0:0|0:0,0:0:0:0:
364,226,9303,2,0,P|319:234|285:240,1,60,8|0,0:0|0:0,0:0:0:0:
160,291,9751,6,0,P|205:299|239:305,1,60,8|0,0:0|0:0,0:0:0:0:
353,286,10199,2,0,P|361:241|367:207,1,60,8|0,0:0|0:0,0:0:0:0:
348,93,10646,2,0,P|303:85|269:79,1,60,8|0,0:0|0:0,0:0:0:0:
155,98,11094,2,0,P|147:143|141:177,1,60,8|0,0:0|0:0,0:0:0:0:
289,83,11542,6,0,P|284:53|279:24,1,60,8|8,1:2|1:2,0:0:0:0:
145,156,11990,2,0,P|115:161|86:167,1,60,8|8,1:2|1:2,0:0:0:0:
218,300,12437,2,0,P|223:330|229:360,1,60,8|8,1:2|1:2,0:0:0:0:
362,227,12885,2,0,P|392:222|422:217,1,60,8|4,1:2|0:3,0:0:0:0:
369,132,13557,5,0,0:0:0:0:
362,227,13781,1,0,0:0:0:0:
355,317,14005,1,0,0:0:0:0:
281,265,14228,2,0,P|222:260|161:255,1,120,0|4,0:0|0:0,0:0:0:0:
162,256,15124,6,0,P|118:306|152:365,2,143.999995605469,6|2|8,0:1|0:1|1:2,0:0:0:0:
192,61,16467,2,0,L|206:189,1,107.999996704102,0|2,0:0|0:1,0:0:0:0:
180,165,16915,6,0,L|59:151,1,107.999996704102,2|0,0:1|0:0,0:0:0:0:
72,152,17363,2,0,B|53:186|53:186|68:231,1,71.9999978027344,0|0,0:0|0:0,0:0:0:0:
228,248,17810,2,0,B|243:282|243:282|227:326,1,71.9999978027344,8|0,1:2|0:0,0:0:0:0:
221,334,18146,1,2,0:1:0:0:
210,352,18258,2,0,L|305:340,1,71.9999978027344,0|2,0:0|0:1,0:0:0:0:
449,277,18706,6,0,P|384:300|332:252,2,143.999995605469,2|2|8,0:1|0:1|1:2,0:0:0:0:
449,277,20049,2,0,L|443:228,1,35.9999989013672,0|0,3:0|0:0,0:0:0:0:
432,162,20273,2,0,L|426:113,1,35.9999989013672,2|0,0:1|0:0,0:0:0:0:
342,45,20497,6,0,P|332:128|326:173,1,107.999996704102,2|0,0:1|0:0,0:0:0:0:
324,180,20945,2,0,L|263:184,2,47.9999985351563,2|2|2,0:3|0:3|0:3,0:0:0:0:
246,100,21393,2,0,P|204:101|164:104,1,71.9999978027344,8|0,1:2|0:0,0:0:0:0:
90,79,21840,2,0,P|92:114|97:233,1,143.999995605469,0|0,0:0|3:0,0:0:0:0:
119,218,22400,6,0,L|180:208,2,35.9999989013672,0|0|0,3:0|3:0|3:0,0:0:0:0:
231,287,22848,1,2,0:1:0:0:
231,287,22960,1,2,0:1:0:0:
104,338,23184,2,0,B|141:331|141:331|181:359,1,71.9999978027344,8|2,1:2|0:1,0:0:0:0:
376,340,23631,6,0,B|322:333|322:333|268:366,1,107.999996704102,0|0,0:0|0:0,0:0:0:0:
276,360,24079,2,0,L|288:244,1,107.999996704102,2|0,0:1|0:0,0:0:0:0:
273,219,24527,2,0,B|239:201|239:201|195:213,1,71.9999978027344,0|0,0:0|0:0,0:0:0:0:
330,147,24975,1,8,1:2:0:0:
330,147,25087,2,0,B|364:165|364:165|408:153,1,71.9999978027344,2|2,0:1|0:1,0:0:0:0:
418,138,25422,2,0,P|439:92|408:36,1,107.999996704102,0|0,0:0|0:0,0:0:0:0:
391,27,25870,6,0,L|263:43,1,107.999996704102,2|0,0:1|0:0,0:0:0:0:
260,46,26318,2,0,L|250:100,2,47.9999985351563,2|0|0,0:3|0:0|0:0,0:0:0:0:
287,160,26766,2,0,P|233:169|185:129,1,107.999996704102,8|0,1:2|0:0,0:0:0:0:
192,141,27213,2,0,L|200:204,1,35.9999989013672,0|0,3:0|0:0,0:0:0:0:
209,258,27437,2,0,L|217:321,1,35.9999989013672,2|0,0:1|0:0,0:0:0:0:
309,360,27661,6,0,P|315:298|321:245,1,107.999996704102,2|0,0:1|0:0,0:0:0:0:
327,224,28109,2,0,L|348:353,1,107.999996704102,2|0,0:1|0:0,0:0:0:0:
344,330,28557,2,0,B|383:323|383:323|421:337,1,71.9999978027344,0|2,3:0|0:1,0:0:0:0:
490,360,29005,1,8,0:1:0:0:
490,360,29452,6,0,L|506:228,1,120,4|0,0:1|0:0,0:0:0:0:
430,80,30124,2,0,P|388:119|413:186,1,120,2|0,0:0|0:0,0:0:0:0:
484,243,30796,6,0,B|341:266|341:266|375:315|355:361|355:361|320:334|279:346,1,315.000012016297,2|0,0:0|0:0,0:0:0:0:
258,337,33034,6,0,P|231:286|242:226,1,120,2|0,0:0|0:0,0:0:0:0:
294,160,33706,2,0,P|317:100|296:47,1,120,2|0,0:0|0:0,0:0:0:0:
207,21,34378,6,0,B|150:52|79:39|79:39|128:117|65:173,1,270.000010299683,2|0,0:0|0:0,0:0:0:0:
14,102,35945,1,2,0:1:0:0:
32,255,36169,1,8,0:0:0:0:
322,112,36616,6,0,P|348:167|333:230,1,120,2|0,0:0|0:0,0:0:0:0:
292,294,37288,2,0,P|228:288|154:280,1,120,2|0,0:0|0:0,0:0:0:0:
97,231,37960,6,0,P|151:169|232:213,1,180.000006866455,2|0,0:0|0:0,0:0:0:0:
423,345,39303,2,0,L|413:275,2,60
346,140,40199,6,0,P|303:179|318:245,1,120,2|0,0:0|0:0,0:0:0:0:
420,177,40870,2,0,P|427:116|389:69,1,120,2|0,0:0|0:0,0:0:0:0:
315,39,41542,1,2,0:0:0:0:
256,192,41654,12,4,43781,0:1:0:0:
200,94,44228,5,8,0:0:0:0:
77,208,44676,2,0,L|97:344,1,120,8|8,0:0|0:0,0:0:0:0:
167,369,45348,1,0,0:0:0:0:
208,295,45572,6,0,P|267:302|293:306,1,60,8|0,0:0|0:0,0:0:0:0:
322,365,46019,2,0,P|380:355|399:353,1,60,8|0,0:0|0:0,0:0:0:0:
462,376,46467,2,0,P|491:314|470:258,1,120,8|8,0:0|0:0,0:0:0:0:
410,215,47139,1,0,0:0:0:0:
336,255,47363,5,8,0:0:0:0:
336,255,47810,2,0,P|323:214|322:183,1,60,8|0,0:0|0:0,0:0:0:0:
381,137,48258,2,0,P|386:86|393:13,1,120,8|8,0:0|0:0,0:0:0:0:
309,1,48930,1,0,0:0:0:0:
309,1,49154,6,0,P|303:60|297:120,1,120,8|8,0:0|0:0,0:0:0:0:
286,203,49825,1,0,0:0:0:0:
217,153,50049,2,0,P|175:158|143:162,2,60,8|0|8,0:0|0:0|0:0,0:0:0:0:
87,218,50721,1,0,0:0:0:0:
61,138,50945,6,0,P|52:96|48:66,2,60,4|8|8,0:1|0:0|0:2,0:0:0:0:
87,218,51616,1,8,0:0:0:0:
159,267,51840,2,0,P|205:249|229:238,2,60,8|8|8,0:2|0:0|0:2,0:0:0:0:
256,177,52512,1,8,0:0:0:0:
298,244,52736,6,0,P|325:256|354:267,2,60,8|8|8,0:2|0:0|0:2,0:0:0:0:
381,179,53407,1,8,0:0:0:0:
456,226,53631,2,0,P|466:268|466:298,1,60,8|8,0:2|0:0,0:0:0:0:
381,179,54079,2,0,P|386:134|393:104,1,60,8|8,0:2|0:0,0:0:0:0:
256,192,54527,12,0,57661,0:0:0:0:
316,236,58109,6,0,P|365:226|447:210,1,120,4|8,0:1|0:0,0:0:0:0:
451,111,58781,1,0,0:0:0:0:
386,38,59005,2,0,P|356:81|362:149,1,120,2|8,0:1|0:0,0:0:0:0:
433,212,59676,1,0,0:0:0:0:
433,212,59900,6,0,P|461:263|450:337,1,120,2|8,0:1|0:0,0:0:0:0:
380,382,60572,1,0,0:0:0:0:
288,352,60796,2,0,P|293:299|302:219,1,120,2|8,0:1|0:0,0:0:0:0:
251,149,61467,1,0,0:0:0:0:
189,224,61691,6,0,P|136:255|75:244,1,120,2|8,0:1|0:0,0:0:0:0:
120,160,62363,1,0,0:0:0:0:
158,71,62587,2,0,P|99:63|49:94,1,120,2|8,0:1|0:0,0:0:0:0:
120,160,63258,1,0,0:0:0:0:
214,142,63482,6,0,P|289:127|353:117,1,120,2|8,0:1|0:0,0:0:0:0:
392,194,64154,1,0,0:0:0:0:
462,128,64378,2,0,P|456:90|443:54,1,60,2|0,0:1|0:0,0:0:0:0:
392,194,64825,2,0,P|388:228|389:257,1,60,8|0,0:0|0:0,0:0:0:0:
438,354,65273,6,0,P|388:333|323:344,1,120,2|8,0:1|0:0,0:0:0:0:
246,374,65945,1,0,0:0:0:0:
224,292,66169,2,0,P|214:244|210:223,1,60,2|0,0:1|0:0,0:0:0:0:
285,192,66616,2,0,P|292:141|294:122,1,60,8|0,0:0|0:0,0:0:0:0:
269,51,67064,6,0,P|218:29|156:45,1,120,2|8,0:1|0:0,0:0:0:0:
75,24,67736,2,0,P|89:93|101:155,1,120,0|0,0:0|0:0,0:0:0:0:
169,185,68407,2,0,P|163:228|159:258,1,60,8|0,0:0|0:0,0:0:0:0:
94,296,68855,6,0,P|140:331|198:323,1,120,2|8,0:1|0:0,0:0:0:0:
301,189,69751,1,2,0:1:0:0:
371,342,70199,2,0,L|384:279,1,60,8|2,0:0|0:1,0:0:0:0:
416,85,70870,5,0,0:0:0:0:
438,170,71094,2,0,P|445:203|451:233,1,60,0|0,0:0|0:0,0:0:0:0:
383,283,71542,2,0,P|327:293|278:244,1,120,0|8,1:0|1:2,0:0:0:0:
224,102,72437,6,0,P|190:109|159:115,1,60,4|0,0:1|0:0,0:0:0:0:
133,35,72885,2,0,P|85:45|71:48,1,60,8|0,0:0|0:0,0:0:0:0:
34,121,73333,2,0,P|21:175|53:230,1,120,2|8,0:1|0:0,0:0:0:0:
128,262,74005,1,0,0:0:0:0:
128,262,74228,6,0,L|119:325,2,60,2|0|8,0:1|0:0|0:0,0:0:0:0:
192,208,74900,1,0,0:0:0:0:
263,252,75124,2,0,P|284:304|258:368,1,120,2|8,0:1|0:0,0:0:0:0:
192,208,75796,1,0,0:0:0:0:
192,208,76019,6,0,P|180:161|209:97,1,120,2|8,0:1|0:0,0:0:0:0:
275,46,76691,1,0,0:0:0:0:
307,123,76915,2,0,P|341:117|368:111,2,60,2|0|8,0:1|0:0|0:0,0:0:0:0:
442,154,77587,6,0,P|455:105|422:45,1,120,0|0,0:0|0:0,0:0:0:0:
360,197,78258,2,0,P|368:233|375:258,1,60,8|0,0:0|0:0,0:0:0:0:
458,345,78706,2,0,P|402:330|337:336,1,120,2|8,0:1|0:0,0:0:0:0:
265,372,79378,1,0,0:0:0:0:
102,308,79602,6,0,P|161:313|219:297,1,120,2|8,0:1|0:0,0:0:0:0:
261,225,80273,1,0,0:0:0:0:
192,166,80497,2,0,P|175:199|170:226,1,60,2|0,0:1|0:0,0:0:0:0:
275,133,80945,2,0,P|268:104|253:72,1,60,8|0,0:0|0:0,0:0:0:0:
189,23,81393,5,2,0:1:0:0:
142,92,81616,2,0,P|107:97|78:102,2,60,0|8|0,0:0|0:0|0:0,0:0:0:0:
192,166,82288,2,0,P|213:214|202:281,1,120,2|8,0:1|0:0,0:0:0:0:
152,346,82960,1,0,0:0:0:0:
80,301,83184,6,0,P|122:265|186:268,1,120,2|8,0:1|0:0,0:0:0:0:
247,322,83855,1,0,0:0:0:0:
310,266,84079,2,0,L|302:205,1,60,2|0,0:1|0:0,0:0:0:0:
373,161,84527,1,8,0:0:0:0:
440,211,84751,6,0,P|457:273|426:325,1,120,2|0,0:1|0:0,0:0:0:0:
365,371,85422,2,0,L|306:363,1,60,0|0,0:0|0:0,0:0:0:0:
256,294,85870,2,0,P|239:232|270:180,1,120,0|8,0:0|0:0,0:0:0:0:
322,124,86542,5,4,0:1:0:0:
256,192,86654,12,0,88557,0:0:0:0:
