osu file format v14

[General]
AudioFilename: audio.mp3
AudioLeadIn: 1152
PreviewTime: 348
Countdown: 0
SampleSet: Soft
StackLeniency: 0.6
Mode: 0
LetterboxInBreaks: 0
WidescreenStoryboard: 0

[Editor]
DistanceSpacing: 1
BeatDivisor: 2
GridSize: 32
TimelineZoom: 1.2

[Metadata]
Title:episode Solo
TitleUnicode:episode Solo
Artist:Ruka. Nanase. Kana. Miho from AIKATSU*STARS!
ArtistUnicode:るか・ななせ・かな・みほ from AIKATSU☆STARS!
Creator:DreaM117er
Version:episode 2.
Source:アイカツスターズ!
Tags:Aikatsu STARS! ED ending tv size Streliteela Chaoslitz m1223961117
BeatmapID:965349
BeatmapSetID:449852

[Difficulty]
HPDrainRate:4
CircleSize:3.5
OverallDifficulty:3
ApproachRate:5
SliderMultiplier:1.05
SliderTickRate:1

[Events]
//Background and Video events
0,0,"BG.jpg",0,0
Video,0,"VDO.flv"
//Break Periods
//Storyboard Layer 0 (Background)
//Storyboard Layer 1 (Fail)
//Storyboard Layer 2 (Pass)
//Storyboard Layer 3 (Foreground)
//Storyboard Sound Samples

[TimingPoints]
-995,447.761194029851,4,2,1,40,1,0
7960,-100,4,2,1,60,0,0
13109,-100,4,2,1,50,0,0
14676,-100,4,2,1,70,0,0
15124,-100,4,2,1,60,0,1
29005,-100,4,2,1,60,0,0
29452,-100,4,2,1,70,0,1
29508,-100,4,2,1,40,0,0
35945,-100,4,2,1,50,0,0
36616,-100,4,2,1,40,0,0
43781,-100,4,2,1,60,0,0
58109,-100,4,2,1,60,0,1
70422,-100,4,2,1,60,0,0
72437,-100,4,2,1,60,0,1
84751,-100,4,2,1,60,0,0
88557,-100,4,2,1,5,0,0

[Colours]
Combo1 : 241,172,69
Combo2 : 126,54,245
Combo3 : 244,250,177
Combo4 : 241,194,99
Combo5 : 237,98,240
Combo6 : 172,73,55
SliderBorder : 255,255,255

[HitObjects]
202,99,572,5,0,0:0:0:0:
202,99,796,2,0,P|160:67|44:77,2,157.5,4|2|0,0:1|0:0|0:0,0:0:0:0:
307,99,2587,2,0,P|349:67|465:77,2,157.5,2|2|0,0:0|0:0|0:0,0:0:0:0:
256,192,4378,5,2,0:0:0:0:
292,290,4825,1,2,0:0:0:0:
226,372,5273,2,0,P|198:369|154:358,1,52.5,0|2,0:0|0:0,0:0:0:0:
133,330,5721,2,0,P|107:324|81:322,1,52.5,0|2,0:0|0:0,0:0:0:0:
32,342,6169,2,0,P|38:282|48:218,1,105,2|2,0:0|0:0,0:0:0:0:
59,187,6840,1,2,0:0:0:0:
106,93,7288,2,0,L|96:27,2,52.5,0|2|2,0:0|0:0|0:0,0:0:0:0:
147,125,7960,6,0,P|194:97|258:105,1,105,8|8,0:0|0:0,0:0:0:0:
336,150,8855,1,8,0:0:0:0:
434,112,9303,1,8,0:0:0:0:
509,184,9751,2,0,P|501:241|491:308,1,105,8|8,0:0|0:0,0:0:0:0:
425,367,10646,1,8,0:0:0:0:
322,342,11094,1,8,0:0:0:0:
220,316,11542,6,0,P|80:343|167:226,2,367.5,8|4|4,1:2|0:3|0:0,0:0:0:0:
273,225,15124,6,0,P|264:177|259:102,2,105,6|2|8,0:1|0:1|1:2,0:0:0:0:
328,314,16467,1,0,0:0:0:0:
430,292,16915,1,2,0:1:0:0:
491,206,17363,2,0,L|483:137,1,52.5,0|0,0:0|0:0,0:0:0:0:
440,126,17810,2,0,L|448:30,2,78.75,8|2|2,1:2|0:1|0:1,0:0:0:0:
407,167,18706,6,0,P|358:195|305:184,1,105,2|2,0:1|0:1,0:0:0:0:
248,103,19602,2,0,P|203:80|138:87,1,105,8|0,1:2|3:0,0:0:0:0:
103,108,20273,1,2,0:1:0:0:
103,108,20497,2,0,P|113:172|119:220,1,105,2|2,0:1|0:0,0:0:0:0:
125,316,21393,2,0,L|59:326,2,52.5,8|0|0,1:2|0:0|0:0,0:0:0:0:
228,335,22288,6,0,P|297:309|398:311,1,157.5,0|2,3:0|0:1,0:0:0:0:
430,323,23184,2,0,L|425:375,2,52.5,8|2|0,1:2|0:1|0:0,0:0:0:0:
460,222,24079,2,0,P|453:169|445:118,1,105,2|0,0:1|0:0,0:0:0:0:
430,67,24751,1,0,0:0:0:0:
430,67,24975,2,0,P|474:58|520:52,2,78.75,8|2|2,1:2|0:1|0:1,0:0:0:0:
384,40,25870,6,0,P|331:53|271:58,1,105,2|2,0:1|0:0,0:0:0:0:
186,103,26766,2,0,P|133:90|73:85,1,105,8|0,1:2|3:0,0:0:0:0:
33,104,27437,1,2,0:1:0:0:
33,104,27661,2,0,P|7:157|32:226,1,105,2|2,0:1|0:1,0:0:0:0:
67,291,28557,2,0,L|2:302,2,52.5,0|2|8,3:0|0:1|0:1,0:0:0:0:
170,310,29452,6,0,P|159:239|146:146,2,157.5,4|2|2,0:1|0:0|0:0,0:0:0:0:
363,367,33034,6,0,P|447:366|502:289,1,157.5,2|2,0:0|0:0,0:0:0:0:
473,212,34154,1,0,0:0:0:0:
473,212,34378,2,0,B|436:192|393:193|393:193|351:281|239:270|185:187|233:98,1,367.5,2|2,0:0|0:1,0:0:0:0:
247,78,36169,1,8,0:0:0:0:
341,32,36616,6,0,P|405:40|508:60,2,157.5,2|2|2,0:0|0:0|0:0,0:0:0:0:
186,306,39303,2,0,L|192:358,2,52.5,0|0|0,0:0|0:0|0:0,0:0:0:0:
165,202,40199,6,0,P|101:210|-2:230,2,157.5,2|2|2,0:0|0:0|0:0,0:0:0:0:
388,360,43781,6,0,P|396:308|404:256,1,105,4|8,0:1|0:0,0:0:0:0:
347,168,44676,1,8,0:0:0:0:
254,216,45124,1,8,0:0:0:0:
160,168,45572,2,0,P|104:156|36:149,2,105,8|8|8,0:0|0:0|0:0,0:0:0:0:
254,216,46915,1,8,0:0:0:0:
212,312,47363,6,0,P|168:344|96:328,1,105,8|8,0:0|0:0,0:0:0:0:
74,313,48034,1,0,0:0:0:0:
74,313,48258,2,0,P|80:247|89:188,1,105,8|8,0:0|0:0,0:0:0:0:
111,106,49154,2,0,P|45:99|3:57,2,105,8|8|8,0:0|0:0|0:0,0:0:0:0:
160,89,50273,1,0,0:0:0:0:
160,89,50497,1,8,0:0:0:0:
238,19,50945,6,0,P|289:27|341:37,1,105,4|8,0:1|0:0,0:0:0:0:
412,114,51840,2,0,P|360:122|308:132,1,105,8|8,0:0|0:0,0:0:0:0:
262,157,52512,1,8,0:0:0:0:
262,157,52736,2,0,P|251:207|279:261,1,105,8|8,0:0|0:0,0:0:0:0:
357,316,53631,2,0,L|408:308,2,52.5,8|8|8,0:2|0:0|0:2,0:0:0:0:
308,337,54303,5,8,0:0:0:0:
256,192,54527,12,0,57213,0:0:0:0:
197,107,58109,6,0,P|145:96|93:92,1,105,4|8,0:1|0:0,0:0:0:0:
40,97,58781,2,0,P|8:137|8:189,1,105,0|0,0:0|0:0,0:0:0:0:
32,236,59452,1,8,0:0:0:0:
118,294,59900,2,0,P|160:268|223:267,1,105,2|8,0:1|0:0,0:0:0:0:
264,281,60572,1,0,0:0:0:0:
264,281,60796,2,0,L|271:222,2,52.5,2|0|8,0:1|0:0|0:0,0:0:0:0:
315,372,61691,6,0,P|378:361|439:356,1,105,2|8,0:1|0:0,0:0:0:0:
471,357,62363,1,0,0:0:0:0:
471,357,62587,2,0,P|460:294|455:233,1,105,2|8,0:1|0:0,0:0:0:0:
458,200,63258,1,0,0:0:0:0:
458,200,63482,2,0,P|409:236|344:221,1,105,2|8,0:1|0:0,0:0:0:0:
318,212,64154,1,0,0:0:0:0:
318,212,64378,2,0,L|325:152,2,52.5,2|0|8,0:1|0:0|0:0,0:0:0:0:
275,308,65273,6,0,P|221:278|163:288,1,105,2|8,0:1|0:0,0:0:0:0:
133,305,65945,2,0,P|138:253|147:202,1,105,0|0,0:0|0:0,0:0:0:0:
161,151,66616,1,8,0:0:0:0:
145,47,67064,2,0,P|196:56|248:60,1,105,2|8,0:1|0:0,0:0:0:0:
289,93,67736,2,0,P|333:66|406:74,1,105,0|0,0:0|0:0,0:0:0:0:
433,86,68407,1,8,0:0:0:0:
488,175,68855,6,0,P|485:201|477:248,1,52.5,2|0,0:1|0:0,0:0:0:0:
442,263,69303,2,0,P|437:288|434:315,1,52.5,8|0,0:0|0:0,0:0:0:0:
436,367,69751,2,0,P|383:359|332:349,1,105,2|8,0:1|0:0,0:0:0:0:
282,333,70422,1,2,0:1:0:0:
182,366,70870,2,0,P|130:355|78:348,1,105,0|0,0:0|0:0,0:0:0:0:
26,351,71542,2,0,P|33:298|43:247,1,105,0|8,1:0|1:2,0:0:0:0:
93,155,72437,6,0,P|27:149|-3:110,2,105,4|8|2,0:1|0:0|0:1,0:0:0:0:
177,92,73781,1,8,0:0:0:0:
279,112,74228,2,0,P|330:102|382:96,1,105,2|8,0:1|0:0,0:0:0:0:
435,100,74900,1,0,0:0:0:0:
435,100,75124,2,0,P|470:159|459:216,1,105,2|8,0:1|0:0,0:0:0:0:
408,279,76019,6,0,P|463:285|526:298,2,105,2|8|2,0:1|0:0|0:1,0:0:0:0:
309,316,77363,1,8,0:0:0:0:
211,355,77810,2,0,P|154:348|88:337,1,105,2|8,0:1|0:0,0:0:0:0:
55,330,78482,1,0,0:0:0:0:
55,330,78706,2,0,P|26:272|38:215,1,105,2|8,0:1|0:0,0:0:0:0:
108,163,79602,6,0,P|156:198|220:188,2,105,2|8|2,0:1|0:0|0:1,0:0:0:0:
185,92,80945,1,8,0:0:0:0:
287,70,81393,2,0,P|339:76|395:90,1,105,2|8,0:1|0:0,0:0:0:0:
438,109,82064,1,0,0:0:0:0:
438,109,82288,2,0,P|429:153|418:219,1,105,2|8,0:1|0:0,0:0:0:0:
366,303,83184,6,0,P|339:298|302:294,1,52.5,2|0,0:1|0:0,0:0:0:0:
266,317,83631,2,0,P|239:313|214:308,1,52.5,8|0,0:0|0:0,0:0:0:0:
176,271,84079,2,0,P|124:274|75:244,1,105,2|8,0:1|0:0,0:0:0:0:
48,206,84751,1,2,0:1:0:0:
22,104,85199,2,0,P|83:94|140:90,1,105,0|0,0:0|0:0,0:0:0:0:
178,89,85870,1,0,0:0:0:0:
255,159,86318,1,8,0:0:0:0:
255,159,86542,5,4,0:1:0:0:
256,192,86766,12,0,88557,0:0:0:0:
