osu file format v14

[General]
AudioFilename: audio.mp3
AudioLeadIn: 1152
PreviewTime: 348
Countdown: 0
SampleSet: Soft
StackLeniency: 0.6
Mode: 0
LetterboxInBreaks: 0
WidescreenStoryboard: 0

[Editor]
DistanceSpacing: 0.7
BeatDivisor: 4
GridSize: 32
TimelineZoom: 1.8

[Metadata]
Title:episode Solo
TitleUnicode:episode Solo
Artist:Ruka. Nanase. Kana. Miho from AIKATSU*STARS!
ArtistUnicode:るか・ななせ・かな・みほ from AIKATSU☆STARS!
Creator:DreaM117er
Version:Solo
Source:アイカツスターズ!
Tags:Aikatsu STARS! ED ending tv size Streliteela Chaoslitz m1223961117
BeatmapID:965182
BeatmapSetID:449852

[Difficulty]
HPDrainRate:6.5
CircleSize:4
OverallDifficulty:8
ApproachRate:9
SliderMultiplier:1.7
SliderTickRate:1

[Events]
//Background and Video events
0,0,"BG.jpg",0,0
Video,0,"VDO.flv"
//Break Periods
//Storyboard Layer 0 (Background)
//Storyboard Layer 1 (Fail)
//Storyboard Layer 2 (Pass)
//Storyboard Layer 3 (Foreground)
//Storyboard Sound Samples

[TimingPoints]
-995,447.761194029851,4,2,1,40,1,0
572,-111.111111111111,4,2,1,40,0,0
1467,-133.333333333333,4,2,1,40,0,0
2363,-111.111111111111,4,2,1,40,0,0
3258,-133.333333333333,4,2,1,40,0,0
4154,-111.111111111111,4,2,1,40,0,0
6169,-100,4,2,1,40,0,0
7960,-100,4,2,1,60,0,0
13109,-100,4,2,1,50,0,0
14228,-166.666666666667,4,2,1,40,0,0
14676,-66.6666666666667,4,2,1,70,0,0
14900,-66.6666666666667,4,2,1,40,0,0
15124,-90.9090909090909,4,2,1,60,0,1
16467,-55.5555555555556,4,2,1,60,0,1
16915,-83.3333333333333,4,2,1,60,0,1
17363,-62.5,4,2,1,60,0,1
17810,-90.9090909090909,4,2,1,60,0,1
20049,-62.5,4,2,1,60,0,1
20497,-90.9090909090909,4,2,1,60,0,1
20945,-62.5,4,2,1,60,0,1
21393,-90.9090909090909,4,2,1,60,0,1
22288,-83.3333333333333,4,2,1,60,0,1
23631,-55.5555555555556,4,2,1,60,0,1
24079,-83.3333333333333,4,2,1,60,0,1
24527,-62.5,4,2,1,60,0,1
24975,-90.9090909090909,4,2,1,60,0,1
26318,-62.5,4,2,1,60,0,1
26766,-90.9090909090909,4,2,1,60,0,1
27213,-62.5,4,2,1,60,0,1
27661,-83.3333333333333,4,2,1,60,0,1
29005,-66.6666666666667,4,2,1,60,0,0
29228,-66.6666666666667,4,2,1,5,0,0
29452,-133.333333333333,4,2,1,70,0,1
29508,-133.333333333333,4,2,1,40,0,0
30796,-200,4,2,1,40,0,0
33034,-133.333333333333,4,2,1,40,0,0
34378,-200,4,2,1,40,0,0
35945,-200,4,2,1,50,0,0
36616,-133.333333333333,4,2,1,40,0,0
37960,-200,4,2,1,40,0,0
40199,-133.333333333333,4,2,1,40,0,0
43557,-133.333333333333,4,2,1,5,0,0
43781,-100,4,2,1,50,0,0
56318,-100,4,2,1,40,0,0
56766,-100,4,2,1,50,0,0
57213,-100,4,2,1,60,0,0
57661,-100,4,2,1,40,0,0
58109,-83.3333333333333,4,2,1,60,0,1
70422,-133.333333333333,4,2,1,40,0,0
70758,-133.333333333333,4,2,1,20,0,0
70870,-76.9230769230769,4,2,1,40,0,0
71542,-100,4,2,1,60,0,0
71990,-100,4,2,1,60,0,0
72437,-83.3333333333333,4,2,1,60,0,1
84751,-100,4,2,1,60,0,0
88557,-100,4,2,1,5,0,0

[Colours]
Combo1 : 241,172,69
Combo2 : 126,54,245
Combo3 : 244,250,177
Combo4 : 241,194,99
Combo5 : 237,98,240
Combo6 : 172,73,55
SliderBorder : 255,255,255

[HitObjects]
84,112,572,5,0,0:0:0:0:
84,112,796,6,0,P|92:168|96:208,1,76.4999976654053,4|0,0:1|0:0,0:0:0:0:
168,215,1131,2,0,P|164:239|156:303,1,76.4999976654053,2|0,0:0|0:0,0:0:0:0:
155,370,1467,6,0,P|223:306|315:326,1,191.250007295609,2|0,0:0|0:0,0:0:0:0:
312,323,2363,1,0,0:0:0:0:
424,212,2587,6,0,P|377:206|344:177,1,76.4999976654053,2|0,0:0|0:0,0:0:0:0:
335,115,2922,2,0,P|363:77|404:62,1,76.4999976654053,2|0,0:0|0:0,0:0:0:0:
467,85,3258,6,0,B|492:121|481:163|481:163|503:193|510:239|466:277,1,191.250007295609,2|0,0:0|0:0,0:0:0:0:
479,263,4154,1,0,0:0:0:0:
325,323,4378,5,2,0:0:0:0:
306,312,4825,5,2,0:0:0:0:
278,303,5273,5,0,0:0:0:0:
130,355,5497,1,2,0:0:0:0:
208,228,5721,1,0,0:0:0:0:
26,269,5945,1,2,0:0:0:0:
232,328,6169,5,2,0:0:0:0:
188,136,6393,1,0,0:0:0:0:
232,328,6616,1,2,0:0:0:0:
108,132,6840,2,0,P|132:80|256:92,1,170,2|0,0:0|0:0,0:0:0:0:
356,204,7512,1,2,0:0:0:0:
188,136,7736,1,2,0:0:0:0:
244,308,7960,6,0,P|250:266|256:224,1,85,8|0,0:0|0:0,0:0:0:0:
108,132,8407,2,0,P|114:174|120:216,1,85,8|0,0:0|0:0,0:0:0:0:
272,340,8855,2,0,P|278:298|284:256,1,85,8|0,0:0|0:0,0:0:0:0:
72,112,9303,2,0,P|78:154|84:196,1,85,8|0,0:0|0:0,0:0:0:0:
300,372,9751,6,0,P|338:364|398:356,1,85,8|0,0:0|0:0,0:0:0:0:
212,300,10199,2,0,P|170:291|128:285,1,85,8|0,0:0|0:0,0:0:0:0:
354,201,10646,2,0,P|396:194|437:187,1,85,8|0,0:0|0:0,0:0:0:0:
157,125,11094,2,0,P|114:118|73:111,1,85,8|0,0:0|0:0,0:0:0:0:
304,240,11542,5,8,1:2:0:0:
256,48,11766,1,8,1:2:0:0:
340,216,11990,1,8,1:2:0:0:
168,288,12213,1,8,1:2:0:0:
312,124,12437,1,8,1:2:0:0:
208,312,12661,1,8,1:2:0:0:
0,268,12885,1,8,1:2:0:0:
256,224,13109,5,4,0:3:0:0:
256,224,13557,1,0,0:0:0:0:
132,192,13781,1,0,0:0:0:0:
172,292,14005,1,0,0:0:0:0:
226,105,14228,6,0,P|182:112|149:117,1,76.4999976654053
65,54,14676,6,0,P|134:65|193:72,1,127.500004863739,4|0,0:0|0:0,0:0:0:0:
385,166,15124,5,6,0:1:0:0:
437,42,15348,1,0,0:0:0:0:
302,207,15572,1,2,0:1:0:0:
471,130,15796,1,0,0:0:0:0:
298,31,16019,2,0,P|305:89|312:140,1,93.5000028533936,8|0,1:2|0:0,0:0:0:0:
331,297,16467,6,0,P|383:230|453:241,1,152.999995330811,0|0,0:0|0:0,0:0:0:0:
510,318,16803,1,2,0:1:0:0:
510,318,16915,6,0,P|459:313|402:301,1,101.999996887207,2|0,0:1|0:0,0:0:0:0:
327,339,17251,1,0,0:0:0:0:
284,360,17363,6,0,P|250:352|217:347,1,68,0|0,0:0|0:0,0:0:0:0:
83,254,17587,2,0,P|117:248|150:241,1,68,0|0,0:0|0:0,0:0:0:0:
272,265,17810,5,8,1:2:0:0:
284,253,17922,2,0,L|292:207,1,46.7500014266968,2|0,0:1|0:0,0:0:0:0:
104,107,18146,1,2,0:1:0:0:
92,119,18258,2,0,L|101:186,1,46.7500014266968,0|0,0:0|0:0,0:0:0:0:
179,366,18482,1,2,0:1:0:0:
179,366,18594,1,0,0:0:0:0:
179,366,18706,6,0,P|256:354|291:348,1,93.5000028533936,2|0,0:1|0:0,0:0:0:0:
470,300,19154,1,2,0:1:0:0:
305,260,19378,1,0,0:0:0:0:
470,300,19602,2,0,P|462:239|452:188,1,93.5000028533936,8|0,1:2|0:0,0:0:0:0:
278,227,20049,6,0,P|311:221|344:214,1,68,0|0,3:0|0:0,0:0:0:0:
482,82,20273,2,0,P|448:87|415:94,1,68,2|0,0:1|0:0,0:0:0:0:
258,267,20497,6,0,P|303:259|359:246,1,93.5000028533936,2|0,0:1|0:0,0:0:0:0:
187,69,20945,2,0,P|209:57|235:48,1,45.3333333333333,2|0,0:3|0:0,0:0:0:0:
114,49,21094,2,0,P|125:28|137:10,1,45.3333333333333,2|0,0:3|0:0,0:0:0:0:
44,74,21243,2,0,P|40:50|41:22,1,45.3333333333333,2|0,0:3|0:0,0:0:0:0:
1,136,21393,6,0,P|40:156|113:154,1,93.5000028533936,8|0,1:2|0:0,0:0:0:0:
334,125,21840,2,0,P|274:124|229:144,1,93.5000028533936,0|0,0:0|0:0,0:0:0:0:
152,256,22288,5,0,3:0:0:0:
157,292,22400,1,0,3:0:0:0:
163,328,22512,1,0,3:0:0:0:
169,365,22624,2,0,P|220:356|289:346,1,101.999996887207,0|2,3:0|0:1,0:0:0:0:
305,345,22960,1,2,0:1:0:0:
435,251,23184,6,0,P|409:248|384:242,1,50.9999984436036,8|0,1:2|0:0,0:0:0:0:
227,182,23407,2,0,P|251:176|277:173,1,50.9999984436036,2|0,0:1|0:0,0:0:0:0:
399,124,23631,6,0,P|350:43|455:39,1,229.499992996216,0|0,0:0|0:0,0:0:0:0:
503,121,24079,6,0,P|497:169|489:235,1,101.999996887207,2|0,0:1|0:0,0:0:0:0:
430,295,24415,1,0,0:0:0:0:
385,310,24527,6,0,P|378:276|373:243,1,68,0|0,0:0|0:0,0:0:0:0:
297,89,24751,2,0,P|291:122|285:155,1,68,0|0,0:0|0:0,0:0:0:0:
165,337,24975,5,8,1:2:0:0:
147,329,25087,2,0,L|139:273,1,46.7500014266968,2|0,0:1|0:0,0:0:0:0:
21,169,25310,1,2,0:1:0:0:
7,181,25422,2,0,L|-4:246,1,46.7500014266968,0|0,0:0|0:0,0:0:0:0:
196,148,25646,1,2,0:1:0:0:
196,148,25758,1,0,0:0:0:0:
196,148,25870,6,0,P|150:139|103:132,1,93.5000028533936,2|0,0:1|0:0,0:0:0:0:
321,323,26318,2,0,P|299:335|273:344,1,45.3333333333333,2|0,0:3|0:0,0:0:0:0:
393,343,26467,2,0,P|382:365|366:387,1,45.3333333333333,2|0,0:3|0:0,0:0:0:0:
464,318,26616,2,0,P|468:342|467:370,1,45.3333333333333,2|0,0:3|0:0,0:0:0:0:
507,256,26766,6,0,P|468:236|400:235,1,93.5000028533936,8|0,1:2|0:0,0:0:0:0:
193,364,27213,2,0,P|186:331|181:298,1,68,0|0,3:0|0:0,0:0:0:0:
295,180,27437,2,0,P|289:213|283:247,1,68,2|0,0:1|0:0,0:0:0:0:
105,348,27661,5,2,0:1:0:0:
214,187,27885,1,0,0:0:0:0:
410,212,28109,1,2,0:1:0:0:
194,290,28333,1,0,0:0:0:0:
34,140,28557,1,0,3:0:0:0:
293,218,28781,1,2,0:1:0:0:
105,348,29005,6,0,P|116:284|132:204,1,127.500004863739,8|0,0:1|0:0,0:0:0:0:
241,29,29452,6,0,P|307:45|386:54,1,127.500004863739,4|0,0:1|0:0,0:0:0:0:
402,123,30124,2,0,P|347:129|289:68,1,127.500004863739,2|0,0:0|0:0,0:0:0:0:
366,52,30796,6,0,B|378:109|339:148|339:148|344:163|343:178|343:178|296:193|287:347|416:281|357:213,1,340,2|0,0:0|0:0,0:0:0:0:
152,136,33034,6,0,P|86:152|7:161,1,127.500004863739,2|0,0:0|0:0,0:0:0:0:
90,209,33706,2,0,P|106:149|75:95,1,127.500004863739,2|0,0:0|0:0,0:0:0:0:
26,159,34378,6,0,B|-11:226|37:288|92:286|92:286|124:274|124:274|154:288|154:288|182:277|209:271,1,297.5,2|2,0:0|0:1,0:0:0:0:
206,271,36169,1,8,0:0:0:0:
428,223,36616,6,0,P|394:263|412:358,1,127.500004863739,2|0,0:0|0:0,0:0:0:0:
467,296,37288,2,0,P|458:232|449:169,1,127.500004863739,2|0,0:0|0:0,0:0:0:0:
418,101,37960,6,0,B|376:130|329:123|301:82|301:82|269:92|269:92|235:74|176:70,1,255,2|0,0:0|0:0,0:0:0:0:
110,97,39527,1,0,0:0:0:0:
40,59,39751,1,0,0:0:0:0:
32,65,40199,6,0,P|38:122|48:203,1,127.500004863739,2|0,0:0|0:0,0:0:0:0:
118,229,40870,2,0,P|110:292|103:355,1,127.500004863739,2|0,0:0|0:0,0:0:0:0:
103,355,41542,1,2,0:0:0:0:
256,192,41654,12,0,43557,0:0:0:0:
256,192,43781,5,4,0:1:0:0:
321,258,44005,1,0,0:0:0:0:
344,167,44228,1,8,0:0:0:0:
233,281,44452,1,0,0:0:0:0:
409,324,44676,2,0,P|402:265|398:229,1,85,8|0,0:0|0:0,0:0:0:0:
507,359,45124,2,0,P|500:300|496:264,1,85,8|0,0:0|0:0,0:0:0:0:
256,192,45572,5,8,0:0:0:0:
191,258,45796,1,0,0:0:0:0:
168,167,46019,1,8,0:0:0:0:
279,281,46243,1,0,0:0:0:0:
103,324,46467,2,0,P|110:265|114:229,1,85,8|0,0:0|0:0,0:0:0:0:
5,359,46915,2,0,P|12:300|16:264,1,85,8|0,0:0|0:0,0:0:0:0:
256,104,47363,5,8,0:0:0:0:
304,184,47587,1,0,0:0:0:0:
256,264,47810,1,8,0:0:0:0:
208,184,48034,1,0,0:0:0:0:
351,101,48258,2,0,P|417:112|498:124,1,127.5,8|0,0:0|0:0,0:0:0:0:
511,152,48706,2,0,P|509:194|493:233,1,85,8|0,0:0|0:0,0:0:0:0:
251,120,49154,6,0,P|252:77|268:38,1,85,8|0,0:0|0:0,0:0:0:0:
297,242,49602,1,8,0:0:0:0:
166,103,49825,1,0,0:0:0:0:
336,158,50049,1,8,0:0:0:0:
210,276,50273,1,0,0:0:0:0:
260,143,50497,1,8,0:0:0:0:
335,329,50721,1,0,0:0:0:0:
335,329,50833,1,0,0:0:0:0:
335,329,50945,5,4,0:1:0:0:
478,285,51169,1,8,0:0:0:0:
379,258,51393,1,8,0:2:0:0:
492,366,51616,1,8,0:0:0:0:
393,173,51840,5,8,0:2:0:0:
335,329,52064,1,8,0:0:0:0:
256,124,52288,1,8,0:2:0:0:
256,296,52512,1,8,0:0:0:0:
119,173,52736,5,8,0:2:0:0:
177,329,52960,1,8,0:0:0:0:
20,366,53184,1,8,0:2:0:0:
133,258,53407,1,8,0:0:0:0:
133,258,53519,1,2,0:0:0:0:
133,258,53631,5,8,0:2:0:0:
40,128,53855,1,8,0:0:0:0:
208,224,54079,1,8,0:2:0:0:
56,292,54303,1,8,0:0:0:0:
180,152,54527,5,0,1:0:0:0:
214,176,54639,1,0,1:0:0:0:
254,190,54751,1,0,1:0:0:0:
298,176,54863,1,0,1:0:0:0:
332,152,54975,1,0,1:0:0:0:
352,114,55087,1,0,1:0:0:0:
352,71,55199,1,0,1:0:0:0:
332,33,55310,1,0,1:0:0:0:
256,8,55422,5,0,1:0:0:0:
212,26,55534,1,0,1:0:0:0:
167,40,55646,1,0,1:0:0:0:
120,45,55758,1,0,1:0:0:0:
38,41,55870,5,0,1:0:0:0:
53,89,55982,1,0,1:0:0:0:
67,137,56094,1,0,1:0:0:0:
80,186,56206,1,0,1:0:0:0:
93,270,56318,6,0,L|87:306,7,21.25,0|0|0|0|0|0|0|0,0:0|0:0|0:0|0:0|0:0|0:0|0:0|0:0,0:0:0:0:
170,321,56766,2,0,L|176:357,7,21.25,0|0|0|0|0|0|0|0,0:0|0:0|0:0|0:0|0:0|0:0|0:0|0:0,0:0:0:0:
256,300,57213,6,0,L|256:260,3,21.25
256,256,57437,1,0,0:0:0:0:
342,321,57661,6,0,L|334:373,1,28.3333333333333,0|0,0:0|0:0,0:0:0:0:
418,318,57810,2,0,L|430:360,1,28.3333333333333,0|0,0:0|0:0,0:0:0:0:
483,278,57960,2,0,L|510:308,1,28.3333333333333,0|0,0:0|0:0,0:0:0:0:
503,205,58109,6,0,P|495:154|482:93,1,101.999996887207,4|0,0:1|0:0,0:0:0:0:
437,42,58445,1,0,0:0:0:0:
437,42,58557,2,0,P|382:59|322:61,1,101.999996887207,8|0,0:0|0:0,0:0:0:0:
193,18,59005,1,2,0:1:0:0:
234,218,59228,1,0,0:0:0:0:
38,120,59452,2,0,P|88:124|137:140,1,101.999996887207,8|0,0:0|0:0,0:0:0:0:
286,316,59900,5,2,0:1:0:0:
137,235,60124,1,0,0:0:0:0:
137,235,60236,1,0,0:0:0:0:
137,235,60348,1,8,0:0:0:0:
258,132,60572,1,0,0:0:0:0:
197,312,60796,1,2,0:1:0:0:
162,139,61019,1,0,0:0:0:0:
226,298,61243,1,8,0:0:0:0:
385,227,61467,1,0,0:0:0:0:
203,353,61691,6,0,B|168:351|140:338|140:338|107:351|107:351|66:329|-4:328,1,203.999993774414,2|8,0:1|0:0,0:0:0:0:
330,305,62363,1,0,0:0:0:0:
330,305,62475,1,0,0:0:0:0:
330,305,62587,2,0,P|382:321|479:216,1,203.999993774414,2|8,0:1|0:0,0:0:0:0:
257,49,63258,1,0,0:0:0:0:
257,49,63370,1,0,0:0:0:0:
257,49,63482,6,0,B|256:87|248:104|248:104|259:137|259:137|246:163|246:218,1,152.999995330811,2|0,0:1|0:0,0:0:0:0:
210,273,63930,2,0,P|227:320|233:371,1,101.999996887207,8|0,0:0|0:0,0:0:0:0:
130,190,64378,1,2,0:1:0:0:
314,282,64602,1,0,0:0:0:0:
314,282,64713,1,0,0:0:0:0:
314,282,64825,1,8,0:0:0:0:
140,344,65049,1,0,0:0:0:0:
253,170,65273,6,0,B|284:170|307:185|307:185|340:176|340:176|373:192|419:189,1,152.999995330811,2|0,0:1|0:0,0:0:0:0:
481,184,65721,2,0,P|498:136|504:85,1,101.999996887207,8|0,0:0|0:0,0:0:0:0:
257,262,66169,2,0,P|270:333|276:375,1,101.999996887207,2|0,0:1|0:0,0:0:0:0:
274,362,66505,1,0,0:0:0:0:
274,362,66616,1,8,0:0:0:0:
332,146,66840,1,0,0:0:0:0:
220,295,67064,6,0,P|160:338|73:313,1,152.999995330811,2|0,0:1|0:0,0:0:0:0:
28,267,67512,2,0,P|35:216|45:166,1,101.999996887207,8|0,0:0|0:0,0:0:0:0:
192,38,67960,1,2,0:1:0:0:
217,198,68184,1,0,0:0:0:0:
217,198,68296,1,0,0:0:0:0:
217,198,68407,1,8,0:0:0:0:
44,166,68631,1,0,0:0:0:0:
205,237,68855,6,0,P|256:226|324:217,1,101.999996887207,2|0,0:1|0:0,0:0:0:0:
471,62,69303,2,0,P|420:73|352:82,1,101.999996887207,8|0,0:0|0:0,0:0:0:0:
194,269,69751,1,2,0:1:0:0:
113,116,69975,1,0,0:0:0:0:
275,200,70199,1,8,0:0:0:0:
77,319,70422,6,0,P|119:290|178:297,1,95.6250036478044,2|0,0:1|0:0,0:0:0:0:
233,327,70870,6,0,P|193:363|139:366,1,110.499994941712,0|0,0:0|0:0,0:0:0:0:
12,175,71318,1,0,0:0:0:0:
233,215,71542,2,0,L|240:168,5,28.3333333333333,0|0|0|0|0|0,1:0|1:0|1:0|1:0|1:0|1:0,0:0:0:0:
274,114,71990,6,0,L|253:74,1,28.3333333333333,8|0,1:2|0:0,0:0:0:0:
345,82,72139,2,0,L|342:37,1,28.3333333333333,0|0,0:0|0:0,0:0:0:0:
423,84,72288,2,0,L|437:44,1,28.3333333333333,0|0,0:0|0:0,0:0:0:0:
483,136,72437,6,0,P|494:190|501:253,1,101.999996887207,4|0,0:1|0:0,0:0:0:0:
315,362,72885,2,0,P|304:308|297:245,1,101.999996887207,8|0,0:0|0:0,0:0:0:0:
346,107,73333,1,2,0:1:0:0:
217,242,73557,1,0,0:0:0:0:
217,242,73669,1,0,0:0:0:0:
217,242,73781,1,8,0:0:0:0:
397,187,74005,1,0,0:0:0:0:
207,67,74228,6,0,P|115:87|3:104,1,203.999993774414,2|8,0:1|0:0,0:0:0:0:
220,269,74900,1,0,0:0:0:0:
118,129,75124,1,2,0:1:0:0:
58,311,75348,1,0,0:0:0:0:
58,311,75460,1,0,0:0:0:0:
58,311,75572,1,8,0:0:0:0:
256,232,75796,1,0,0:0:0:0:
454,311,76019,6,0,P|462:247|474:193,1,101.999996887207,2|0,0:1|0:0,0:0:0:0:
334,46,76467,1,8,0:0:0:0:
363,190,76691,1,0,0:0:0:0:
212,39,76915,1,2,0:1:0:0:
256,232,77139,1,0,0:0:0:0:
256,232,77251,1,0,0:0:0:0:
256,232,77363,1,8,0:0:0:0:
355,74,77587,1,0,0:0:0:0:
127,189,77810,6,0,P|71:183|8:168,1,101.999996887207,2|0,0:1|0:0,0:0:0:0:
385,189,78258,2,0,P|441:183|504:168,1,101.999996887207,8|0,0:0|0:0,0:0:0:0:
256,120,78706,1,2,0:1:0:0:
328,308,78930,1,0,0:0:0:0:
328,308,79042,1,0,0:0:0:0:
328,308,79154,1,8,0:0:0:0:
398,162,79378,1,0,0:0:0:0:
190,268,79602,6,0,P|196:318|207:368,1,101.999996887207,2|0,0:1|0:0,0:0:0:0:
322,116,80049,2,0,P|315:65|304:15,1,101.999996887207,8|0,0:0|0:0,0:0:0:0:
216,237,80497,1,2,0:1:0:0:
398,162,80721,1,0,0:0:0:0:
398,162,80833,1,0,0:0:0:0:
398,162,80945,1,8,0:0:0:0:
235,114,81169,1,0,0:0:0:0:
379,254,81393,6,0,P|436:242|501:233,1,101.999996887207,2|0,0:1|0:0,0:0:0:0:
258,366,81840,2,0,P|246:313|240:243,1,101.999996887207,8|0,0:0|0:0,0:0:0:0:
316,80,82288,1,2,0:1:0:0:
198,181,82512,1,0,0:0:0:0:
198,181,82624,1,0,0:0:0:0:
198,181,82736,1,8,0:0:0:0:
344,242,82960,1,0,0:0:0:0:
199,70,83184,6,0,P|142:82|77:91,1,101.999996887207,2|0,0:1|0:0,0:0:0:0:
21,294,83631,2,0,P|78:282|143:273,1,101.999996887207,8|0,0:0|0:0,0:0:0:0:
320,160,84079,1,2,0:1:0:0:
256,292,84303,1,0,0:0:0:0:
200,127,84527,1,8,0:0:0:0:
391,275,84751,5,2,0:1:0:0:
391,275,85199,1,0,0:0:0:0:
320,160,85422,1,0,0:0:0:0:
256,292,85646,1,0,0:0:0:0:
432,178,85870,2,0,B|431:146|419:119|419:119|433:92|433:92|417:57|412:16,1,170,0|8,0:0|0:0,0:0:0:0:
207,212,86542,5,4,0:1:0:0:
256,192,86654,12,0,88557,0:0:0:0:
