osu file format v14

[General]
AudioFilename: audio.ogg
AudioLeadIn: 0
PreviewTime: 61464
Countdown: 0
SampleSet: Soft
StackLeniency: 0.7
Mode: 0
LetterboxInBreaks: 0
WidescreenStoryboard: 1

[Editor]
Bookmarks: 13089,25089,37089,49089,59214,62589,74589,86589
DistanceSpacing: 1
BeatDivisor: 4
GridSize: 16
TimelineZoom: 2

[Metadata]
Title:Tutu Ballerina (TV Size)
TitleUnicode:チュチュ・バレリーナ (TV Size)
Artist:Ruka, Mona, Miki from AIKATSU * STARS!
ArtistUnicode:るか・もな・みき from AIKATSU☆STARS!
Creator:Niizuma Yae
Version:iRedi's Hard
Source:アイカツ!
Tags:yayoi takatsuki aurorance iredi kennethbbg aikatsu! s3 season 3 jpop j-pop j pop japanese anime idol jidol ed ending 2 female vocals Luminas Akari Ozora Sumire Hikami Hinaki Shinjo 大空あかり 新条ひなき 氷上 スミレ Ruka Endo 遠藤瑠香 Mona Tomoyama 巴山萌菜 Miki Mirai 未来みき 只野菜摘 Tadano Natsumi 石原理酉 Masaaki Ishihara 成瀬裕介 Yusuke Naruse onetrap
BeatmapID:4411988
BeatmapSetID:2101057

[Difficulty]
HPDrainRate:6
CircleSize:4
OverallDifficulty:6
ApproachRate:7.5
SliderMultiplier:1.4
SliderTickRate:1

[Events]
//Background and Video events
0,0,"tutub.jpg",0,0
Video,-750,"v.mp4"
//Break Periods
//Storyboard Layer 0 (Background)
//Storyboard Layer 1 (Fail)
//Storyboard Layer 2 (Pass)
//Storyboard Layer 3 (Foreground)
//Storyboard Layer 4 (Overlay)
//Storyboard Sound Samples

[TimingPoints]
1100,375,4,2,1,75,1,0
1100,-100,4,2,1,75,0,0
12350,-100,4,2,1,70,0,0
13100,-111.111111111111,4,2,1,65,0,0
56600,-111.111111111111,4,2,1,80,0,0
60350,-100,4,2,1,75,0,0
61475,-125,4,2,1,75,0,0
62600,-90.9090909090909,4,2,1,80,0,1
86600,-100,4,2,1,80,0,0

[Colours]
Combo1 : 118,143,245
Combo2 : 255,187,207
Combo3 : 193,124,250

[HitObjects]
45,62,1100,6,0,P|94:6|180:10,2,140,14|0|8,0:2|3:2|0:2,0:2:0:0:
0,142,2037,2,0,L|18:209,1,70,2|0,0:2|0:2,0:0:0:0:
92,263,2412,6,0,P|140:235|199:250,1,105,2|0,0:0|0:0,0:0:0:0:
195,252,2787,2,0,L|176:319,1,70,2|8,0:2|0:2,0:0:0:0:
253,370,3162,2,0,L|271:302,1,70,2|8,0:2|0:2,0:0:0:0:
366,285,3537,2,0,L|347:352,1,70,2|0,0:0|3:2,0:0:0:0:
436,384,3912,5,0,3:2:0:0:
436,384,4100,2,0,B|454:291|463:351|482:251,1,140,8|0,0:2|3:2,0:2:0:0:
403,205,4662,1,0,0:2:0:0:
403,205,4850,2,0,P|340:168|333:101,1,140,8|2,0:2|0:2,0:2:0:0:
393,43,5412,6,0,L|485:18,1,70,2|8,0:2|0:2,0:0:0:0:
502,105,5787,1,8,0:0:0:0:
502,105,5975,1,0,0:0:0:0:
464,276,6350,1,8,0:2:0:0:
464,276,6537,2,0,L|439:368,2,70,0|0|0,0:0|0:2|0:0,0:0:0:0:
403,205,7100,6,0,P|336:225|267:241,2,140,12|0|8,0:2|3:2|0:2,0:2:0:0:
487,193,8037,2,0,L|505:126,1,70,0|0,0:2|0:2,0:0:0:0:
452,55,8412,1,2,0:0:0:0:
452,55,8600,5,8,0:2:0:0:
386,117,8787,2,0,L|403:179,2,35,0|0|0,3:2|3:2|3:2,0:0:0:0:
334,43,9162,2,0,L|351:-19,2,35,0|0|0,3:2|3:2|3:2,0:0:0:0:
272,111,9537,2,0,L|289:173,2,35,0|0|0,3:2|3:2|3:2,0:0:0:0:
234,32,9912,5,0,3:2:0:0:
234,32,10006,1,0,3:2:0:0:
234,32,10100,1,8,0:0:0:0:
177,99,10287,2,0,L|201:191,1,70,8|8,0:2|0:2,0:0:0:0:
195,253,10662,1,8,0:2:0:0:
114,210,10850,2,0,B|96:303|87:243|68:343,1,140,12|8,0:2|0:2,0:0:0:0:
150,384,11412,2,0,B|168:286|177:346|195:253,1,140,12|8,0:2|0:2,0:0:0:0:
114,210,11975,1,8,0:2:0:0:
271,325,12350,6,0,P|334:301|351:225,2,140,12|0|0,0:2|0:0|3:2,0:2:0:0:
199,288,13287,6,0,L|182:348,2,62.9999980773926,2|2|2,0:2|3:2|0:2,0:2:0:0:
275,244,13850,2,0,P|228:193|240:126,1,125.999996154785,10|2,0:2|0:2,0:2:0:0:
306,105,14412,1,2,0:2:0:0:
306,105,14600,6,0,P|369:123|427:137,2,125.999996154785,2|2|8,3:2|3:2|0:2,0:2:0:0:
234,60,15537,2,0,L|216:0,2,62.9999980773926,2|2|2,0:0|0:0|0:2,0:0:0:0:
231,140,16100,6,0,B|214:223|206:169|190:258,2,125.999996154785,2|0|8,3:2|3:2|0:2,0:2:0:0:
163,96,17037,2,0,L|86:75,1,62.9999980773926,2|0,0:2|0:0,0:2:0:0:
34,126,17412,1,2,3:2:0:0:
34,126,17600,6,0,P|54:175|120:197,2,125.999996154785,0|0|8,3:2|3:2|0:2,0:2:0:0:
186,12,18725,1,2,0:2:0:0:
186,12,18912,1,2,3:2:0:0:
250,60,19100,6,0,P|310:47|371:27,2,125.999996154785,2|0|8,3:2|3:2|0:2,0:2:0:0:
100,185,20225,2,0,L|83:245,1,62.9999980773926,2|0,0:2|0:0,0:2:0:0:
19,295,20600,6,0,P|31:334|112:361,1,125.999996154785,2|2,3:2|3:2,0:2:0:0:
151,296,21162,2,0,P|163:256|244:229,1,125.999996154785,2|2,0:2|0:2,0:2:0:0:
292,287,21725,2,0,L|353:304,1,62.9999980773926,2|0,0:2|0:2,0:2:0:0:
419,356,22100,6,0,B|435:272|443:326|459:237,2,125.999996154785,0|0|8,3:2|3:2|0:2,0:2:0:0:
388,194,23225,2,0,L|371:133,1,62.9999980773926,0|0,0:2|0:2,0:2:0:0:
368,122,23506,1,0,0:0:0:0:
364,110,23600,6,0,P|400:44|469:46,2,125.999996154785,0|0|8,3:2|3:2|0:2,0:2:0:0:
289,149,24537,1,2,0:0:0:0:
281,141,24631,1,2,0:2:0:0:
273,133,24725,2,0,L|257:194,1,62.9999980773926,0|0,3:2|0:2,0:2:0:0:
325,255,25100,5,4,0:0:0:0:
325,255,25287,2,0,L|385:271,2,62.9999980773926,2|2|2,0:2|3:2|0:2,0:2:0:0:
269,314,25850,2,0,P|210:331|147:346,1,125.999996154785,10|2,0:2|0:2,0:2:0:0:
87,293,26412,1,2,0:2:0:0:
87,293,26600,6,0,P|27:314|12:383,2,125.999996154785,2|2|8,3:2|3:2|0:2,0:2:0:0:
134,224,27537,2,0,L|215:206,2,62.9999980773926,2|2|2,0:0|0:0|0:2,0:0:0:0:
62,176,28100,6,0,B|45:92|37:146|21:57,2,125.999996154785,0|0|8,3:2|3:2|0:2,0:2:0:0:
134,224,29037,2,0,L|155:147,1,62.9999980773926,2|0,0:2|0:0,0:2:0:0:
123,86,29412,1,2,0:2:0:0:
123,86,29600,6,0,P|182:72|244:53,2,125.999996154785,2|0|8,3:2|3:2|0:2,0:2:0:0:
259,138,30725,2,0,L|319:154,1,62.9999980773926,2|0,0:2|3:2,0:0:0:0:
390,102,31100,6,0,B|406:190|414:136|430:220,1,125.999996154785,2|0,3:2|3:2,0:2:0:0:
469,65,31850,2,0,B|485:153|493:99|509:183,1,125.999996154785,10|0,0:2|0:2,0:2:0:0:
504,265,32412,1,0,0:0:0:0:
430,219,32600,5,2,3:2:0:0:
430,219,32787,2,0,P|394:277|428:345,2,125.999996154785,0|2|2,0:0|0:2|0:2,0:0:0:0:
366,167,33725,2,0,L|305:184,1,62.9999980773926,2|0,0:2|0:2,0:2:0:0:
263,252,34100,6,0,P|200:234|141:219,2,125.999996154785,0|0|8,3:2|3:2|0:2,0:2:0:0:
126,142,35225,2,0,L|48:163,1,62.9999980773926,0|0,0:2|0:2,0:2:0:0:
15,223,35600,6,0,B|31:311|39:257|55:341,1,125.999996154785,0|0,3:2|3:2,0:2:0:0:
131,384,36162,1,0,0:0:0:0:
131,384,36350,2,0,L|148:323,1,62.9999980773926,8|0,0:2|0:0,0:0:0:0:
155,315,36631,1,0,0:0:0:0:
163,307,36725,2,0,L|224:324,1,62.9999980773926,2|2,0:2|0:2,0:0:0:0:
282,384,37100,6,0,P|341:353|358:280,1,125.999996154785,6|0,3:2|3:2,0:2:0:0:
305,239,37662,1,0,0:2:0:0:
305,239,37850,2,0,B|321:150|329:204|345:120,1,125.999996154785,10|0,0:2|0:2,0:2:0:0:
296,55,38412,5,0,0:2:0:0:
288,47,38506,1,0,0:0:0:0:
280,39,38600,2,0,L|203:60,2,62.9999980773926,2|2|2,3:2|0:2|3:2,0:0:0:0:
356,0,39162,1,0,0:2:0:0:
356,0,39350,2,0,P|441:43|451:71,1,125.999996154785
400,214,40100,6,0,L|421:291,2,62.9999980773926,2|0|2,3:2|0:0|3:2,0:2:0:0:
333,162,40662,2,0,L|271:179,1,62.9999980773926,2|8,0:2|0:2,0:2:0:0:
205,232,41037,6,0,L|184:309,2,62.9999980773926,0|0|2,0:2|0:0|0:2,0:2:0:0:
164,157,41600,1,2,3:2:0:0:
164,157,41788,2,0,L|103:141,1,62.9999980773926,2|0,0:2|3:2,0:0:0:0:
18,138,42162,1,0,0:0:0:0:
18,138,42350,2,0,L|-3:61,1,62.9999980773926,10|2,0:2|0:2,0:0:0:0:
9,67,42631,1,0,0:0:0:0:
15,59,42725,2,0,L|92:38,1,62.9999980773926,2|2,0:2|0:2,0:0:0:0:
148,0,43100,6,0,P|209:19|269:32,1,125.999996154785,2|0,3:2|3:2,0:2:0:0:
348,0,43662,1,0,0:2:0:0:
348,0,43850,2,0,P|363:59|317:118,1,125.999996154785,10|0,0:2|0:2,0:2:0:0:
249,113,44412,5,0,0:2:0:0:
241,121,44506,1,0,0:0:0:0:
233,129,44600,2,0,L|212:206,2,62.9999980773926,2|2|2,3:2|0:2|3:2,0:0:0:0:
159,91,45162,1,0,0:2:0:0:
159,91,45350,2,0,P|101:106|69:176,1,125.999996154785
144,298,46100,6,0,L|123:375,2,62.9999980773926,2|0|2,3:2|0:0|3:2,0:2:0:0:
219,260,46662,2,0,L|281:277,1,62.9999980773926,2|8,0:2|0:2,0:2:0:0:
345,224,47037,6,0,L|328:162,1,62.9999980773926,2|0,0:2|0:0,0:2:0:0:
366,90,47412,2,0,L|426:73,1,62.9999980773926,2|2,0:2|3:2,0:0:0:0:
499,121,47787,1,2,0:2:0:0:
499,121,47975,6,0,B|482:204|474:150|458:239,1,125.999996154785,0|8,3:2|0:2,0:2:0:0:
494,315,48537,1,0,0:0:0:0:
486,323,48631,1,0,0:0:0:0:
478,331,48725,2,0,L|400:310,1,62.9999980773926,0|0,0:2|0:0,0:0:0:0:
335,319,49100,5,4,0:0:0:0:
335,319,49287,2,0,L|356:396,2,62.9999980773926,2|2|2,0:2|3:2|0:2,0:2:0:0:
274,260,49850,2,0,L|290:199,1,62.9999980773926,10|0,0:2|0:0,0:2:0:0:
253,125,50225,1,2,0:2:0:0:
253,125,50412,6,0,L|175:104,1,62.9999980773926,0|2,0:2|3:2,0:0:0:0:
120,152,50787,2,0,L|43:173,2,62.9999980773926,2|2|2,0:2|3:2|0:2,0:0:0:0:
192,198,51350,2,0,P|173:268|107:286,2,125.999996154785,10|0|2,0:2|0:2|3:2,0:2:0:0:
120,152,52287,6,0,L|59:168,2,62.9999980773926,2|2|2,0:2|3:2|0:2,0:2:0:0:
192,108,52850,2,0,L|252:124,1,62.9999980773926,10|0,0:2|0:0,0:2:0:0:
290,199,53225,5,2,0:2:0:0:
290,199,53412,2,0,L|274:260,1,62.9999980773926,2|0,0:2|3:2,0:0:0:0:
330,324,53787,1,2,0:2:0:0:
330,324,53975,2,0,L|351:401,1,62.9999980773926,2|0,3:2|0:2,0:2:0:0:
428,360,54350,2,0,B|444:271|452:325|468:241,1,125.999996154785,10|2,0:2|0:2,0:2:0:0:
418,70,55100,6,0,P|445:17|511:0,2,125.999996154785,2|0|8,3:2|3:2|0:2,0:2:0:0:
385,223,56225,2,0,L|308:243,1,62.9999980773926,0|0,0:2|0:2,0:2:0:0:
313,241,56506,1,0,0:0:0:0:
302,243,56600,6,0,P|241:224|180:210,2,125.999996154785,0|0|8,3:2|3:2|0:2,0:2:0:0:
339,321,57537,2,0,L|399:336,1,62.9999980773926,2|0,0:2|0:0,0:2:0:0:
456,271,57912,1,2,0:2:0:0:
385,218,58100,5,10,0:2:0:0:
385,218,58287,2,0,L|364:140,1,62.9999980773926,2|2,3:2|0:2,0:0:0:0:
456,121,58662,1,10,0:2:0:0:
456,121,58849,2,0,L|477:199,1,62.9999980773926,2|2,3:2|0:2,0:0:0:0:
456,271,59225,1,12,3:2:0:0:
256,192,59318,12,2,61100,0:2:0:0:
0,51,62600,6,0,B|107:30|42:20|144:0,1,154.000004699707,14|0,3:2|3:2,0:2:0:0:
197,76,63162,1,0,0:2:0:0:
156,155,63350,2,0,P|102:121|36:146,1,115.50000352478,10|0,0:2|0:0,0:2:0:0:
43,140,63725,2,0,L|18:233,1,77.0000023498536,2|0,0:2|0:2,0:2:0:0:
69,293,64100,6,0,P|122:326|188:301,1,115.50000352478,10|0,0:2|0:0,0:2:0:0:
182,308,64475,2,0,L|207:215,1,77.0000023498536,2|0,3:2|0:2,0:0:0:0:
247,151,64850,2,0,B|354:130|289:120|391:100,1,154.000004699707,10|0,0:2|0:2,0:2:0:0:
433,19,65412,1,2,3:2:0:0:
508,78,65600,6,0,P|508:145|465:185,1,115.50000352478,10|0,3:2|0:0,0:2:0:0:
467,188,65975,2,0,P|408:202|397:301,2,154.000004699707,2|10|2,3:2|0:2|0:2,0:0:0:0:
406,116,66912,5,2,0:2:0:0:
398,108,67006,1,2,0:0:0:0:
390,100,67100,2,0,P|314:91|288:35,1,115.50000352478,8|0,0:2|0:0,0:2:0:0:
286,50,67475,2,0,L|211:29,1,77.0000023498536,2|0,3:2|0:0,0:2:0:0:
145,105,67850,2,0,L|219:125,1,77.0000023498536,10|0,0:2|0:2,0:2:0:0:
266,204,68225,2,0,L|328:187,2,38.5000011749268,2|0|0,0:2|0:0|0:2,0:2:0:0:
238,294,68600,6,0,B|131:315|196:325|94:345,1,154.000004699707,14|0,0:2|3:2,0:2:0:0:
0,377,69162,1,0,0:2:0:0:
6,277,69350,2,0,P|40:226|23:166,1,115.50000352478,8|0,0:2|0:0,0:2:0:0:
18,164,69725,2,0,L|37:89,1,77.0000023498536,2|0,0:2|0:2,0:2:0:0:
109,24,70100,6,0,P|143:75|126:135,1,115.50000352478,10|0,0:2|0:0,0:2:0:0:
121,137,70475,2,0,L|140:211,1,77.0000023498536,2|0,3:2|0:2,0:0:0:0:
109,308,70850,2,0,P|183:300|234:354,1,154.000004699707,10|0,0:2|0:2,0:2:0:0:
336,364,71412,1,2,3:2:0:0:
304,272,71600,6,0,P|261:245|237:177,1,115.50000352478,10|0,3:2|0:0,0:2:0:0:
230,173,71975,2,0,P|283:115|291:38,2,154.000004699707,2|10|2,3:2|0:2|0:2,0:0:0:0:
134,200,72912,5,2,0:2:0:0:
126,208,73006,1,2,0:0:0:0:
118,216,73100,2,0,P|52:202|28:129,1,115.50000352478,8|0,0:2|0:0,0:2:0:0:
25,151,73475,2,0,L|46:74,1,77.0000023498536,2|0,3:2|0:0,0:2:0:0:
117,7,73850,1,10,0:2:0:0:
193,76,74037,1,0,0:2:0:0:
291,42,74225,2,0,L|308:-20,2,38.5000011749268,2|0|0,0:2|0:0|0:2,0:2:0:0:
279,146,74600,6,0,B|386:125|321:115|423:95,1,154.000004699707,14|0,0:2|3:2,0:2:0:0:
485,168,75162,1,0,0:2:0:0:
452,255,75350,2,0,P|462:323|504:349,1,115.50000352478,10|0,0:2|0:0,0:2:0:0:
512,352,75725,2,0,L|437:371,1,77.0000023498536,2|0,0:2|0:2,0:2:0:0:
345,331,76100,6,0,P|335:263|293:237,1,115.50000352478,10|0,0:2|0:0,0:2:0:0:
285,234,76475,2,0,L|359:214,1,77.0000023498536,2|0,3:2|0:2,0:0:0:0:
402,124,76850,2,0,P|369:42|290:31,1,154.000004699707,10|0,0:2|0:2,0:2:0:0:
225,74,77412,5,2,0:2:0:0:
217,82,77506,1,2,0:0:0:0:
209,90,77600,1,8,0:2:0:0:
136,23,77787,2,0,L|43:-1,2,77.0000023498536,2|2|2,0:2|3:2|0:2,0:0:0:0:
209,90,78350,2,0,L|229:168,1,77.0000023498536,10|0,0:2|0:2,0:2:0:0:
145,216,78725,2,0,L|125:294,1,77.0000023498536,2|2,0:2|0:2,0:0:0:0:
123,303,79006,1,2,0:0:0:0:
119,315,79100,6,0,P|156:361|226:355,1,115.50000352478,10|0,0:2|0:0,0:2:0:0:
219,354,79475,2,0,L|240:277,1,77.0000023498536,2|0,3:2|0:0,0:2:0:0:
310,214,79850,2,0,L|384:194,1,77.0000023498536,8|2,0:2|0:2,0:0:0:0:
457,257,80225,2,0,L|469:210,2,38.5000011749268
496,338,80600,6,0,P|432:351|384:308,1,115.50000352478,10|0,0:2|0:0,0:2:0:0:
383,317,80975,2,0,L|308:336,1,77.0000023498536,2|0,3:2|0:2,0:0:0:0:
225,384,81350,2,0,P|174:347|113:354,1,115.50000352478,10|0,0:2|0:0,0:2:0:0:
112,358,81725,2,0,L|87:265,1,77.0000023498536,2|0,0:2|0:2,0:2:0:0:
15,225,82100,6,0,P|66:188|126:195,1,115.50000352478,10|0,0:2|0:0,0:2:0:0:
128,199,82475,2,0,L|153:106,1,77.0000023498536,2|0,3:2|0:0,0:0:0:0:
82,50,82850,2,0,B|189:29|124:19|226:-1,1,154.000004699707,10|2,0:2|0:2,0:0:0:0:
309,57,83412,1,0,0:2:0:0:
408,33,83600,5,10,0:0:0:0:
408,33,83787,2,0,L|389:107,1,77.0000023498536,10|10,0:2|0:2,0:0:0:0:
401,197,84162,1,10,0:2:0:0:
354,278,84350,2,0,B|252:258|317:248|210:227,1,154.000004699707,14|10,0:2|0:2,0:0:0:0:
257,147,84912,2,0,B|364:168|299:178|401:198,1,154.000004699707,14|10,0:2|0:2,0:0:0:0:
354,278,85475,1,10,0:2:0:0:
156,300,85850,6,0,P|82:277|7:259,2,154.000004699707,6|2|2,0:2|3:2|3:2,0:0:0:0:
