osu file format v14

[General]
AudioFilename: audio.ogg
AudioLeadIn: 0
PreviewTime: 61464
Countdown: 0
SampleSet: Soft
StackLeniency: 0.7
Mode: 0
LetterboxInBreaks: 0
WidescreenStoryboard: 0

[Editor]
DistanceSpacing: 1
BeatDivisor: 4
GridSize: 32
TimelineZoom: 2.5

[Metadata]
Title:Tutu Ballerina (TV Size)
TitleUnicode:チュチュ・バレリーナ (TV Size)
Artist:Ruka, Mona, Miki from AIKATSU * STARS!
ArtistUnicode:るか・もな・みき from AIKATSU☆STARS!
Creator:Niizuma Yae
Version:Starlit Reverie
Source:アイカツ!
Tags:yayoi takatsuki aurorance iredi kennethbbg aikatsu! s3 season 3 jpop j-pop j pop japanese anime idol jidol ed ending 2 female vocals Luminas Akari Ozora Sumire Hikami Hinaki Shinjo 大空あかり 新条ひなき 氷上 スミレ Ruka Endo 遠藤瑠香 Mona Tomoyama 巴山萌菜 Miki Mirai 未来みき 只野菜摘 Tadano Natsumi 石原理酉 Masaaki Ishihara 成瀬裕介 Yusuke Naruse onetrap
BeatmapID:4407690
BeatmapSetID:2101057

[Difficulty]
HPDrainRate:6
CircleSize:4.6
OverallDifficulty:8
ApproachRate:8.4
SliderMultiplier:1.7
SliderTickRate:1

[Events]
//Background and Video events
0,0,"tutub.jpg",0,0
Video,-750,"v.mp4"
//Break Periods
//Storyboard Layer 0 (Background)
//Storyboard Layer 1 (Fail)
//Storyboard Layer 2 (Pass)
//Storyboard Layer 3 (Foreground)
//Storyboard Layer 4 (Overlay)
//Storyboard Sound Samples

[TimingPoints]
1100,375,4,2,1,75,1,0
1100,-111.111111111111,4,2,1,75,0,0
12350,-250,4,2,1,70,0,0
13287,-125,4,2,1,65,0,0
56600,-125,4,2,1,80,0,0
60350,-100,4,2,1,75,0,0
61475,-333.333333333333,4,2,1,75,0,0
62600,-100,4,2,1,80,0,1
86600,-100,4,2,1,80,0,0

[Colours]
Combo1 : 118,143,245
Combo2 : 255,187,207
Combo3 : 193,124,250

[HitObjects]
59,353,1100,6,0,P|123:333|235:301,1,152.999995330811,14|0,0:2|3:2,0:2:0:0:
289,338,1662,1,2,0:2:0:0:
332,207,1850,2,0,B|379:250|358:301|358:301|348:277|308:255,1,152.999995330811,8|0,0:2|0:2,0:2:0:0:
464,171,2600,6,0,P|426:165|383:128,1,76.4999976654053,8|0,0:2|0:2,0:2:0:0:
454,4,2975,2,0,P|467:39|457:95,1,76.4999976654053,8|0,0:2|0:2,0:2:0:0:
315,174,3350,1,8,0:2:0:0:
371,243,3725,5,0,3:2:0:0:
371,243,3912,1,0,3:2:0:0:
205,370,4100,6,0,P|234:295|250:214,1,152.999995330811,8|0,0:2|3:2,0:2:0:0:
196,154,4662,1,0,0:2:0:0:
302,24,4850,2,0,P|306:61|320:97,1,76.4999976654053,8|0,0:2|0:2,0:2:0:0:
388,154,5225,1,2,0:2:0:0:
388,154,5412,1,2,0:2:0:0:
251,301,5600,6,0,P|212:309|175:319,2,76.4999976654053,8|8|8,3:2|0:2|3:2,0:2:0:0:
305,247,6162,1,0,0:2:0:0:
470,370,6350,6,0,P|479:285|436:216,1,152.999995330811,8|0,0:2|0:2,0:2:0:0:
275,64,7100,6,0,B|185:84|236:128|124:150,1,152.999995330811,12|0,0:2|3:2,0:2:0:0:
76,246,7662,1,2,0:2:0:0:
199,367,7850,2,0,P|185:324|156:210,1,152.999995330811,8|0,0:2|0:2,0:2:0:0:
63,99,8600,5,8,0:2:0:0:
83,103,8787,6,0,P|105:96|131:87,5,38.2499988327027,0|0|0|0|0|0,3:2|3:2|3:2|3:2|3:2|3:2,0:2:0:0:
194,136,9350,5,0,3:2:0:0:
204,140,9443,1,0,3:2:0:0:
214,143,9537,1,0,3:2:0:0:
224,146,9631,1,0,3:2:0:0:
234,149,9725,2,0,L|253:92,1,38.2499988327027,0|0,3:2|3:2,0:2:0:0:
159,3,9912,2,0,L|171:39,1,38.2499988327027,0|0,3:2|3:2,0:2:0:0:
140,234,10100,5,8,0:2:0:0:
305,313,10287,1,8,0:2:0:0:
315,304,10662,5,8,0:2:0:0:
138,219,10850,1,12,0:2:0:0:
286,154,11225,5,8,0:2:0:0:
189,355,11412,1,12,0:2:0:0:
313,144,11787,5,8,0:2:0:0:
201,377,11974,1,8,0:2:0:0:
237,74,12350,6,0,P|218:36|242:72,1,119,12|0,0:2|0:2,0:2:0:0:
232,54,13100,1,0,3:2:0:0:
331,91,13287,6,0,P|338:121|347:156,2,68,2|2|2,0:2|3:2|0:2,0:2:0:0:
480,73,13850,2,0,P|511:135|483:200,1,136,10|2,0:2|0:2,0:2:0:0:
366,286,14412,1,2,0:2:0:0:
366,286,14506,1,2,0:2:0:0:
366,286,14600,2,0,P|376:254|389:196,1,68,2|0,3:2|0:2,0:2:0:0:
490,314,14975,2,0,P|480:346|467:404,1,68,2|0,3:2|0:2,0:2:0:0:
395,384,15350,1,8,0:2:0:0:
206,289,15912,5,2,0:2:0:0:
206,289,16100,2,0,P|174:301|144:317,1,68,2|0,3:2|0:2,0:2:0:0:
32,220,16475,2,0,P|63:237|115:255,1,68,0|0,3:2|0:2,0:2:0:0:
215,370,16850,1,8,0:2:0:0:
279,311,17037,6,0,P|263:243|248:160,1,136,2|2,0:2|3:2,0:2:0:0:
189,117,17506,1,2,0:2:0:0:
189,117,17600,2,0,P|153:102|119:98,1,68,0|0,3:2|0:2,0:2:0:0:
228,39,17975,2,0,P|261:33|292:20,1,68,0|0,3:2|0:2,0:2:0:0:
387,188,18350,6,0,P|388:157|405:121,1,68,8|0,0:2|0:2,0:2:0:0:
470,87,18725,1,2,0:2:0:0:
501,285,18912,5,2,3:2:0:0:
501,285,19006,1,2,3:2:0:0:
501,285,19100,2,0,P|459:222|380:211,1,136,2|0,3:2|3:2,0:2:0:0:
295,280,19662,1,0,0:2:0:0:
361,367,19850,2,0,P|368:333|380:278,1,68,8|0,0:2|0:2,0:2:0:0:
249,200,20225,2,0,P|203:231|133:229,1,102,2|0,0:2|0:2,0:2:0:0:
127,220,20600,6,0,P|150:157|125:76,1,136,2|2,3:2|3:2,0:2:0:0:
67,155,21162,2,0,P|34:165|1:173,1,68,2|8,0:2|0:2,0:2:0:0:
135,91,21537,1,2,0:2:0:0:
135,91,21725,2,0,P|170:102|211:111,1,68,2|0,0:2|0:2,0:2:0:0:
360,220,22100,6,0,P|401:215|437:134,1,136,0|0,3:2|3:2,0:2:0:0:
333,87,22662,1,0,0:2:0:0:
333,87,22850,2,0,P|345:55|356:12,1,68,8|0,0:2|0:2,0:2:0:0:
465,58,23225,2,0,P|453:90|442:133,1,68,0|0,0:2|0:2,0:2:0:0:
316,271,23600,6,0,P|268:253|216:239,1,102,0|0,3:2|0:2,0:2:0:0:
192,222,23975,2,0,P|158:242|118:243,1,68,0|0,3:2|0:2,0:2:0:0:
4,379,24350,6,0,P|21:331|36:279,1,102,8|0,0:2|0:2,0:2:0:0:
50,263,24725,2,0,P|40:230|28:198,1,68,0|0,3:2|0:2,0:2:0:0:
172,68,25100,1,4,0:2:0:0:
172,68,25287,6,0,P|201:80|249:91,2,68,2|2|2,0:2|3:2|0:2,0:2:0:0:
291,28,25850,2,0,P|315:92|280:154,1,136,10|2,0:2|0:2,0:2:0:0:
201,298,26412,1,2,0:2:0:0:
201,298,26506,1,2,0:2:0:0:
201,298,26600,2,0,P|165:304|114:328,1,68,2|2,3:2|0:2,0:2:0:0:
226,212,26975,2,0,P|257:223|291:229,1,68,2|0,3:2|0:2,0:2:0:0:
332,298,27350,1,8,0:2:0:0:
425,99,27912,5,2,0:2:0:0:
425,99,28100,2,0,P|444:127|447:167,1,68,0|0,3:2|0:2,0:2:0:0:
339,76,28475,2,0,P|353:45|386:22,1,68,0|0,3:2|0:2,0:2:0:0:
503,82,28850,1,8,0:2:0:0:
396,232,29037,6,0,P|412:164|427:81,1,136,2|2,0:2|0:2,0:2:0:0:
380,25,29506,1,2,0:2:0:0:
380,25,29600,2,0,P|344:6|317:9,1,68,2|0,3:2|0:2,0:2:0:0:
204,77,29975,2,0,P|237:78|266:61,1,68,0|0,3:2|0:2,0:2:0:0:
394,153,30350,6,0,P|386:188|378:223,1,68,8|0,0:2|0:2,0:2:0:0:
429,298,30725,1,2,0:2:0:0:
261,355,30912,5,0,3:2:0:0:
261,355,31006,1,0,3:2:0:0:
261,355,31100,2,0,B|192:338|221:303|140:281,1,136,2|0,3:2|3:2,0:2:0:0:
79,340,31662,1,0,0:2:0:0:
32,180,31850,2,0,P|19:248|0:312,1,136,10|0,0:2|0:2,0:2:0:0:
164,145,32600,5,2,3:2:0:0:
231,81,32787,2,0,P|269:76|311:62,1,68,2|0,0:0|3:0,0:0:0:0:
453,145,33162,2,0,P|442:112|434:79,1,68,2|8,0:2|0:2,0:2:0:0:
360,220,33537,1,2,0:2:0:0:
360,220,33725,2,0,P|370:252|378:285,1,68,2|0,0:2|0:2,0:2:0:0:
181,268,34100,6,0,P|152:224|167:138,1,136,0|0,3:2|3:2,0:2:0:0:
291,182,34662,1,0,0:2:0:0:
291,182,34850,2,0,L|226:200,1,68,8|0,0:2|0:2,0:2:0:0:
91,275,35225,2,0,L|26:257,1,68,0|0,0:2|0:2,0:2:0:0:
153,363,35600,6,0,P|213:342|310:324,2,136,0|0|8,3:2|3:2|0:2,0:2:0:0:
39,185,36725,5,2,0:2:0:0:
39,185,36912,1,2,0:2:0:0:
39,185,37100,2,0,P|31:113|81:72,1,136,6|0,3:2|3:2,0:2:0:0:
142,98,37662,1,0,0:2:0:0:
109,249,37850,6,0,P|141:239|178:230,1,68,10|0,0:2|0:2,0:2:0:0:
276,92,38225,2,0,P|243:83|210:73,1,68,0|0,0:2|0:2,0:2:0:0:
174,230,38600,5,2,3:2:0:0:
174,230,38787,1,2,0:2:0:0:
174,230,38975,2,0,P|164:262|155:295,1,68,2|0,3:2|0:2,0:2:0:0:
7,366,39350,2,0,P|16:333|25:300,1,68,10|0,0:2|0:2,0:2:0:0:
186,235,39725,2,0,P|176:267|167:300,1,68,2|0,0:2|0:2,0:2:0:0:
341,384,40100,6,0,P|379:375|424:369,1,68,2|2,3:2|0:2,0:2:0:0:
461,301,40475,1,2,3:2:0:0:
346,199,40662,2,0,P|355:237|361:282,1,68,2|8,0:2|0:2,0:2:0:0:
450,158,41037,5,2,0:0:0:0:
359,111,41225,2,0,P|321:120|276:126,1,68,0|0,0:2|0:2,0:2:0:0:
145,148,41600,1,2,3:2:0:0:
207,80,41787,2,0,P|201:46|193:13,1,68,2|0,0:2|3:2,0:2:0:0:
279,42,42162,1,0,0:0:0:0:
279,42,42350,1,8,0:2:0:0:
69,116,42725,5,2,0:2:0:0:
69,116,42912,1,2,0:2:0:0:
69,116,43100,2,0,B|113:81|153:82|153:82|181:103|209:112,1,136,2|0,3:2|3:2,0:2:0:0:
109,191,43662,1,0,0:2:0:0:
247,291,43850,6,0,P|234:252|225:206,1,68,10|0,0:2|0:2,0:2:0:0:
141,319,44225,2,0,P|154:358|163:404,1,68,0|0,0:2|0:2,0:2:0:0:
344,343,44600,5,2,3:2:0:0:
344,343,44787,1,2,0:2:0:0:
344,343,44975,2,0,P|383:330|429:321,1,68,2|0,3:2|0:2,0:2:0:0:
485,185,45350,2,0,P|446:198|400:207,1,68,10|0,0:2|0:2,0:2:0:0:
348,359,45725,2,0,P|387:346|433:337,1,68,2|0,0:2|0:2,0:2:0:0:
306,181,46100,6,0,P|312:161|329:90,1,68,2|2,3:2|0:2,0:2:0:0:
380,72,46475,1,0,3:2:0:0:
419,203,46662,2,0,P|413:219|398:279,1,68,2|8,0:2|0:2,0:2:0:0:
241,360,47037,6,0,P|178:322|107:331,1,136,2|2,0:2|0:2,0:2:0:0:
46,183,47600,5,2,3:2:0:0:
46,183,47787,1,2,0:0:0:0:
170,222,47975,2,0,B|189:157|189:157|131:87,2,136,0|8|0,3:2|0:2|0:2,0:2:0:0:
315,364,49100,5,4,3:2:0:0:
315,364,49287,2,0,P|352:354|408:343,1,68,2|2,0:2|3:2,0:2:0:0:
454,381,49662,1,2,0:2:0:0:
509,233,49850,2,0,P|527:166|466:100,1,136,10|2,0:2|0:2,0:2:0:0:
344,209,50412,5,0,0:2:0:0:
344,209,50506,1,0,0:2:0:0:
344,209,50600,2,0,P|379:198|430:187,1,68,2|2,3:2|0:2,0:2:0:0:
491,38,50975,2,0,P|457:30|425:20,1,68,2|2,3:2|0:2,0:2:0:0:
278,141,51350,6,0,B|265:212|218:180|204:250,1,136,10|0,0:2|0:2,0:2:0:0:
274,303,52100,5,2,3:2:0:0:
274,303,52287,2,0,P|309:293|361:280,2,68,2|2|2,0:2|3:2|0:2,0:2:0:0:
137,384,52850,2,0,P|126:310|93:231,1,136,10|2,0:2|0:2,0:2:0:0:
151,193,53412,1,2,0:2:0:0:
26,49,53600,2,0,P|19:83|9:115,1,68,0|2,3:2|0:2,0:2:0:0:
142,78,53975,2,0,P|149:43|159:12,1,68,2|0,3:2|0:2,0:2:0:0:
310,162,54350,6,0,P|383:165|448:127,1,136,10|2,0:2|0:2,0:2:0:0:
509,357,54912,5,0,3:2:0:0:
509,357,55006,1,0,3:2:0:0:
509,357,55100,2,0,P|444:337|373:315,1,136,2|0,3:2|3:2,0:2:0:0:
198,384,55662,1,0,0:2:0:0:
198,384,55850,2,0,P|201:346|223:311,1,68,8|0,0:2|0:2,0:2:0:0:
322,231,56225,2,0,L|296:304,1,68,0|0,0:2|0:2,0:2:0:0:
116,352,56600,6,0,P|85:342|45:331,2,68,0|0|0,3:2|0:2|3:2,0:2:0:0:
184,311,57162,1,0,0:2:0:0:
184,311,57350,1,8,0:2:0:0:
67,125,57537,6,0,P|50:190|20:264,1,136,2|2,0:2|0:2,0:2:0:0:
220,220,58100,6,0,P|255:208|309:195,1,68,10|2,0:2|0:2,0:2:0:0:
417,68,58475,1,2,3:2:0:0:
510,297,58662,6,0,P|475:285|421:272,1,68,10|2,0:2|0:2,0:2:0:0:
220,220,59037,1,2,3:2:0:0:
483,72,59225,6,0,P|486:154|438:196,1,136,12|0,3:2|0:2,0:2:0:0:
291,285,59787,1,2,0:2:0:0:
427,339,59975,1,2,0:2:0:0:
361,205,60162,1,2,0:2:0:0:
229,384,60350,6,0,L|187:373,7,42.5,0|0|0|0|0|0|0|0,3:2|3:2|3:2|3:2|3:2|3:2|3:2|3:2,0:2:0:0:
133,317,61100,5,2,0:2:0:0:
56,384,61475,6,0,B|90:346|86:297|86:297|73:320|52:332,1,140.24999571991,2|0,0:2|0:2,0:2:0:0:
14,271,62600,6,0,P|106:258|152:181,1,170,14|0,3:2|3:2,0:2:0:0:
326,293,63162,1,0,0:2:0:0:
198,367,63350,2,0,P|208:324|216:278,1,85,10|0,0:2|0:2,0:2:0:0:
361,126,63725,2,0,P|351:169|342:214,1,85,2|0,0:2|0:2,0:2:0:0:
101,98,64100,6,0,B|74:118|68:148|68:148|129:109|200:110,1,170,10|2,0:2|3:2,0:2:0:0:
265,165,64662,1,0,0:2:0:0:
216,351,64850,2,0,P|206:306|189:257,2,85,10|0|0,0:2|0:2|0:2,0:2:0:0:
412,234,65412,5,2,3:2:0:0:
412,234,65506,1,2,3:2:0:0:
412,234,65600,2,0,B|377:216|346:212|346:212|328:183|328:183|291:178|231:149,1,170,10|2,3:2|3:2,0:2:0:0:
193,269,66162,1,0,0:2:0:0:
136,121,66350,2,0,P|123:166|106:205,1,85,10|0,0:2|0:2,0:2:0:0:
25,253,66725,1,2,0:2:0:0:
25,253,66912,1,2,0:2:0:0:
232,384,67100,6,0,P|244:340|261:299,1,85,8|0,0:2|0:2,0:2:0:0:
363,145,67475,6,0,P|342:76|268:49,1,127.5,2|0,3:2|0:2,0:2:0:0:
267,32,67850,2,0,P|224:45|180:56,1,85,10|0,0:2|0:2,0:2:0:0:
308,211,68225,2,0,P|351:220|395:233,1,85,2|0,0:2|0:2,0:2:0:0:
134,368,68600,6,0,B|116:305|116:305|79:279|79:279|61:205,1,170,14|0,0:2|3:2,0:2:0:0:
1,173,69162,1,0,0:2:0:0:
146,78,69350,2,0,P|99:68|44:51,1,85,8|0,0:2|0:2,0:2:0:0:
164,214,69725,2,0,P|210:202|237:163,1,85,2|0,0:2|0:2,0:2:0:0:
322,6,70100,6,0,B|291:111|291:111|315:137|318:172,1,170,10|2,0:2|3:2,0:2:0:0:
232,174,70662,1,0,0:2:0:0:
409,302,70850,2,0,P|399:344|389:387,2,85,10|0|0,0:2|0:2|0:2,0:2:0:0:
512,132,71412,5,2,3:2:0:0:
512,132,71506,1,2,3:2:0:0:
512,132,71600,2,0,P|461:50|357:55,1,170,10|2,3:2|3:2,0:2:0:0:
262,117,72162,1,0,0:2:0:0:
333,269,72350,2,0,P|341:227|352:186,1,85,10|0,0:2|0:2,0:2:0:0:
426,126,72725,1,2,0:2:0:0:
426,126,72912,1,2,0:2:0:0:
512,356,73100,6,0,P|470:345|429:337,1,85,8|0,0:2|0:2,0:2:0:0:
188,361,73475,6,0,B|230:301|230:301|208:241,1,127.5,2|0,3:2|0:2,0:2:0:0:
222,235,73850,2,0,P|180:224|140:212,1,85,10|0,0:2|0:2,0:2:0:0:
0,379,74225,2,0,P|41:368|81:356,1,85,2|0,0:2|0:2,0:2:0:0:
284,151,74600,6,0,P|362:184|445:197,1,170,14|0,0:2|3:2,0:2:0:0:
329,259,75162,1,0,0:2:0:0:
425,123,75350,2,0,P|445:85|451:43,1,85,10|0,0:2|0:2,0:2:0:0:
504,252,75725,2,0,P|483:288|477:330,1,85,2|0,0:2|0:2,0:2:0:0:
257,369,76100,6,0,B|196:356|196:356|168:318|168:318|98:299,1,170,10|2,0:2|3:2,0:2:0:0:
0,245,76662,1,0,0:2:0:0:
193,158,76850,2,0,P|182:199|169:240,1,85,10|0,0:2|0:2,0:2:0:0:
110,303,77225,1,0,0:2:0:0:
110,303,77412,1,2,0:2:0:0:
317,384,77600,6,0,P|343:358|323:282,1,85,8|2,0:2|0:2,0:2:0:0:
279,246,77975,1,2,3:2:0:0:
279,246,78162,1,2,0:2:0:0:
495,215,78350,6,0,P|451:202|407:188,1,85,10|0,0:2|0:2,0:2:0:0:
354,131,78725,1,2,0:2:0:0:
354,131,78912,1,2,0:2:0:0:
186,220,79100,6,0,P|197:179|213:132,1,85,10|0,0:2|0:2,0:2:0:0:
174,303,79475,2,0,B|74:278|143:239|25:210,1,170,2|8,3:2|0:2,0:2:0:0:
235,364,80037,6,0,P|259:327|255:286,2,85,2|2|2,0:2|0:2|0:2,0:2:0:0:
444,255,80600,6,0,B|452:206|483:165|483:165|471:127|420:112,1,170,10|2,0:2|3:2,0:2:0:0:
261,178,81162,1,0,0:2:0:0:
261,178,81350,2,0,P|307:187|367:212,1,85,10|0,0:2|0:2,0:2:0:0:
470,76,81725,2,0,P|429:89|388:98,1,85,2|0,0:2|0:2,0:2:0:0:
397,341,82100,6,0,P|439:302|427:187,2,170,10|2|10,0:2|3:2|0:2,0:2:0:0:
261,178,83037,1,0,0:2:0:0:
366,128,83225,2,0,P|353:176|343:213,1,85,2|0,0:2|0:2,0:2:0:0:
84,350,83600,5,10,0:2:0:0:
297,269,83787,1,10,0:2:0:0:
303,251,84162,5,10,0:2:0:0:
65,341,84350,1,14,0:2:0:0:
181,133,84725,5,10,0:2:0:0:
270,368,84912,1,14,0:2:0:0:
290,375,85287,5,10,0:2:0:0:
190,111,85474,1,10,0:2:0:0:
96,295,85850,5,6,0:2:0:0:
379,384,86225,5,2,3:2:0:0:
382,368,86318,1,2,3:2:0:0:
385,352,86412,1,2,3:2:0:0:
388,336,86506,1,2,3:2:0:0:
391,320,86600,5,2,3:2:0:0:
