osu file format v14

[General]
AudioFilename: audio.ogg
AudioLeadIn: 0
PreviewTime: 61464
Countdown: 0
SampleSet: Soft
StackLeniency: 0.7
Mode: 0
LetterboxInBreaks: 0
WidescreenStoryboard: 1

[Editor]
DistanceSpacing: 1
BeatDivisor: 4
GridSize: 32
TimelineZoom: 1

[Metadata]
Title:Tutu Ballerina (TV Size)
TitleUnicode:チュチュ・バレリーナ (TV Size)
Artist:Ruka, Mona, Miki from AIKATSU * STARS!
ArtistUnicode:るか・もな・みき from AIKATSU☆STARS!
Creator:Niizuma Yae
Version:KennethBBG's Easy
Source:アイカツ!
Tags:yayoi takatsuki aurorance iredi kennethbbg aikatsu! s3 season 3 jpop j-pop j pop japanese anime idol jidol ed ending 2 female vocals Luminas Akari Ozora Sumire Hikami Hinaki Shinjo 大空あかり 新条ひなき 氷上 スミレ Ruka Endo 遠藤瑠香 Mona Tomoyama 巴山萌菜 Miki Mirai 未来みき 只野菜摘 Tadano Natsumi 石原理酉 Masaaki Ishihara 成瀬裕介 Yusuke Naruse onetrap
BeatmapID:4408126
BeatmapSetID:2101057

[Difficulty]
HPDrainRate:3
CircleSize:3
OverallDifficulty:3
ApproachRate:4
SliderMultiplier:0.799999999999999
SliderTickRate:1

[Events]
//Background and Video events
0,0,"tutub.jpg",0,0
Video,-750,"v.mp4"
//Break Periods
//Storyboard Layer 0 (Background)
//Storyboard Layer 1 (Fail)
//Storyboard Layer 2 (Pass)
//Storyboard Layer 3 (Foreground)
//Storyboard Layer 4 (Overlay)
//Storyboard Sound Samples

[TimingPoints]
1100,375,4,2,1,75,1,0
12350,-100,4,2,1,70,0,0
13100,-100,4,2,1,65,0,0
60350,-100,4,2,1,75,0,0
61475,-100,4,2,1,75,0,0
62600,-100,4,2,1,80,0,1
86600,-100,4,2,1,80,0,0

[Colours]
Combo1 : 118,143,245
Combo2 : 255,187,207
Combo3 : 193,124,250

[HitObjects]
0,30,1100,6,0,P|36:20|69:44,1,79.9999999999999,14|0,0:2|3:2,0:2:0:0:
115,108,1850,1,8,0:2:0:0:
208,237,2600,2,0,P|278:249|301:220,1,79.9999999999999,8|8,0:0|0:2,0:0:0:0:
330,185,3350,1,8,0:2:0:0:
398,227,3725,1,0,3:2:0:0:
474,202,4100,6,0,P|495:126|470:51,1,160,8|8,0:2|0:2,0:2:0:0:
390,60,5225,1,0,0:2:0:0:
320,99,5600,2,0,L|313:180,1,79.9999999999999,0|0,3:2|3:2,0:0:0:0:
335,255,6350,1,8,0:2:0:0:
183,294,7100,6,0,P|147:304|106:286,1,79.9999999999999,12|0,0:2|3:2,0:2:0:0:
45,239,7850,1,8,0:2:0:0:
155,122,8600,1,8,0:2:0:0:
140,43,8975,1,0,3:2:0:0:
219,36,9350,1,0,3:2:0:0:
236,113,9725,1,0,3:2:0:0:
302,68,10100,6,0,P|387:70|419:90,1,120,8|8,0:2|0:2,0:0:0:0:
451,105,10850,1,12,0:2:0:0:
483,178,11225,6,0,P|481:263|461:295,1,120,8|8,0:2|0:2,0:0:0:0:
447,327,11975,1,8,0:2:0:0:
367,331,12350,6,0,B|276:322|303:386|205:375,1,160,12|0,0:2|3:2,0:2:0:0:
74,305,13850,2,0,L|85:215,1,79.9999999999999,10|2,0:2|0:2,0:2:0:0:
75,146,14600,2,0,P|119:115|157:120,1,79.9999999999999,2|2,3:2|3:2,0:2:0:0:
218,143,15350,1,8,0:2:0:0:
377,145,16100,6,0,B|381:45|429:85|431:-5,1,160,2|8,3:2|0:2,0:2:0:0:
276,42,17600,2,0,P|245:61|192:52,1,79.9999999999999,0|0,3:2|3:2,0:2:0:0:
132,12,18350,1,8,0:2:0:0:
24,130,19100,6,0,B|75:103|113:115|113:115|128:146|171:158,1,160,2|8,3:2|0:2,0:2:0:0:
244,154,20225,1,2,0:2:0:0:
233,233,20600,2,0,P|189:264|151:259,1,79.9999999999999,2|2,3:2|3:2,0:2:0:0:
88,286,21350,1,8,0:0:0:0:
240,333,22100,6,0,P|322:356|399:387,1,160,0|8,3:2|0:2,0:2:0:0:
477,248,23600,2,0,P|514:170|477:100,1,160,0|8,3:2|0:2,0:2:0:0:
414,71,24725,1,0,3:2:0:0:
358,128,25100,6,0,P|309:149|279:153,1,79.9999999999999,4|2,0:2|3:2,0:0:0:0:
215,108,25850,1,10,0:2:0:0:
137,128,26225,1,2,0:2:0:0:
177,196,26600,2,0,B|233:233|233:233|241:336,1,160,0|8,3:0|0:2,0:0:0:0:
160,351,27725,1,2,0:0:0:0:
84,326,28100,6,0,P|38:280|81:198,1,160,0|8,3:2|0:2,0:2:0:0:
222,145,29600,2,0,P|268:99|225:17,1,160,2|8,3:2|0:2,0:2:0:0:
154,19,30725,1,2,0:2:0:0:
100,78,31100,6,0,L|128:247,1,160,2|10,3:2|0:2,0:2:0:0:
250,336,32600,2,0,P|298:319|326:291,1,79.9999999999999,2|0,3:2|3:0,0:0:0:0:
399,297,33350,1,8,0:0:0:0:
452,237,33725,1,2,0:2:0:0:
439,154,34100,6,0,P|373:186|303:144,1,160,0|8,3:2|0:2,0:2:0:0:
215,278,35600,2,0,P|176:287|136:291,1,79.9999999999999,0|0,3:2|3:2,0:2:0:0:
67,250,36350,1,8,0:2:0:0:
33,177,36725,1,2,0:2:0:0:
63,101,37100,6,0,P|99:98|144:127,1,79.9999999999999,6|0,3:2|3:2,0:2:0:0:
202,164,37850,1,10,0:0:0:0:
236,314,38600,2,0,L|319:303,1,79.9999999999999,2|2,3:2|3:2,0:0:0:0:
386,267,39350,2,0,L|375:184,1,79.9999999999999,10|2,0:2|0:2,0:2:0:0:
307,144,40100,5,2,3:2:0:0:
357,81,40475,2,0,P|340:26|315:10,1,79.9999999999999,2|8,3:2|0:2,0:0:0:0:
243,13,41225,1,0,0:0:0:0:
189,72,41600,2,0,B|103:73|156:121|38:126,1,160,2|8,3:2|0:0,0:0:0:0:
0,193,42725,1,2,0:2:0:0:
48,256,43100,6,0,P|82:253|130:287,1,79.9999999999999,2|0,3:2|3:2,0:2:0:0:
167,340,43850,1,10,0:0:0:0:
327,337,44600,2,0,L|316:254,1,79.9999999999999,2|2,3:2|3:2,0:0:0:0:
250,211,45350,2,0,L|261:128,1,79.9999999999999,10|2,0:2|0:2,0:2:0:0:
253,51,46100,5,2,3:2:0:0:
324,14,46475,2,0,P|379:31|395:56,1,79.9999999999999,2|8,3:2|0:2,0:0:0:0:
438,112,47225,1,0,0:0:0:0:
478,181,47600,2,0,B|472:272|521:247|503:340,1,160,2|8,3:2|0:2,0:0:0:0:
343,333,49100,6,0,P|296:351|259:361,2,79.9999999999999,4|2|10,3:2|3:2|0:2,0:0:0:0:
312,258,50225,1,2,0:2:0:0:
242,218,50600,2,0,P|259:178|257:126,1,79.9999999999999,2|2,3:2|3:2,0:0:0:0:
212,76,51350,2,0,P|145:66|71:139,1,160,10|2,0:2|3:2,0:2:0:0:
32,187,52475,1,0,3:0:0:0:
69,257,52850,2,0,L|84:350,1,79.9999999999999,10|2,0:2|0:2,0:2:0:0:
154,372,53600,2,0,L|241:357,1,79.9999999999999,0|2,3:2|3:2,0:0:0:0:
285,298,54350,1,10,0:2:0:0:
354,338,54725,1,2,0:2:0:0:
430,314,55100,6,0,P|473:255|438:180,1,160,2|8,3:2|0:2,0:2:0:0:
315,82,56600,2,0,P|290:9|292:-7,2,79.9999999999999,0|0|8,3:2|3:2|0:2,0:2:0:0:
353,93,57537,1,2,0:2:0:0:
339,212,58100,5,10,0:2:0:0:
238,277,58662,1,10,0:2:0:0:
126,232,59225,2,0,B|89:180|117:124|117:124|149:111|158:80,1,160,12|0,3:2|0:0,0:0:0:0:
214,46,60350,2,0,P|239:68|296:62,1,79.9999999999999
353,29,61100,5,2,0:2:0:0:
13,50,62600,6,0,P|53:58|105:70,1,79.9999999999999,14|0,3:2|3:2,0:2:0:0:
164,34,63350,1,10,0:2:0:0:
233,74,63725,1,2,0:2:0:0:
187,139,64100,2,0,P|195:179|207:231,1,79.9999999999999,10|2,0:2|3:2,0:2:0:0:
178,293,64850,2,0,B|245:298|205:336|298:344,1,120,10|2,0:2|3:2,0:2:0:0:
322,351,65600,6,0,P|378:286|357:207,1,160,10|10,3:2|0:2,0:2:0:0:
272,87,67100,1,8,0:2:0:0:
331,35,67475,1,2,3:2:0:0:
405,62,67850,2,0,P|421:133|425:163,1,79.9999999999999,10|2,0:2|0:2,0:2:0:0:
438,218,68600,6,0,P|399:225|346:238,1,79.9999999999999,14|0,0:2|3:2,0:2:0:0:
297,284,69350,1,8,0:2:0:0:
217,290,69725,1,2,0:2:0:0:
169,226,70100,1,10,0:2:0:0:
207,155,70475,1,2,3:2:0:0:
158,91,70850,2,0,P|110:71|57:105,1,120,10|2,0:2|3:2,0:2:0:0:
40,141,71600,6,0,B|92:186|62:244|62:244|31:257|28:285,1,160,10|10,3:2|0:2,0:2:0:0:
159,368,73100,1,8,0:2:0:0:
228,328,73475,1,2,3:2:0:0:
303,355,73850,2,0,P|350:359|383:329,1,79.9999999999999,10|2,0:2|0:2,0:0:0:0:
353,263,74600,6,0,P|345:223|333:171,1,79.9999999999999,14|0,0:2|3:2,0:2:0:0:
256,179,75350,1,10,0:2:0:0:
205,117,75725,1,2,0:2:0:0:
228,40,76100,2,0,P|268:32|320:20,1,79.9999999999999,10|2,0:2|3:2,0:2:0:0:
386,29,76850,2,0,P|406:77|372:130,1,120,10|2,0:2|0:2,0:2:0:0:
359,168,77600,6,0,P|381:242|389:269,1,79.9999999999999,8|2,0:2|3:2,0:0:0:0:
353,319,78350,1,10,0:2:0:0:
276,296,78725,1,2,0:2:0:0:
194,313,79100,2,0,P|171:351|183:390,2,79.9999999999999,10|2|8,0:2|3:2|0:2,0:2:0:0:
58,228,80600,6,0,P|13:209|-3:168,1,79.9999999999999,10|2,0:2|3:2,0:2:0:0:
28,108,81350,2,0,L|38:20,1,79.9999999999999,10|2,0:2|0:2,0:2:0:0:
116,17,82100,1,10,0:2:0:0:
186,54,82475,1,2,3:2:0:0:
263,34,82850,2,0,P|301:23|340:13,1,79.9999999999999,10|2,0:2|0:2,0:0:0:0:
416,40,83600,6,0,P|414:125|394:157,1,120,10|10,0:2|0:2,0:0:0:0:
362,174,84350,1,14,0:2:0:0:
291,212,84725,6,0,P|293:297|313:329,1,120,10|10,0:2|0:2,0:0:0:0:
345,346,85475,1,10,0:2:0:0:
421,368,85850,6,0,L|503:381,2,79.9999999999999,6|2|2,0:2|3:2|3:2,0:0:0:0:
