osu file format v14

[General]
AudioFilename: audio.ogg
AudioLeadIn: 0
PreviewTime: 61464
Countdown: 0
SampleSet: Soft
StackLeniency: 0.7
Mode: 0
LetterboxInBreaks: 0
WidescreenStoryboard: 1

[Editor]
DistanceSpacing: 1
BeatDivisor: 2
GridSize: 32
TimelineZoom: 1.2

[Metadata]
Title:Tutu Ballerina (TV Size)
TitleUnicode:チュチュ・バレリーナ (TV Size)
Artist:Ruka, Mona, Miki from AIKATSU * STARS!
ArtistUnicode:るか・もな・みき from AIKATSU☆STARS!
Creator:Niizuma Yae
Version:Aurorance's Normal
Source:アイカツ!
Tags:yayoi takatsuki aurorance iredi kennethbbg aikatsu! s3 season 3 jpop j-pop j pop japanese anime idol jidol ed ending 2 female vocals Luminas Akari Ozora Sumire Hikami Hinaki Shinjo 大空あかり 新条ひなき 氷上 スミレ Ruka Endo 遠藤瑠香 Mona Tomoyama 巴山萌菜 Miki Mirai 未来みき 只野菜摘 Tadano Natsumi 石原理酉 Masaaki Ishihara 成瀬裕介 Yusuke Naruse onetrap
BeatmapID:4413366
BeatmapSetID:2101057

[Difficulty]
HPDrainRate:4
CircleSize:3.5
OverallDifficulty:4
ApproachRate:5
SliderMultiplier:1.1
SliderTickRate:1

[Events]
//Background and Video events
0,0,"tutub.jpg",0,0
Video,-750,"v.mp4"
//Break Periods
//Storyboard Layer 0 (Background)
//Storyboard Layer 1 (Fail)
//Storyboard Layer 2 (Pass)
//Storyboard Layer 3 (Foreground)
//Storyboard Layer 4 (Overlay)
//Storyboard Sound Samples

[TimingPoints]
1100,375,4,2,1,75,1,0
12350,-100,4,2,1,70,0,0
13100,-100,4,2,1,65,0,0
56600,-100,4,2,1,80,0,0
60350,-100,4,2,1,75,0,0
62600,-83.3333333333333,4,2,1,80,0,1
86600,-83.3333333333333,4,2,1,80,0,0

[Colours]
Combo1 : 118,143,245
Combo2 : 255,187,207
Combo3 : 193,124,250

[HitObjects]
96,45,1100,6,0,P|58:6|5:7,2,110,14|0|8,0:2|3:2|0:2,0:2:0:0:
140,77,2037,2,0,L|195:70,1,55,0|0,0:2|0:2,0:0:0:0:
242,42,2412,1,2,0:0:0:0:
321,118,2787,1,2,0:2:0:0:
235,186,3162,2,0,P|223:243|216:298,1,110,2|0,0:2|0:0,0:0:0:0:
282,382,3912,1,0,3:2:0:0:
282,382,4100,6,0,P|323:357|387:367,2,110,8|0|8,0:2|3:2|0:2,0:2:0:0:
193,324,5225,1,2,0:2:0:0:
193,324,5412,2,0,L|84:340,1,110,2|8,0:2|0:2,0:0:0:0:
32,320,5975,1,8,3:2:0:0:
82,224,6350,1,8,0:2:0:0:
82,224,6537,2,0,L|137:230,2,55,2|2|2,0:0|0:2|0:0,0:0:0:0:
33,196,7100,6,0,P|8:143|33:95,2,110,12|0|8,0:2|3:2|0:2,0:2:0:0:
82,224,8037,2,0,L|137:230,1,55,0|0,0:2|0:2,0:0:0:0:
182,198,8412,2,0,L|171:86,1,110,2|0,0:0|3:2,0:0:0:0:
253,32,9162,2,0,L|261:88,1,55
300,116,9537,1,0,3:2:0:0:
251,276,10100,5,8,0:2:0:0:
251,276,10287,1,8,0:2:0:0:
350,334,10662,1,8,0:2:0:0:
350,334,10850,2,0,P|403:346|457:313,1,110,12|8,0:2|0:2,0:0:0:0:
477,273,11412,2,0,L|464:157,1,110,12|8,0:2|0:2,0:0:0:0:
428,121,11975,1,8,0:2:0:0:
339,186,12350,1,12,0:2:0:0:
181,21,13100,6,0,L|62:36,1,110,0|2,3:2|3:2,0:0:0:0:
1,119,13850,2,0,P|47:145|101:138,1,110,10|2,0:2|0:2,0:2:0:0:
147,168,14412,2,0,P|129:265|117:339,1,165,2|2,0:2|3:2,0:0:0:0:
232,330,15350,1,8,0:2:0:0:
232,330,15537,2,0,L|241:384,2,55,2|2|2,0:0|0:0|0:2,0:0:0:0:
282,308,16100,6,0,P|288:256|299:196,1,110,2|0,3:2|3:2,0:2:0:0:
362,110,16850,1,8,0:2:0:0:
362,110,17037,2,0,P|354:60|297:39,1,110,2|2,0:2|3:2,0:2:0:0:
253,61,17600,2,0,P|196:45|136:35,2,110,0|0|8,3:2|3:2|0:2,0:2:0:0:
335,134,18725,2,0,L|339:201,1,55,2|2,0:2|3:2,0:0:0:0:
379,225,19100,6,0,P|432:235|480:210,2,110,2|0|8,3:2|3:2|0:2,0:2:0:0:
275,262,20225,1,2,0:2:0:0:
313,365,20600,2,0,L|194:344,1,110,2|2,3:2|3:2,0:2:0:0:
150,355,21162,2,0,P|102:330|94:277,1,110,2|2,0:2|0:2,0:2:0:0:
106,225,21725,1,2,0:2:0:0:
43,134,22100,6,0,P|37:85|25:19,2,110,0|0|8,3:2|3:2|0:2,0:2:0:0:
106,225,23225,1,0,0:2:0:0:
196,162,23600,2,0,P|251:156|315:154,1,110,0|0,3:2|3:2,0:2:0:0:
300,43,24350,2,0,P|245:49|181:51,1,110,8|0,0:2|3:2,0:0:0:0:
116,132,25100,5,4,0:2:0:0:
116,132,25287,2,0,L|49:126,2,55,2|2|2,0:2|3:2|0:2,0:0:0:0:
152,174,25850,1,10,0:0:0:0:
247,116,26225,1,2,0:2:0:0:
247,116,26412,2,0,P|302:106|349:134,1,110,2|0,0:2|0:0,0:0:0:0:
379,176,26975,1,2,3:2:0:0:
312,264,27350,1,8,0:2:0:0:
312,264,27537,2,0,L|233:252,2,55,2|2|2,0:0|0:0|0:2,0:0:0:0:
333,315,28100,6,0,P|375:336|440:323,1,110,0|0,3:2|3:2,0:2:0:0:
501,239,28850,1,8,0:2:0:0:
501,239,29037,2,0,L|486:125,1,110,2|2,0:2|0:2,0:2:0:0:
441,97,29600,2,0,P|437:45|469:-2,2,110,2|0|8,3:2|3:2|0:2,0:2:0:0:
365,176,30725,1,2,0:2:0:0:
278,108,31100,6,0,P|224:98|156:90,1,110,2|0,3:2|3:2,0:2:0:0:
152,200,31850,2,0,P|205:209|274:218,1,110,10|0,0:2|0:2,0:2:0:0:
365,176,32600,1,2,3:2:0:0:
365,176,32787,1,0,0:0:0:0:
456,235,33162,2,0,P|477:285|457:335,1,110,2|2,0:2|0:2,0:0:0:0:
413,369,33725,1,2,0:2:0:0:
328,298,34100,6,0,P|321:252|308:184,2,110,0|0|8,3:2|3:2|3:2,0:2:0:0:
241,365,35225,1,0,0:2:0:0:
162,287,35600,2,0,P|106:295|59:266,1,110,0|0,3:2|3:2,0:2:0:0:
2,183,36350,1,8,0:2:0:0:
77,102,36725,2,0,L|136:94,1,55,2|2,0:2|0:2,0:0:0:0:
176,62,37100,5,6,3:2:0:0:
261,131,37475,1,0,3:2:0:0:
173,197,37850,2,0,P|146:242|168:303,1,110,10|0,0:2|0:2,0:2:0:0:
264,330,38600,2,0,L|275:389,2,55,2|2|2,3:2|0:2|3:2,0:0:0:0:
296,285,39162,1,0,0:2:0:0:
296,285,39350,2,0,L|306:170,1,110,10|2,0:2|0:2,0:2:0:0:
385,99,40100,6,0,L|464:84,2,55,2|0|2,3:2|0:0|3:2,0:2:0:0:
340,76,40662,1,2,0:2:0:0:
235,40,41037,2,0,L|225:94,2,55,2|2|2,0:0|0:0|0:0,0:0:0:0:
191,16,41600,1,2,3:2:0:0:
191,16,41787,2,0,P|146:25|81:45,1,110,2|0,0:2|0:2,0:0:0:0:
32,61,42350,1,8,0:0:0:0:
83,151,42725,2,0,L|73:205,1,55,2|2,0:2|0:2,0:0:0:0:
35,245,43100,5,2,3:2:0:0:
81,344,43475,1,0,3:2:0:0:
181,298,43850,2,0,P|237:288|302:278,1,110,10|0,0:2|0:2,0:2:0:0:
392,318,44600,2,0,L|400:376,2,55,2|2|2,3:2|0:2|3:2,0:0:0:0:
435,284,45162,1,0,0:2:0:0:
435,284,45350,2,0,L|450:172,1,110,10|2,0:2|0:2,0:2:0:0:
377,91,46100,6,0,L|369:19,2,55,2|0|2,3:2|0:0|3:2,0:2:0:0:
339,131,46662,1,2,0:0:0:0:
231,108,47037,2,0,P|202:82|117:97,1,110,2|2,0:0|0:0,0:0:0:0:
99,127,47600,1,2,3:2:0:0:
99,127,47787,2,0,L|108:239,1,110,2|0,0:2|0:0,0:0:0:0:
144,277,48350,1,8,0:2:0:0:
236,216,48725,1,0,0:2:0:0:
340,250,49100,5,4,3:2:0:0:
340,250,49287,2,0,P|352:314|316:348,1,110,2|2,0:2|0:2,0:2:0:0:
275,369,49850,2,0,L|163:350,1,110,10|2,0:2|0:2,0:2:0:0:
127,312,50412,1,0,0:2:0:0:
190,222,50787,2,0,L|257:217,2,55,2|2|2,0:2|3:2|0:2,0:0:0:0:
143,192,51350,2,0,P|93:202|35:169,1,110,10|0,0:2|0:2,0:2:0:0:
19,68,52100,5,2,3:2:0:0:
19,68,52287,2,0,P|74:62|138:47,1,110,2|2,0:2|0:2,0:2:0:0:
170,15,52850,1,10,0:2:0:0:
263,82,53225,1,2,0:2:0:0:
263,82,53412,2,0,L|248:200,1,110,2|2,0:2|0:2,0:0:0:0:
209,229,53975,1,2,3:2:0:0:
256,328,54350,1,10,0:2:0:0:
362,356,54725,1,2,0:2:0:0:
449,289,55100,6,0,P|460:239|480:174,2,110,2|0|8,3:2|3:2|0:2,0:2:0:0:
362,356,56225,1,0,0:2:0:0:
290,272,56600,2,0,P|230:260|176:257,2,110,0|0|8,3:2|3:2|0:2,0:2:0:0:
340,249,57537,2,0,P|356:198|332:151,1,110,2|2,0:2|0:2,0:2:0:0:
288,125,58100,5,10,0:2:0:0:
288,125,58287,1,2,3:2:0:0:
191,174,58662,1,10,0:2:0:0:
191,174,58850,1,2,3:2:0:0:
134,79,59225,1,12,3:2:0:0:
256,192,59412,12,2,61100,0:2:0:0:
481,53,62600,6,0,P|415:66|351:76,1,131.99999597168,14|0,3:2|3:2,0:2:0:0:
244,22,63350,1,10,0:2:0:0:
158,104,63725,1,2,0:2:0:0:
223,203,64100,2,0,L|288:195,1,65.9999979858399,10|0,0:2|0:0,0:2:0:0:
339,163,64475,1,2,3:2:0:0:
436,231,64850,2,0,P|449:293|412:347,1,131.99999597168,10|0,0:2|0:2,0:2:0:0:
363,377,65412,1,2,3:2:0:0:
316,340,65600,5,10,3:2:0:0:
225,263,65975,2,0,P|159:270|92:279,1,131.99999597168,2|10,3:2|0:2,0:0:0:0:
13,190,66725,2,0,L|23:123,1,65.9999979858399,2|2,0:2|0:2,0:0:0:0:
60,78,67100,1,8,0:2:0:0:
147,158,67475,1,2,3:2:0:0:
250,99,67850,1,10,0:2:0:0:
334,181,68225,2,0,L|403:195,1,65.9999979858399,2|0,0:2|0:2,0:2:0:0:
455,176,68600,6,0,P|472:114|436:61,1,131.99999597168,14|0,0:2|3:2,0:2:0:0:
330,6,69350,1,8,0:2:0:0:
250,99,69725,1,2,0:2:0:0:
146,41,70100,2,0,L|79:46,1,65.9999979858399,10|0,0:2|0:0,0:2:0:0:
28,76,70475,1,2,3:2:0:0:
91,176,70850,2,0,P|76:248|67:307,1,131.99999597168,10|0,0:2|0:2,0:2:0:0:
100,354,71412,1,2,3:2:0:0:
154,330,71600,5,10,3:2:0:0:
261,379,71975,2,0,P|335:366|411:360,1,131.99999597168,2|10,3:2|0:2,0:0:0:0:
486,289,72725,2,0,L|495:222,1,65.9999979858399,2|2,0:2|0:2,0:0:0:0:
467,170,73100,1,8,0:2:0:0:
354,208,73475,1,2,3:2:0:0:
274,119,73850,2,0,L|207:110,1,65.9999979858399,10|0,0:2|0:2,0:0:0:0:
153,133,74225,1,2,0:2:0:0:
197,241,74600,6,0,P|192:305|138:340,1,131.99999597168,14|0,0:2|3:2,0:2:0:0:
30,290,75350,1,10,0:2:0:0:
93,189,75725,1,2,0:2:0:0:
8,105,76100,2,0,L|19:32,1,65.9999979858399,10|0,0:2|0:0,0:2:0:0:
68,7,76475,1,2,3:2:0:0:
146,96,76850,2,0,P|232:76|344:59,1,197.99999395752,10|2,0:2|0:2,0:2:0:0:
392,87,77600,5,8,0:2:0:0:
446,64,77787,2,0,L|454:-19,2,65.9999979858399,2|2|2,0:2|3:2|0:2,0:0:0:0:
489,105,78350,1,10,0:2:0:0:
395,178,78725,2,0,L|405:264,1,65.9999979858399,2|2,0:2|0:2,0:0:0:0:
454,272,79100,1,10,0:0:0:0:
382,383,79475,1,2,3:2:0:0:
299,280,79850,1,8,0:2:0:0:
248,320,80037,2,0,L|233:384,2,65.9999979858399,2|2|2,0:2|0:2|0:2,0:0:0:0:
198,286,80600,6,0,P|161:234|188:177,1,131.99999597168,10|2,0:2|3:2,0:2:0:0:
304,157,81350,2,0,P|332:97|297:45,1,131.99999597168,10|2,0:2|0:2,0:2:0:0:
183,0,82100,1,10,0:2:0:0:
114,96,82475,1,2,3:2:0:0:
4,46,82850,2,0,P|15:120|23:179,1,131.99999597168,10|2,0:2|0:2,0:0:0:0:
96,276,83600,5,10,0:2:0:0:
150,253,83787,1,10,0:2:0:0:
249,317,84162,1,10,0:2:0:0:
303,294,84350,1,14,0:2:0:0:
410,344,84725,1,10,0:2:0:0:
461,314,84912,2,0,P|470:259|436:192,1,131.99999597168,14|10,0:2|0:2,0:0:0:0:
391,154,85475,2,0,P|397:101|410:14,2,131.99999597168,10|6|2,0:2|0:2|3:2,0:0:0:0:
292,220,86600,5,2,3:2:0:0:
