osu file format v14

[General]
AudioFilename: audio.mp3
AudioLeadIn: 0
PreviewTime: 231531
Countdown: 0
SampleSet: Soft
StackLeniency: 0.1
Mode: 0
LetterboxInBreaks: 0
WidescreenStoryboard: 0

[Editor]
Bookmarks: 3772,14807,25841,36876,47910,58945,69979,81014,89290,97566,108600,119635,133428,147221,158255,169290,183773,194807,205152,216186,224462,232738,243772,254807,268600,273945
DistanceSpacing: 1.3
BeatDivisor: 4
GridSize: 4
TimelineZoom: 2.1

[Metadata]
Title:Future jewel
TitleUnicode:Future jewel
Artist:Ruka & Sena
ArtistUnicode:るか & せな
Creator:Andrea
Version:Everlasting
Source:アイカツオンパレード!
Tags:Anime Japanese JPop J-Pop Pop Collab Collaboration Sekaii Sekai-nyan Sekai osuplayer111 Aikatsu on Parade! Akari Ozora Yume Nijino 大空あかり 虹野ゆめ SkyFlame Yogurtt Sing a Song Sympathy! Endō Endou 遠藤瑠香 Horigoshi 堀越せな BEST FRIENDS! Endo Horikoshi
BeatmapID:2946925
BeatmapSetID:1431661

[Difficulty]
HPDrainRate:6
CircleSize:4.5
OverallDifficulty:8.5
ApproachRate:9.3
SliderMultiplier:1.6
SliderTickRate:1

[Events]
//Background and Video events
0,0,"BG.jpg",0,0
//Break Periods
//Storyboard Layer 0 (Background)
//Storyboard Layer 1 (Fail)
//Storyboard Layer 2 (Pass)
//Storyboard Layer 3 (Foreground)
//Storyboard Layer 4 (Overlay)
//Storyboard Sound Samples

[TimingPoints]
3772,344.827586206897,4,2,2,50,1,0
3772,-125,4,2,2,50,0,0
14806,-111.111111111111,4,2,2,60,0,0
20323,-100,4,2,2,60,0,0
25840,-111.111111111111,4,2,1,60,0,0
26961,-111.111111111111,4,2,1,5,0,0
27047,-111.111111111111,4,2,1,60,0,0
32478,-111.111111111111,4,2,1,5,0,0
32565,-111.111111111111,4,2,1,60,0,0
47910,-100,4,2,1,70,0,0
49375,-100,4,2,1,5,0,0
49461,-100,4,2,1,70,0,0
54892,-100,4,2,1,5,0,0
54978,-100,4,2,1,70,0,0
63340,-100,4,2,1,5,0,0
63427,-100,4,2,1,70,0,0
64720,-100,4,2,1,5,0,0
64806,-100,4,2,1,70,0,0
66099,-100,4,2,1,5,0,0
66185,-100,4,2,1,70,0,0
69978,-111.111111111111,4,2,1,60,0,0
73858,-111.111111111111,4,2,1,5,0,0
73944,-111.111111111111,4,2,1,60,0,0
81013,-100,4,2,1,70,0,0
81272,-100,4,2,1,5,0,0
81358,-100,4,2,1,70,0,0
84030,-100,4,2,1,5,0,0
84116,-100,4,2,1,70,0,0
92306,-100,4,2,1,5,0,0
92392,-100,4,2,1,70,0,0
96358,-125,4,2,1,60,0,0
97565,-90.9090909090909,4,2,2,70,0,1
97909,-90.9090909090909,4,2,1,80,0,1
100323,-90.9090909090909,4,2,2,70,0,1
100582,-90.9090909090909,4,2,1,5,0,1
100668,-90.9090909090909,4,2,1,80,0,1
102392,-90.9090909090909,4,2,2,70,0,1
102565,-90.9090909090909,4,2,1,80,0,1
103340,-90.9090909090909,4,2,1,5,0,1
103427,-90.9090909090909,4,2,1,80,0,1
104720,-90.9090909090909,4,2,1,5,0,1
104806,-90.9090909090909,4,2,1,80,0,1
105840,-90.9090909090909,4,2,2,70,0,1
105927,-90.9090909090909,4,2,1,80,0,1
106099,-90.9090909090909,4,2,1,5,0,1
106185,-90.9090909090909,4,2,1,80,0,1
107220,-90.9090909090909,4,2,2,70,0,1
107306,-90.9090909090909,4,2,1,80,0,1
108599,-90.9090909090909,4,2,2,70,0,1
108944,-90.9090909090909,4,2,1,80,0,1
110065,-90.9090909090909,4,2,1,5,0,1
110151,-90.9090909090909,4,2,1,80,0,1
111358,-90.9090909090909,4,2,2,70,0,1
111703,-90.9090909090909,4,2,1,80,0,1
113427,-90.9090909090909,4,2,2,70,0,1
113599,-90.9090909090909,4,2,1,80,0,1
114375,-90.9090909090909,4,2,1,5,0,1
114461,-90.9090909090909,4,2,1,80,0,1
115065,-90.9090909090909,4,2,1,5,0,1
115151,-90.9090909090909,4,2,1,80,0,1
116444,-90.9090909090909,4,2,1,5,0,1
116530,-90.9090909090909,4,2,1,80,0,1
116875,-90.9090909090909,4,2,2,70,0,1
116961,-90.9090909090909,4,2,1,80,0,1
117134,-90.9090909090909,4,2,1,5,0,1
117220,-90.9090909090909,4,2,1,80,0,1
118254,-90.9090909090909,4,2,2,70,0,1
118340,-90.9090909090909,4,2,1,80,0,1
119892,-90.9090909090909,4,2,1,5,0,1
119978,-90.9090909090909,4,2,1,80,0,1
121272,-90.9090909090909,4,2,1,5,0,1
121358,-90.9090909090909,4,2,1,80,0,1
122651,-90.9090909090909,4,2,1,5,0,1
122737,-90.9090909090909,4,2,1,80,0,1
123772,-90.9090909090909,4,2,2,70,0,1
123858,-90.9090909090909,4,2,1,80,0,1
124289,-90.9090909090909,4,2,2,70,0,1
124461,-90.9090909090909,4,2,1,80,0,1
125409,-90.9090909090909,4,2,1,5,0,1
125496,-90.9090909090909,4,2,1,80,0,1
126789,-90.9090909090909,4,2,1,5,0,1
126875,-90.9090909090909,4,2,1,80,0,1
133427,-100,4,2,1,50,0,0
136099,-100,4,2,1,5,0,0
136186,-111.111111111111,4,2,1,60,0,0
137306,-111.111111111111,4,2,1,5,0,0
137392,-111.111111111111,4,2,1,60,0,0
139375,-111.111111111111,4,2,1,5,0,0
139461,-111.111111111111,4,2,1,60,0,0
140323,-111.111111111111,4,2,1,70,0,0
141703,-100,4,2,1,70,0,0
146099,-100,4,2,1,5,0,0
146185,-100,4,2,1,70,0,0
147478,-100,4,2,1,5,0,0
147565,-100,4,2,1,70,0,0
148858,-100,4,2,1,5,0,0
148944,-100,4,2,1,70,0,0
150237,-100,4,2,1,5,0,0
150323,-100,4,2,1,70,0,0
151616,-100,4,2,1,5,0,0
151703,-100,4,2,1,70,0,0
152996,-100,4,2,1,5,0,0
153082,-100,4,2,1,70,0,0
154375,-100,4,2,1,5,0,0
154461,-100,4,2,1,70,0,0
155754,-100,4,2,1,5,0,0
155840,-100,4,2,1,70,0,0
157134,-100,4,2,1,5,0,0
157220,-100,4,2,1,70,0,0
158254,-111.111111111111,4,2,1,60,0,0
160754,-111.111111111111,4,2,1,5,0,0
160840,-111.111111111111,4,2,1,60,0,0
166789,-111.111111111111,4,2,1,5,0,0
166875,-111.111111111111,4,2,1,60,0,0
169289,-100,4,2,1,70,0,0
183773,344.827586206897,4,2,1,70,1,0
185410,-100,4,2,1,5,0,0
185497,-100,4,2,1,70,0,0
186531,-100,4,2,2,60,0,0
186617,-100,4,2,1,70,0,0
186790,-100,4,2,1,5,0,0
186876,-100,4,2,1,70,0,0
187479,-100,4,2,1,5,0,0
187566,-100,4,2,1,70,0,0
188169,-100,4,2,1,5,0,0
188255,-100,4,2,1,70,0,0
189290,-100,4,2,2,60,0,0
189376,-100,4,2,1,70,0,0
189548,-100,4,2,1,5,0,0
189635,-100,4,2,1,70,0,0
190928,-100,4,2,1,5,0,0
191014,-100,4,2,1,70,0,0
191359,-100,4,2,2,60,0,0
191531,-100,4,2,1,70,0,0
192048,-100,4,2,2,60,0,0
192135,-100,4,2,1,70,0,0
192307,-100,4,2,1,5,0,0
192393,-100,4,2,1,70,0,0
194807,-100,4,2,1,70,0,0
204979,-100,4,2,1,5,0,0
205152,344.827586206897,4,2,1,50,1,0
205152,-125,4,2,1,50,0,0
205496,-125,4,2,3,50,0,0
205583,-125,4,2,1,50,0,0
206014,-125,4,2,3,50,0,0
206100,-125,4,2,1,50,0,0
206789,-125,4,2,1,5,0,0
206876,-125,4,2,3,50,0,0
206962,-125,4,2,1,50,0,0
208255,-125,4,2,3,50,0,0
208341,-125,4,2,1,50,0,0
208772,-125,4,2,3,50,0,0
208858,-125,4,2,1,50,0,0
209548,-125,4,2,1,5,0,0
209634,-125,4,2,3,50,0,0
209720,-125,4,2,1,50,0,0
211014,-125,4,2,3,50,0,0
211100,-125,4,2,1,50,0,0
211703,-125,4,2,3,50,0,0
211789,-125,4,2,1,50,0,0
212393,-125,4,2,3,50,0,0
212479,-125,4,2,1,50,0,0
213772,-125,4,2,3,50,0,0
213858,-125,4,2,1,50,0,0
214462,-125,4,2,3,50,0,0
214548,-125,4,2,1,50,0,0
215152,-125,4,2,3,50,0,0
215238,-125,4,2,1,50,0,0
216186,-111.111111111111,4,2,2,60,0,0
216272,-111.111111111111,4,2,1,60,0,0
217910,-111.111111111111,4,2,3,60,0,0
217996,-111.111111111111,4,2,1,60,0,0
218945,-111.111111111111,4,2,2,60,0,0
219031,-111.111111111111,4,2,1,60,0,0
220669,-111.111111111111,4,2,3,60,0,0
220755,-111.111111111111,4,2,1,60,0,0
221703,-100,4,2,2,70,0,0
221876,-100,4,2,1,70,0,0
227220,-125,4,2,1,50,0,0
231358,-125,4,2,1,5,0,0
231531,-125,4,2,1,50,0,0
232738,-90.9090909090909,4,2,2,70,0,1
232910,-90.9090909090909,4,2,1,80,0,1
235496,-90.9090909090909,4,2,2,70,0,1
235669,-90.9090909090909,4,2,1,80,0,1
238255,-125,4,2,1,60,0,0
241014,-100,4,2,2,60,0,0
241186,-100,4,2,1,70,0,0
242393,-100,4,2,2,60,0,0
242565,-100,4,2,1,70,0,0
243772,-90.9090909090909,4,2,2,70,0,1
244117,-90.9090909090909,4,2,1,80,0,1
246531,-90.9090909090909,4,2,2,70,0,1
246617,-90.9090909090909,4,2,1,80,0,1
246789,-90.9090909090909,4,2,1,5,0,1
246876,-90.9090909090909,4,2,1,80,0,1
248600,-90.9090909090909,4,2,2,70,0,1
248772,-90.9090909090909,4,2,1,80,0,1
249548,-90.9090909090909,4,2,1,5,0,1
249634,-90.9090909090909,4,2,1,80,0,1
250238,-90.9090909090909,4,2,1,5,0,1
250324,-90.9090909090909,4,2,1,80,0,1
250927,-90.9090909090909,4,2,1,5,0,1
251014,-90.9090909090909,4,2,1,80,0,1
251617,-90.9090909090909,4,2,1,5,0,1
251703,-90.9090909090909,4,2,1,80,0,1
252048,-90.9090909090909,4,2,2,70,0,1
252134,-90.9090909090909,4,2,1,80,0,1
252307,-90.9090909090909,4,2,1,5,0,1
252393,-90.9090909090909,4,2,1,80,0,1
253427,-90.9090909090909,4,2,2,70,0,1
253600,-90.9090909090909,4,2,1,80,0,1
259462,-90.9090909090909,4,2,2,70,0,1
259548,-90.9090909090909,4,2,1,80,0,1
268600,-125,4,2,2,50,0,0

[Colours]
Combo1 : 255,136,196
Combo2 : 101,190,255
SliderBorder : 255,157,206
SliderTrackOverride : 255,255,255

[HitObjects]
108,352,3771,5,6,1:2:0:0:
256,196,4290,1,2,0:0:0:0:
404,352,4807,1,2,0:0:0:0:
256,196,5324,1,2,0:0:0:0:
352,16,5841,1,2,0:0:0:0:
256,112,6186,1,2,0:0:0:0:
160,16,6530,6,0,P|72:16|12:96,1,192,2|2,0:0|0:0,0:0:0:0:
12,290,7565,2,0,P|67:365|160:368,1,192,2|2,0:0|0:0,0:0:0:0:
324,248,8600,1,2,0:0:0:0:
256,132,8945,1,2,0:0:0:0:
188,248,9289,6,0,B|123:248|123:248|67:212|67:212|7:212,1,192,6|2,1:2|0:0,0:0:0:0:
8,12,10323,2,0,B|73:12|73:12|129:48|129:48|189:48,1,192,2|2,0:0|0:0,0:0:0:0:
388,112,11359,1,2,0:0:0:0:
504,192,11704,1,2,0:0:0:0:
388,272,12047,6,0,B|328:272|288:316|288:316|200:316,1,192,6|2,1:2|0:0,0:0:0:0:
40,232,13082,2,0,B|100:232|140:188|140:188|228:188,1,192,2|2,0:0|0:0,0:0:0:0:
352,60,13945,5,8,0:0:0:0:
352,60,14031,1,8,0:0:0:0:
352,60,14117,1,2,1:2:0:0:
256,0,14290,1,8,0:0:0:0:
160,60,14462,1,10,1:2:0:0:
124,88,14548,1,8,1:2:0:0:
88,116,14635,1,8,1:2:0:0:
52,144,14721,1,8,1:2:0:0:
16,172,14806,6,0,P|2:204|16:236,1,71.9999978027344,6|0,1:2|0:0,0:0:0:0:
112,289,15151,1,0,1:2:0:0:
16,236,15323,1,2,0:0:0:0:
112,289,15496,2,0,P|126:257|112:225,1,71.9999978027344,0|0,1:2|0:0,0:0:0:0:
52,144,15840,1,10,0:0:0:0:
112,225,16013,1,0,0:0:0:0:
107,98,16185,6,0,L|39:154,1,71.9999978027344,0|2,1:0|0:0,0:0:0:0:
200,164,16530,2,0,L|268:108,1,71.9999978027344,0|0,1:0|0:0,0:0:0:0:
348,192,16875,1,2,1:2:0:0:
255,118,17047,1,0,0:0:0:0:
352,68,17220,1,2,1:2:0:0:
348,192,17392,1,8,1:2:0:0:
348,192,17478,1,8,1:2:0:0:
348,192,17565,6,0,B|364:224|364:224|348:256,1,71.9999978027344,2|0,1:2|0:0,0:0:0:0:
224,316,17909,2,0,B|208:284|208:284|224:252,1,71.9999978027344,0|2,1:0|0:0,0:0:0:0:
192,120,18254,1,0,1:0:0:0:
132,232,18427,1,0,0:0:0:0:
192,120,18599,2,0,L|120:108,1,71.9999978027344,10|0,0:0|0:0,0:0:0:0:
132,232,18944,6,0,P|122:266|136:298,1,71.9999978027344,0|2,1:0|0:0,0:0:0:0:
208,360,19289,1,0,1:0:0:0:
304,360,19461,1,8,0:0:0:0:
375,298,19634,2,0,P|389:266|380:232,1,71.9999978027344,2|8,1:2|0:0,0:0:0:0:
304,152,19978,1,2,1:2:0:0:
208,152,20151,1,8,0:0:0:0:
208,152,20237,1,8,0:0:0:0:
208,152,20323,6,0,B|132:180|132:124|52:152,1,160,6|8,1:2|0:0,0:0:0:0:
160,80,20840,1,10,0:0:0:0:
256,224,21013,1,8,0:0:0:0:
208,152,21185,1,8,0:0:0:0:
152,228,21358,5,10,0:0:0:0:
260,76,21531,1,8,0:0:0:0:
208,152,21703,1,8,0:0:0:0:
372,92,21875,5,10,0:0:0:0:
256,224,22047,1,8,0:0:0:0:
260,76,22220,1,8,0:0:0:0:
140,92,22392,5,10,0:0:0:0:
256,224,22565,1,8,0:0:0:0:
209,234,22651,1,8,0:0:0:0:
171,204,22737,1,10,0:0:0:0:
171,156,22823,1,8,0:0:0:0:
209,126,22909,1,8,0:0:0:0:
256,137,22996,1,8,0:0:0:0:
276,180,23082,5,14,1:2:0:0:
348,48,23254,1,0,1:0:0:0:
428,180,23427,1,0,1:0:0:0:
272,92,23599,5,14,1:2:0:0:
352,224,23771,1,0,1:0:0:0:
424,92,23944,1,0,1:0:0:0:
276,180,24116,5,14,1:2:0:0:
240,371,24289,1,0,1:0:0:0:
157,194,24461,1,0,1:0:0:0:
328,289,24633,1,14,1:2:0:0:
134,312,24806,1,0,1:0:0:0:
276,180,24978,1,0,1:0:0:0:
276,180,25065,1,0,1:2:0:0:
276,180,25151,1,10,1:2:0:0:
240,371,25323,1,10,1:2:0:0:
240,371,25840,6,0,P|207:385|175:371,1,71.9999978027344,4|0,1:2|0:0,0:0:0:0:
100,304,26185,2,0,P|86:271|100:239,1,71.9999978027344,2|0,1:2|0:0,0:0:0:0:
152,152,26530,1,0,1:2:0:0:
204,68,26703,2,0,P|260:68|304:104,1,107.999996704102,2|0,0:0|0:0,0:0:0:0:
336,132,27047,6,0,L|384:72,1,71.9999978027344,2|0,0:0|1:2,0:0:0:0:
472,28,27392,1,0,0:0:0:0:
448,128,27565,2,0,L|400:188,1,71.9999978027344,2|0,1:2|0:0,0:0:0:0:
336,260,27909,1,0,1:2:0:0:
268,336,28082,1,0,0:0:0:0:
188,272,28254,1,2,1:2:0:0:
256,196,28427,1,0,0:0:0:0:
336,260,28599,6,0,P|395:293|455:260,1,143.999995605469,0|2,1:2|1:2,0:0:0:0:
508,172,29116,1,0,0:0:0:0:
456,84,29289,2,0,P|396:50|336:84,1,143.999995605469,0|2,1:2|1:2,0:0:0:0:
264,152,29806,2,0,B|196:176|196:128|124:152,1,143.999995605469,2|2,0:0|0:0,0:0:0:0:
123,152,30496,5,10,0:0:0:0:
228,80,30668,1,0,1:2:0:0:
312,176,30840,1,8,0:0:0:0:
207,248,31012,1,2,1:2:0:0:
228,80,31185,1,8,0:0:0:0:
228,80,31272,1,8,0:0:0:0:
228,80,31358,6,0,P|261:66|293:80,1,71.9999978027344,4|0,1:2|0:0,0:0:0:0:
376,175,31703,2,0,P|343:189|311:175,1,71.9999978027344,2|0,1:2|0:0,0:0:0:0:
396,80,32047,1,0,1:2:0:0:
376,175,32220,2,0,L|348:283,1,107.999996704102,2|0,0:0|0:0,0:0:0:0:
336,324,32565,6,0,P|303:338|271:324,1,71.9999978027344,2|0,0:0|1:2,0:0:0:0:
192,248,32909,1,0,0:0:0:0:
112,172,33082,2,0,P|98:139|112:107,1,71.9999978027344,2|0,1:2|0:0,0:0:0:0:
191,62,33427,1,0,1:2:0:0:
295,137,33599,1,0,0:0:0:0:
256,16,33772,1,2,1:2:0:0:
216,137,33944,1,0,0:0:0:0:
320,62,34116,6,0,B|376:62|376:62|404:82|404:82|460:82,1,143.999995605469,0|2,1:2|1:2,0:0:0:0:
512,192,34634,1,0,0:0:0:0:
457,302,34806,2,0,B|404:302|404:302|376:322|376:322|320:322,1,143.999995605469,0|2,1:2|1:2,0:0:0:0:
208,260,35323,2,0,B|261:260|261:260|289:240|289:240|345:240,1,143.999995605469,8|2,0:0|0:0,0:0:0:0:
345,240,36013,5,8,0:0:0:0:
345,240,36099,1,8,0:0:0:0:
345,240,36185,1,0,1:2:0:0:
264,128,36358,1,8,0:0:0:0:
376,48,36530,1,2,1:2:0:0:
457,160,36703,1,8,0:0:0:0:
457,160,36789,1,8,0:0:0:0:
457,160,36875,6,0,L|488:88,1,71.9999978027344,4|0,1:2|0:0,0:0:0:0:
376,48,37220,2,0,L|347:114,1,71.9999978027344,2|0,1:2|0:0,0:0:0:0:
288,196,37565,2,0,P|255:209|223:196,1,71.9999978027344,0|0,1:2|0:0,0:0:0:0:
164,114,37909,2,0,L|136:48,1,71.9999978027344,2|0,1:2|0:0,0:0:0:0:
64,132,38254,6,0,P|31:191|64:251,1,143.999995605469,0|2,1:2|1:2,0:0:0:0:
105,374,38772,1,0,0:0:0:0:
65,252,38944,1,0,1:2:0:0:
169,327,39116,1,0,0:0:0:0:
40,327,39289,1,2,1:2:0:0:
144,252,39461,1,8,0:0:0:0:
144,252,39547,1,8,0:0:0:0:
144,252,39634,6,0,P|203:217|264:250,1,143.999995605469,4|2,1:2|1:2,0:0:0:0:
352,300,40151,1,0,0:0:0:0:
319,204,40323,2,0,L|251:260,1,71.9999978027344,0|0,1:2|0:0,0:0:0:0:
352,300,40668,1,2,1:2:0:0:
319,204,40840,1,8,0:0:0:0:
272,120,41013,5,0,1:2:0:0:
368,120,41185,1,8,0:0:0:0:
368,120,41272,1,8,0:0:0:0:
368,120,41358,2,0,P|381:87|367:55,1,71.9999978027344,2|8,1:2|0:0,0:0:0:0:
272,120,41703,1,0,1:2:0:0:
196,172,41875,1,8,0:0:0:0:
184,80,42047,1,2,1:2:0:0:
204,268,42220,1,8,0:0:0:0:
204,268,42306,1,8,0:0:0:0:
204,268,42392,6,0,B|136:292|136:244|64:268,1,143.999995605469,4|2,1:2|1:2,0:0:0:0:
172,192,42910,1,0,0:0:0:0:
240,360,43082,1,0,1:2:0:0:
312,180,43254,1,8,0:0:0:0:
276,272,43427,1,10,1:2:0:0:
348,88,43599,1,0,1:2:0:0:
348,88,43685,1,0,1:2:0:0:
348,88,43772,6,0,L|424:116,1,71.9999978027344,0|0,1:2|0:0,0:0:0:0:
312,180,44116,2,0,L|244:155,1,71.9999978027344,2|0,1:2|0:0,0:0:0:0:
276,272,44461,2,0,L|343:296,1,71.9999978027344,0|0,1:2|0:0,0:0:0:0:
240,360,44806,1,2,1:2:0:0:
160,240,44978,1,8,0:0:0:0:
160,240,45065,1,8,0:0:0:0:
160,240,45151,6,0,P|99:207|39:241,1,143.999995605469,4|2,1:2|1:2,0:0:0:0:
100,132,45668,1,0,0:0:0:0:
100,292,45840,2,0,P|86:324|99:356,1,71.9999978027344,0|0,1:2|0:0,0:0:0:0:
160,240,46185,2,0,P|173:207|159:175,1,71.9999978027344,2|0,1:2|0:0,0:0:0:0:
256,52,46530,5,0,1:2:0:0:
256,184,46703,1,8,0:0:0:0:
347,96,46875,1,6,1:2:0:0:
360,232,47047,1,8,0:0:0:0:
360,232,47134,1,8,0:0:0:0:
360,232,47220,2,0,P|392:245|424:232,1,71.9999978027344,0|8,1:2|0:0,0:0:0:0:
347,96,47565,5,2,1:2:0:0:
324,85,47651,1,0,1:2:0:0:
301,74,47737,1,8,0:0:0:0:
278,63,47823,1,0,1:2:0:0:
256,52,47909,5,4,1:2:0:0:
140,20,48082,2,0,P|103:4|67:19,1,80,2|8,0:0|0:0,0:0:0:0:
4,124,48427,1,0,0:0:0:0:
68,228,48599,2,0,P|104:243|140:227,1,80,2|0,1:2|1:2,0:0:0:0:
204,124,48944,1,8,0:0:0:0:
264,228,49116,2,0,B|304:228|304:228|340:248|340:248|380:248,1,120,2|0,0:0|0:0,0:0:0:0:
424,248,49461,6,0,P|439:284|424:320,1,80,2|8,0:0|0:0,0:0:0:0:
304,340,49806,1,0,0:0:0:0:
264,228,49978,2,0,P|248:191|264:155,1,80,2|0,1:2|1:2,0:0:0:0:
340,64,50323,1,8,0:0:0:0:
340,64,50496,1,0,0:0:0:0:
172,64,50668,6,0,B|96:92|96:36|16:64,1,160,2|8,1:2|0:0,0:0:0:0:
128,0,51185,1,0,0:0:0:0:
56,128,51358,2,0,P|40:164|55:200,1,80,2|0,1:2|1:2,0:0:0:0:
112,308,51703,1,8,0:0:0:0:
220,260,51875,1,0,0:0:0:0:
168,152,52047,6,0,B|213:119|213:119|257:118|257:118|306:84,1,160,2|8,1:2|0:0,0:0:0:0:
424,52,52565,1,0,0:0:0:0:
352,148,52737,2,0,L|285:195,1,80,2|0,1:2|1:2,0:0:0:0:
188,260,53082,1,8,0:0:0:0:
84,136,53254,1,8,0:0:0:0:
84,136,53340,1,8,0:0:0:0:
84,136,53427,6,0,L|152:84,1,80,4|0,1:2|0:0,0:0:0:0:
261,2,53772,1,8,0:0:0:0:
219,137,53944,1,0,0:0:0:0:
172,2,54116,1,2,1:2:0:0:
289,84,54289,1,0,1:2:0:0:
147,87,54461,1,8,0:0:0:0:
261,2,54634,6,0,P|317:2|368:44,1,120,2|0,0:0|0:0,0:0:0:0:
392,80,54978,2,0,P|407:116|392:152,1,80,2|8,0:0|0:0,0:0:0:0:
344,260,55323,1,0,0:0:0:0:
292,368,55496,2,0,P|255:383|219:367,1,80,2|0,1:2|1:2,0:0:0:0:
168,260,55840,1,8,0:0:0:0:
168,260,56013,1,0,0:0:0:0:
324,160,56185,6,0,P|256:124|188:160,1,160,2|8,1:2|0:0,0:0:0:0:
256,260,56703,1,0,0:0:0:0:
324,160,56875,2,0,P|339:124|324:88,1,80,2|0,1:2|1:2,0:0:0:0:
188,87,57220,2,0,P|173:123|188:160,1,80,8|0,0:0|0:0,0:0:0:0:
256,260,57565,6,0,B|312:260|312:260|348:284|348:284|408:284,1,160,2|8,1:2|0:0,0:0:0:0:
408,284,58082,1,0,0:0:0:0:
284,336,58254,2,0,B|244:336|244:336|208:360,1,80,2|0,1:2|1:2,0:0:0:0:
132,268,58599,1,8,0:0:0:0:
256,140,58772,1,8,0:0:0:0:
256,140,58858,1,8,0:0:0:0:
256,140,58944,6,0,P|271:104|256:68,1,80,4|0,1:2|0:0,0:0:0:0:
131,195,59289,2,0,P|116:231|131:267,1,80,8|0,0:0|0:0,0:0:0:0:
192,360,59634,1,2,1:2:0:0:
256,248,59806,1,0,1:2:0:0:
131,267,59978,1,8,0:0:0:0:
256,320,60151,1,0,0:0:0:0:
256,176,60323,6,0,L|348:168,1,80,2|0,1:2|0:0,0:0:0:0:
335,313,60668,2,0,L|243:321,1,80,8|0,0:0|0:0,0:0:0:0:
380,244,61013,1,2,1:2:0:0:
335,313,61185,1,0,1:2:0:0:
419,177,61358,1,8,0:0:0:0:
476,288,61530,1,0,0:0:0:0:
335,313,61703,6,0,L|419:177,1,160,4|8,1:2|0:0,0:0:0:0:
256,164,62220,1,0,0:0:0:0:
212,28,62392,1,2,1:2:0:0:
327,112,62565,1,0,1:2:0:0:
184,112,62737,1,8,0:0:0:0:
300,28,62909,1,0,0:0:0:0:
184,112,63082,6,0,P|156:168|188:224,1,120,2|0,1:2|0:0,0:0:0:0:
178,216,63427,1,8,0:0:0:0:
256,164,63599,1,0,0:0:0:0:
327,112,63772,1,2,1:2:0:0:
178,216,63944,1,0,1:2:0:0:
256,72,64116,1,8,0:0:0:0:
256,256,64289,1,0,0:0:0:0:
327,112,64461,6,0,P|355:168|323:224,1,120,4|0,1:2|0:0,0:0:0:0:
256,256,64806,1,8,0:0:0:0:
256,164,64978,1,0,0:0:0:0:
256,72,65151,1,2,1:2:0:0:
256,72,65323,1,0,1:2:0:0:
178,216,65496,2,0,B|160:256|160:256|176:292,1,80,8|0,0:0|0:0,0:0:0:0:
376,260,65840,6,0,B|317:280|317:239|255:260,1,120,2|0,1:2|0:0,0:0:0:0:
288,328,66185,1,8,0:0:0:0:
348,192,66358,1,0,0:0:0:0:
288,328,66530,2,0,L|376:360,1,80,2|0,1:2|1:2,0:0:0:0:
348,192,66875,2,0,L|260:160,1,80,8|0,0:0|0:0,0:0:0:0:
188,63,67220,6,0,P|256:28|324:64,1,160,2|12,1:2|0:0,0:0:0:0:
256,144,67737,1,0,1:0:0:0:
256,144,67823,1,0,1:0:0:0:
256,144,67909,1,2,1:2:0:0:
302,286,68082,1,0,1:2:0:0:
182,199,68254,1,8,0:0:0:0:
331,199,68427,1,0,0:0:0:0:
210,286,68599,5,2,1:2:0:0:
152,120,68772,1,0,0:0:0:0:
182,199,68944,1,12,0:0:0:0:
96,268,69116,1,8,0:0:0:0:
96,268,69203,1,8,0:0:0:0:
96,268,69289,1,0,1:2:0:0:
256,144,69461,5,2,1:2:0:0:
124,36,69634,1,8,0:0:0:0:
48,188,69806,1,8,0:0:0:0:
48,188,69892,1,8,0:0:0:0:
48,188,69978,6,0,L|124:324,1,143.999995605469,4|2,1:2|1:2,0:0:0:0:
232,276,70496,1,0,1:0:0:0:
232,276,70668,2,0,L|192:204,1,71.9999978027344,0|0,1:2|1:0,0:0:0:0:
256,112,71013,2,0,L|296:184,1,71.9999978027344,2|0,1:2|0:0,0:0:0:0:
352,272,71358,1,0,1:2:0:0:
408,372,71530,1,0,1:0:0:0:
408,372,71616,1,0,1:0:0:0:
408,372,71703,6,0,P|440:386|472:372,1,71.9999978027344,2|0,1:2|1:0,0:0:0:0:
480,256,72047,1,0,1:2:0:0:
488,140,72220,1,0,1:0:0:0:
372,132,72392,1,2,1:2:0:0:
364,248,72565,1,0,0:0:0:0:
488,140,72737,6,0,P|522:80|488:20,1,143.999995605469,4|2,1:2|1:2,0:0:0:0:
372,20,73254,1,0,1:0:0:0:
372,20,73340,1,0,1:0:0:0:
372,20,73427,1,0,1:2:0:0:
256,20,73599,2,0,B|200:4|200:44|148:20,1,107.999996704102,0|0,1:0|0:0,0:0:0:0:
108,20,73944,6,0,P|94:52|108:84,1,71.9999978027344,2|0,1:2|1:2,0:0:0:0:
192,164,74289,1,0,1:0:0:0:
192,164,74375,1,0,1:0:0:0:
192,164,74461,2,0,P|224:178|256:164,1,71.9999978027344,2|0,1:2|1:0,0:0:0:0:
340,84,74806,1,0,1:2:0:0:
400,184,74978,1,0,1:0:0:0:
504,128,75151,1,2,1:2:0:0:
444,28,75323,1,0,0:0:0:0:
400,184,75496,6,0,B|390:239|390:239|365:263|365:263|355:318,1,143.999995605469,4|2,1:2|1:2,0:0:0:0:
356,316,76013,1,0,0:0:0:0:
316,200,76185,2,0,B|325:144|325:144|350:120|350:120|360:65,1,143.999995605469,0|2,1:2|1:2,0:0:0:0:
359,67,76703,1,0,0:0:0:0:
244,44,76875,6,0,P|211:29|179:43,1,71.9999978027344,0|0,1:2|1:0,0:0:0:0:
144,72,77134,1,0,1:0:0:0:
144,72,77220,2,0,L|176:144,1,71.9999978027344,2|0,1:2|1:0,0:0:0:0:
120,244,77565,2,0,L|88:172,1,71.9999978027344,0|0,1:2|1:0,0:0:0:0:
40,80,77909,1,2,1:2:0:0:
40,80,78082,1,0,0:0:0:0:
179,43,78254,6,0,P|211:29|243:43,1,71.9999978027344,4|0,1:2|1:0,0:0:0:0:
300,144,78599,1,2,1:2:0:0:
356,244,78772,2,0,B|428:220|428:268|496:244,1,143.999995605469,0|0,1:0|0:0,0:0:0:0:
388,312,79289,1,2,1:2:0:0:
460,176,79461,1,0,1:0:0:0:
388,312,79634,6,0,B|320:336|320:288|248:312,1,143.999995605469,0|2,1:2|1:2,0:0:0:0:
156,244,80151,1,0,1:2:0:0:
247,312,80323,1,0,1:2:0:0:
156,244,80496,2,0,P|142:211|156:179,1,71.9999978027344,2|10,0:0|1:2,0:0:0:0:
188,148,80754,1,8,0:0:0:0:
188,148,80840,1,8,0:0:0:0:
324,100,81013,6,0,L|448:116,1,120,4|0,1:2|0:0,0:0:0:0:
443,115,81358,1,8,0:0:0:0:
384,192,81530,1,0,0:0:0:0:
476,36,81703,2,0,L|397:25,1,80,2|0,1:2|0:0,0:0:0:0:
304,181,82047,2,0,L|382:191,1,80,8|0,0:0|1:0,0:0:0:0:
412,260,82306,1,0,1:0:0:0:
412,260,82392,6,0,B|429:296|429:296|412:332,1,80,2|0,1:2|0:0,0:0:0:0:
337,272,82737,1,8,0:0:0:0:
214,214,82909,1,0,0:0:0:0:
304,181,83082,1,2,1:2:0:0:
256,308,83254,1,0,0:0:0:0:
214,214,83427,1,8,0:0:0:0:
56,292,83599,1,0,1:0:0:0:
56,292,83685,1,0,1:0:0:0:
56,292,83772,6,0,P|108:260|184:284,1,120,2|0,1:2|0:0,0:0:0:0:
214,214,84116,2,0,L|228:124,1,80,8|0,0:0|0:0,0:0:0:0:
304,192,84461,1,2,1:2:0:0:
140,100,84634,1,0,0:0:0:0:
304,192,84806,2,0,L|316:112,1,80,8|0,0:0|1:0,0:0:0:0:
384,120,85065,1,0,1:0:0:0:
384,120,85151,6,0,P|420:105|456:120,1,80,2|0,1:2|0:0,0:0:0:0:
456,263,85496,2,0,P|420:279|384:264,1,80,8|0,0:0|0:0,0:0:0:0:
256,200,85840,1,2,1:2:0:0:
384,120,86013,1,0,0:0:0:0:
383,263,86185,1,8,0:0:0:0:
228,120,86358,1,8,0:0:0:0:
228,120,86444,1,8,0:0:0:0:
228,120,86530,6,0,B|304:148|304:92|384:120,1,160,4|8,1:2|0:0,0:0:0:0:
256,40,87047,1,0,0:0:0:0:
192,212,87220,1,2,1:2:0:0:
228,120,87392,1,0,0:0:0:0:
256,40,87565,2,0,P|219:24|183:40,1,80,8|0,0:0|1:0,0:0:0:0:
228,120,87823,1,0,1:0:0:0:
228,120,87909,6,0,P|264:135|300:119,1,80,2|0,1:2|0:0,0:0:0:0:
392,40,88254,1,8,0:0:0:0:
256,40,88427,1,0,0:0:0:0:
384,132,88599,2,0,L|464:108,1,80,2|0,1:2|0:0,0:0:0:0:
392,40,88944,1,8,0:0:0:0:
376,220,89116,1,8,0:0:0:0:
376,220,89203,1,8,0:0:0:0:
376,220,89289,6,0,L|356:380,1,160,4|8,1:2|0:0,0:0:0:0:
256,280,89806,1,0,0:0:0:0:
256,280,89978,2,0,L|276:120,1,160,2|8,1:2|0:0,0:0:0:0:
400,20,90496,1,8,0:0:0:0:
400,20,90582,1,8,0:0:0:0:
400,20,90668,6,0,B|324:48|324:-8|244:20,1,160,4|8,1:2|0:0,0:0:0:0:
128,88,91185,1,0,0:0:0:0:
16,160,91358,1,2,1:2:0:0:
88,272,91530,1,0,0:0:0:0:
200,200,91703,1,8,0:0:0:0:
128,88,91875,1,8,0:0:0:0:
128,88,91961,1,8,0:0:0:0:
128,88,92047,6,0,B|160:52|200:52|200:52|240:52,1,120,4|0,1:2|0:0,0:0:0:0:
284,52,92392,1,8,0:0:0:0:
284,52,92565,1,8,0:0:0:0:
416,136,92737,5,8,0:0:0:0:
416,248,92909,1,8,0:0:0:0:
344,124,93082,5,8,0:0:0:0:
344,260,93254,1,8,0:0:0:0:
272,112,93427,5,8,0:0:0:0:
272,272,93599,1,8,0:0:0:0:
200,100,93772,5,8,0:0:0:0:
200,284,93944,1,8,0:0:0:0:
128,88,94116,5,8,0:0:0:0:
128,296,94289,1,8,0:0:0:0:
32,260,94461,5,8,0:0:0:0:
5,230,94547,1,8,0:0:0:0:
0,192,94633,1,8,0:0:0:0:
5,154,94719,1,8,0:0:0:0:
32,124,94805,1,8,0:0:0:0:
164,192,94978,5,10,1:2:0:0:
232,60,95151,1,10,1:2:0:0:
368,120,95323,1,0,1:0:0:0:
368,120,95409,1,0,1:0:0:0:
368,120,95496,1,0,1:0:0:0:
300,252,95669,1,10,1:2:0:0:
300,252,95840,1,0,1:0:0:0:
232,60,96013,1,10,1:2:0:0:
232,60,96358,6,0,P|179:28|128:60,1,128,2|0,0:0|0:0,0:0:0:0:
180,184,96875,2,0,L|180:120,1,64,2|0,0:0|0:0,0:0:0:0:
304,24,97220,1,8,3:0:0:0:
304,24,97392,1,0,0:0:0:0:
428,120,97565,6,0,P|466:196|428:272,1,176.000005371094,6|8,1:2|0:0,0:0:0:0:
328,192,98082,1,0,0:0:0:0:
428,120,98254,2,0,P|468:105|508:120,1,88.000002685547,2|0,1:2|0:0,0:0:0:0:
508,271,98599,2,0,P|467:286|427:271,1,88.000002685547,8|0,0:0|0:0,0:0:0:0:
296,128,98944,1,2,1:2:0:0:
232,256,99116,5,0,0:0:0:0:
296,128,99289,2,0,L|212:101,1,88.000002685547,8|0,0:0|0:0,0:0:0:0:
232,256,99634,2,0,L|315:282,1,88.000002685547,2|0,1:2|0:0,0:0:0:0:
400,192,99978,1,8,0:0:0:0:
256,344,100151,1,8,0:0:0:0:
256,344,100237,1,8,0:0:0:0:
256,344,100323,6,0,P|184:348|144:300,1,132.00000402832,6|0,1:2|0:0,0:0:0:0:
104,248,100668,2,0,B|64:230|64:230|24:248,1,88.000002685547,8|0,0:0|0:0,0:0:0:0:
24,136,101013,2,0,B|64:154|64:154|104:136,1,88.000002685547,2|0,1:2|0:0,0:0:0:0:
208,192,101358,1,8,0:0:0:0:
104,248,101530,1,0,0:0:0:0:
296,136,101703,5,2,1:2:0:0:
200,102,101875,1,0,0:0:0:0:
104,62,102047,2,0,L|178:15,1,88.000002685547,8|0,0:0|0:0,0:0:0:0:
372,90,102392,2,0,L|297:136,1,88.000002685547,2|0,1:2|0:0,0:0:0:0:
440,134,102737,1,8,0:0:0:0:
287,58,102909,1,8,0:0:0:0:
287,58,102996,1,8,0:0:0:0:
287,58,103082,6,0,P|324:22|404:18,1,132.00000402832,6|0,1:2|0:0,0:0:0:0:
372,90,103427,1,8,0:0:0:0:
512,186,103599,1,0,0:0:0:0:
492,63,103772,2,0,L|432:143,1,88.000002685547,2|0,1:2|0:0,0:0:0:0:
312,300,104116,2,0,L|372:220,1,88.000002685547,8|8,0:0|0:0,0:0:0:0:
440,192,104375,1,8,0:0:0:0:
440,192,104461,6,0,P|480:216|500:304,1,132.00000402832,6|0,1:2|0:0,0:0:0:0:
424,288,104806,2,0,L|372:360,1,88.000002685547,8|0,0:0|0:0,0:0:0:0:
256,248,105151,1,2,1:2:0:0:
372,359,105323,1,0,0:0:0:0:
196,192,105496,2,0,P|181:152|196:112,1,88.000002685547,8|8,0:0|0:0,0:0:0:0:
256,56,105754,1,8,0:0:0:0:
256,56,105840,6,0,L|128:4,1,132.00000402832,6|0,1:2|0:0,0:0:0:0:
48,48,106185,2,0,L|136:88,1,88.000002685547,8|0,0:0|0:0,0:0:0:0:
256,144,106530,2,0,P|271:184|256:224,1,88.000002685547,2|0,1:2|0:0,0:0:0:0:
144,256,106875,2,0,L|63:292,1,88.000002685547,8|8,0:0|0:0,0:0:0:0:
100,352,107134,2,0,L|145:333,1,44.0000013427735,8|6,0:0|1:2,0:0:0:0:
412,352,107392,2,0,L|371:334,1,44.0000013427735,8|8,0:0|0:0,0:0:0:0:
304,300,107565,1,8,0:0:0:0:
256,176,107737,5,8,0:0:0:0:
216,210,107823,1,8,0:0:0:0:
163,218,107909,1,10,1:2:0:0:
115,196,107996,1,8,0:0:0:0:
87,151,108082,1,8,0:0:0:0:
87,98,108168,1,8,0:0:0:0:
115,54,108254,1,8,0:0:0:0:
163,32,108340,1,8,0:0:0:0:
216,40,108427,1,8,0:0:0:0:
256,74,108513,1,8,0:0:0:0:
270,125,108599,6,0,B|354:93|354:157|442:125,1,176.000005371094,6|8,1:2|0:0,0:0:0:0:
312,192,109116,1,0,0:0:0:0:
441,125,109289,2,0,P|456:85|441:45,1,88.000002685547,2|0,1:2|0:0,0:0:0:0:
320,0,109634,1,8,0:0:0:0:
192,0,109806,2,0,L|124:112,1,132.00000402832,2|0,0:0|0:0,0:0:0:0:
100,152,110151,5,2,0:0:0:0:
47,314,110323,1,8,0:0:0:0:
185,214,110496,1,0,0:0:0:0:
14,214,110668,1,2,1:2:0:0:
152,314,110840,1,0,0:0:0:0:
100,152,111013,1,8,0:0:0:0:
164,344,111185,1,8,0:0:0:0:
164,344,111272,1,8,0:0:0:0:
164,344,111358,6,0,B|248:312|248:376|336:344,1,176.000005371094,6|8,1:2|0:0,0:0:0:0:
416,232,111875,1,0,0:0:0:0:
416,232,112047,2,0,P|431:192|416:152,1,88.000002685547,2|0,1:2|0:0,0:0:0:0:
332,40,112392,2,0,B|256:-4|256:-4|180:40,1,176.000005371094,8|2,0:0|1:2,0:0:0:0:
179,40,112909,1,0,0:0:0:0:
296,140,113082,6,0,B|256:122|256:122|216:140,1,88.000002685547,8|0,0:0|0:0,0:0:0:0:
336,288,113427,1,2,1:2:0:0:
215,140,113599,1,0,0:0:0:0:
176,288,113772,1,8,0:0:0:0:
296,140,113944,1,8,0:0:0:0:
296,140,114030,1,8,0:0:0:0:
296,140,114116,6,0,P|352:140|404:84,1,132.00000402832,6|0,1:2|0:0,0:0:0:0:
420,48,114461,2,0,L|504:80,1,88.000002685547,8|0,0:0|0:0,0:0:0:0:
417,191,114806,2,0,L|294:139,1,132.00000402832,2|0,1:2|0:0,0:0:0:0:
252,120,115151,1,8,0:0:0:0:
128,56,115323,1,8,0:0:0:0:
128,56,115409,1,8,0:0:0:0:
128,56,115496,5,6,1:2:0:0:
56,176,115668,1,0,0:0:0:0:
180,240,115840,1,8,0:0:0:0:
252,120,116013,1,0,0:0:0:0:
128,56,116185,2,0,B|160:16|200:16|200:16|248:16,1,132.00000402832,2|0,1:2|0:0,0:0:0:0:
292,16,116530,1,8,0:0:0:0:
444,100,116703,1,8,0:0:0:0:
444,100,116789,1,8,0:0:0:0:
444,100,116875,6,0,P|467:160|444:220,1,132.00000402832,6|0,1:2|0:0,0:0:0:0:
416,260,117220,1,8,0:0:0:0:
256,319,117392,1,0,0:0:0:0:
351,177,117565,1,2,1:2:0:0:
357,348,117737,1,0,0:0:0:0:
252,213,117909,1,8,0:0:0:0:
416,260,118082,1,8,0:0:0:0:
416,260,118168,1,8,0:0:0:0:
416,260,118254,5,6,1:2:0:0:
502,118,118426,1,8,0:0:0:0:
456,102,118512,1,8,0:0:0:0:
408,107,118598,1,8,0:0:0:0:
366,131,118684,1,8,0:0:0:0:
333,166,118772,1,8,0:0:0:0:
297,198,118858,1,8,0:0:0:0:
252,213,118944,1,8,0:0:0:0:
204,208,119030,1,8,0:0:0:0:
162,185,119116,1,8,0:0:0:0:
125,154,119203,1,8,0:0:0:0:
109,109,119289,1,8,0:0:0:0:
123,63,119375,1,8,0:0:0:0:
162,35,119461,1,8,0:0:0:0:
209,36,119547,1,8,0:0:0:0:
247,65,119634,6,0,B|287:50|287:50|331:55|331:55|377:39,1,132.00000402832,6|0,1:2|0:0,0:0:0:0:
444,28,119978,2,0,B|462:68|462:68|444:108,1,88.000002685547,8|0,0:0|0:0,0:0:0:0:
340,220,120323,1,2,1:2:0:0:
443,108,120496,1,0,0:0:0:0:
340,220,120668,2,0,B|322:180|322:180|340:140,1,88.000002685547,8|0,0:0|0:0,0:0:0:0:
436,312,121013,6,0,L|296:360,1,132.00000402832,2|0,1:2|0:0,0:0:0:0:
216,308,121358,2,0,L|312:276,1,88.000002685547,8|0,0:0|0:0,0:0:0:0:
132,244,121703,1,2,1:2:0:0:
216,308,121875,1,0,0:0:0:0:
60,192,122047,1,8,0:0:0:0:
171,118,122220,1,8,0:0:0:0:
171,118,122306,1,8,0:0:0:0:
171,118,122392,6,0,L|127:258,1,132.00000402832,6|0,1:2|0:0,0:0:0:0:
232,188,122737,2,0,L|260:100,1,88.000002685547,8|0,0:0|0:0,0:0:0:0:
86,108,123082,2,0,L|59:191,1,88.000002685547,2|0,1:2|0:0,0:0:0:0:
12,312,123427,1,8,0:0:0:0:
59,191,123599,1,0,0:0:0:0:
180,296,123772,6,0,P|255:333|331:295,1,176.000005371094,2|8,1:2|0:0,0:0:0:0:
256,184,124289,1,2,0:0:0:0:
180,296,124461,1,2,1:2:0:0:
331,295,124634,1,0,0:0:0:0:
176,188,124806,1,8,0:0:0:0:
336,188,124978,1,0,1:0:0:0:
336,188,125065,1,0,1:0:0:0:
336,188,125151,6,0,L|464:132,1,132.00000402832,6|0,1:2|0:0,0:0:0:0:
488,200,125496,2,0,B|506:240|506:240|488:280,1,88.000002685547,8|0,0:0|0:0,0:0:0:0:
336,188,125840,2,0,B|318:148|318:148|336:108,1,88.000002685547,2|0,1:2|0:0,0:0:0:0:
412,12,126185,1,8,0:0:0:0:
336,107,126358,1,0,0:0:0:0:
156,56,126530,6,0,P|212:36|288:72,1,132.00000402832,6|0,1:2|0:0,0:0:0:0:
260,152,126875,2,0,L|340:104,1,88.000002685547,8|0,0:0|0:0,0:0:0:0:
205,322,127220,1,2,1:2:0:0:
150,152,127392,1,0,0:0:0:0:
293,257,127565,1,8,0:0:0:0:
116,257,127737,1,0,0:0:0:0:
260,152,127909,6,0,L|412:60,1,176.000005371094,6|8,1:2|0:0,0:0:0:0:
293,257,128427,1,0,1:0:0:0:
150,152,128599,1,10,1:2:0:0:
416,160,128772,5,8,0:0:0:0:
273,55,128944,1,8,0:0:0:0:
293,257,129116,1,8,0:0:0:0:
150,152,129289,5,14,1:2:0:0:
148,284,129461,1,8,0:0:0:0:
152,44,129634,1,8,0:0:0:0:
320,168,129806,5,8,0:0:0:0:
148,284,129978,1,10,1:2:0:0:
452,244,130151,5,8,0:0:0:0:
280,360,130323,1,8,0:0:0:0:
180,192,130496,1,8,0:0:0:0:
180,192,130582,1,8,0:0:0:0:
180,192,130668,6,0,L|168:96,1,88.000002685547,6|0,1:2|1:2,0:0:0:0:
64,192,131013,1,0,1:2:0:0:
280,196,131185,2,0,L|268:100,1,88.000002685547,12|0,0:0|1:2,0:0:0:0:
64,192,131530,1,0,1:2:0:0:
380,200,131703,2,0,L|368:104,1,88.000002685547,12|0,0:0|1:2,0:0:0:0:
280,196,132047,5,0,1:2:0:0:
280,11,132220,1,12,0:0:0:0:
440,103,132392,1,0,1:2:0:0:
120,104,132565,5,0,1:2:0:0:
280,196,132737,1,12,0:0:0:0:
120,264,132909,1,0,1:2:0:0:
120,264,132996,1,0,1:0:0:0:
120,264,133082,1,0,1:2:0:0:
256,88,133254,1,12,0:0:0:0:
256,192,133427,12,0,136099,0:0:0:0:
256,192,136185,5,8,0:0:0:0:
344,76,136358,2,0,P|376:62|408:76,1,71.9999978027344,8|2,0:0|0:0,0:0:0:0:
484,144,136703,1,0,0:0:0:0:
408,212,136875,1,0,0:0:0:0:
484,280,137047,2,0,L|396:348,1,107.999996704102,2|0,0:0|0:0,0:0:0:0:
360,368,137392,6,0,P|327:382|295:368,1,71.9999978027344,2|0,0:0|0:0,0:0:0:0:
256,276,137737,1,0,0:0:0:0:
216,368,137909,2,0,P|184:382|152:368,1,71.9999978027344,2|0,0:0|0:0,0:0:0:0:
191,275,138254,2,0,P|223:261|255:275,1,71.9999978027344,0|0,0:0|0:0,0:0:0:0:
332,344,138599,1,2,0:0:0:0:
332,344,138772,1,0,0:0:0:0:
440,248,138944,5,8,0:0:0:0:
332,152,139116,2,0,P|276:152|240:116,1,107.999996704102,8|0,0:0|0:0,0:0:0:0:
216,80,139461,1,0,0:0:0:0:
316,48,139634,1,2,0:0:0:0:
332,152,139806,2,0,L|356:300,1,143.999995605469,0|8,0:0|0:0,0:0:0:0:
360,336,140237,1,8,0:0:0:0:
360,336,140323,6,0,B|256:300|256:384|152:336,1,215.999993408203,12|0,0:0|0:0,0:0:0:0:
76,268,141013,2,0,P|62:235|76:203,1,71.9999978027344,2|0,0:0|1:0,0:0:0:0:
148,132,141358,1,8,0:0:0:0:
256,28,141530,1,8,0:0:0:0:
256,28,141616,1,8,0:0:0:0:
256,28,141703,6,0,P|292:13|328:28,1,80,4|0,1:2|0:0,0:0:0:0:
380,144,142047,1,8,0:0:0:0:
424,279,142220,1,0,0:0:0:0:
308,195,142392,1,2,1:2:0:0:
451,195,142565,1,0,1:2:0:0:
336,279,142737,1,8,0:0:0:0:
380,144,142909,6,0,P|415:76|380:8,1,160,2|0,0:0|0:0,0:0:0:0:
256,76,143427,1,8,0:0:0:0:
380,144,143599,1,0,0:0:0:0:
380,8,143772,2,0,P|416:-7|452:8,1,80,2|0,1:2|1:2,0:0:0:0:
452,143,144116,2,0,P|415:158|379:143,1,80,8|0,0:0|0:0,0:0:0:0:
256,76,144461,6,0,B|180:104|180:48|100:76,1,160,2|8,1:2|0:0,0:0:0:0:
216,8,144978,1,0,0:0:0:0:
140,144,145151,2,0,P|124:180|139:216,1,80,2|0,1:2|1:2,0:0:0:0:
192,332,145496,1,8,0:0:0:0:
192,332,145668,1,0,0:0:0:0:
320,332,145840,6,0,P|376:332|428:288,1,120,2|0,1:2|0:0,0:0:0:0:
448,256,146185,2,0,L|508:316,1,80,8|0,0:0|0:0,0:0:0:0:
384,200,146530,1,2,1:2:0:0:
292,116,146703,2,0,P|255:100|219:115,1,80,0|8,1:2|0:0,0:0:0:0:
168,272,147047,1,8,0:0:0:0:
168,272,147134,1,8,0:0:0:0:
168,272,147220,6,0,L|208:156,1,120,4|0,1:2|0:0,0:0:0:0:
219,114,147565,2,0,P|256:100|292:116,1,80,8|0,0:0|0:0,0:0:0:0:
388,196,147909,1,2,1:2:0:0:
412,72,148082,1,0,1:2:0:0:
291,115,148254,2,0,L|304:24,1,80,8|0,0:0|0:0,0:0:0:0:
388,196,148599,6,0,L|370:321,1,120,2|0,1:2|0:0,0:0:0:0:
440,343,148944,2,0,L|452:264,1,80,8|0,0:0|0:0,0:0:0:0:
300,196,149289,1,2,1:2:0:0:
484,196,149461,1,0,1:2:0:0:
388,196,149634,1,8,0:0:0:0:
212,196,149806,1,8,0:0:0:0:
212,196,149892,1,8,0:0:0:0:
212,196,149978,6,0,P|168:196|108:264,1,120,4|0,1:2|0:0,0:0:0:0:
188,268,150323,1,8,0:0:0:0:
72,160,150496,1,0,0:0:0:0:
32,312,150668,1,2,1:2:0:0:
188,268,150840,1,0,1:2:0:0:
32,312,151013,2,0,P|17:276|32:240,1,80,8|0,0:0|0:0,0:0:0:0:
188,268,151358,6,0,B|256:288|256:244|304:256,1,120,2|0,1:2|0:0,0:0:0:0:
284,332,151703,1,8,0:0:0:0:
208,200,151875,1,0,0:0:0:0:
336,132,152047,1,2,1:2:0:0:
412,264,152219,1,0,1:2:0:0:
208,200,152392,1,8,0:0:0:0:
183,168,152478,1,8,0:0:0:0:
158,137,152564,1,8,0:0:0:0:
133,105,152650,1,8,0:0:0:0:
108,74,152737,6,0,P|64:72|8:127,1,120,4|0,1:2|0:0,0:0:0:0:
80,152,153082,2,0,L|136:220,1,80,8|0,0:0|0:0,0:0:0:0:
212,312,153427,1,2,1:2:0:0:
130,213,153599,1,0,1:2:0:0:
104,340,153772,2,0,L|53:278,1,80,8|0,0:0|0:0,0:0:0:0:
224,228,154116,6,0,P|272:216|336:248,1,120,2|0,1:2|0:0,0:0:0:0:
380,300,154461,1,8,0:0:0:0:
440,192,154634,1,0,0:0:0:0:
380,300,154806,1,2,1:2:0:0:
500,280,154978,1,0,1:2:0:0:
356,188,155151,1,8,0:0:0:0:
500,104,155323,1,0,0:0:0:0:
356,188,155496,6,0,L|340:56,1,120,2|0,1:2|0:0,0:0:0:0:
272,56,155840,2,0,L|280:144,1,80,12|0,0:0|0:0,0:0:0:0:
356,188,156185,1,2,1:2:0:0:
192,80,156358,1,0,1:2:0:0:
279,135,156530,2,0,L|272:56,1,80,8|0,0:0|0:0,0:0:0:0:
156,180,156875,6,0,B|108:168|108:212|40:192,1,120,2|0,1:2|0:0,0:0:0:0:
72,124,157220,1,12,0:0:0:0:
144,252,157392,1,8,0:0:0:0:
184,92,157565,1,0,1:2:0:0:
256,220,157737,1,2,1:2:0:0:
72,124,157909,1,8,0:0:0:0:
256,52,158082,1,8,0:0:0:0:
256,52,158168,1,8,0:0:0:0:
256,52,158254,6,0,B|328:28|328:76|396:52,1,143.999995605469,4|2,1:2|1:2,0:0:0:0:
488,124,158772,1,0,0:0:0:0:
396,192,158944,2,0,P|410:224|396:256,1,71.9999978027344,0|0,1:2|0:0,0:0:0:0:
320,344,159289,2,0,P|288:358|256:344,1,71.9999978027344,2|8,1:2|0:0,0:0:0:0:
180,256,159634,5,0,1:2:0:0:
72,292,159806,1,8,0:0:0:0:
36,184,159978,1,2,1:2:0:0:
144,148,160150,1,0,0:0:0:0:
180,256,160323,1,0,1:2:0:0:
144,148,160496,2,0,L|252:100,1,107.999996704102,2|0,0:0|0:0,0:0:0:0:
280,88,160840,1,2,1:2:0:0:
432,132,161013,6,0,P|466:192|432:252,1,143.999995605469,4|2,1:2|1:2,0:0:0:0:
332,192,161530,1,0,0:0:0:0:
432,251,161703,2,0,L|500:288,1,71.9999978027344,8|0,1:2|0:0,0:0:0:0:
495,98,162047,2,0,L|432:133,1,71.9999978027344,2|8,1:2|0:0,0:0:0:0:
396,152,162306,1,8,0:0:0:0:
396,152,162392,6,0,P|364:166|332:152,1,71.9999978027344,0|8,1:2|0:0,0:0:0:0:
224,56,162737,1,2,1:2:0:0:
224,56,162909,2,0,P|256:41|288:55,1,71.9999978027344,0|8,0:0|1:2,0:0:0:0:
180,151,163254,2,0,P|148:165|116:152,1,71.9999978027344,0|2,0:0|1:2,0:0:0:0:
138,289,163599,1,0,1:0:0:0:
138,289,163685,1,0,1:0:0:0:
138,289,163772,6,0,L|182:145,1,143.999995605469,4|2,1:2|1:2,0:0:0:0:
256,64,164289,1,0,0:0:0:0:
331,151,164461,2,0,L|374:289,1,143.999995605469,8|2,1:2|1:2,0:0:0:0:
374,289,164978,1,8,0:0:0:0:
440,196,165151,6,0,L|417:126,1,71.9999978027344,0|8,1:2|0:0,0:0:0:0:
376,20,165496,1,2,1:2:0:0:
314,117,165668,1,0,0:0:0:0:
198,117,165840,1,8,1:2:0:0:
136,20,166013,2,0,P|64:20|20:76,1,143.999995605469,2|0,0:0|1:0,0:0:0:0:
36,116,166444,1,0,1:0:0:0:
36,116,166530,6,0,B|64:144|64:144|67:169|67:169|98:200,1,107.999996704102,4|0,1:2|0:0,0:0:0:0:
132,232,166875,2,0,P|118:264|132:296,1,71.9999978027344,2|0,1:2|0:0,0:0:0:0:
224,364,167220,1,8,1:2:0:0:
316,296,167392,2,0,P|330:263|316:231,1,71.9999978027344,0|2,0:0|1:2,0:0:0:0:
224,160,167737,1,8,0:0:0:0:
316,231,167909,5,0,1:2:0:0:
224,160,168082,2,0,L|352:96,1,143.999995605469,8|8,0:0|0:0,0:0:0:0:
380,198,168599,2,0,L|307:234,1,71.9999978027344,0|8,1:2|0:0,0:0:0:0:
224,160,168944,1,10,1:2:0:0:
304,348,169116,1,8,0:0:0:0:
304,348,169203,1,8,0:0:0:0:
304,348,169289,6,0,L|452:276,1,160,4|8,1:2|0:0,0:0:0:0:
504,180,169806,1,0,0:0:0:0:
424,104,169978,2,0,B|388:87|388:87|352:104,1,80,2|0,1:2|0:0,0:0:0:0:
220,176,170323,2,0,B|256:193|256:193|292:176,1,80,8|0,0:0|1:0,0:0:0:0:
364,224,170582,1,0,1:0:0:0:
364,224,170668,6,0,L|288:260,1,80,2|0,1:2|0:0,0:0:0:0:
148,224,171013,2,0,L|220:258,1,80,8|0,0:0|0:0,0:0:0:0:
120,312,171358,1,2,1:2:0:0:
172,136,171530,1,0,0:0:0:0:
148,224,171703,1,8,0:0:0:0:
192,56,171875,1,0,1:0:0:0:
192,56,171961,1,0,1:0:0:0:
192,56,172047,6,0,B|116:84|116:28|36:56,1,160,2|8,1:2|0:0,0:0:0:0:
256,128,172565,1,0,0:0:0:0:
192,56,172737,1,2,1:2:0:0:
280,32,172909,1,0,0:0:0:0:
368,12,173082,1,8,0:0:0:0:
344,144,173254,1,0,1:0:0:0:
344,144,173340,1,0,1:0:0:0:
344,144,173427,6,0,L|440:136,1,80,2|0,1:2|0:0,0:0:0:0:
376,240,173772,2,0,L|280:248,1,80,8|0,0:0|0:0,0:0:0:0:
256,348,174116,2,0,L|335:341,1,80,2|0,1:2|0:0,0:0:0:0:
184,268,174461,1,8,0:0:0:0:
184,268,174547,1,8,0:0:0:0:
184,268,174634,1,0,1:2:0:0:
415,336,174806,6,0,L|246:348,1,160,4|8,1:2|0:0,0:0:0:0:
128,352,175323,1,0,0:0:0:0:
255,347,175496,2,0,P|270:310|255:274,1,80,2|0,1:2|0:0,0:0:0:0:
116,176,175840,2,0,P|100:212|116:248,1,80,8|0,0:0|1:0,0:0:0:0:
196,164,176099,1,0,1:0:0:0:
196,164,176185,6,0,L|32:140,1,160,2|8,1:2|0:0,0:0:0:0:
196,164,176703,1,0,0:0:0:0:
253,28,176875,1,2,1:2:0:0:
292,125,177047,1,0,0:0:0:0:
157,67,177220,1,8,0:0:0:0:
332,28,177392,1,8,0:0:0:0:
332,28,177478,1,8,0:0:0:0:
332,28,177565,6,0,P|400:-8|468:28,1,160,4|8,1:2|0:0,0:0:0:0:
380,132,178082,1,0,0:0:0:0:
467,27,178254,2,0,L|512:100,1,80,2|0,1:2|0:0,0:0:0:0:
421,200,178599,2,0,L|376:127,1,80,8|8,0:0|0:0,0:0:0:0:
324,192,178858,1,8,0:0:0:0:
324,192,178944,6,0,B|248:220|248:164|168:192,1,160,4|8,1:2|0:0,0:0:0:0:
284,124,179461,1,0,0:0:0:0:
200,256,179634,2,0,P|163:271|127:255,1,80,2|0,1:2|0:0,0:0:0:0:
56,152,179978,1,8,0:0:0:0:
4,312,180151,1,8,0:0:0:0:
4,312,180237,1,8,0:0:0:0:
4,312,180323,2,0,L|88:344,1,80,4|0,1:2|0:0,0:0:0:0:
56,152,180668,5,8,0:0:0:0:
144,28,180840,1,8,0:0:0:0:
168,168,181013,5,8,0:0:0:0:
256,44,181185,1,8,0:0:0:0:
296,188,181358,5,8,0:0:0:0:
384,64,181530,1,8,0:0:0:0:
56,152,181703,5,8,0:0:0:0:
296,188,181875,1,8,0:0:0:0:
168,168,182047,5,8,0:0:0:0:
428,212,182220,1,8,0:0:0:0:
208,312,182392,5,8,0:0:0:0:
296,188,182564,1,8,0:0:0:0:
80,292,182737,5,8,0:0:0:0:
168,168,182909,1,8,0:0:0:0:
168,168,183427,5,8,0:0:0:0:
208,312,183599,1,2,1:2:0:0:
208,312,183685,1,0,1:0:0:0:
208,312,183772,6,0,B|288:284|288:340|364:312,1,160,4|8,1:2|0:0,0:0:0:0:
244,380,184290,1,0,0:0:0:0:
328,240,184462,2,0,P|343:203|328:167,1,80,2|0,1:2|0:0,0:0:0:0:
183,167,184807,2,0,P|168:203|184:240,1,80,8|0,0:0|0:0,0:0:0:0:
308,80,185152,6,0,P|255:54|203:79,1,120,2|0,1:2|0:0,0:0:0:0:
203,79,185497,1,8,0:0:0:0:
328,167,185669,1,0,1:0:0:0:
328,167,185755,1,0,1:0:0:0:
328,167,185841,1,2,1:2:0:0:
256,264,186014,1,0,0:0:0:0:
184,167,186186,1,8,0:0:0:0:
344,256,186359,1,8,0:0:0:0:
344,256,186445,1,8,0:0:0:0:
344,256,186531,6,0,P|400:256|440:208,1,120,6|0,1:2|0:0,0:0:0:0:
439,210,186876,2,0,L|499:266,1,80,8|0,0:0|0:0,0:0:0:0:
464,120,187221,2,0,L|372:36,1,120,2|0,1:2|0:0,0:0:0:0:
340,12,187566,1,8,0:0:0:0:
172,12,187738,1,0,1:0:0:0:
172,12,187824,1,0,1:0:0:0:
172,12,187910,6,0,L|83:92,1,120,2|0,1:2|0:0,0:0:0:0:
48,120,188255,2,0,P|32:156|47:192,1,80,8|0,0:0|0:0,0:0:0:0:
160,288,188600,2,0,P|175:251|160:215,1,80,2|0,1:2|0:0,0:0:0:0:
48,120,188945,1,8,0:0:0:0:
160,24,189117,1,8,0:0:0:0:
160,24,189204,1,8,0:0:0:0:
160,24,189290,6,0,B|220:0|220:44|276:24,1,120,6|0,1:2|0:0,0:0:0:0:
324,24,189635,1,8,0:0:0:0:
448,104,189807,1,0,1:0:0:0:
448,104,189893,1,0,1:0:0:0:
448,104,189979,2,0,P|463:140|447:176,1,80,2|0,1:2|0:0,0:0:0:0:
324,256,190324,1,8,0:0:0:0:
200,176,190497,1,8,0:0:0:0:
200,176,190583,1,8,0:0:0:0:
200,176,190669,6,0,P|175:123|200:71,1,120,6|0,1:2|0:0,0:0:0:0:
236,44,191014,1,8,0:0:0:0:
236,44,191186,1,0,0:0:0:0:
368,123,191359,2,0,P|332:139|296:124,1,80,6|0,1:2|0:0,0:0:0:0:
428,44,191704,1,8,0:0:0:0:
404,216,191876,1,8,0:0:0:0:
404,216,191962,1,8,0:0:0:0:
404,216,192048,6,0,L|296:272,1,120,6|0,1:2|0:0,0:0:0:0:
256,292,192393,1,8,0:0:0:0:
256,292,192566,1,0,0:0:0:0:
400,312,192738,2,0,L|477:270,1,80,2|0,1:2|0:0,0:0:0:0:
470,110,193083,1,8,0:0:0:0:
340,12,193255,1,8,0:0:0:0:
340,12,193341,1,8,0:0:0:0:
340,12,193428,5,2,1:2:0:0:
256,152,193600,1,8,0:0:0:0:
256,152,193686,1,8,0:0:0:0:
256,152,193773,1,8,0:0:0:0:
172,12,193945,1,8,0:0:0:0:
172,12,194031,1,8,0:0:0:0:
172,12,194117,6,0,L|144:44,1,40,8|8,0:0|0:0,0:0:0:0:
228,72,194290,2,0,L|256:40,1,40,8|8,0:0|0:0,0:0:0:0:
340,12,194462,1,8,0:0:0:0:
379,10,194548,1,8,0:0:0:0:
415,28,194634,1,8,0:0:0:0:
438,60,194720,1,8,0:0:0:0:
444,99,194807,6,0,P|459:135|444:171,1,80,4|0,1:2|0:0,0:0:0:0:
324,264,195152,1,8,0:0:0:0:
324,264,195238,1,8,0:0:0:0:
324,264,195324,2,0,P|308:227|323:191,1,80,4|0,1:2|1:2,0:0:0:0:
256,80,195669,1,8,0:0:0:0:
256,80,195755,1,8,0:0:0:0:
256,80,195841,1,4,1:2:0:0:
124,124,196014,5,0,1:0:0:0:
97,153,196100,1,8,0:0:0:0:
88,192,196186,1,8,1:2:0:0:
97,230,196272,1,8,0:0:0:0:
124,260,196358,1,4,1:2:0:0:
305,233,196531,5,8,0:0:0:0:
267,255,196617,1,8,0:0:0:0:
223,247,196704,1,8,0:0:0:0:
195,214,196790,1,8,0:0:0:0:
195,170,196876,1,8,1:2:0:0:
223,136,196962,1,8,0:0:0:0:
268,128,197048,1,8,0:0:0:0:
305,150,197135,1,8,0:0:0:0:
320,192,197221,1,12,0:0:0:0:
256,340,197393,1,0,1:0:0:0:
408,192,197566,6,0,L|420:140,1,40,8|8,1:2|0:0,0:0:0:0:
432,84,197738,1,4,1:2:0:0:
320,67,197910,5,8,0:0:0:0:
291,41,197996,1,8,0:0:0:0:
252,32,198082,1,8,0:0:0:0:
214,41,198168,1,8,0:0:0:0:
184,68,198254,1,12,1:2:0:0:
96,272,198428,5,8,0:0:0:0:
125,299,198514,1,8,0:0:0:0:
163,308,198600,1,8,0:0:0:0:
202,299,198686,1,8,0:0:0:0:
231,273,198772,1,12,0:0:0:0:
256,240,198859,1,8,0:0:0:0:
284,213,198945,1,8,1:2:0:0:
321,198,199031,1,8,0:0:0:0:
361,199,199117,1,8,0:0:0:0:
398,214,199203,1,8,0:0:0:0:
426,241,199290,1,8,0:0:0:0:
436,56,199635,5,2,1:2:0:0:
256,240,199807,1,12,1:2:0:0:
76,56,199979,1,8,0:0:0:0:
256,240,200152,1,2,1:2:0:0:
436,132,200324,6,0,P|451:95|436:59,1,80,14|0,1:2|0:0,0:0:0:0:
300,120,200669,1,8,0:0:0:0:
435,204,200841,2,0,P|450:167|435:131,1,80,12|0,1:2|1:2,0:0:0:0:
300,196,201186,1,2,0:0:0:0:
434,276,201359,2,0,P|449:239|434:203,1,80,12|0,0:0|0:0,0:0:0:0:
295,286,201704,5,10,1:2:0:0:
252,308,201790,1,8,0:0:0:0:
205,297,201876,1,8,0:0:0:0:
176,258,201962,1,8,0:0:0:0:
179,210,202048,1,8,0:0:0:0:
211,176,202135,1,8,0:0:0:0:
259,169,202221,1,8,0:0:0:0:
300,196,202307,1,8,0:0:0:0:
313,241,202393,1,4,1:2:0:0:
256,80,202566,5,0,1:0:0:0:
256,80,202652,1,0,1:0:0:0:
256,80,202738,1,2,1:2:0:0:
112,168,202910,2,0,P|76:236|112:304,1,160,12|2,0:0|1:2,0:0:0:0:
256,352,203428,1,8,0:0:0:0:
401,303,203600,1,4,1:2:0:0:
256,192,203686,12,0,204979,0:0:0:0:
256,192,205152,6,0,B|320:168|320:212|380:192,2,128,4|2|0,1:2|0:0|0:0,0:0:0:0:
292,276,206014,2,0,B|232:296|232:252|168:276,1,128,2|0,0:0|0:0,0:0:0:0:
76,276,206531,2,0,L|44:176,1,96,2|0,0:0|0:0,0:0:0:0:
32,140,206876,1,2,0:0:0:0:
116,112,207048,2,0,P|168:80|220:112,1,128,0|2,0:0|0:0,0:0:0:0:
396,112,207738,1,2,0:0:0:0:
396,112,207910,2,0,P|344:80|292:112,2,128,0|2|0,0:0|0:0|0:0,0:0:0:0:
344,184,208772,6,0,B|368:248|324:248|344:308,1,128,2|0,0:0|0:0,0:0:0:0:
264,352,209289,2,0,L|164:352,1,96,2|0,0:0|0:0,0:0:0:0:
124,352,209634,1,2,0:0:0:0:
64,284,209807,2,0,P|32:231|64:180,2,128,2|2|2,0:0|0:0|0:0,0:0:0:0:
136,232,210669,2,0,B|184:232|184:232|208:248|208:248|260:248,1,128,0|2,0:0|0:0,0:0:0:0:
440,52,211531,5,2,0:0:0:0:
440,52,211703,2,0,P|453:80|440:108,1,64,2|0,0:0|0:0,0:0:0:0:
392,184,212048,2,0,L|276:128,1,128,2|2,0:0|0:0,0:0:0:0:
236,208,212565,2,0,L|352:264,2,128,0|2|2,0:0|0:0|0:0,0:0:0:0:
196,288,213427,2,0,P|144:320|92:288,2,128,0|2|0,0:0|0:0|0:0,0:0:0:0:
144,216,214289,5,2,0:0:0:0:
144,216,214462,2,0,P|130:187|143:159,1,64,2|0,0:0|0:0,0:0:0:0:
204,92,214807,2,0,P|256:60|307:92,1,128,2|2,0:0|0:0,0:0:0:0:
369,159,215324,2,0,P|420:190|472:159,2,128,0|2|2,0:0|0:0|0:0,0:0:0:0:
316,252,216186,6,0,B|268:252|256:222|256:222|244:252|196:252,2,143.999995605469,6|2|0,1:2|0:0|0:0,0:0:0:0:
256,328,217048,1,0,0:0:0:0:
195,252,217220,2,0,L|151:184,1,71.9999978027344,2|0,0:0|0:0,0:0:0:0:
196,96,217565,6,0,P|255:62|315:95,1,143.999995605469,0|2,0:0|0:0,0:0:0:0:
320,224,218083,1,0,0:0:0:0:
320,224,218255,2,0,B|256:191|256:191|192:224,1,143.999995605469,0|2,0:0|0:0,0:0:0:0:
256,304,218772,1,0,0:0:0:0:
388,264,218945,6,0,B|412:192|364:192|388:124,2,143.999995605469,6|2|0,1:2|0:0|0:0,0:0:0:0:
456,156,219807,1,0,0:0:0:0:
320,232,219979,2,0,P|287:217|255:231,1,71.9999978027344,2|0,0:0|0:0,0:0:0:0:
116,288,220324,6,0,B|172:288|172:288|200:308|200:308|256:308,1,143.999995605469,0|2,0:0|0:0,0:0:0:0:
140,364,220841,1,0,0:0:0:0:
32,308,221014,2,0,B|16:276|16:276|32:244,1,71.9999978027344,0|0,0:0|1:2,0:0:0:0:
124,152,221358,2,0,B|140:184|140:184|124:216,1,71.9999978027344,10|0,0:0|0:0,0:0:0:0:
196,56,221703,6,0,L|256:120,1,80,6|0,1:2|0:0,0:0:0:0:
124,152,222048,1,8,0:0:0:0:
208,40,222220,2,0,L|268:104,1,80,4|0,1:2|0:0,0:0:0:0:
360,192,222565,1,8,0:0:0:0:
376,88,222738,1,4,1:2:0:0:
192,236,222910,5,8,0:0:0:0:
145,246,222996,1,8,0:0:0:0:
107,216,223083,1,8,0:0:0:0:
107,168,223169,1,8,0:0:0:0:
145,138,223255,1,8,0:0:0:0:
192,149,223341,1,8,0:0:0:0:
212,192,223427,2,0,L|256:204,1,40,8|8,0:0|0:0,0:0:0:0:
292,288,223600,6,0,L|253:277,1,40,8|8,0:0|0:0,0:0:0:0:
311,341,223772,1,8,0:0:0:0:
360,369,223858,1,8,0:0:0:0:
415,359,223945,1,8,0:0:0:0:
451,316,224031,1,8,0:0:0:0:
451,260,224117,1,8,0:0:0:0:
415,217,224203,1,8,0:0:0:0:
360,207,224289,1,8,0:0:0:0:
311,235,224376,1,8,0:0:0:0:
292,288,224462,5,4,1:2:0:0:
164,344,224634,1,0,1:0:0:0:
108,216,224807,1,8,0:0:0:0:
236,160,224979,1,8,0:0:0:0:
324,292,225152,5,8,0:0:0:0:
152,376,225324,1,8,0:0:0:0:
68,204,225496,1,8,0:0:0:0:
240,120,225668,1,8,0:0:0:0:
348,320,225841,5,8,0:0:0:0:
456,120,226014,1,8,0:0:0:0:
264,288,226186,1,8,0:0:0:0:
372,88,226359,1,8,0:0:0:0:
476,288,226531,5,8,0:0:0:0:
288,120,226703,1,8,0:0:0:0:
400,324,226876,1,8,0:0:0:0:
372,88,227048,1,8,0:0:0:0:
256,192,227220,12,0,231358,0:0:0:0:
308,72,231531,6,0,P|255:40|204:72,1,128,2|0,0:0|0:0,0:0:0:0:
256,192,232048,2,0,L|256:124,1,64,2|0,0:0|0:0,0:0:0:0:
348,192,232393,2,0,L|348:260,1,64,2|0,0:0|0:0,0:0:0:0:
172,348,232738,5,14,1:2:0:0:
256,192,232910,1,0,1:0:0:0:
340,348,233083,1,0,1:0:0:0:
164,192,233255,5,12,1:2:0:0:
348,192,233427,1,2,1:2:0:0:
256,52,233600,1,0,1:0:0:0:
432,192,233772,5,12,1:2:0:0:
340,348,233945,1,2,1:2:0:0:
256,192,234117,1,0,1:2:0:0:
80,348,234289,5,12,1:2:0:0:
164,192,234461,1,2,1:2:0:0:
256,348,234633,1,0,1:0:0:0:
432,348,234807,5,12,1:2:0:0:
348,192,234979,1,2,1:2:0:0:
132,264,235152,5,8,0:0:0:0:
102,232,235238,1,8,0:0:0:0:
90,190,235324,1,8,0:0:0:0:
99,147,235410,1,8,0:0:0:0:
127,114,235496,5,14,1:2:0:0:
256,32,235669,1,0,1:0:0:0:
385,114,235841,1,0,1:0:0:0:
256,32,236014,5,12,1:2:0:0:
257,287,236186,1,2,1:2:0:0:
385,114,236358,1,0,1:0:0:0:
257,287,236530,5,12,1:2:0:0:
127,114,236703,1,2,1:2:0:0:
257,287,236876,1,0,1:2:0:0:
476,368,237048,5,12,1:2:0:0:
369,327,237220,1,2,1:2:0:0:
257,287,237393,1,0,1:0:0:0:
257,97,237565,5,12,1:2:0:0:
368,192,237737,1,2,1:2:0:0:
257,287,237910,5,8,0:0:0:0:
223,314,237996,1,8,0:0:0:0:
181,324,238082,1,8,0:0:0:0:
138,314,238168,1,8,0:0:0:0:
105,287,238255,6,0,L|128:148,1,128,2|0,0:0|0:0,0:0:0:0:
144,56,238772,1,2,0:0:0:0:
208,160,238945,2,0,L|199:232,1,64,2|0,0:0|0:0,0:0:0:0:
292,204,239289,2,0,L|301:132,1,64,2|0,0:0|0:0,0:0:0:0:
420,65,239634,6,0,L|400:192,1,128,2|2,0:0|0:0,0:0:0:0:
384,280,240152,1,2,0:0:0:0:
280,300,240324,2,0,P|248:300|216:316,1,64,2|0,0:0|0:0,0:0:0:0:
128,256,240669,2,0,P|160:256|192:240,1,64,2|0,0:0|0:0,0:0:0:0:
432,192,241014,5,6,1:2:0:0:
256,112,241186,1,8,0:0:0:0:
384,64,241358,1,8,0:0:0:0:
304,240,241530,1,8,0:0:0:0:
114,288,241703,5,8,0:0:0:0:
54,103,241876,1,8,0:0:0:0:
211,217,242048,1,8,0:0:0:0:
16,217,242220,1,8,0:0:0:0:
174,103,242393,5,6,1:2:0:0:
338,103,242565,1,8,0:0:0:0:
338,103,242652,1,8,0:0:0:0:
338,103,242738,1,8,0:0:0:0:
256,268,242910,1,8,0:0:0:0:
256,268,242996,1,8,0:0:0:0:
256,268,243083,1,8,0:0:0:0:
174,103,243255,5,8,0:0:0:0:
185,154,243341,1,8,0:0:0:0:
153,195,243427,1,8,0:0:0:0:
101,195,243514,1,8,0:0:0:0:
68,154,243600,1,8,0:0:0:0:
80,103,243686,1,8,0:0:0:0:
127,81,243772,6,0,B|211:49|211:113|299:81,1,176.000005371094,6|8,1:2|0:0,0:0:0:0:
298,81,244289,1,0,0:0:0:0:
440,80,244462,2,0,P|455:120|440:160,1,88.000002685547,2|0,1:2|0:0,0:0:0:0:
320,288,244807,2,0,P|305:248|320:208,1,88.000002685547,8|0,0:0|0:0,0:0:0:0:
440,248,245152,1,2,1:2:0:0:
256,164,245324,5,0,0:0:0:0:
203,2,245496,1,8,0:0:0:0:
341,102,245669,1,0,0:0:0:0:
170,102,245841,1,2,1:2:0:0:
308,2,246013,1,0,0:0:0:0:
256,164,246186,1,8,0:0:0:0:
120,24,246358,1,8,0:0:0:0:
120,24,246445,1,8,0:0:0:0:
120,24,246531,6,0,L|72:152,1,132.00000402832,6|0,1:2|0:0,0:0:0:0:
56,192,246876,1,8,0:0:0:0:
4,320,247048,1,0,0:0:0:0:
180,284,247220,2,0,P|256:322|332:284,1,176.000005371094,2|8,1:2|0:0,0:0:0:0:
256,164,247738,1,0,0:0:0:0:
331,284,247910,6,0,P|346:324|331:364,1,88.000002685547,2|0,1:2|0:0,0:0:0:0:
180,364,248255,2,0,P|165:324|181:284,1,88.000002685547,8|0,0:0|0:0,0:0:0:0:
256,164,248600,1,2,1:2:0:0:
328,44,248772,1,0,0:0:0:0:
184,44,248945,1,8,0:0:0:0:
360,144,249117,1,8,0:0:0:0:
360,144,249203,1,8,0:0:0:0:
360,144,249289,6,0,P|383:204|360:264,1,132.00000402832,6|0,1:2|0:0,0:0:0:0:
332,300,249634,1,8,0:0:0:0:
256,204,249807,1,0,0:0:0:0:
180,300,249979,2,0,P|119:323|59:299,1,132.00000402832,2|0,1:2|0:0,0:0:0:0:
120,252,250324,1,8,0:0:0:0:
276,360,250496,1,8,0:0:0:0:
276,360,250583,1,8,0:0:0:0:
276,360,250669,6,0,B|340:336|340:380|404:360,1,132.00000402832,6|0,1:2|0:0,0:0:0:0:
452,360,251014,1,8,0:0:0:0:
512,232,251186,1,0,0:0:0:0:
452,104,251358,2,0,P|404:104|336:48,1,132.00000402832,2|0,1:2|0:0,0:0:0:0:
312,20,251703,1,8,0:0:0:0:
152,112,251876,1,8,0:0:0:0:
152,112,251962,1,8,0:0:0:0:
152,112,252048,6,0,L|32:184,1,132.00000402832,6|0,1:2|0:0,0:0:0:0:
0,204,252393,1,8,0:0:0:0:
120,335,252565,2,0,P|80:350|40:336,1,88.000002685547,0|2,0:0|1:2,0:0:0:0:
216,264,252910,2,0,P|256:248|296:263,1,88.000002685547,0|8,0:0|0:0,0:0:0:0:
472,336,253255,5,8,0:0:0:0:
472,336,253341,1,8,0:0:0:0:
472,336,253427,1,6,1:2:0:0:
440,148,253600,1,8,0:0:0:0:
440,148,253686,1,8,0:0:0:0:
440,148,253772,1,8,0:0:0:0:
296,263,253945,1,8,0:0:0:0:
296,263,254031,1,8,0:0:0:0:
296,263,254117,1,2,1:2:0:0:
264,75,254289,5,8,0:0:0:0:
219,47,254375,1,8,0:0:0:0:
167,38,254461,1,8,0:0:0:0:
115,48,254547,1,8,0:0:0:0:
71,76,254633,1,8,0:0:0:0:
40,118,254720,1,8,0:0:0:0:
26,169,254807,6,0,L|156:292,1,176.000005371094,6|8,1:2|0:0,0:0:0:0:
256,352,255324,1,0,0:0:0:0:
312,232,255496,2,0,P|327:191|312:151,1,88.000002685547,2|0,1:2|0:0,0:0:0:0:
188,60,255841,2,0,P|173:100|188:140,1,88.000002685547,8|0,0:0|1:0,0:0:0:0:
188,140,256100,1,0,1:0:0:0:
188,140,256186,6,0,B|104:108|104:172|16:140,1,176.000005371094,2|8,1:2|0:0,0:0:0:0:
144,208,256703,1,0,0:0:0:0:
16,140,256876,2,0,L|48:56,1,88.000002685547,2|0,1:2|0:0,0:0:0:0:
144,208,257220,2,0,L|112:292,1,88.000002685547,8|8,0:0|0:0,0:0:0:0:
112,290,257479,1,8,0:0:0:0:
112,290,257565,6,0,P|187:327|263:289,1,176.000005371094,6|8,1:2|0:0,0:0:0:0:
352,354,258083,1,0,0:0:0:0:
297,184,258255,1,2,1:2:0:0:
440,289,258427,1,0,0:0:0:0:
263,289,258600,1,8,0:0:0:0:
405,185,258772,1,0,0:0:0:0:
263,289,258945,6,0,L|408:184,1,176.000005371094,2|8,1:2|0:0,0:0:0:0:
331,71,259462,2,0,B|255:27|255:27|179:71,1,176.000005371094,2|0,0:0|0:0,0:0:0:0:
216,164,259979,2,0,B|256:146|256:146|296:164,1,88.000002685547,8|0,0:0|1:0,0:0:0:0:
256,224,260238,1,0,1:0:0:0:
256,224,260324,6,0,L|401:119,1,176.000005371094,6|8,1:2|0:0,0:0:0:0:
352,256,260841,1,0,0:0:0:0:
285,110,261014,2,0,L|207:170,1,88.000002685547,2|0,1:2|0:0,0:0:0:0:
352,256,261358,2,0,L|430:196,1,88.000002685547,8|0,0:0|0:0,0:0:0:0:
332,352,261703,6,0,B|288:352|256:313|256:313|224:352|180:352,1,176.000005371094,6|8,1:2|0:0,0:0:0:0:
112,236,262220,1,0,0:0:0:0:
180,351,262393,1,2,1:2:0:0:
52,352,262565,1,0,0:0:0:0:
112,236,262738,2,0,L|104:128,1,88.000002685547,8|0,0:0|0:0,0:0:0:0:
200,32,263083,6,0,B|256:32|256:32|308:56|308:56|372:56,1,176.000005371094,6|8,1:2|0:0,0:0:0:0:
464,192,263600,1,8,0:0:0:0:
370,56,263772,1,2,1:2:0:0:
384,264,263945,5,8,0:0:0:0:
290,128,264117,1,8,0:0:0:0:
464,192,264289,1,8,0:0:0:0:
256,352,264462,5,14,1:2:0:0:
384,264,264634,1,8,0:0:0:0:
128,296,264807,5,8,0:0:0:0:
256,208,264979,1,8,0:0:0:0:
24,224,265152,5,10,1:2:0:0:
152,136,265324,1,8,0:0:0:0:
128,296,265496,5,8,0:0:0:0:
304,296,265669,1,8,0:0:0:0:
304,296,265755,1,8,0:0:0:0:
304,296,265841,6,0,L|348:220,1,88.000002685547,6|0,1:2|1:2,0:0:0:0:
400,116,266186,1,0,1:2:0:0:
496,220,266358,1,12,1:2:0:0:
400,116,266531,6,0,B|360:98|360:98|320:116,1,88.000002685547,0|0,1:2|1:2,0:0:0:0:
144,268,266876,1,12,1:2:0:0:
232,192,267048,1,0,1:2:0:0:
92,20,267220,5,0,1:2:0:0:
20,112,267393,2,0,P|4:152|19:192,1,88.000002685547,12|0,1:2|1:2,0:0:0:0:
72,360,267738,5,0,1:2:0:0:
144,268,267911,2,0,P|159:227|144:187,1,88.000002685547,12|8,1:2|0:0,0:0:0:0:
20,112,268255,1,8,0:0:0:0:
144,36,268427,1,8,0:0:0:0:
268,112,268600,6,0,B|360:84|360:152|456:112,1,192,2|2,1:2|0:0,0:0:0:0:
244,272,269634,2,0,B|152:300|152:232|57:271,1,192,2|2,0:0|0:0,0:0:0:0:
144,28,270669,1,2,0:0:0:0:
256,120,271014,1,2,0:0:0:0:
368,28,271358,6,0,P|460:28|508:108,1,192,2|2,0:0|0:0,0:0:0:0:
507,277,272393,2,0,P|459:356|368:356,1,192,2|2,0:0|0:0,0:0:0:0:
256,257,273255,5,2,0:0:0:0:
217,139,273427,1,2,0:0:0:0:
318,212,273600,1,2,0:0:0:0:
193,212,273772,1,2,0:0:0:0:
294,139,273945,1,2,0:0:0:0:
