osu file format v14

[General]
AudioFilename: audio.ogg
AudioLeadIn: 0
PreviewTime: 73544
Countdown: 0
SampleSet: Drum
StackLeniency: 0.7
Mode: 0
LetterboxInBreaks: 0
WidescreenStoryboard: 1

[Editor]
Bookmarks: 56926,95225
DistanceSpacing: 0.1
BeatDivisor: 4
GridSize: 8
TimelineZoom: 2.1

[Metadata]
Title:Showtime Ruler
TitleUnicode:ショウタイム・ルーラー
Artist:Rui Kamishiro (CV: Shunichi Toki)
ArtistUnicode:神代類 (CV: 土岐隼一)
Creator:AirinCat
Version:Insane
Source:プロジェクトセカイ カラフルステージ! feat. 初音ミク
Tags:ワンダーランズ×ショウタイム × 鏡音リン Wonderlands x Showtime pjsekai proseka puroseka WonderShow Another Vocal アナザーボーカル kagamine rin Karasuyasabou Karasuya sabou japanese rock jrock j-rock vocaloid cover ver video game version Revival my dream SEGA Colorful Palette project sekai colorful stage! stage feat. hatsune miku カラスヤサボウ 烏屋茶房
BeatmapID:4440882
BeatmapSetID:2110266

[Difficulty]
HPDrainRate:5
CircleSize:4
OverallDifficulty:8
ApproachRate:9
SliderMultiplier:1.6
SliderTickRate:1

[Events]
//Background and Video events
0,0,"106010975_p0.jpg",0,0
//Break Periods
//Storyboard Layer 0 (Background)
//Storyboard Layer 1 (Fail)
//Storyboard Layer 2 (Pass)
//Storyboard Layer 3 (Foreground)
//Storyboard Layer 4 (Overlay)
//Storyboard Sound Samples

[TimingPoints]
456,294.117647058824,4,2,2,40,1,0
456,-83.3333333333333,4,2,2,40,0,0
750,-111.111111111111,4,2,2,40,0,0
5161,-76.9230769230769,4,2,1,40,0,0
5456,-111.111111111111,4,2,2,40,0,0
9867,-100,4,2,1,50,0,0
16926,-500,4,2,3,60,0,0
17220,-500,4,2,1,60,0,0
18691,-500,4,2,1,50,0,0
19279,-90.9090909090909,4,2,2,60,0,0
19426,-90.9090909090909,4,2,1,60,0,0
23985,-90.9090909090909,4,2,2,60,0,0
24132,-90.9090909090909,4,2,1,60,0,0
28691,-90.9090909090909,4,2,3,60,0,0
28985,-100,4,2,1,40,0,0
33691,-52.6315789473684,4,2,3,50,0,0
33985,-90.9090909090909,4,2,1,40,0,0
37514,-55.5555555555556,4,2,1,50,0,0
38103,-90.9090909090909,4,2,1,50,0,0
40088,-66.6666666666667,4,2,1,60,0,0
40456,-90.9090909090909,4,2,1,60,0,0
42514,-66.6666666666667,4,2,1,60,0,0
42808,-90.9090909090909,4,2,1,60,0,0
45161,-500,4,2,3,60,0,0
45456,-500,4,2,1,60,0,0
46926,-500,4,2,1,60,0,0
47514,-90.9090909090909,4,2,2,60,0,0
47661,-90.9090909090909,4,2,1,60,0,0
52220,-90.9090909090909,4,2,2,60,0,0
52367,-90.9090909090909,4,2,1,60,0,0
56926,-133.333333333333,4,2,1,42,0,0
57514,-133.333333333333,4,2,2,42,0,0
57661,-133.333333333333,4,2,1,42,0,0
59867,-133.333333333333,4,2,2,42,0,0
60014,-133.333333333333,4,2,1,42,0,0
62220,-133.333333333333,4,2,2,42,0,0
62367,-133.333333333333,4,2,1,42,0,0
64573,-133.333333333333,4,2,2,42,0,0
64720,-133.333333333333,4,2,1,42,0,0
66338,-133.333333333333,4,3,1,50,0,0
66926,-133.333333333333,4,3,2,50,0,0
67073,-133.333333333333,4,3,1,50,0,0
69279,-133.333333333333,4,3,2,50,0,0
69426,-133.333333333333,4,3,1,50,0,0
71632,-133.333333333333,4,3,2,50,0,0
71779,-133.333333333333,4,3,1,50,0,0
75161,-181.818181818181,4,2,1,70,0,0
75676,-181.818181818181,4,2,1,5,0,0
75750,-76.9230769230769,4,2,2,70,0,1
75970,-76.9230769230769,4,2,2,5,0,1
76044,-76.9230769230769,4,2,1,70,0,1
76191,-76.9230769230769,4,2,2,70,0,1
76338,-76.9230769230769,4,2,1,70,0,1
76632,-76.9230769230769,4,2,4,70,0,1
76853,-76.9230769230769,4,2,4,5,0,1
76926,-76.9230769230769,4,2,1,70,0,1
77220,-76.9230769230769,4,2,3,70,0,1
78103,-76.9230769230769,4,2,4,70,0,1
78323,-76.9230769230769,4,2,4,5,0,1
78397,-76.9230769230769,4,2,1,70,0,1
78544,-76.9230769230769,4,2,2,70,0,1
78691,-76.9230769230769,4,2,1,70,0,1
78985,-76.9230769230769,4,2,4,70,0,1
79206,-76.9230769230769,4,2,4,5,0,1
79279,-76.9230769230769,4,2,1,70,0,1
79573,-76.9230769230769,4,2,3,70,0,1
80456,-76.9230769230769,4,2,1,70,0,1
85161,-76.9230769230769,4,2,2,70,0,1
85456,-76.9230769230769,4,2,1,70,0,1
85603,-76.9230769230769,4,2,2,70,0,1
85750,-76.9230769230769,4,2,1,70,0,1
86044,-76.9230769230769,4,2,4,70,0,1
86264,-76.9230769230769,4,2,4,5,0,1
86338,-76.9230769230769,4,2,1,70,0,1
86632,-76.9230769230769,4,2,3,70,0,1
87514,-76.9230769230769,4,2,4,70,0,1
87808,-76.9230769230769,4,2,1,70,0,1
87955,-76.9230769230769,4,2,2,70,0,1
88102,-76.9230769230769,4,2,1,70,0,1
88396,-76.9230769230769,4,2,4,70,0,1
88617,-76.9230769230769,4,2,4,5,0,1
88691,-76.9230769230769,4,2,1,70,0,1
88985,-76.9230769230769,4,2,3,70,0,1
89867,-76.9230769230769,4,2,1,70,0,1
92220,-76.9230769230769,4,2,4,70,0,1
92367,-76.9230769230769,4,2,1,70,0,1
92808,-76.9230769230769,4,2,4,70,0,1
92882,-76.9230769230769,4,2,1,70,0,1
94279,-133.333333333333,4,2,1,70,0,0
94500,-133.333333333333,4,2,1,5,0,0
94573,-76.9230769230769,4,2,2,70,0,0
97220,-90.9090909090909,4,2,1,70,0,0
99279,-90.9090909090909,4,2,2,70,0,0
99573,-90.9090909090909,4,2,1,70,0,0
103838,-125,4,2,1,70,0,0
103985,-125,4,2,1,20,0,0

[Colours]
Combo1 : 17,254,176
Combo2 : 193,132,255

[HitObjects]
232,139,161,5,2,0:1:0:0:
3,168,456,2,0,P|55:217|126:212,1,143.999995605469,6|0,1:1|0:2,0:2:0:0:
89,142,750,2,0,P|71:232|67:284,2,143.999995605469,2|8|0,0:2|0:2|0:2,0:2:0:0:
205,220,1485,6,0,B|277:232|262:247|350:263,1,143.999995605469,2|0,0:2|0:2,0:2:0:0:
410,206,1926,2,0,P|444:200|484:191,2,71.9999978027344,2|0|10,0:2|0:2|0:2,0:2:0:0:
86,333,2514,2,0,P|122:341|157:350,1,71.9999978027344,2|0,1:2|0:2,0:2:0:0:
283,167,2808,6,0,P|235:217|235:287,1,143.999995605469,6|0,1:2|0:2,0:2:0:0:
471,257,3250,2,0,P|451:189|390:154,1,143.999995605469,4|0,1:2|0:2,0:2:0:0:
312,362,3691,2,0,P|380:378|440:343,1,143.999995605469,4|0,1:2|0:2,0:2:0:0:
440,343,4573,1,8,0:2:0:0:
217,260,4867,2,0,P|185:267|142:283,1,71.9999978027344,2|0,1:2|0:2,0:2:0:0:
179,29,5161,6,0,P|235:71|238:164,1,155.999992858887,6|0,1:2|0:2,0:2:0:0:
158,120,5456,2,0,P|203:99|318:85,2,143.999995605469,2|8|0,0:2|0:2|0:2,0:2:0:0:
121,208,6191,6,0,B|135:284|147:272|162:368,1,143.999995605469,2|0,0:2|0:2,0:2:0:0:
72,320,6632,2,0,P|43:330|1:338,2,71.9999978027344,2|0|10,0:2|0:2|0:2,0:2:0:0:
317,341,7220,2,0,P|352:349|385:361,1,71.9999978027344,2|0,1:2|0:2,0:2:0:0:
221,143,7514,6,0,B|172:195|172:195|197:279,1,143.999995605469,6|0,1:2|0:2,0:2:0:0:
390,159,7956,2,0,B|381:85|381:85|313:50,1,143.999995605469,4|0,1:2|0:2,0:2:0:0:
313,250,8397,2,0,B|366:295|366:295|456:268,1,143.999995605469,4|2,1:2|0:3,0:2:0:0:
449,285,8985,1,2,0:3:0:0:
449,285,9279,1,8,0:2:0:0:
449,285,9573,2,0,L|472:194,1,71.9999978027344,2|0,1:3|0:2,0:2:0:0:
259,196,9867,6,0,P|181:191|119:238,1,160,4|0,1:2|1:2,0:2:0:0:
27,373,10308,1,0,0:2:0:0:
27,373,10456,2,0,P|51:298|19:227,1,160,0|0,1:2|1:2,0:2:0:0:
94,86,10897,2,0,P|55:100|2:115,1,80,2|0,0:2|1:2,0:2:0:0:
180,178,11191,2,0,P|234:189|282:203,1,80,2|0,0:2|1:2,0:2:0:0:
189,78,11485,2,0,P|199:24|205:-12,2,80,2|0|0,0:0|1:2|0:0,0:0:0:0:
0,223,11926,5,12,1:2:0:0:
0,223,12220,6,0,P|62:270|140:269,1,160,0|0,1:2|1:2,0:2:0:0:
246,187,12661,1,0,0:2:0:0:
246,187,12808,2,0,P|315:151|392:165,1,160,0|0,1:2|1:2,0:2:0:0:
327,247,13250,2,0,P|320:286|317:328,1,80,2|0,0:2|1:2,0:2:0:0:
392,165,13544,2,0,P|385:125|382:84,1,80,2|0,0:2|1:2,0:2:0:0:
435,259,13838,2,0,P|478:266|533:289,2,80,2|0|0,0:0|1:2|0:0,0:0:0:0:
271,118,14279,5,12,1:2:0:0:
271,118,14573,6,0,P|222:151|162:155,1,120,2|0,1:2|0:2,0:2:0:0:
154,157,14867,2,0,P|142:120|136:68,1,80,0|0,1:2|0:2,0:2:0:0:
315,200,15161,2,0,P|308:293|292:376,1,160,0|8,1:2|1:2,0:2:0:0:
388,353,15603,1,0,0:2:0:0:
210,276,15750,6,0,P|150:275|100:307,1,120,2|0,1:2|0:0,0:2:0:0:
101,307,16044,2,0,P|112:343|121:411,1,80,0|0,1:2|0:2,0:2:0:0:
230,136,16338,2,0,P|222:74|201:-14,1,120,0|0,1:2|0:2,0:2:0:0:
209,17,16632,2,0,P|193:60|182:117,1,80,8|0,1:2|0:2,0:2:0:0:
413,205,16926,6,0,B|478:195,2,64,4|2|2,0:3|0:0|0:2,0:2:0:0:
413,205,18691,5,12,0:3:0:0:
413,205,19279,5,6,1:1:0:0:
235,295,19426,1,0,1:2:0:0:
391,337,19573,1,8,0:2:0:0:
301,213,19720,2,0,P|208:201|143:257,1,176.000005371094,8|0,0:3|1:2,0:2:0:0:
224,113,20161,1,8,0:2:0:0:
96,173,20308,6,0,P|114:261|123:346,1,176.000005371094,2|0,1:2|1:2,0:2:0:0:
0,138,20750,2,0,P|8:94|20:46,1,88.000002685547,8|8,0:2|0:3,0:0:0:0:
28,48,20970,1,8,0:3:0:0:
36,47,21044,2,0,P|80:53|127:66,1,88.000002685547,0|0,1:2|1:2,0:0:0:0:
273,226,21338,2,0,P|228:239|185:248,1,88.000002685547,8|4,0:2|0:3,0:0:0:0:
209,2,21632,5,2,1:2:0:0:
256,146,21779,1,0,1:2:0:0:
122,65,21926,1,8,0:2:0:0:
293,48,22073,2,0,P|342:59|390:68,1,88.000002685547,8|0,0:3|1:2,0:2:0:0:
419,211,22367,1,0,1:2:0:0:
379,66,22514,1,8,0:2:0:0:
484,111,22661,6,0,P|516:191|512:279,1,176.000005371094,2|0,1:2|1:2,0:2:0:0:
251,355,23103,2,0,P|251:306|264:264,1,88.000002685547,8|8,0:2|0:3,0:2:0:0:
473,361,23397,2,0,P|433:379|378:381,1,88.000002685547,2|2,1:2|1:2,0:0:0:0:
335,159,23691,5,10,0:2:0:0:
335,159,23764,1,8,0:2:0:0:
335,159,23838,1,8,0:2:0:0:
335,159,23911,1,8,0:2:0:0:
335,159,23985,2,0,P|350:196|363:258,1,88.000002685547,6|0,1:1|1:2,0:2:0:0:
251,355,24279,1,8,0:2:0:0:
130,224,24426,2,0,P|129:137|182:65,1,176.000005371094,8|0,0:3|1:2,0:0:0:0:
97,0,24867,1,8,0:2:0:0:
286,77,25014,6,0,P|372:84|441:30,1,176.000005371094,2|0,1:2|1:2,2:2:0:0:
278,185,25456,2,0,P|259:230|251:275,1,88.000002685547,8|8,0:2|0:3,0:0:0:0:
483,219,25750,1,0,1:0:0:0:
376,320,25897,1,0,1:0:0:0:
483,219,26044,2,0,P|478:170|461:127,1,88.000002685547,8|4,0:2|0:3,0:0:0:0:
259,0,26338,5,2,1:2:0:0:
365,147,26485,1,0,1:2:0:0:
368,0,26632,1,8,0:2:0:0:
255,128,26779,2,0,P|209:138|158:157,1,88.000002685547,8|0,0:3|1:2,0:2:0:0:
41,33,27073,1,0,1:2:0:0:
170,151,27220,1,8,0:2:0:0:
111,84,27367,6,0,P|52:154|56:241,1,176.000005371094,2|0,1:2|1:2,0:2:0:0:
223,379,27808,2,0,P|238:335|243:287,1,88.000002685547,8|8,0:2|0:3,0:2:0:0:
242,293,28029,1,8,0:3:0:0:
242,293,28103,1,2,1:2:0:0:
133,305,28250,1,8,1:1:0:0:
254,183,28397,1,8,1:1:0:0:
133,305,28544,1,8,1:1:0:0:
351,260,28691,1,4,1:3:0:0:
351,260,28985,6,0,L|441:283,1,80,2|0,0:2|1:2,0:2:0:0:
247,92,29279,2,0,L|111:121,2,120,8|2|2,0:2|0:2|0:2,0:2:0:0:
322,4,29867,5,0,1:2:0:0:
322,4,30161,1,0,1:2:0:0:
389,45,30308,2,0,L|413:138,1,80,2|8,0:2|0:2,0:2:0:0:
334,173,30603,1,2,0:2:0:0:
372,256,30750,2,0,P|449:255|502:198,1,160,0|2,1:2|1:2,0:2:0:0:
502,198,31338,6,0,L|492:293,1,80,2|0,0:2|1:2,0:2:0:0:
270,331,31632,2,0,L|420:367,1,120,10|0,0:2|0:2,0:2:0:0:
386,359,31926,2,0,L|307:378,1,80,2|0,0:2|0:2,0:2:0:0:
186,227,32220,6,0,L|218:54,1,160,2|0,1:2|1:2,0:2:0:0:
90,10,32661,1,0,3:2:0:0:
90,10,32735,1,0,3:2:0:0:
90,10,32808,2,0,L|76:88,1,80,8|8,0:2|0:3,0:0:0:0:
320,177,33103,2,0,L|333:98,1,80,12|4,0:3|0:3,0:0:0:0:
215,69,33397,5,2,0:3:0:0:
215,69,33691,6,0,B|175:116|175:116|202:204|202:204|145:271,1,227.999993911743,4|0,1:3|0:2,0:2:0:0:
153,267,33985,2,0,L|54:292,1,88.000002685547,10|0,0:2|0:2,0:2:0:0:
226,354,34279,2,0,L|313:374,1,88.000002685547,2|0,0:2|0:2,0:2:0:0:
410,263,34573,1,2,1:2:0:0:
410,263,34867,5,2,1:2:0:0:
467,384,35014,2,0,L|489:292,1,88.000002685547,2|8,0:2|0:2,0:2:0:0:
320,203,35308,1,2,0:2:0:0:
320,203,35455,2,0,L|298:292,1,88.000002685547,0|0,1:2|0:2,0:2:0:0:
512,177,35750,6,0,P|453:113|366:112,1,176.000005371094,2|0,1:2|0:2,0:2:0:0:
234,156,36191,1,0,1:2:0:0:
234,156,36338,2,0,P|148:162|81:109,1,176.000005371094,10|2,0:2|0:2,0:0:0:0:
124,44,36779,1,0,0:2:0:0:
159,187,36926,2,0,P|141:250|122:329,1,132.00000402832,2|0,1:2|0:0,0:0:0:0:
111,283,37220,2,0,L|122:387,1,88.000002685547,2|0,1:2|0:0,0:2:0:0:
291,257,37514,6,2,B|344:232|344:232|413:316|413:316|372:344,1,215.999993408203,2|2,0:1|0:1,0:1:0:0:
363,353,37808,2,2,B|310:378|310:378|241:294|241:294|282:266,1,215.999993408203,2|2,0:1|0:1,0:1:0:0:
399,281,38103,6,0,P|485:250|507:167,2,176.000005371094,6|2|2,1:1|1:2|1:2,0:2:0:0:
399,281,38985,1,2,1:2:0:0:
340,211,39132,2,0,P|347:169|359:105,1,88.000002685547,2|0,0:2|1:2,0:2:0:0:
233,91,39426,2,0,P|225:132|214:197,1,88.000002685547,2|0,0:2|1:2,0:2:0:0:
122,233,39720,1,2,0:2:0:0:
122,233,39867,2,0,P|170:283|240:282,1,132.00000402832,0|0,1:2|0:2,0:2:0:0:
230,286,40161,6,0,B|145:307|145:307|216:370,1,180.000006866455,4|0,1:2|0:2,0:2:0:0:
301,384,40456,2,0,B|307:309|335:313|343:240,1,132.00000402832,4|0,1:1|0:2,0:2:0:0:
340,258,40750,2,0,P|394:246|444:241,1,88.000002685547,2|0,1:2|0:2,0:2:0:0:
252,169,41044,2,0,P|160:167|106:92,1,176.000005371094,2|2,1:2|1:2,0:2:0:0:
189,0,41485,6,0,P|200:45|213:111,1,88.000002685547,2|0,0:2|1:2,0:2:0:0:
28,174,41779,2,0,P|17:127|7:80,1,88.000002685547,2|0,0:2|1:2,0:2:0:0:
195,224,42073,1,2,0:2:0:0:
195,224,42220,2,0,P|133:259|63:249,1,132.00000402832,0|0,1:2|0:2,0:2:0:0:
75,254,42514,6,0,B|24:179|24:179|0:266,1,180.000006866455,4|0,1:2|0:2,0:2:0:0:
44,336,42808,2,0,B|144:334|105:364|245:372,2,176.000005371094,6|2|2,1:1|1:2|1:2,0:2:0:0:
236,123,43691,2,0,P|247:174|254:226,1,88.000002685547,6|2,1:2|0:2,0:0:0:0:
12,118,43985,6,0,P|34:51|102:28,1,132.00000402832,6|0,1:1|0:2,0:2:0:0:
86,27,44279,2,0,P|128:40|190:44,1,88.000002685547,2|0,1:2|0:2,0:2:0:0:
439,67,44573,2,0,P|377:68|319:128,1,132.00000402832,2|0,1:2|0:2,0:2:0:0:
326,112,44867,2,0,P|334:150|345:210,1,88.000002685547,6|0,1:2|0:2,0:2:0:0:
151,344,45161,6,0,L|165:279,2,64,4|2|2,0:3|0:2|0:2,0:2:0:0:
151,344,46926,5,4,0:3:0:0:
151,344,47514,5,6,1:1:0:0:
239,184,47661,1,0,1:2:0:0:
274,335,47808,1,8,0:2:0:0:
118,233,47956,2,0,P|112:148|174:87,1,176.000005371094,8|0,0:3|1:2,0:0:0:0:
23,136,48397,1,8,0:2:0:0:
103,23,48544,6,0,P|207:54|287:82,1,176.000005371094,2|0,1:2|1:2,0:2:0:0:
465,0,48985,2,0,P|413:12|358:25,1,88.000002685547,8|8,0:2|0:3,0:0:0:0:
372,31,49206,1,8,0:3:0:0:
367,41,49279,2,0,L|386:126,1,88.000002685547,0|0,1:2|1:2,0:0:0:0:
491,246,49573,2,0,L|510:161,1,88.000002685547,8|4,0:2|0:3,0:0:0:0:
241,146,49867,5,2,1:2:0:0:
387,236,50014,1,0,1:2:0:0:
226,242,50161,1,8,0:2:0:0:
342,343,50308,2,0,P|391:333|433:323,1,88.000002685547,8|0,0:3|1:2,0:2:0:0:
314,197,50603,1,0,1:2:0:0:
235,352,50750,1,8,0:2:0:0:
105,253,50897,6,0,P|76:171|104:90,1,176.000005371094,2|0,1:2|1:2,0:2:0:0:
207,264,51338,2,0,P|254:275|297:293,1,88.000002685547,8|8,0:2|0:3,0:2:0:0:
215,57,51632,2,0,P|200:98|190:141,1,88.000002685547,2|2,1:2|1:2,0:0:0:0:
19,332,51926,5,10,0:2:0:0:
19,332,52000,1,8,0:2:0:0:
19,332,52073,1,8,0:2:0:0:
19,332,52147,1,8,0:2:0:0:
19,332,52220,2,0,P|10:275|0:231,1,88.000002685547,6|0,1:1|1:2,0:2:0:0:
95,91,52514,1,8,0:2:0:0:
267,198,52661,2,0,P|183:245|101:204,1,176.000005371094,8|0,0:3|1:2,0:0:0:0:
165,326,53103,1,8,0:2:0:0:
186,149,53250,6,0,P|108:115|31:152,1,176.000005371094,2|0,1:2|1:2,0:2:0:0:
260,90,53691,2,0,P|303:87|345:75,1,88.000002685547,8|8,0:2|0:3,0:0:0:0:
355,79,53911,1,8,0:3:0:0:
363,85,53985,2,0,P|371:132|381:175,1,88.000002685547,0|0,1:2|1:2,0:0:0:0:
228,326,54279,2,0,P|221:282|210:233,1,88.000002685547,8|4,0:2|0:3,0:0:0:0:
464,187,54573,5,2,1:2:0:0:
336,314,54720,1,0,1:2:0:0:
380,171,54867,1,8,0:2:0:0:
476,347,55014,2,0,P|433:358|383:376,1,88.000002685547,8|0,0:3|1:2,0:2:0:0:
288,212,55308,5,0,1:2:0:0:
418,264,55456,1,8,0:2:0:0:
245,304,55603,2,0,P|260:209|279:123,1,176.000005371094,2|0,1:2|1:2,0:2:0:0:
153,31,56044,2,0,P|162:76|169:126,1,88.000002685547,8|0,0:2|1:2,0:2:0:0:
382,186,56338,1,8,0:2:0:0:
382,186,56411,1,8,0:2:0:0:
382,186,56485,1,8,0:2:0:0:
382,186,56558,1,8,0:2:0:0:
382,186,56632,2,8,P|396:140|408:97,1,88.000002685547,8|8,1:3|0:3,0:3:0:0:
73,161,56926,6,0,P|34:116|27:57,1,120.000004577637,6|0,1:2|1:2,0:2:0:0:
19,61,57514,2,0,L|30:-10,2,60.0000022888184,2|0|0,1:1|0:2|1:0,0:2:0:0:
212,220,58103,6,0,P|183:228|154:235,1,60.0000022888184,0|0,1:2|0:2,0:0:0:0:
90,279,58397,1,0,1:2:0:0:
136,339,58544,2,0,B|198:351|177:360|254:380,1,120.000004577637,2|0,0:3|0:2,0:2:0:0:
320,339,58985,2,0,P|322:309|328:279,1,60.0000022888184,8|0,1:2|0:2,0:2:0:0:
137,164,59279,6,0,P|98:119|91:60,1,120.000004577637,4|0,1:2|1:2,0:2:0:0:
97,58,59867,2,0,L|109:-5,2,60.0000022888184,2|0|0,1:1|0:2|1:0,0:2:0:0:
210,107,60308,6,0,L|280:124,1,60.0000022888184,2|0,0:3|1:2,0:2:0:0:
292,197,60603,2,0,L|362:214,1,60.0000022888184,2|0,0:3|1:2,0:2:0:0:
363,299,60897,2,0,B|426:312|409:320|495:334,1,120.000004577637,2|0,0:3|0:2,0:2:0:0:
512,226,61338,2,0,P|484:236|445:243,1,60.0000022888184,8|0,1:2|0:2,0:2:0:0:
209,164,61632,6,0,P|170:119|163:60,1,120.000004577637,4|0,1:2|1:2,0:2:0:0:
169,58,62220,2,0,L|181:-5,2,60.0000022888184,2|0|0,1:1|0:2|1:0,0:2:0:0:
311,226,62808,6,0,P|343:218|377:208,1,60.0000022888184,0|0,1:2|0:2,0:0:0:0:
419,277,63103,1,0,1:2:0:0:
356,331,63250,2,0,B|300:329|301:306|239:303,1,120.000004577637,2|0,0:3|0:2,0:2:0:0:
183,359,63691,2,0,P|147:367|119:378,1,60.0000022888184,8|0,1:2|0:2,0:2:0:0:
320,165,63985,6,0,P|281:120|274:61,1,120.000004577637,4|0,1:2|1:2,0:2:0:0:
280,59,64573,2,0,L|292:-4,2,60.0000022888184,2|0|0,1:1|0:2|1:0,0:2:0:0:
203,116,65014,6,0,L|136:128,1,60.0000022888184,2|0,0:3|1:2,0:2:0:0:
147,210,65308,2,0,L|80:222,1,60.0000022888184,2|0,0:3|1:2,0:2:0:0:
117,309,65603,2,0,B|53:317|62:324|-3:334,1,120.000004577637,2|0,0:3|0:2,0:2:0:0:
202,310,66044,2,0,P|237:320|269:328,1,60.0000022888184,8|0,1:2|0:2,0:2:0:0:
203,116,66338,6,0,P|180:52|189:-8,1,120.000004577637,6|0,1:2|1:2,0:2:0:0:
372,72,66926,2,0,P|369:35|357:4,1,60.0000022888184,2|0,1:1|0:2,0:2:0:0:
289,81,67220,2,0,P|286:44|274:13,1,60.0000022888184,0|0,1:2|0:2,0:2:0:0:
235,177,67514,6,0,P|201:189|177:200,1,60.0000022888184,2|0,1:2|0:2,0:0:0:0:
216,266,67808,1,0,1:2:0:0:
156,311,67956,2,0,P|127:301|97:296,1,60.0000022888184,2|0,0:2|1:2,0:2:0:0:
200,379,68250,1,2,0:2:0:0:
264,340,68397,2,0,P|297:332|332:320,1,60.0000022888184,8|0,1:2|0:2,0:2:0:0:
122,133,68691,6,0,P|99:69|108:9,1,120.000004577637,6|0,1:2|1:2,0:2:0:0:
399,71,69279,2,0,P|396:34|384:3,1,60.0000022888184,2|0,1:1|0:2,0:2:0:0:
316,80,69573,2,0,P|313:43|301:12,1,60.0000022888184,0|0,1:2|0:2,0:2:0:0:
258,145,69867,5,2,1:2:0:0:
329,178,70014,2,0,P|357:187|406:194,1,60.0000022888184,2|0,0:2|1:2,0:2:0:0:
272,232,70308,2,0,B|217:241|224:259|153:278,1,120.000004577637,2|0,0:2|0:2,0:0:0:0:
221,337,70750,2,0,P|250:346|284:361,1,60.0000022888184,8|0,1:2|0:2,0:2:0:0:
58,140,71044,6,0,P|35:76|44:16,1,120.000004577637,6|0,1:2|1:2,0:2:0:0:
478,61,71632,2,0,P|475:24|463:-7,1,60.0000022888184,2|0,1:1|0:2,0:2:0:0:
395,70,71926,2,0,P|392:33|380:2,1,60.0000022888184,0|0,1:2|0:2,0:2:0:0:
264,156,72220,5,2,1:2:0:0:
378,187,72367,1,2,0:2:0:0:
264,156,72514,1,2,1:2:0:0:
335,283,72661,2,0,P|364:293|399:302,1,60.0000022888184,2|0,0:2|1:2,0:2:0:0:
166,226,72956,2,0,P|135:233|102:247,1,60.0000022888184,2|0,1:2|1:0,0:0:0:0:
282,58,73250,2,0,P|292:24|295:-8,1,60.0000022888184,2|4,1:0|1:2,0:0:0:0:
192,69,75161,6,0,P|116:91|58:41,1,154.000004699707,12|0,0:3|0:2,0:2:0:0:
124,0,75750,6,0,B|164:80|132:80|164:158,1,155.999992858887,6|0,1:1|0:2,0:2:0:0:
160,150,76044,1,10,0:2:0:0:
334,135,76191,2,0,B|326:193|310:182|301:234,1,103.999995239258,2|0,0:1|1:2,0:2:0:0:
231,320,76485,1,2,0:2:0:0:
70,174,76632,2,0,B|100:255|63:248|97:326,1,155.999992858887,6|0,1:1|0:2,0:2:0:0:
97,326,76926,2,0,B|36:329|49:346|-8:346,1,103.999995239258,2|0,1:2|0:2,0:2:0:0:
380,254,77220,6,0,B|446:279|446:279|368:317,1,155.999992858887,14|0,1:2|0:0,0:2:0:0:
293,363,77514,2,0,B|268:314|268:314|294:263,1,103.999995239258,6|0,1:2|0:0,0:2:0:0:
188,53,77808,2,0,B|222:91|222:91|214:160,1,103.999995239258,14|0,1:2|0:0,0:2:0:0:
493,140,78103,6,0,P|420:114|349:141,1,155.999992858887,6|0,1:1|0:2,0:2:0:0:
349,140,78397,1,10,0:2:0:0:
213,302,78544,2,0,P|175:267|166:217,1,103.999995239258,2|0,0:1|1:2,0:2:0:0:
215,144,78838,1,2,0:2:0:0:
370,351,78985,2,0,P|417:290|413:214,1,155.999992858887,6|0,0:1|0:2,0:2:0:0:
413,214,79279,2,0,P|469:208|510:243,1,103.999995239258,2|0,1:2|0:2,0:2:0:0:
121,358,79573,6,0,B|52:315|52:315|126:311,1,155.999992858887,14|0,1:2|0:2,0:2:0:0:
196,262,79867,2,0,B|226:303|226:303|214:355,1,103.999995239258,6|0,1:2|0:0,0:2:0:0:
232,99,80161,2,0,B|205:55|205:55|223:4,1,103.999995239258,14|0,1:2|0:0,0:2:0:0:
383,232,80456,6,0,B|440:241|429:256|483:267,1,103.999995239258,6|0,1:1|0:2,0:2:0:0:
185,183,80750,2,0,B|154:195|129:191|129:191|90:237|43:245,1,155.999992858887,10|0,1:1|0:2,0:2:0:0:
47,244,81044,2,0,B|22:292|1:269|1:269|19:231,1,103.999995239258,2|0,1:2|0:2,0:2:0:0:
234,0,81338,2,0,B|267:27|267:27|240:93|276:167,1,155.999992858887,10|0,1:2|0:2,0:2:0:0:
264,137,81632,2,0,B|292:157|292:157|334:148|289:108,1,103.999995239258,6|0,1:1|0:2,0:2:0:0:
0,61,81926,2,0,B|38:82|46:108|46:108|80:142|140:110,1,155.999992858887,10|0,1:1|0:2,0:2:0:0:
128,115,82220,2,0,B|99:147|99:147|96:102|71:83,1,103.999995239258,2|0,1:2|0:2,0:2:0:0:
359,0,82514,6,0,B|404:37|404:37|376:98|405:128,1,155.999992858887,14|0,1:2|0:2,0:2:0:0:
405,128,82808,2,0,B|441:115|441:115|469:120|510:92,1,103.999995239258,6|0,1:1|0:2,0:2:0:0:
224,0,83103,2,0,B|179:4|161:18|161:18|123:26,1,103.999995239258,10|0,1:2|0:2,0:2:0:0:
221,157,83397,1,0,1:2:0:0:
221,157,83470,1,0,1:2:0:0:
221,157,83544,1,0,1:2:0:0:
124,25,83691,2,0,P|86:66|84:116,1,103.999995239258,12|0,1:2|0:0,0:2:0:0:
331,276,83985,6,0,P|374:213|366:137,1,155.999992858887,2|0,1:1|0:0,0:2:0:0:
365,136,84279,2,0,P|415:129|455:164,1,103.999995239258,10|0,1:2|0:2,0:2:0:0:
238,343,84573,1,8,0:2:0:0:
238,343,84647,1,8,0:2:0:0:
238,343,84720,2,8,P|235:311|223:272,1,51.999997619629,8|8,0:2|0:2,0:2:0:0:
273,218,84867,2,0,P|347:208|399:263,1,155.999992858887,10|0,1:2|0:2,0:2:0:0:
325,288,85161,6,0,L|309:185,1,103.999995239258,6|0,1:1|0:2,0:2:0:0:
263,67,85456,1,10,0:2:0:0:
155,263,85603,2,0,L|172:159,1,103.999995239258,2|0,0:1|1:2,0:2:0:0:
161,21,85897,1,2,0:2:0:0:
0,187,86044,2,0,L|62:32,1,155.999992858887,6|0,1:1|0:2,0:2:0:0:
57,42,86338,6,0,P|65:124|118:92,1,155.999992858887,2|0,1:2|0:2,0:2:0:0:
108,109,86632,2,0,B|63:122|50:109|8:136,1,103.999995239258,14|0,1:2|0:2,0:2:0:0:
232,273,86926,2,0,B|282:282|272:295|328:311,1,103.999995239258,6|0,1:2|0:2,0:2:0:0:
313,97,87220,2,0,B|327:51|334:59|349:0,1,103.999995239258,14|0,1:2|0:0,0:2:0:0:
92,198,87514,6,0,L|112:300,1,103.999995239258,6|0,1:1|0:2,0:2:0:0:
263,362,87808,1,10,0:2:0:0:
242,125,87956,2,0,L|222:232,1,103.999995239258,2|0,0:1|1:2,0:2:0:0:
413,279,88250,1,2,0:2:0:0:
408,17,88397,2,0,L|351:169,1,155.999992858887,6|0,1:1|0:2,0:2:0:0:
353,163,88691,6,0,B|395:176|395:176|425:162|362:140,1,103.999995239258,2|0,1:2|0:2,0:2:0:0:
148,102,88985,2,0,B|81:117|81:117|73:58|157:79,1,155.999992858887,14|0,1:2|0:2,0:2:0:0:
219,54,89279,2,0,B|252:103|252:103|233:143,1,103.999995239258,6|0,1:2|0:0,0:2:0:0:
74,326,89573,2,0,B|52:280|52:280|82:230,1,103.999995239258,14|0,1:2|0:0,0:2:0:0:
312,383,89867,6,0,B|346:374|346:374|356:364|356:364|410:352,1,103.999995239258,6|0,1:1|0:2,0:2:0:0:
96,231,90161,2,0,B|139:237|139:237|161:258|161:258|198:260|198:260|275:300,1,155.999992858887,10|0,1:1|0:2,0:2:0:0:
238,280,90456,2,0,B|271:270|271:270|281:260|281:260|335:248,1,103.999995239258,2|0,1:2|0:2,0:2:0:0:
101,88,90750,2,0,B|144:81|144:81|166:60|166:60|203:59|203:59|280:19,1,155.999992858887,14|0,1:2|0:2,0:2:0:0:
242,38,91044,6,0,B|188:26|188:26|178:15|178:15|127:2,1,103.999995239258,6|0,1:1|0:2,0:2:0:0:
351,243,91338,2,0,B|367:209|367:209|361:161|394:125|394:125|379:82,1,155.999992858887,10|0,1:1|0:2,0:2:0:0:
385,99,91632,2,0,B|371:60|371:60|376:43|376:43|367:-2,1,103.999995239258,2|0,1:2|0:2,0:2:0:0:
115,228,91926,2,0,B|98:194|98:194|104:146|71:110|71:110|86:67,1,155.999992858887,14|0,1:2|0:2,0:2:0:0:
80,84,92220,6,0,B|37:118|37:118|37:173,1,103.999995239258,6|0,1:1|0:2,0:2:0:0:
378,269,92514,2,0,B|378:213|378:213|338:186,1,103.999995239258,10|0,1:1|0:0,0:2:0:0:
90,327,92808,1,14,1:1:0:0:
90,327,92882,1,8,0:2:0:0:
90,327,92956,2,0,P|118:336|144:347,1,51.999997619629,8|8,0:2|0:2,0:0:0:0:
249,192,93103,1,8,0:2:0:0:
249,192,93176,1,8,0:2:0:0:
249,192,93250,2,0,P|219:203|190:209,1,51.999997619629,8|8,0:2|0:2,0:0:0:0:
256,284,93397,6,0,B|256:336|237:330|231:385,3,103.999995239258,14|2|2|2,1:2|0:2|0:2|0:0,0:0:0:0:
22,34,94279,2,0,B|-10:-3|-10:-3|37:17,1,90.0000034332277,12|0,0:3|0:2,0:2:0:0:
113,81,94573,6,0,B|124:130|124:130|121:141|121:141|133:196,1,103.999995239258,6|0,1:1|0:2,0:2:0:0:
256,192,94867,12,4,96926,1:2:0:0:
200,87,97220,5,8,0:2:0:0:
200,87,97367,2,0,P|149:160|171:243,1,176.000005371094,8|0,0:3|1:2,0:2:0:0:
342,303,97808,1,8,0:2:0:0:
266,161,97956,2,0,P|351:169|401:238,1,176.000005371094,2|0,1:2|1:2,0:2:0:0:
260,302,98397,2,0,P|218:313|164:332,1,88.000002685547,8|0,0:2|1:2,0:0:0:0:
301,32,98691,5,8,0:2:0:0:
301,32,98764,1,8,0:2:0:0:
301,32,98838,1,8,0:2:0:0:
301,32,98911,1,8,0:2:0:0:
301,32,98985,2,8,L|320:102,1,44.0000013427735,8|8,1:2|0:2,0:2:0:0:
344,96,99132,2,8,L|335:152,1,44.0000013427735,8|8,0:2|0:2,0:2:0:0:
259,170,99279,6,0,P|173:159|128:85,1,176.000005371094,6|10,1:1|0:2,0:2:0:0:
345,289,99720,2,0,P|386:302|430:317,1,88.000002685547,8|0,0:3|1:2,0:2:0:0:
382,206,100014,1,0,1:2:0:0:
263,328,100161,1,8,0:2:0:0:
182,242,100308,6,0,P|97:238|37:299,1,176.000005371094,2|0,1:2|1:2,0:2:0:0:
186,117,100750,2,0,P|175:61|166:15,1,88.000002685547,8|8,0:2|0:3,0:0:0:0:
90,134,101044,1,0,1:0:0:0:
245,193,101191,1,0,1:0:0:0:
90,134,101338,2,0,P|46:145|2:156,1,88.000002685547,8|0,0:2|1:2,0:0:0:0:
278,86,101632,5,10,1:1:0:0:
164,245,101779,1,10,1:1:0:0:
278,86,101926,1,10,1:1:0:0:
164,245,102073,2,0,L|181:339,1,88.000002685547,8|0,0:1|1:2,0:2:0:0:
280,254,102367,2,0,L|297:348,1,88.000002685547,8|0,0:1|1:2,0:2:0:0:
391,261,102661,2,0,L|408:355,1,88.000002685547,8|0,0:1|1:2,0:2:0:0:
497,270,102956,2,0,L|514:364,1,88.000002685547,8|0,0:1|1:2,0:2:0:0:
444,186,103250,5,8,0:1:0:0:
444,186,103323,1,8,0:1:0:0:
444,186,103397,1,8,0:1:0:0:
384,128,103544,1,8,0:3:0:0:
458,104,103691,1,12,0:3:0:0:
346,209,103838,6,0,B|304:269|236:259|236:259|221:214|232:162|232:162|187:203|144:208|144:208|88:141|133:75,1,448,10|0,0:1|0:2,0:2:0:0:
