osu file format v14

[General]
AudioFilename: audio.ogg
AudioLeadIn: 0
PreviewTime: 73544
Countdown: 0
SampleSet: Drum
StackLeniency: 0.7
Mode: 0
LetterboxInBreaks: 0
WidescreenStoryboard: 1

[Editor]
Bookmarks: 56926,95225
DistanceSpacing: 0.1
BeatDivisor: 4
GridSize: 8
TimelineZoom: 2.1

[Metadata]
Title:Showtime Ruler
TitleUnicode:ショウタイム・ルーラー
Artist:Rui Kamishiro (CV: Shunichi Toki)
ArtistUnicode:神代類 (CV: 土岐隼一)
Creator:AirinCat
Version:Hard
Source:プロジェクトセカイ カラフルステージ! feat. 初音ミク
Tags:ワンダーランズ×ショウタイム × 鏡音リン Wonderlands x Showtime pjsekai proseka puroseka WonderShow Another Vocal アナザーボーカル kagamine rin Karasuyasabou Karasuya sabou japanese rock jrock j-rock vocaloid cover ver video game version Revival my dream SEGA Colorful Palette project sekai colorful stage! stage feat. hatsune miku カラスヤサボウ 烏屋茶房
BeatmapID:4441748
BeatmapSetID:2110266

[Difficulty]
HPDrainRate:4
CircleSize:3.8
OverallDifficulty:6
ApproachRate:8
SliderMultiplier:1.4
SliderTickRate:1

[Events]
//Background and Video events
0,0,"106010975_p0.jpg",0,0
//Break Periods
//Storyboard Layer 0 (Background)
//Storyboard Layer 1 (Fail)
//Storyboard Layer 2 (Pass)
//Storyboard Layer 3 (Foreground)
//Storyboard Layer 4 (Overlay)
//Storyboard Sound Samples

[TimingPoints]
456,294.117647058824,4,2,2,40,1,0
456,-83.3333333333333,4,2,2,40,0,0
750,-111.111111111111,4,2,2,40,0,0
5161,-111.111111111111,4,2,1,40,0,0
5456,-111.111111111111,4,2,2,40,0,0
9867,-100,4,2,1,50,0,0
16926,-166.666666666667,4,2,3,60,0,0
17220,-166.666666666667,4,2,1,60,0,0
18691,-166.666666666667,4,2,1,50,0,0
19279,-90.9090909090909,4,2,2,60,0,0
19426,-90.9090909090909,4,2,1,60,0,0
23985,-90.9090909090909,4,2,2,60,0,0
24132,-90.9090909090909,4,2,1,60,0,0
28691,-90.9090909090909,4,2,3,60,0,0
28985,-100,4,2,1,40,0,0
33691,-76.9230769230769,4,2,3,50,0,0
33985,-90.9090909090909,4,2,1,40,0,0
37514,-71.4285714285714,4,2,1,50,0,0
38103,-90.9090909090909,4,2,1,50,0,0
40088,-66.6666666666667,4,2,1,60,0,0
40456,-90.9090909090909,4,2,1,60,0,0
42514,-66.6666666666667,4,2,1,60,0,0
42808,-90.9090909090909,4,2,1,60,0,0
45161,-166.666666666667,4,2,3,60,0,0
45456,-166.666666666667,4,2,1,60,0,0
46926,-166.666666666667,4,2,1,60,0,0
47514,-90.9090909090909,4,2,2,60,0,0
47661,-90.9090909090909,4,2,1,60,0,0
52220,-90.9090909090909,4,2,2,60,0,0
52367,-90.9090909090909,4,2,1,60,0,0
56926,-133.333333333333,4,2,1,42,0,0
57514,-133.333333333333,4,2,2,42,0,0
57661,-133.333333333333,4,2,1,42,0,0
59867,-133.333333333333,4,2,2,42,0,0
60014,-133.333333333333,4,2,1,42,0,0
62220,-133.333333333333,4,2,2,42,0,0
62367,-133.333333333333,4,2,1,42,0,0
64573,-133.333333333333,4,2,2,42,0,0
64720,-133.333333333333,4,2,1,42,0,0
66338,-133.333333333333,4,3,1,50,0,0
66926,-133.333333333333,4,3,2,50,0,0
67073,-133.333333333333,4,3,1,50,0,0
69279,-133.333333333333,4,3,2,50,0,0
69426,-133.333333333333,4,3,1,50,0,0
71632,-133.333333333333,4,3,2,50,0,0
71779,-133.333333333333,4,3,1,50,0,0
75161,-181.818181818181,4,2,1,70,0,0
75676,-181.818181818181,4,2,1,5,0,0
75750,-83.3333333333333,4,2,2,70,0,1
75970,-83.3333333333333,4,2,2,5,0,1
76044,-83.3333333333333,4,2,1,70,0,1
76191,-83.3333333333333,4,2,2,70,0,1
76338,-83.3333333333333,4,2,1,70,0,1
76632,-83.3333333333333,4,2,4,70,0,1
76853,-83.3333333333333,4,2,4,5,0,1
76926,-83.3333333333333,4,2,1,70,0,1
77220,-83.3333333333333,4,2,3,70,0,1
78103,-83.3333333333333,4,2,4,70,0,1
78323,-83.3333333333333,4,2,4,5,0,1
78397,-83.3333333333333,4,2,1,70,0,1
78544,-83.3333333333333,4,2,2,70,0,1
78691,-83.3333333333333,4,2,1,70,0,1
78985,-83.3333333333333,4,2,4,70,0,1
79206,-83.3333333333333,4,2,4,5,0,1
79279,-83.3333333333333,4,2,1,70,0,1
79573,-83.3333333333333,4,2,3,70,0,1
80456,-83.3333333333333,4,2,1,70,0,1
85161,-83.3333333333333,4,2,2,70,0,1
85456,-83.3333333333333,4,2,1,70,0,1
85603,-83.3333333333333,4,2,2,70,0,1
85750,-83.3333333333333,4,2,1,70,0,1
86044,-83.3333333333333,4,2,4,70,0,1
86264,-83.3333333333333,4,2,4,5,0,1
86338,-83.3333333333333,4,2,1,70,0,1
86632,-83.3333333333333,4,2,3,70,0,1
87514,-83.3333333333333,4,2,4,70,0,1
87808,-83.3333333333333,4,2,1,70,0,1
87955,-83.3333333333333,4,2,2,70,0,1
88102,-83.3333333333333,4,2,1,70,0,1
88396,-83.3333333333333,4,2,4,70,0,1
88617,-83.3333333333333,4,2,4,5,0,1
88691,-83.3333333333333,4,2,1,70,0,1
88985,-83.3333333333333,4,2,3,70,0,1
89867,-83.3333333333333,4,2,1,70,0,1
92220,-83.3333333333333,4,2,4,70,0,1
92367,-83.3333333333333,4,2,1,70,0,1
92808,-83.3333333333333,4,2,4,70,0,1
92882,-83.3333333333333,4,2,1,70,0,1
94279,-133.333333333333,4,2,1,70,0,0
94500,-133.333333333333,4,2,1,5,0,0
94573,-83.3333333333333,4,2,2,70,0,0
97220,-90.9090909090909,4,2,1,70,0,0
99279,-90.9090909090909,4,2,2,70,0,0
99573,-90.9090909090909,4,2,1,70,0,0
103838,-125,4,2,1,70,0,0
103985,-125,4,2,1,20,0,0

[Colours]
Combo1 : 17,254,176
Combo2 : 193,132,255

[HitObjects]
202,244,161,5,2,0:1:0:0:
23,215,456,1,6,1:1:0:0:
23,215,750,2,0,B|27:149|45:153|50:74,2,125.999996154785,2|8|0,0:2|0:2|0:2,0:2:0:0:
76,287,1485,2,0,P|132:315|194:301,1,125.999996154785,2|0,0:2|0:2,0:2:0:0:
277,272,1926,2,0,P|309:282|351:290,2,62.9999980773926,2|0|10,0:2|0:2|0:2,0:2:0:0:
171,153,2514,2,0,P|180:119|184:91,1,62.9999980773926,2|0,1:2|0:2,0:2:0:0:
259,71,2808,6,0,P|325:66|377:101,1,125.999996154785,6|0,1:2|0:2,0:2:0:0:
459,60,3250,2,0,P|490:118|482:177,1,125.999996154785,4|0,1:2|0:2,0:2:0:0:
512,260,3691,2,0,P|450:294|388:284,1,125.999996154785,4|0,1:2|0:2,0:2:0:0:
397,288,4573,1,8,0:2:0:0:
231,234,4867,2,0,P|200:244|169:250,1,62.9999980773926,2|0,1:2|0:2,0:2:0:0:
77,217,5161,6,0,P|47:162|55:101,1,125.999996154785,6|2,1:2|0:2,0:2:0:0:
209,0,5750,2,0,P|242:52|240:114,1,125.999996154785,8|0,0:2|0:2,0:0:0:0:
304,174,6191,2,0,B|368:188|357:194|429:214,1,125.999996154785,2|0,0:2|0:2,0:2:0:0:
496,156,6632,2,0,P|502:121|518:86,2,62.9999980773926,2|0|10,0:2|0:2|0:2,0:2:0:0:
385,294,7220,2,0,P|391:329|399:372,1,62.9999980773926,2|0,1:2|0:2,0:2:0:0:
307,338,7514,6,0,B|235:343|253:359|173:367,1,125.999996154785,6|0,1:2|0:2,0:2:0:0:
107,314,7956,2,0,B|112:251|131:257|136:180,1,125.999996154785,4|0,1:2|0:2,0:2:0:0:
211,143,8397,2,0,B|285:155|264:170|358:189,1,125.999996154785,4|2,1:2|0:3,0:2:0:0:
445,118,8985,1,2,0:3:0:0:
445,118,9279,1,8,0:2:0:0:
445,118,9573,2,0,P|438:80|432:48,1,62.9999980773926,2|0,1:3|0:2,0:2:0:0:
412,191,9867,6,0,P|421:261|427:339,1,140,4|0,1:2|1:2,0:2:0:0:
354,367,10308,1,0,0:2:0:0:
354,367,10456,2,0,P|279:366|201:382,1,140,0|0,1:2|1:2,0:2:0:0:
151,334,10897,2,0,P|144:300|143:258,1,70,2|0,0:2|1:2,0:2:0:0:
205,203,11191,2,0,P|203:168|196:133,1,70,2|0,0:2|1:2,0:2:0:0:
129,88,11485,2,0,P|99:90|40:102,2,70,2|0|0,0:0|1:2|0:0,0:0:0:0:
202,21,11926,1,12,1:2:0:0:
202,21,12220,6,0,P|268:46|336:37,1,140,0|0,1:2|1:2,0:2:0:0:
423,69,12661,1,0,0:2:0:0:
423,69,12808,2,0,P|443:139|441:207,1,140,0|0,1:2|1:2,0:2:0:0:
380,267,13250,2,0,P|340:274|305:282,1,70,2|0,0:2|1:2,0:2:0:0:
255,221,13544,2,0,P|215:213|180:206,1,70,2|0,0:2|1:2,0:2:0:0:
119,261,13838,2,0,P|82:265|39:274,2,70,2|0|0,0:0|1:2|0:0,0:0:0:0:
186,331,14279,1,12,1:2:0:0:
186,331,14573,6,0,P|249:357|315:339,1,140,2|0,1:2|1:2,0:2:0:0:
372,282,15014,1,0,0:2:0:0:
354,202,15161,2,0,P|361:148|366:84,1,105,0|0,1:2|0:0,0:2:0:0:
365,97,15456,2,0,P|397:99|445:107,1,70,8|0,1:2|0:2,0:0:0:0:
351,11,15750,6,0,P|279:19|204:27,1,140,2|0,1:2|1:2,0:2:0:0:
152,75,16191,1,0,0:2:0:0:
203,141,16338,2,0,P|212:191|219:249,1,105,0|0,1:2|0:2,0:2:0:0:
218,244,16632,2,0,P|208:276|199:326,1,70,8|0,1:2|0:2,0:2:0:0:
110,357,16926,6,0,L|20:340,4,83.9999974365235,4|2|2|2|2,0:3|0:0|0:0|0:0|0:2,0:2:0:0:
110,357,18691,5,12,0:3:0:0:
110,357,19279,6,0,P|115:318|123:281,1,77.0000023498536,6|0,1:1|1:2,0:0:0:0:
200,239,19573,1,8,0:2:0:0:
265,299,19720,2,0,P|334:331|411:309,1,154.000004699707,8|0,0:3|1:2,0:2:0:0:
472,256,20161,1,8,0:2:0:0:
443,175,20308,2,0,P|426:101|460:34,1,154.000004699707,2|0,1:2|1:2,0:2:0:0:
363,30,20750,2,0,P|323:24|284:13,1,77.0000023498536,8|8,0:2|0:3,0:0:0:0:
277,21,20970,1,8,0:3:0:0:
269,28,21044,2,0,P|256:63|250:104,1,77.0000023498536,0|0,1:2|1:2,0:0:0:0:
174,138,21338,2,0,P|137:134|94:116,1,77.0000023498536,8|4,0:2|0:3,0:0:0:0:
26,171,21632,5,2,1:2:0:0:
26,171,21779,2,0,P|11:211|4:246,1,77.0000023498536,0|8,1:2|0:2,0:0:0:0:
50,318,22073,2,0,P|120:345|191:321,1,154.000004699707,8|0,0:3|1:2,0:2:0:0:
235,252,22514,1,8,0:2:0:0:
167,200,22661,2,0,P|147:127|180:59,1,154.000004699707,2|0,1:2|1:2,0:2:0:0:
267,62,23103,2,0,P|268:95|277:143,1,77.0000023498536,8|8,0:2|0:3,0:2:0:0:
351,185,23397,2,0,P|400:178|434:165,1,77.0000023498536,2|2,1:2|1:2,0:0:0:0:
416,258,23691,2,0,L|430:310,3,38.5000011749268,10|8|8|8,0:2|0:2|0:2|0:2,0:0:0:0:
470,324,23985,6,0,P|395:330|314:361,1,154.000004699707,6|8,1:1|0:2,0:2:0:0:
254,286,24426,2,0,P|181:312|105:312,1,154.000004699707,8|0,0:3|1:2,0:0:0:0:
42,258,24867,1,8,0:2:0:0:
67,175,25014,2,0,P|139:149|215:149,1,154.000004699707,2|0,1:2|1:2,2:2:0:0:
291,189,25456,2,0,P|330:186|372:174,1,77.0000023498536,8|8,0:2|0:3,0:0:0:0:
417,106,25750,2,0,P|410:61|398:30,1,77.0000023498536,0|0,1:0|1:0,0:0:0:0:
324,0,26044,2,0,P|286:5|230:13,1,77.0000023498536,8|4,0:2|0:3,0:0:0:0:
173,74,26338,5,2,1:2:0:0:
173,74,26485,2,0,P|133:72|91:65,1,77.0000023498536,0|8,1:2|0:2,0:0:0:0:
38,125,26779,2,0,P|-4:186|1:261,1,154.000004699707,8|0,0:3|1:2,0:2:0:0:
58,321,27220,1,8,0:2:0:0:
124,267,27367,2,0,P|199:263|263:304,1,154.000004699707,2|0,1:2|1:2,0:2:0:0:
326,365,27808,2,0,P|370:365|418:348,1,77.0000023498536,8|8,0:2|0:3,0:2:0:0:
405,265,28103,5,2,1:2:0:0:
405,265,28250,1,8,1:1:0:0:
319,242,28397,2,0,P|308:204|312:165,1,77.0000023498536,8|8,1:1|1:1,0:0:0:0:
384,125,28691,1,4,1:3:0:0:
384,125,28985,6,0,P|418:136|463:144,1,70,2|0,0:2|1:2,0:2:0:0:
477,47,29279,2,0,P|419:40|356:15,2,105,8|2|2,0:2|0:2|0:2,0:2:0:0:
461,147,29867,1,0,1:2:0:0:
285,128,30161,1,0,1:2:0:0:
285,128,30308,2,0,P|274:161|264:204,1,70,2|8,0:2|0:2,0:2:0:0:
310,273,30603,1,2,0:2:0:0:
310,273,30750,2,0,P|373:298|438:274,1,140,0|2,1:2|1:2,0:2:0:0:
258,358,31338,6,0,P|226:363|187:369,1,70,2|0,0:2|1:2,0:2:0:0:
112,337,31632,2,0,P|74:281|90:203,1,140,10|2,0:2|0:2,0:2:0:0:
130,147,32073,1,0,0:2:0:0:
130,147,32220,2,0,P|156:70|130:6,2,140,2|0|8,1:2|1:2|0:2,0:2:0:0:
197,221,32956,1,8,0:3:0:0:
197,221,33103,2,0,P|239:214|281:204,1,70,12|4,0:3|0:3,0:0:0:0:
349,152,33397,5,2,0:3:0:0:
349,152,33691,6,0,B|374:197|374:197|365:238|365:238|389:314,1,136.499993751526,4|0,1:3|0:2,0:2:0:0:
377,279,33985,2,0,P|302:282|253:339,1,154.000004699707,10|2,0:2|0:2,0:2:0:0:
121,234,34573,2,0,P|46:232|0:174,1,154.000004699707,2|2,1:2|1:2,0:0:0:0:
0,86,35014,2,0,P|39:70|83:57,1,77.0000023498536,2|8,0:2|0:2,0:2:0:0:
150,112,35308,1,2,0:2:0:0:
150,112,35456,2,0,P|219:131|299:90,1,154.000004699707,0|2,1:2|1:2,0:2:0:0:
474,76,36044,6,0,P|465:35|460:-2,1,77.0000023498536,0|0,0:2|1:2,0:0:0:0:
377,15,36338,2,0,P|393:102|407:185,1,154.000004699707,10|2,0:2|0:2,0:0:0:0:
483,198,36779,1,0,0:2:0:0:
483,198,36926,1,2,1:2:0:0:
306,265,37220,1,2,1:2:0:0:
306,265,37514,6,2,B|343:245|343:245|396:275|396:275|380:332,1,146.999995513916,2|2,0:1|0:1,0:1:0:0:
384,328,37808,2,2,B|350:362|350:362|288:337,1,97.9999970092774,2|0,0:1|0:0,0:1:0:0:
218,285,38103,6,0,B|221:199|245:219|248:125,2,154.000004699707,6|2|2,1:1|1:2|1:2,0:2:0:0:
0,213,38985,1,2,1:2:0:0:
0,213,39132,2,0,P|41:197|88:195,1,77.0000023498536,2|0,0:2|1:2,0:2:0:0:
58,279,39426,2,0,P|68:314|75:368,1,77.0000023498536,2|0,0:2|1:2,0:2:0:0:
160,368,39720,2,0,P|192:358|248:359,2,77.0000023498536,2|0|0,0:2|1:2|0:0,0:0:0:0:
174,265,40161,1,4,1:2:0:0:
174,265,40456,6,0,B|175:187|208:188|205:102,2,154.000004699707,4|2|2,1:1|1:2|1:2,0:2:0:0:
380,337,41338,1,2,1:2:0:0:
380,337,41485,2,0,P|343:347|291:349,1,77.0000023498536,2|0,0:2|1:2,0:2:0:0:
330,251,41779,2,0,P|323:209|323:168,1,77.0000023498536,2|0,0:2|1:2,0:2:0:0:
415,246,42073,2,0,P|455:237|501:241,2,77.0000023498536,2|0|0,0:2|1:2|0:0,0:0:0:0:
433,153,42514,1,4,1:2:0:0:
433,153,42808,6,0,B|425:62|452:74|439:-7,1,154.000004699707,6|2,1:1|1:2,0:2:0:0:
182,15,43397,2,0,P|187:46|200:133,1,115.50000352478,2|0,1:2|0:0,0:0:0:0:
199,129,43691,2,0,P|244:127|294:111,1,77.0000023498536,6|2,1:2|0:2,0:0:0:0:
170,218,43985,2,0,B|82:218|109:241|21:253,1,154.000004699707,6|2,1:1|1:2,0:2:0:0:
297,229,44573,2,0,P|351:233|413:258,1,115.50000352478,2|0,1:2|0:2,0:2:0:0:
407,254,44867,2,0,P|394:292|390:340,1,77.0000023498536,6|0,1:2|0:2,0:2:0:0:
401,144,45161,6,0,P|405:97|420:52,4,83.9999974365235,4|2|2|2|2,0:3|0:0|0:2|0:0|0:2,0:2:0:0:
401,144,46926,5,4,0:3:0:0:
401,144,47514,6,0,P|366:153|312:162,1,77.0000023498536,6|0,1:1|1:2,0:0:0:0:
252,108,47808,1,8,0:2:0:0:
169,133,47956,2,0,P|129:197|136:284,1,154.000004699707,8|0,0:3|1:2,0:0:0:0:
189,343,48397,1,8,0:2:0:0:
261,303,48544,2,0,P|334:282|406:305,1,154.000004699707,2|0,1:2|1:2,0:2:0:0:
489,332,48985,2,0,P|497:291|502:239,1,77.0000023498536,8|8,0:2|0:3,0:0:0:0:
492,247,49206,1,8,0:3:0:0:
484,239,49279,2,0,P|476:199|475:155,1,77.0000023498536,0|0,1:2|1:2,0:0:0:0:
418,99,49573,2,0,P|424:59|437:21,1,77.0000023498536,8|4,0:2|0:3,0:0:0:0:
342,39,49867,5,2,1:2:0:0:
342,39,50014,2,0,P|305:31|264:17,1,77.0000023498536,0|8,1:2|0:2,0:0:0:0:
277,107,50308,2,0,P|236:171|245:252,1,154.000004699707,8|0,0:3|1:2,0:2:0:0:
324,275,50750,1,8,0:2:0:0:
278,345,50897,2,0,P|206:371|133:351,1,154.000004699707,2|0,1:2|1:2,0:2:0:0:
42,347,51338,2,0,P|52:304|58:266,1,77.0000023498536,8|8,0:2|0:3,0:2:0:0:
139,235,51632,2,0,P|135:191|132:152,1,77.0000023498536,2|2,1:2|1:2,0:0:0:0:
55,92,51926,2,0,L|70:40,3,38.5000011749268,10|8|8|8,0:2|0:2|0:2|0:2,0:0:0:0:
42,20,52220,6,0,P|112:34|202:53,1,154.000004699707,6|8,1:1|0:2,0:2:0:0:
239,131,52661,2,0,P|310:112|406:95,1,154.000004699707,8|0,0:3|1:2,0:0:0:0:
422,16,53103,1,8,0:2:0:0:
485,68,53250,2,0,P|504:134|511:233,1,154.000004699707,2|0,1:2|1:2,0:2:0:0:
471,289,53691,2,0,P|440:299|386:303,1,77.0000023498536,8|8,0:2|0:3,0:0:0:0:
322,247,53985,2,0,P|283:249|247:261,1,77.0000023498536,0|0,1:2|1:2,0:0:0:0:
173,308,54279,2,0,P|175:345|187:390,1,77.0000023498536,8|4,0:2|0:3,0:0:0:0:
82,382,54573,5,2,1:2:0:0:
82,382,54720,2,0,P|81:345|71:304,1,77.0000023498536,0|8,1:2|0:2,0:0:0:0:
96,223,55014,2,0,P|166:194|239:212,1,154.000004699707,8|0,0:3|1:2,0:2:0:0:
303,267,55456,1,8,0:2:0:0:
384,232,55603,2,0,P|419:169|402:81,1,154.000004699707,2|0,1:2|1:2,0:2:0:0:
341,36,56044,2,0,P|311:43|255:53,1,77.0000023498536,8|0,0:2|1:2,0:2:0:0:
196,101,56338,5,8,0:2:0:0:
196,101,56411,1,8,0:2:0:0:
196,101,56485,1,8,0:2:0:0:
233,177,56632,2,8,P|221:212|217:260,1,77.0000023498536,8|8,1:3|0:3,0:3:0:0:
127,190,56926,6,0,P|115:132|99:81,1,105.000004005432,6|0,1:2|1:2,0:2:0:0:
317,128,57514,2,0,P|306:74|290:23,1,105.000004005432,2|0,1:1|1:0,0:2:0:0:
245,262,58103,6,0,P|254:296|263:337,2,52.5000020027161,0|0|0,1:2|0:2|1:2,0:0:0:0:
331,249,58544,2,0,P|375:222|427:222,1,105.000004005432,2|0,0:3|0:2,0:2:0:0:
482,286,58985,1,8,1:2:0:0:
256,163,59279,6,0,P|244:105|228:54,1,105.000004005432,4|0,1:2|1:2,0:2:0:0:
457,115,59867,2,0,P|446:61|430:10,1,105.000004005432,2|0,1:1|1:0,0:2:0:0:
346,38,60308,6,0,P|353:80|375:154,2,105.000004005432,2|2|2,0:3|0:3|0:3,0:2:0:0:
431,13,61044,1,0,0:0:0:0:
183,158,61338,1,8,1:2:0:0:
183,158,61632,6,0,P|171:100|155:49,1,105.000004005432,4|0,1:2|1:2,0:2:0:0:
364,109,62220,2,0,P|353:55|337:4,1,105.000004005432,2|0,1:1|1:0,0:2:0:0:
277,236,62808,6,0,P|302:243|337:251,1,52.5000020027161,0|0,1:2|0:2,0:0:0:0:
364,327,63103,1,0,1:2:0:0:
364,327,63250,2,0,P|306:334|252:352,1,105.000004005432,2|0,0:3|0:2,0:2:0:0:
187,342,63691,1,8,1:2:0:0:
255,149,63985,6,0,P|243:91|227:40,1,105.000004005432,4|0,1:2|1:2,0:2:0:0:
437,102,64573,2,0,P|426:48|410:-3,1,105.000004005432,2|0,1:1|1:0,0:2:0:0:
325,24,65014,6,0,P|341:79|358:145,2,105.000004005432,2|2|2,0:3|0:3|0:3,0:2:0:0:
242,16,65750,1,0,0:0:0:0:
124,195,66044,1,8,1:2:0:0:
124,195,66338,6,0,P|116:143|139:97,1,105.000004005432,6|0,1:2|1:2,0:2:0:0:
241,201,66926,2,0,P|249:176|249:149,1,52.5000020027161,2|0,1:1|0:2,0:2:0:0:
326,213,67220,2,0,P|334:188|334:161,1,52.5000020027161,0|0,1:2|0:2,0:2:0:0:
273,287,67514,6,0,P|276:308|282:342,2,52.5000020027161,2|0|0,1:2|0:2|1:2,0:0:0:0:
195,324,67956,2,0,B|137:330|152:342|76:356,1,105.000004005432,2|2,0:2|0:2,0:2:0:0:
28,305,68397,1,8,1:2:0:0:
105,143,68691,6,0,P|97:91|120:45,1,105.000004005432,6|0,1:2|1:2,0:2:0:0:
332,165,69279,2,0,P|340:140|340:113,1,52.5000020027161,2|0,1:1|0:2,0:2:0:0:
417,177,69573,2,0,P|425:152|425:125,1,52.5000020027161,0|0,1:2|0:2,0:2:0:0:
361,260,69867,5,2,1:2:0:0:
361,260,70014,2,0,P|369:297|373:331,1,52.5000020027161,2|0,0:2|1:2,0:2:0:0:
281,299,70308,2,0,B|227:300|236:314|170:327,1,105.000004005432,2|0,0:2|0:2,0:0:0:0:
102,293,70750,1,8,1:2:0:0:
64,99,71044,6,0,P|56:47|79:1,1,105.000004005432,6|0,1:2|1:2,0:2:0:0:
384,124,71632,2,0,P|392:99|392:72,1,52.5000020027161,2|0,1:1|0:2,0:2:0:0:
469,136,71926,2,0,P|477:111|477:84,1,52.5000020027161,0|0,1:2|0:2,0:2:0:0:
411,214,72220,6,0,P|416:238|420:280,1,52.5000020027161,2|2,1:2|0:2,0:0:0:0:
359,323,72514,1,2,1:2:0:0:
295,271,72661,2,0,P|297:240|307:210,1,52.5000020027161,2|0,0:2|1:2,0:2:0:0:
239,166,72956,2,0,P|237:135|227:105,1,52.5000020027161,2|0,1:2|1:0,0:0:0:0:
300,70,73250,2,0,P|309:36|324:13,1,52.5000020027161,2|4,1:0|1:2,0:0:0:0:
249,33,75161,5,12,0:3:0:0:
249,33,75750,6,0,P|292:78|296:140,1,125.999996154785,6|0,1:1|0:2,0:2:0:0:
290,155,76044,1,10,0:2:0:0:
215,208,76191,2,0,P|174:200|145:170,1,83.9999974365235,2|0,0:1|1:2,0:2:0:0:
153,88,76485,1,2,0:2:0:0:
145,170,76632,2,0,P|79:182|26:140,1,125.999996154785,6|0,1:1|0:2,0:2:0:0:
22,137,76926,2,0,P|9:185|-1:224,1,83.9999974365235,2|0,1:2|0:2,0:2:0:0:
44,311,77220,6,0,B|82:293|82:293|127:305,1,83.9999974365235,14|0,1:2|0:0,0:2:0:0:
194,355,77514,2,0,B|232:373|232:373|275:360,1,83.9999974365235,6|0,1:2|0:0,0:2:0:0:
355,326,77808,2,0,B|373:283|373:283|360:234,1,83.9999974365235,14|0,1:2|0:0,0:2:0:0:
281,162,78103,6,0,P|243:111|250:50,1,125.999996154785,6|0,1:1|0:2,0:2:0:0:
265,50,78397,1,10,0:2:0:0:
364,18,78544,2,0,P|389:50|393:91,1,83.9999974365235,2|0,0:1|1:2,0:2:0:0:
369,171,78838,1,2,0:2:0:0:
393,91,78985,2,0,P|453:80|503:116,1,125.999996154785,6|0,0:1|0:2,0:2:0:0:
512,130,79279,2,0,P|501:173|494:230,1,83.9999974365235,2|0,1:2|0:2,0:2:0:0:
423,283,79573,6,0,B|435:322|435:322|430:335|430:335|441:376,1,83.9999974365235,14|0,1:2|0:0,0:2:0:0:
318,382,79867,2,0,B|325:353|325:353|320:340|320:340|332:301,1,83.9999974365235,6|0,1:2|0:0,0:2:0:0:
264,248,80161,2,0,B|220:253|220:253|218:260|218:260|166:271,1,83.9999974365235,14|0,1:2|0:0,0:2:0:0:
118,327,80456,6,0,B|88:295|88:295|90:254,1,83.9999974365235,6|0,1:1|0:2,0:2:0:0:
142,173,80750,2,0,B|174:128|174:128|150:86|159:41,1,125.999996154785,10|0,1:1|0:2,0:2:0:0:
161,44,81044,2,0,B|136:26|136:26|117:31|83:22,1,83.9999974365235,2|0,1:2|0:2,0:2:0:0:
22,105,81338,2,0,B|-4:133|-4:133|15:178|-6:238,1,125.999996154785,10|0,1:2|0:2,0:2:0:0:
0,233,81632,2,0,B|20:261|20:261|17:277|28:318,1,83.9999974365235,6|0,1:1|0:2,0:2:0:0:
118,327,81926,2,0,B|153:315|177:321|177:321|219:322|255:280,1,125.999996154785,10|0,1:1|0:2,0:2:0:0:
243,281,82220,2,0,B|276:248|276:248|329:262,1,83.9999974365235,2|0,1:2|0:2,0:2:0:0:
371,317,82514,2,0,B|435:334|435:334|480:322|476:265,1,125.999996154785,14|0,1:2|0:2,0:2:0:0:
490,280,82808,6,0,B|477:243|493:242|478:185,1,83.9999974365235,6|0,1:1|0:2,0:2:0:0:
404,146,83103,2,0,B|416:100|400:99|413:62,1,83.9999974365235,10|0,1:2|0:2,0:2:0:0:
488,13,83397,1,0,1:2:0:0:
488,13,83544,1,0,1:2:0:0:
412,63,83691,2,0,P|370:57|329:48,1,83.9999974365235,12|0,1:2|0:0,0:2:0:0:
249,100,83985,6,0,P|219:154|234:213,1,125.999996154785,2|0,1:1|0:0,0:2:0:0:
245,223,84279,2,0,P|291:210|339:233,1,83.9999974365235,10|0,1:2|0:2,0:2:0:0:
338,326,84573,2,0,L|267:348,3,41.9999987182618,8|8|8|8,0:2|0:2|0:2|0:2,0:0:0:0:
264,377,84867,2,0,L|208:366,3,41.9999987182618,10|8|8|8,1:2|0:0|0:0|0:2,0:2:0:0:
198,335,85161,6,0,L|115:354,1,83.9999974365235,6|0,1:1|0:2,0:2:0:0:
26,344,85456,1,10,0:2:0:0:
69,263,85603,2,0,L|160:242,1,83.9999974365235,2|0,0:1|1:2,0:2:0:0:
231,190,85897,1,2,0:2:0:0:
150,140,86044,2,0,L|6:172,1,125.999996154785,6|0,1:1|0:2,0:2:0:0:
16,162,86338,2,0,P|-13:107|39:85,1,125.999996154785,2|0,1:2|0:2,0:2:0:0:
46,81,86632,6,0,B|67:45|67:45|57:-12,1,83.9999974365235,14|0,1:2|0:2,0:2:0:0:
176,8,86926,2,0,B|207:42|207:42|203:95,1,83.9999974365235,6|0,1:2|0:2,0:2:0:0:
329,76,87220,2,0,B|326:34|326:34|364:-11,1,83.9999974365235,14|0,1:2|0:0,0:2:0:0:
416,128,87514,6,0,L|435:209,1,83.9999974365235,6|0,1:1|0:2,0:2:0:0:
392,286,87808,1,10,0:2:0:0:
304,239,87956,2,0,L|284:148,1,83.9999974365235,2|0,0:1|1:2,0:2:0:0:
209,83,88250,1,2,0:2:0:0:
141,160,88397,2,0,L|169:308,1,125.999996154785,6|0,1:1|0:2,0:2:0:0:
169,296,88691,2,0,L|83:317,1,83.9999974365235,2|0,1:2|0:2,0:2:0:0:
232,357,88985,6,0,B|277:356|277:356|316:384,1,83.9999974365235,14|0,1:2|0:0,0:2:0:0:
400,339,89279,2,0,B|418:302|418:302|406:249,1,83.9999974365235,6|0,1:2|0:0,0:2:0:0:
340,193,89573,2,0,B|324:153|324:153|355:107,1,83.9999974365235,14|0,1:2|0:0,0:2:0:0:
434,172,89867,6,0,B|464:178|464:178|479:191|479:191|534:200,1,83.9999974365235,6|0,1:1|0:2,0:2:0:0:
472,66,90161,2,0,B|416:55|416:55|400:35|400:35|336:20,1,125.999996154785,10|0,1:1|0:2,0:2:0:0:
339,17,90456,2,0,B|305:22|305:22|290:35|290:35|260:41,1,83.9999974365235,2|0,1:2|0:2,0:2:0:0:
207,130,90750,2,0,B|151:119|151:119|135:99|135:99|71:84,1,125.999996154785,14|0,1:2|0:2,0:2:0:0:
86,66,91044,2,0,B|52:71|52:71|37:84|37:84|7:90,1,83.9999974365235,6|0,1:1|0:2,0:2:0:0:
39,200,91338,2,0,B|72:199|72:199|95:218|132:215|132:215|170:237,1,125.999996154785,10|0,1:1|0:2,0:2:0:0:
158,248,91632,2,0,B|188:254|188:254|203:267|203:267|236:272,1,83.9999974365235,2|0,1:2|0:2,0:2:0:0:
298,204,91926,2,0,B|331:205|331:205|354:186|391:189|391:189|429:167,1,125.999996154785,14|0,1:2|0:2,0:2:0:0:
439,185,92220,6,0,P|450:218|465:280,1,83.9999974365235,6|0,1:1|0:2,0:2:0:0:
385,302,92514,2,0,P|375:339|368:392,1,83.9999974365235,10|0,1:1|0:0,0:2:0:0:
258,317,92808,2,0,L|249:266,3,41.9999987182618,14|8|8|8,1:1|0:2|0:2|0:2,0:0:0:0:
213,242,93103,2,0,L|221:189,3,41.9999987182618,8|8|8|8,0:2|0:2|0:2|0:2,0:0:0:0:
253,162,93397,1,14,1:2:0:0:
14,345,94279,2,0,B|40:318|40:318|93:317,1,78.7500030040742,12|0,0:3|0:2,0:2:0:0:
93,328,94573,6,0,L|186:357,1,83.9999974365235,6|0,1:1|0:2,0:2:0:0:
256,192,94867,12,4,96926,1:2:0:0:
264,184,97367,6,0,P|200:225|126:214,1,154.000004699707,8|0,0:3|1:2,0:2:0:0:
61,157,97808,1,8,0:2:0:0:
89,71,97956,2,0,P|152:29|226:40,1,154.000004699707,2|0,1:2|1:2,0:2:0:0:
303,89,98397,2,0,P|342:81|381:73,1,77.0000023498536,8|0,0:2|1:2,0:0:0:0:
447,130,98691,2,0,L|459:182,3,38.5000011749268,8|8|8|8,0:2|0:2|0:2|0:2,0:0:0:0:
491,200,98985,2,8,L|479:252,3,38.5000011749268,8|8|8|8,1:2|0:2|0:2|0:2,0:2:0:0:
455,270,99279,6,0,P|374:287|291:309,1,154.000004699707,6|10,1:1|0:2,0:2:0:0:
231,243,99720,2,0,P|156:231|68:215,1,154.000004699707,8|0,0:3|1:2,0:2:0:0:
27,285,100161,1,8,0:2:0:0:
71,364,100308,2,0,P|156:353|242:344,1,154.000004699707,2|0,1:2|1:2,0:2:0:0:
305,304,100750,2,0,P|350:317|403:328,1,77.0000023498536,8|8,0:2|0:3,0:0:0:0:
456,274,101044,2,0,P|464:230|475:199,1,77.0000023498536,0|0,1:0|1:0,0:0:0:0:
413,132,101338,2,0,P|410:90|400:55,1,77.0000023498536,8|0,0:2|1:2,0:0:0:0:
312,29,101632,5,10,1:1:0:0:
312,29,101779,1,10,1:1:0:0:
249,86,101926,1,10,1:1:0:0:
249,86,102073,2,0,L|173:100,1,77.0000023498536,8|0,0:1|1:2,0:2:0:0:
267,173,102367,2,0,L|191:187,1,77.0000023498536,8|0,0:1|1:2,0:2:0:0:
279,266,102661,2,0,L|203:280,1,77.0000023498536,8|0,0:1|1:2,0:2:0:0:
295,351,102956,2,0,L|219:365,1,77.0000023498536,8|0,0:1|1:2,0:2:0:0:
131,335,103250,5,8,0:1:0:0:
131,335,103323,1,8,0:1:0:0:
131,335,103397,2,0,L|46:351,2,77.0000023498536,8|8|12,0:1|0:3|0:3,0:0:0:0:
203,279,103838,6,0,B|221:313|283:331|283:331|307:312|311:241|311:241|341:280|388:293|388:293|429:250|400:181,1,392,10|0,0:1|0:2,0:2:0:0:
