osu file format v14

[General]
AudioFilename: audio.ogg
AudioLeadIn: 0
PreviewTime: 73544
Countdown: 0
SampleSet: Drum
StackLeniency: 0.7
Mode: 0
LetterboxInBreaks: 0
WidescreenStoryboard: 1

[Editor]
Bookmarks: 56926,95225
DistanceSpacing: 1.1
BeatDivisor: 4
GridSize: 8
TimelineZoom: 2.1

[Metadata]
Title:Showtime Ruler
TitleUnicode:ショウタイム・ルーラー
Artist:Rui Kamishiro (CV: Shunichi Toki)
ArtistUnicode:神代類 (CV: 土岐隼一)
Creator:AirinCat
Version:Easy
Source:プロジェクトセカイ カラフルステージ! feat. 初音ミク
Tags:ワンダーランズ×ショウタイム × 鏡音リン Wonderlands x Showtime pjsekai proseka puroseka WonderShow Another Vocal アナザーボーカル kagamine rin Karasuyasabou Karasuya sabou japanese rock jrock j-rock vocaloid cover ver video game version Revival my dream SEGA Colorful Palette project sekai colorful stage! stage feat. hatsune miku カラスヤサボウ 烏屋茶房
BeatmapID:4441782
BeatmapSetID:2110266

[Difficulty]
HPDrainRate:2
CircleSize:3
OverallDifficulty:3
ApproachRate:4
SliderMultiplier:0.8
SliderTickRate:1

[Events]
//Background and Video events
0,0,"106010975_p0.jpg",0,0
//Break Periods
//Storyboard Layer 0 (Background)
//Storyboard Layer 1 (Fail)
//Storyboard Layer 2 (Pass)
//Storyboard Layer 3 (Foreground)
//Storyboard Layer 4 (Overlay)
//Storyboard Sound Samples

[TimingPoints]
456,294.117647058824,4,2,2,40,1,0
456,-100,4,2,2,40,0,0
750,-100,4,2,2,40,0,0
5161,-100,4,2,1,40,0,0
5456,-100,4,2,2,40,0,0
9867,-100,4,2,1,50,0,0
16926,-100,4,2,3,60,0,0
17220,-100,4,2,1,60,0,0
18691,-100,4,2,1,50,0,0
19279,-100,4,2,2,60,0,0
19426,-100,4,2,1,60,0,0
23985,-100,4,2,2,60,0,0
24132,-100,4,2,1,60,0,0
28691,-100,4,2,3,60,0,0
28985,-100,4,2,1,40,0,0
33691,-100,4,2,3,50,0,0
33985,-100,4,2,1,40,0,0
37514,-100,4,2,1,50,0,0
38103,-100,4,2,1,50,0,0
40088,-100,4,2,1,60,0,0
40456,-100,4,2,1,60,0,0
42514,-100,4,2,1,60,0,0
42808,-100,4,2,1,60,0,0
45161,-100,4,2,3,60,0,0
45456,-100,4,2,1,60,0,0
46926,-100,4,2,1,60,0,0
47514,-100,4,2,2,60,0,0
47661,-100,4,2,1,60,0,0
52220,-100,4,2,2,60,0,0
52367,-100,4,2,1,60,0,0
56926,-100,4,2,1,42,0,0
57514,-100,4,2,2,42,0,0
57661,-100,4,2,1,42,0,0
59867,-100,4,2,2,42,0,0
60014,-100,4,2,1,42,0,0
62220,-100,4,2,2,42,0,0
62367,-100,4,2,1,42,0,0
64573,-100,4,2,2,42,0,0
64720,-100,4,2,1,42,0,0
66338,-100,4,3,1,50,0,0
66926,-100,4,3,2,50,0,0
67073,-100,4,3,1,50,0,0
69279,-100,4,3,2,50,0,0
69426,-100,4,3,1,50,0,0
71632,-100,4,3,2,50,0,0
71779,-100,4,3,1,50,0,0
75161,-100,4,2,1,70,0,0
75676,-100,4,2,1,5,0,0
75750,-100,4,2,2,70,0,1
75970,-100,4,2,2,5,0,1
76044,-100,4,2,1,70,0,1
76191,-100,4,2,2,70,0,1
76338,-100,4,2,1,70,0,1
76632,-100,4,2,4,70,0,1
76853,-100,4,2,4,5,0,1
76926,-100,4,2,1,70,0,1
77220,-100,4,2,3,70,0,1
78103,-100,4,2,4,70,0,1
78323,-100,4,2,4,5,0,1
78397,-100,4,2,1,70,0,1
78544,-100,4,2,2,70,0,1
78691,-100,4,2,1,70,0,1
78985,-100,4,2,4,70,0,1
79206,-100,4,2,4,5,0,1
79279,-100,4,2,1,70,0,1
79573,-100,4,2,3,70,0,1
80456,-100,4,2,1,70,0,1
85161,-100,4,2,2,70,0,1
85456,-100,4,2,1,70,0,1
85603,-100,4,2,2,70,0,1
85750,-100,4,2,1,70,0,1
86044,-100,4,2,4,70,0,1
86264,-100,4,2,4,5,0,1
86338,-100,4,2,1,70,0,1
86632,-100,4,2,3,70,0,1
87514,-100,4,2,4,70,0,1
87808,-100,4,2,1,70,0,1
87955,-100,4,2,2,70,0,1
88102,-100,4,2,1,70,0,1
88396,-100,4,2,4,70,0,1
88617,-100,4,2,4,5,0,1
88691,-100,4,2,1,70,0,1
88985,-100,4,2,3,70,0,1
89867,-100,4,2,1,70,0,1
92220,-100,4,2,4,70,0,1
92367,-100,4,2,1,70,0,1
92808,-100,4,2,4,70,0,1
92882,-100,4,2,1,70,0,1
94279,-100,4,2,1,70,0,0
94500,-100,4,2,1,5,0,0
94573,-100,4,2,2,70,0,0
97220,-100,4,2,1,70,0,0
99279,-100,4,2,2,70,0,0
99573,-100,4,2,1,70,0,0
103838,-100,4,2,1,70,0,0
103985,-100,4,2,1,20,0,0

[Colours]
Combo1 : 17,254,176
Combo2 : 193,132,255

[HitObjects]
55,94,161,5,2,0:1:0:0:
124,148,456,2,0,L|206:132,1,80,6|2,1:1|0:2,0:2:0:0:
282,170,1044,2,0,P|312:220|308:279,1,120,8|2,0:2|0:2,0:0:0:0:
109,373,2220,5,10,0:2:0:0:
38,320,2514,1,2,1:2:0:0:
68,237,2808,2,0,P|115:219|186:215,2,120,6|4|4,1:2|1:2|1:2,0:2:0:0:
395,366,4867,5,2,1:2:0:0:
356,286,5161,2,0,P|360:241|370:204,1,80,6|2,1:2|0:2,0:2:0:0:
436,150,5750,2,0,P|436:91|397:48,1,120,8|2,0:2|0:2,0:0:0:0:
178,28,6926,5,10,0:2:0:0:
130,101,7220,1,2,1:2:0:0:
190,164,7514,2,0,P|247:156|313:135,2,120,6|4|4,1:2|1:2|1:2,0:2:0:0:
38,329,9573,5,2,1:3:0:0:
114,286,9867,2,0,L|203:310,1,80,4|0,1:2|1:2,0:2:0:0:
265,354,10456,2,0,L|346:338,1,80,0|0,1:2|1:2,0:2:0:0:
399,270,11044,2,0,L|486:286,2,80,0|0|0,1:2|1:2|1:2,0:0:0:0:
360,191,11926,1,12,1:2:0:0:
282,149,12220,6,0,L|197:164,1,80,0|0,1:2|1:2,0:2:0:0:
151,233,12808,2,0,L|68:249,1,80,0|0,1:2|1:2,0:2:0:0:
11,184,13397,2,0,L|-2:98,2,80,0|0|0,1:2|1:2|1:2,0:0:0:0:
93,153,14279,1,12,1:2:0:0:
176,124,14573,6,0,L|259:144,1,80,2|0,1:2|1:2,0:2:0:0:
322,88,15161,2,0,L|409:69,1,80,0|8,1:2|1:2,0:2:0:0:
466,129,15750,2,0,L|483:211,1,80,2|0,1:2|1:2,0:2:0:0:
397,230,16338,2,0,L|378:311,1,80,0|8,1:2|1:2,0:2:0:0:
444,365,16926,1,4,0:3:0:0:
257,27,18691,5,12,0:3:0:0:
153,169,19279,6,0,B|70:192|87:209|-10:230,1,160,6|0,1:1|1:0,0:0:0:0:
98,318,20308,2,0,B|160:318|157:331|230:341,1,120,2|8,1:2|0:2,0:2:0:0:
297,305,21044,1,0,1:2:0:0:
322,220,21338,1,8,0:2:0:0:
254,164,21632,6,0,P|232:89|278:28,1,160,2|0,1:2|1:2,0:0:0:0:
409,47,22661,2,0,B|413:116|426:104|431:165,1,120,2|8,1:2|0:2,0:2:0:0:
472,242,23397,1,2,1:2:0:0:
422,314,23691,1,10,0:2:0:0:
335,297,23985,6,0,B|247:302|269:327|164:339,1,160,6|0,1:1|1:0,0:2:0:0:
73,260,25014,2,0,P|64:192|99:144,1,120,2|8,1:2|0:2,2:2:0:0:
171,117,25750,1,0,1:0:0:0:
245,164,26044,1,8,0:2:0:0:
320,118,26338,6,0,P|389:80|466:95,1,160,2|0,1:2|1:2,0:0:0:0:
485,225,27367,2,0,P|432:252|374:243,1,120,2|8,1:2|0:2,0:2:0:0:
307,185,28103,1,2,1:2:0:0:
226,221,28397,1,8,1:1:0:0:
222,308,28691,5,4,1:3:0:0:
49,272,29279,2,0,P|16:190|50:113,1,160,8|0,0:2|1:2,0:2:0:0:
115,83,30161,2,0,P|158:91|202:102,1,80,0|8,1:2|0:2,0:0:0:0:
259,158,30750,1,0,1:2:0:0:
325,100,31044,6,0,P|401:73|477:103,1,160,2|10,1:2|0:2,0:0:0:0:
441,272,32220,1,2,1:2:0:0:
363,313,32514,1,0,1:2:0:0:
295,257,32808,2,0,B|211:281|209:247|131:274,1,160,8|2,0:2|0:3,0:0:0:0:
61,226,33691,6,0,B|49:184|49:184|69:143,2,80,4|10|2,1:3|0:2|0:2,0:2:0:0:
26,307,34573,1,2,1:2:0:0:
93,363,34867,2,0,P|138:350|217:336,1,120,2|2,1:2|0:2,0:0:0:0:
265,216,35750,2,0,P|260:171|251:133,1,80,2|0,1:2|0:2,0:2:0:0:
288,56,36338,2,0,P|327:48|376:41,1,80,10|2,0:2|0:2,0:0:0:0:
432,100,36926,1,2,1:2:0:0:
367,159,37220,1,2,1:2:0:0:
440,209,37514,6,2,B|452:241|452:241|447:260|447:260|456:297,1,80,2|2,0:1|0:1,0:1:0:0:
389,346,38103,5,6,1:1:0:0:
313,300,38397,1,2,1:2:0:0:
235,340,38691,2,0,P|183:350|111:324,1,120,2|2,1:2|0:2,0:0:0:0:
60,266,39426,1,2,0:2:0:0:
80,180,39720,2,0,P|96:123|75:68,1,120,2|4,0:2|1:2,0:0:0:0:
143,11,40456,6,0,P|188:8|238:-5,1,80,4|2,1:1|1:2,0:2:0:0:
300,40,41044,2,0,P|328:91|316:164,1,120,2|2,1:2|0:2,0:2:0:0:
260,212,41779,1,2,0:2:0:0:
289,294,42073,2,0,P|340:330|409:316,1,120,2|4,0:2|1:2,0:0:0:0:
436,246,42808,6,0,P|472:228|516:229,2,80,6|2|2,1:1|1:2|1:2,0:2:0:0:
371,185,43691,1,6,1:2:0:0:
309,122,43985,2,0,P|308:79|325:36,2,80,6|2|2,1:1|1:2|1:2,0:2:0:0:
238,174,44867,1,6,1:2:0:0:
159,134,45161,1,4,0:3:0:0:
444,347,46926,5,4,0:3:0:0:
323,218,47514,6,0,P|303:142|337:71,1,160,6|0,1:1|1:0,0:0:0:0:
221,8,48543,2,0,P|159:22|93:34,1,120,2|8,1:2|0:2,0:2:0:0:
37,90,49279,1,0,1:2:0:0:
44,177,49573,1,8,0:2:0:0:
109,235,49867,6,0,P|195:224|274:201,1,160,2|0,1:2|1:2,0:0:0:0:
366,119,50896,2,0,P|422:104|474:131,1,120,2|8,1:2|0:2,0:2:0:0:
505,214,51632,1,2,1:2:0:0:
488,300,51926,1,10,0:2:0:0:
401,315,52220,6,0,B|310:311|332:336|230:338,1,160,6|0,1:1|1:0,0:2:0:0:
128,272,53249,2,0,P|119:204|154:156,1,120,2|8,1:2|0:2,0:2:0:0:
233,156,53985,1,0,1:2:0:0:
272,77,54279,1,8,0:2:0:0:
199,27,54573,6,0,P|113:32|40:45,1,160,2|0,1:2|1:2,0:0:0:0:
9,173,55602,2,0,P|19:233|26:298,1,120,2|8,1:2|0:2,0:2:0:0:
83,358,56338,1,8,0:2:0:0:
170,370,56632,1,8,1:3:0:0:
254,346,56926,6,0,P|292:273|276:182,1,160,6|2,1:2|1:1,0:2:0:0:
107,194,58103,2,0,P|98:134|125:79,2,120,0|2|8,1:2|0:3|1:2,0:0:0:0:
190,221,59279,6,0,P|226:152|208:65,1,160,4|2,1:2|1:1,0:2:0:0:
338,197,60456,2,0,P|381:207|425:214,2,80,0|0|0,1:2|1:2|1:0,0:0:0:0:
295,273,61338,1,8,1:2:0:0:
207,269,61632,6,0,P|167:201|192:121,1,160,4|2,1:2|1:1,0:2:0:0:
362,142,62808,2,0,P|369:78|337:30,2,120,0|2|8,1:2|0:3|1:2,0:0:0:0:
277,166,63985,6,0,P|237:98|262:18,1,160,4|2,1:2|1:1,0:2:0:0:
163,172,65161,2,0,P|117:184|72:198,2,80,0|0|0,1:2|1:2|1:0,0:0:0:0:
222,237,66044,1,8,1:2:0:0:
309,230,66338,6,0,P|364:174|360:90,1,160,6|2,1:2|1:1,0:2:0:0:
201,31,67514,2,0,P|159:80|161:139,1,120,2|2,1:2|0:2,0:0:0:0:
230,245,68397,1,8,1:2:0:0:
288,310,68691,6,0,P|343:254|339:170,1,160,6|2,1:2|1:1,0:2:0:0:
169,146,69867,2,0,P|127:153|85:160,1,80,2|0,1:2|1:2,0:0:0:0:
75,246,70456,1,0,1:0:0:0:
131,313,70750,1,8,1:2:0:0:
215,336,71044,6,0,P|270:280|266:196,1,160,6|2,1:2|1:1,0:2:0:0:
121,109,72220,2,0,P|108:51|134:-1,1,120,2|2,1:2|0:2,0:0:0:0:
222,4,72956,1,2,1:2:0:0:
303,36,73250,2,0,L|347:21,1,40,2|4,1:0|1:2,0:0:0:0:
136,373,75161,5,12,0:3:0:0:
115,197,75750,6,0,B|113:137|136:138|133:71,2,120,6|2|6,1:1|0:1|1:1,0:2:0:0:
162,271,76926,1,2,1:2:0:0:
249,258,77220,2,0,B|293:256|293:256|328:270,1,80,14|6,1:2|1:2,0:2:0:0:
383,336,77808,1,14,1:2:0:0:
450,279,78103,6,0,B|442:210|463:218|452:145,2,120,6|2|6,1:1|0:1|0:1,0:2:0:0:
383,336,79279,1,2,1:2:0:0:
297,314,79573,2,0,B|256:313|256:313|211:333,1,80,14|6,1:2|1:2,0:2:0:0:
134,349,80161,1,14,1:2:0:0:
54,311,80456,6,0,B|46:284|58:251|58:251|87:231|87:231|89:193|108:159,1,160,6|2,1:1|1:2,0:2:0:0:
51,98,81338,1,10,1:2:0:0:
126,53,81632,2,0,B|176:78|210:62|210:62|246:81|246:81|288:79,1,160,6|2,1:1|1:2,0:2:0:0:
329,150,82514,1,14,1:2:0:0:
403,103,82808,6,0,B|422:113|422:113|461:104|461:104|491:173|466:211,1,160,6|0,1:1|1:2,0:2:0:0:
442,282,83691,1,12,1:2:0:0:
354,277,83985,2,0,P|323:287|260:298,1,80,2|10,1:1|1:2,0:2:0:0:
188,298,84573,1,8,0:2:0:0:
133,228,84867,1,10,1:2:0:0:
82,155,85161,6,0,B|86:83|101:104|108:34,2,120,6|2|6,1:1|0:1|1:1,0:2:0:0:
16,214,86338,1,2,1:2:0:0:
46,296,86632,2,0,B|86:306|86:306|132:294,1,80,14|6,1:2|1:2,0:2:0:0:
180,229,87220,1,14,1:2:0:0:
266,211,87514,6,0,B|262:145|282:156|281:81,2,120,6|2|6,1:1|0:1|1:1,0:2:0:0:
335,265,88691,1,2,1:2:0:0:
407,215,88985,2,0,B|444:207|444:207|486:225,1,80,14|6,1:2|1:2,0:2:0:0:
490,311,89573,1,14,1:2:0:0:
408,344,89867,6,0,B|357:342|357:342|329:365|329:365|290:358|290:358|247:380,1,160,6|2,1:1|1:2,0:2:0:0:
186,324,90750,1,14,1:2:0:0:
205,238,91044,2,0,B|154:240|154:240|126:217|126:217|87:224|87:224|44:202,1,160,6|2,1:1|1:2,0:2:0:0:
23,127,91926,1,14,1:2:0:0:
52,44,92220,2,0,B|89:22|89:22|134:34,1,80,6|10,1:1|1:1,0:2:0:0:
200,76,92808,2,0,B|241:85|241:85|283:60,1,80,14|8,1:1|0:2,0:0:0:0:
346,15,93397,1,14,1:2:0:0:
483,240,94279,6,0,B|473:273|473:273|462:279|462:279|462:322,1,80,12|6,0:3|1:1,0:2:0:0:
256,192,94720,12,4,96926,1:2:0:0:
126,285,98397,5,8,0:2:0:0:
70,216,98691,2,0,B|60:170|60:170|87:128,1,80,8|8,0:2|1:2,0:0:0:0:
160,109,99279,2,0,B|247:120|236:135|326:149,1,160,6|0,1:1|1:2,0:2:0:0:
439,103,100308,2,0,P|476:148|476:207,1,120,2|8,1:2|0:2,0:2:0:0:
429,282,101044,1,0,1:0:0:0:
344,305,101338,1,8,0:2:0:0:
261,274,101632,6,0,B|215:278|215:278|186:295|186:295|136:300,1,120,10|8,1:1|0:1,0:0:0:0:
71,251,102367,1,8,0:1:0:0:
54,164,102661,1,8,0:1:0:0:
109,95,102956,1,8,0:1:0:0:
195,80,103250,2,0,B|253:102|253:102|277:134|277:134|348:158,1,160,8|10,0:1|0:1,0:0:0:0:
