osu file format v14

[General]
AudioFilename: fetch.mp3
AudioLeadIn: 0
PreviewTime: 18881
Countdown: 1
SampleSet: Soft
StackLeniency: 0.7
Mode: 0
LetterboxInBreaks: 0
WidescreenStoryboard: 0

[Editor]
DistanceSpacing: 1
BeatDivisor: 4
GridSize: 4
TimelineZoom: 2.899999

[Metadata]
Title:FETCH! with Ruff Ruffman Theme Song
TitleUnicode:FETCH! with Ruff Ruffman Theme Song
Artist:Ruff Ruffman (CV: Jim Conroy)
ArtistUnicode:Ruff Ruffman (CV: Jim Conroy)
Creator:Clarity
Version:FETCH! (2017)
Source:FETCH! with Ruff Ruffman
Tags:fetch with ruff ruffman pbs blossom chet
BeatmapID:1151298
BeatmapSetID:543161

[Difficulty]
HPDrainRate:4.7
CircleSize:4.9
OverallDifficulty:9.4
ApproachRate:10
SliderMultiplier:2
SliderTickRate:1

[Events]
//Background and Video events
0,0,"fetch.png",0,0
//Break Periods
//Storyboard Layer 0 (Background)
//Storyboard Layer 1 (Fail)
//Storyboard Layer 2 (Pass)
//Storyboard Layer 3 (Foreground)
//Storyboard Layer 4 (Overlay)
//Storyboard Sound Samples

[TimingPoints]
405,500,4,1,0,100,1,0
405,-100,4,2,0,50,0,0
1238,-200,4,2,0,50,0,0
1738,-100,4,2,0,50,0,0
2238,-66.6666666666667,4,2,0,50,0,0
2738,-100,4,2,0,50,0,0
9155,243.161094224924,4,1,0,100,1,0
9155,-100,4,2,0,100,0,1
10857,-133.333333333333,4,2,0,100,0,1
11100,-100,4,2,0,100,0,0
17665,-100,4,2,0,75,0,0
17908,-100,4,2,0,20,0,0
18151,-100,4,2,0,40,0,0
18395,-100,4,2,0,60,0,0
18638,-100,4,2,0,80,0,0
18881,-100,4,2,0,100,0,1
22285,-66.6666666666667,4,2,0,100,0,1
23015,-100,4,2,0,100,0,1
24109,-200,4,2,0,100,0,1
24717,-100,4,2,0,100,0,0
26662,-133.333333333333,4,2,0,100,0,0
27148,-100,4,2,0,100,0,0
30553,-133.333333333333,4,2,0,100,0,0
30796,-133.333333333333,4,2,0,50,0,0
31039,-133.333333333333,4,2,0,60,0,0
31525,-133.333333333333,4,2,0,70,0,0
32012,-133.333333333333,4,2,0,85,0,0
32498,-100,4,2,0,100,0,1
40644,-100,4,2,0,100,0,0

[HitObjects]
84,68,238,5,0,0:0:0:0:
84,68,405,2,0,P|72:128|140:100,1,133.333333333333
404,328,1238,2,0,L|392:280,1,33.3333333333333
424,304,1738,2,0,L|408:188,1,66.6666666666667
444,284,2238,2,0,L|448:108,1,100.000003814697
208,92,2821,1,0,0:0:0:0:
84,336,3321,6,0,L|72:172,1,133.333333333333
128,84,3821,2,0,B|103:163|103:163|117:229,1,133.333333333333
184,168,4321,5,0,0:0:0:0:
484,312,4623,2,0,P|384:328|312:272,1,187.5
256,192,6155,12,4,7738,0:0:0:0:
63,349,9155,6,0,B|61:177|61:177|87:156,1,200,6|0,0:0|0:0,0:0:0:0:
260,56,9519,1,0,0:0:0:0:
413,97,9641,2,0,L|512:90,1,100
248,212,9884,2,0,L|124:204,1,100
484,284,10127,6,0,P|420:360|408:328,1,200
432,188,10492,2,0,P|427:128|439:88,1,100
304,48,10735,1,0,0:0:0:0:
116,256,10857,2,0,P|64:252|96:192,1,112.500004291535
204,296,11100,6,0,L|188:160,1,100,2|0,0:0|0:0,0:0:0:0:
480,352,11343,2,0,L|496:216,1,100
276,32,11586,2,0,B|288:108|288:108|268:156,1,100
32,360,11829,2,0,B|20:284|20:284|40:236,1,100
284,165,12072,2,0,B|192:216|192:216|164:328,1,200
484,356,12437,2,0,L|472:120,1,200
272,40,12802,1,0,0:0:0:0:
72,112,13045,6,0,P|36:172|132:160,1,200,2|0,0:0|0:0,0:0:0:0:
460,344,13410,1,0,0:0:0:0:
128,32,13531,2,0,L|-12:56,1,100
412,256,13775,2,0,L|552:280,1,100
456,60,14018,2,0,B|412:92|412:92|260:80,1,200,2|0,0:0|0:0,0:0:0:0:
48,312,14382,2,0,B|24:276|24:276|192:300,1,200,2|0,0:0|0:0,0:0:0:0:
480,332,14747,1,0,0:0:0:0:
320,72,14909,5,0,0:0:0:0:
320,72,14990,2,0,P|316:152|376:84,1,200,2|0,0:0|0:0,0:0:0:0:
56,240,15355,2,0,L|40:124,1,100
252,200,15598,1,0,0:0:0:0:
188,352,15720,1,0,0:0:0:0:
35,132,15841,1,0,0:0:0:0:
246,53,15963,6,0,B|301:45|301:45|510:61,1,250
302,143,16389,2,0,P|198:155|78:59,1,250
31,350,16814,1,0,0:0:0:0:
336,304,16936,6,0,L|460:312,1,100,2|0,0:0|0:0,0:0:0:0:
217,159,17179,1,0,0:0:0:0:
489,127,17300,2,0,B|454:119|428:125|428:125|369:87|296:91,1,200
48,308,17665,2,0,L|28:168,1,100
276,248,17908,6,0,B|260:304|260:304|272:388,1,100,2|0,0:0|0:0,0:0:0:0:
504,280,18151,2,0,L|368:300,1,100,2|0,0:0|0:0,0:0:0:0:
184,96,18395,2,0,L|320:116,1,100,2|0,0:0|0:0,0:0:0:0:
96,332,18638,2,0,B|40:344|40:344|-16:300,1,100,2|0,0:0|0:0,0:0:0:0:
456,64,18881,6,0,B|479:131|479:131|464:288,1,200,6|0,0:0|0:0,0:0:0:0:
320,76,19246,1,0,0:0:0:0:
128,196,19367,2,0,L|240:208,1,100
483,346,19610,2,0,L|384:336,1,100
360,60,19854,6,0,B|340:80|340:80|244:88,1,100
144,352,20097,2,0,B|124:332|124:332|28:324,1,100
448,204,20340,2,0,L|464:320,1,100
68,56,20583,2,0,L|52:172,1,100
360,92,20826,6,0,L|476:108,1,100
96,244,21069,1,0,0:0:0:0:
288,344,21191,2,0,B|316:300|288:256|256:200|280:132,1,200
508,308,21556,2,0,L|380:296,1,100
176,72,21799,6,0,P|104:68|168:128,1,200,6|0,0:0|0:0,0:0:0:0:
428,56,22164,1,0,0:0:0:0:
153,160,22285,6,0,P|59:89|176:72,1,300.000011444092,6|0,0:0|0:0,0:0:0:0:
224,224,22650,2,0,P|271:331|161:289,1,300.000011444092,6|0,0:0|0:0,0:0:0:0:
408,236,23015,6,0,L|516:252,1,100
288,128,23258,2,0,L|386:113,1,100
40,324,23501,2,0,L|139:338,1,100
407,235,23744,2,0,B|291:261|291:261|215:233,1,200
100,88,24109,2,0,P|64:84|112:124,1,175
140,292,24717,6,0,B|164:320|164:320|352:336,1,200,2|0,0:0|0:0,0:0:0:0:
408,336,25082,1,0,0:0:0:0:
476,156,25203,2,0,L|484:296,1,100
381,243,25446,1,0,0:0:0:0:
281,231,25568,1,0,0:0:0:0:
0,223,25689,2,0,L|204:207,1,200
48,316,26054,2,0,B|208:304|208:304|160:336,1,200
39,305,26419,2,0,L|63:189,1,100
168,128,26662,6,0,P|183:167|171:223,1,75.0000028610231,2|0,0:0|0:0,0:0:0:0:
328,328,26905,2,0,P|312:288|324:232,1,75.0000028610231
488,32,27148,2,0,B|464:188|464:188|436:144,1,200
244,68,27513,1,0,0:0:0:0:
24,344,27635,6,0,L|268:332,1,200,2|0,0:0|0:0,0:0:0:0:
500,296,27999,2,0,L|256:284,1,200,2|0,0:0|0:0,0:0:0:0:
172,56,28364,1,0,0:0:0:0:
56,184,28486,1,0,0:0:0:0:
456,224,28607,6,0,L|444:112,1,100,2|0,0:0|0:0,0:0:0:0:
108,72,28851,2,0,B|100:160|100:160|140:140,1,100
400,92,29094,2,0,P|480:108|408:152,1,200
244,92,29458,1,0,0:0:0:0:
96,160,29580,6,0,P|56:240|64:280,1,100,2|0,0:0|0:0,0:0:0:0:
240,72,29823,1,0,0:0:0:0:
416,128,29945,2,0,P|475:194|477:235,2,100,2|0|0,0:0|0:0|0:0,0:0:0:0:
308,296,30310,1,0,0:0:0:0:
152,120,30431,1,0,0:0:0:0:
76,340,30553,6,0,L|1:348,1,75.0000028610231,2|0,0:0|0:0,0:0:0:0:
192,280,30796,2,0,L|266:268,1,75.0000028610231
92,164,31039,2,0,L|17:175,1,75.0000028610231,2|0,0:0|0:0,0:0:0:0:
228,48,31282,2,0,L|302:36,1,75.0000028610231
451,153,31525,6,0,L|460:228,1,75.0000028610231,2|0,0:0|0:0,0:0:0:0:
344,284,31768,2,0,L|356:180,1,75.0000028610231,2|0,0:0|0:0,0:0:0:0:
175,265,32012,2,0,L|184:340,1,75.0000028610231,2|0,0:0|0:0,0:0:0:0:
40,112,32255,2,0,L|49:37,1,75.0000028610231,2|0,0:0|0:0,0:0:0:0:
56,272,32498,6,0,B|40:208|40:208|80:136|56:76,1,200,6|0,0:0|0:0,0:0:0:0:
228,328,32863,1,0,0:0:0:0:
396,240,32984,2,0,L|536:256,1,100
349,46,33227,2,0,L|209:30,1,100
60,184,33471,6,0,P|100:216|156:208,1,100
476,224,33714,2,0,P|429:244|377:222,1,100
31,131,33957,6,0,P|67:179|132:187,1,100
510,171,34200,2,0,P|463:208|398:199,1,100
216,340,34443,6,0,B|184:260|184:260|212:104,1,200
448,32,34808,2,0,B|480:112|480:112|452:268,1,200
328,104,35173,1,0,0:0:0:0:
144,352,35294,1,0,0:0:0:0:
460,296,35416,6,0,L|240:284,1,200,4|0,0:0|0:0,0:0:0:0:
176,76,35781,1,0,0:0:0:0:
176,76,35902,2,0,P|164:144|48:132,1,200,4|0,0:0|0:0,0:0:0:0:
216,340,36267,2,0,B|244:336|264:316|264:316|268:328|268:328|280:320|280:320|288:332|288:332|296:324|296:324|304:336|304:336|312:328|312:328|320:340|320:340|332:332|332:332|368:328|384:348,1,200,4|0,0:0|0:0,0:0:0:0:
460,72,36632,5,0,0:0:0:0:
264,128,36753,1,0,0:0:0:0:
376,209,36875,5,0,0:0:0:0:
135,153,36996,1,0,0:0:0:0:
197,347,37118,5,0,0:0:0:0:
84,60,37240,1,0,0:0:0:0:
364,308,37361,6,0,B|392:332|392:332|560:316,1,200
400,72,37726,2,0,P|340:116|200:92,1,200
32,296,38091,1,0,0:0:0:0:
304,248,38212,1,0,0:0:0:0:
64,64,38334,6,0,B|44:220|44:220|76:184,1,200,4|0,0:0|0:0,0:0:0:0:
136,324,38699,1,0,0:0:0:0:
328,123,38820,2,0,B|348:279|348:279|320:248,1,200,4|0,0:0|0:0,0:0:0:0:
456,344,39185,2,0,B|304:368|304:368|236:352,1,200,4|0,0:0|0:0,0:0:0:0:
116,132,39550,5,0,0:0:0:0:
32,264,39671,1,0,0:0:0:0:
452,192,39793,5,0,0:0:0:0:
157,222,39914,1,0,0:0:0:0:
316,92,40036,5,0,0:0:0:0:
132,248,40158,1,0,0:0:0:0:
300,348,40279,2,0,L|508:336,1,200
256,192,40644,12,0,42224,0:0:0:0:
