osu file format v14

[General]
AudioFilename: audio.mp3
AudioLeadIn: 0
PreviewTime: 54827
Countdown: 0
SampleSet: Soft
StackLeniency: 0.7
Mode: 0
LetterboxInBreaks: 0
WidescreenStoryboard: 1

[Editor]
Bookmarks: 22061,33056,46061,52919,53947,70084,70427,81033,93376,120804,131776
DistanceSpacing: 1
BeatDivisor: 4
GridSize: 32
TimelineZoom: 2.3

[Metadata]
Title:The Quick and the Dead
TitleUnicode:The Quick and the Dead
Artist:Rudebrat
ArtistUnicode:Rudebrat
Creator:Agent_James
Version:Kuro's 165 - MIN ZETA
Source:
Tags:dubstep instrumental wubs Kuro Fuyusaki FunnyA electronic
BeatmapID:1862550
BeatmapSetID:772288

[Difficulty]
HPDrainRate:2
CircleSize:3
OverallDifficulty:2
ApproachRate:3.5
SliderMultiplier:0.8
SliderTickRate:1

[Events]
//Background and Video events
0,0,"wallhaven-700087.jpg",0,0
//Break Periods
2,120924,124830
//Storyboard Layer 0 (Background)
//Storyboard Layer 1 (Fail)
//Storyboard Layer 2 (Pass)
//Storyboard Layer 3 (Foreground)
//Storyboard Layer 4 (Overlay)
//Storyboard Sound Samples

[TimingPoints]
39,342.857142857143,4,2,2,50,1,0
54896,-100,4,2,2,80,0,1
55839,-100,4,2,2,5,0,1
55924,-100,4,2,2,80,0,1
56010,-100,4,2,2,5,0,1
56096,-100,4,2,2,80,0,1
56181,-100,4,2,2,5,0,1
56267,-100,4,2,2,80,0,1
56353,-100,4,2,2,5,0,1
56439,-100,4,2,2,80,0,1
56524,-100,4,2,2,5,0,1
56610,-100,4,2,2,80,0,1
56696,-100,4,2,2,5,0,1
56781,-100,4,2,2,80,0,1
56867,-100,4,2,2,5,0,1
56953,-100,4,2,2,80,0,1
58581,-100,4,2,2,5,0,1
58667,-100,4,2,2,80,0,1
58753,-100,4,2,2,5,0,1
58839,-100,4,2,2,80,0,1
58924,-100,4,2,2,5,0,1
59010,-100,4,2,2,80,0,1
59439,-100,4,2,2,5,0,1
59524,-100,4,2,2,80,0,1
59610,-100,4,2,2,5,0,1
59696,-100,4,2,2,80,0,1
61324,-100,4,2,2,5,0,1
61410,-100,4,2,2,80,0,1
61496,-100,4,2,2,5,0,1
61581,-100,4,2,2,80,0,1
61667,-100,4,2,2,5,0,1
61753,-100,4,2,2,80,0,1
61839,-100,4,2,2,5,0,1
61924,-100,4,2,2,80,0,1
62010,-100,4,2,2,5,0,1
62096,-100,4,2,2,80,0,1
62181,-100,4,2,2,5,0,1
62267,-100,4,2,2,80,0,1
62353,-100,4,2,2,5,0,1
62439,-100,4,2,2,80,0,1
66810,-100,4,2,2,5,0,1
66896,-100,4,2,2,80,0,1
66981,-100,4,2,2,5,0,1
67067,-100,4,2,2,80,0,1
67153,-100,4,2,2,5,0,1
67239,-100,4,2,2,80,0,1
67324,-100,4,2,2,5,0,1
67410,-100,4,2,2,80,0,1
67496,-100,4,2,2,5,0,1
67581,-100,4,2,2,80,0,1
67667,-100,4,2,2,5,0,1
67753,-100,4,2,2,80,0,1
67839,-100,4,2,2,5,0,1
67924,-100,4,2,2,80,0,1
69553,-100,4,2,2,5,0,1
69639,-100,4,2,2,80,0,1
69724,-100,4,2,2,5,0,1
69810,-100,4,2,2,80,0,1
69896,-100,4,2,2,5,0,1
69981,-100,4,2,2,80,0,1
70410,-100,4,2,2,5,0,1
70496,-100,4,2,2,80,0,1
70581,-100,4,2,2,5,0,1
70667,-100,4,2,2,80,0,1
72296,-100,4,2,2,5,0,1
72381,-100,4,2,2,80,0,1
72467,-100,4,2,2,5,0,1
72553,-100,4,2,2,80,0,1
72639,-100,4,2,2,5,0,1
72724,-100,4,2,2,80,0,1
72810,-100,4,2,2,5,0,1
72896,-100,4,2,2,80,0,1
72981,-100,4,2,2,5,0,1
73067,-100,4,2,2,80,0,1
73153,-100,4,2,2,5,0,1
73239,-100,4,2,2,80,0,1
73324,-100,4,2,2,5,0,1
73410,-100,4,2,2,80,0,1
74096,-100,4,2,2,65,0,0
76839,-100,4,2,2,80,0,1
80010,-100,4,2,2,5,0,1
80096,-100,4,2,2,80,0,1
80181,-100,4,2,2,5,0,1
80267,-100,4,2,2,80,0,1
81381,-100,4,2,2,5,0,1
81467,-100,4,2,2,80,0,1
81553,-100,4,2,2,5,0,1
81639,-100,4,2,2,80,0,1
81724,-100,4,2,2,5,0,1
81810,-100,4,2,2,50,0,1
81896,-100,4,2,2,5,0,1
81981,-100,4,2,2,80,0,1
85496,-100,4,2,2,5,0,1
85581,-100,4,2,2,80,0,1
85667,-100,4,2,2,5,0,1
85753,-100,4,2,2,80,0,1
90981,-100,4,2,2,5,0,1
91067,-100,4,2,2,80,0,1
91153,-100,4,2,2,5,0,1
91239,-100,4,2,2,80,0,1
92353,-100,4,2,2,5,0,1
92439,-100,4,2,2,80,0,1
92524,-100,4,2,2,5,0,1
92610,-100,4,2,2,80,0,1
92696,-100,4,2,2,5,0,1
92781,-100,4,2,2,80,0,1
92867,-100,4,2,2,5,0,1
92953,-100,4,2,2,80,0,1
97410,-100,4,2,2,20,0,1
97753,-100,4,2,2,40,0,1
98096,-100,4,2,2,60,0,1
98439,-100,4,2,2,80,0,1
98781,-100,4,2,2,60,0,0
101524,-100,4,2,2,70,0,0
104267,-100,4,2,2,60,0,0
107010,-100,4,2,2,70,0,0
109753,-100,4,2,2,60,0,0
112496,-100,4,2,2,70,0,0
114896,-100,4,2,2,60,0,0
131696,-100,4,2,2,50,0,0
142667,-100,4,2,2,50,0,0
144210,-100,4,2,2,50,0,0
148153,-100,4,2,2,50,0,0
149696,-100,4,2,2,50,0,0
153639,-100,4,2,2,60,0,0
159124,-100,4,2,2,70,0,0
161867,-100,4,2,2,60,0,0
164610,-100,4,2,2,80,0,1
167781,-100,4,2,2,5,0,1
167867,-100,4,2,2,80,0,1
167953,-100,4,2,2,5,0,1
168039,-100,4,2,2,80,0,1
170010,-100,4,2,2,5,0,1
170096,-100,4,2,2,80,0,1
173267,-100,4,2,2,5,0,1
173353,-100,4,2,2,80,0,1
173439,-100,4,2,2,5,0,1
173524,-100,4,2,2,80,0,1
174210,-100,4,2,2,80,0,0
174467,-100,4,2,2,10,0,0
174553,-100,4,2,2,80,0,0
174810,-100,4,2,2,10,0,0
174896,-100,4,2,2,80,0,0
175067,-100,4,2,2,10,0,0
175153,-100,4,2,2,80,0,0
175324,-100,4,2,2,10,0,0
175410,-100,4,2,2,80,0,0
175496,-100,4,2,2,10,0,0
175581,-100,4,2,2,80,0,1
178753,-100,4,2,2,5,0,1
178839,-100,4,2,2,80,0,1
178924,-100,4,2,2,5,0,1
179010,-100,4,2,2,80,0,1
180124,-100,4,2,2,5,0,1
180210,-100,4,2,2,80,0,1
180296,-100,4,2,2,5,0,1
180381,-100,4,2,2,80,0,1
180467,-100,4,2,2,5,0,1
180553,-100,4,2,2,80,0,1
180639,-100,4,2,2,5,0,1
180724,-100,4,2,2,80,0,1
185181,-100,4,2,2,80,0,0
185353,-100,4,2,2,80,0,0
185696,-100,4,2,2,80,0,0
185867,-100,4,2,2,80,0,0
186553,-100,4,2,2,80,0,1
187324,-100,4,2,2,5,0,1
187410,-100,4,2,2,80,0,1
187496,-100,4,2,2,5,0,1
187581,-100,4,2,2,80,0,1
187667,-100,4,2,2,5,0,1
187753,-100,4,2,2,80,0,1
187839,-100,4,2,2,5,0,1
187924,-100,4,2,2,80,0,1
188010,-100,4,2,2,5,0,1
188096,-100,4,2,2,80,0,1
188181,-100,4,2,2,5,0,1
188267,-100,4,2,2,80,0,1
188353,-100,4,2,2,5,0,1
188439,-100,4,2,2,80,0,1
188524,-100,4,2,2,5,0,1
188610,-100,4,2,2,80,0,1
190067,-100,4,2,2,5,0,1
190153,-100,4,2,2,80,0,1
190239,-100,4,2,2,5,0,1
190324,-100,4,2,2,80,0,1
190410,-100,4,2,2,5,0,1
190496,-100,4,2,2,80,0,1
190581,-100,4,2,2,5,0,1
190667,-100,4,2,2,80,0,1
192810,-100,4,2,2,5,0,1
192896,-100,4,2,2,80,0,1
192981,-100,4,2,2,5,0,1
193067,-100,4,2,2,80,0,1
193153,-100,4,2,2,5,0,1
193239,-100,4,2,2,80,0,1
193324,-100,4,2,2,5,0,1
193410,-100,4,2,2,80,0,1
193496,-100,4,2,2,5,0,1
193581,-100,4,2,2,80,0,1
193667,-100,4,2,2,5,0,1
193753,-100,4,2,2,80,0,1
193839,-100,4,2,2,5,0,1
193924,-100,4,2,2,80,0,1
194010,-100,4,2,2,5,0,1
194096,-100,4,2,2,80,0,1
198296,-100,4,2,2,5,0,1
198381,-100,4,2,2,80,0,1
198467,-100,4,2,2,5,0,1
198553,-100,4,2,2,80,0,1
198639,-100,4,2,2,5,0,1
198724,-100,4,2,2,80,0,1
198810,-100,4,2,2,5,0,1
198896,-100,4,2,2,80,0,1
198981,-100,4,2,2,5,0,1
199067,-100,4,2,2,80,0,1
199153,-100,4,2,2,5,0,1
199239,-100,4,2,2,80,0,1
199324,-100,4,2,2,5,0,1
199410,-100,4,2,2,80,0,1
199496,-100,4,2,2,5,0,1
199581,-100,4,2,2,80,0,1
201039,-100,4,2,2,5,0,1
201124,-100,4,2,2,80,0,1
201210,-100,4,2,2,5,0,1
201296,-100,4,2,2,80,0,1
201381,-100,4,2,2,5,0,1
201467,-100,4,2,2,80,0,1
201553,-100,4,2,2,5,0,1
201639,-100,4,2,2,80,0,1
203781,-100,4,2,2,5,0,1
203867,-100,4,2,2,80,0,1
203953,-100,4,2,2,5,0,1
204039,-100,4,2,2,80,0,1
204124,-100,4,2,2,5,0,1
204210,-100,4,2,2,80,0,1
204296,-100,4,2,2,5,0,1
204381,-100,4,2,2,80,0,1
204467,-100,4,2,2,5,0,1
204553,-100,4,2,2,80,0,1
204639,-100,4,2,2,5,0,1
204724,-100,4,2,2,80,0,1
204810,-100,4,2,2,5,0,1
204896,-100,4,2,2,80,0,1
204981,-100,4,2,2,5,0,1
205067,-100,4,2,2,80,0,1
205753,-100,4,2,2,80,0,0
218781,-100,4,2,2,5,0,0

[Colours]
Combo1 : 212,212,212
Combo2 : 0,128,255
Combo3 : 117,255,255
Combo4 : 1,86,137
SliderTrackOverride : 15,25,35
SliderBorder : 220,220,220

[HitObjects]
423,37,21981,6,0,B|467:104|467:104|452:218|452:218|454:228|454:228|437:356,1,320,6|0,0:0|1:2,0:0:0:0:
303,255,24039,2,0,P|254:244|211:265,1,80,10|2,0:0|0:0,0:0:0:0:
187,323,24724,2,0,B|107:319|107:319|95:335|95:335|39:362|39:362|3:293|3:293|26:203,1,320
67,61,26781,2,0,P|114:47|158:64,1,80,8|0,0:0|1:0,0:0:0:0:
217,84,27467,6,0,L|207:260,2,160,2|8|0,1:2|0:0|1:0,0:0:0:0:
308,215,29524,2,0,P|355:228|399:211,1,80,10|2,0:0|0:0,0:0:0:0:
439,162,30210,6,0,B|452:53|452:53|418:15,2,160,2|8|0,1:2|0:0|1:0,0:0:0:0:
427,241,31924,2,0,L|518:242,2,80,2|8|0,0:0|0:0|1:0,0:0:0:0:
376,303,32953,6,0,B|268:298|268:298|172:369|172:369|63:366,1,320,2|0,1:2|1:0,0:0:0:0:
22,217,35010,2,0,L|113:222,1,80,10|2,0:0|1:2,0:0:0:0:
173,177,35696,2,0,B|180:133|180:133|185:118|188:80|188:80|163:20,2,160,2|8|0,1:2|0:0|1:0,0:0:0:0:
126,330,37753,2,0,L|211:323,1,80,8|0,0:0|1:0,0:0:0:0:
285,317,38439,6,0,P|317:248|270:188,1,160,2|8,1:2|0:0,0:0:0:0:
111,169,39810,2,0,P|71:164|35:146,2,80,0|0|10,1:0|0:0|1:2,0:0:0:0:
233,65,41181,2,0,P|322:42|380:90,1,160,2|8,1:2|0:0,0:0:0:0:
356,237,42553,2,0,B|278:258|278:258|206:221,1,160,0|8,1:0|0:0,0:0:0:0:
87,116,43924,6,0,P|137:14|217:84,2,240,2|2|2,1:2|1:2|1:2,0:0:0:0:
143,265,46667,2,0,P|93:367|13:297,2,240,2|2|2,1:2|1:2|1:2,0:0:0:0:
282,186,49410,6,0,P|308:245|315:311,2,120,2|2|2,1:2|1:2|1:2,0:0:0:0:
318,114,50781,2,0,L|443:123,2,120,2|2|2,1:2|1:2|1:2,0:0:0:0:
259,58,52153,6,0,P|230:38|181:33,1,80,2|2,1:2|1:2,0:0:0:0:
112,63,52839,2,0,P|92:92|87:141,1,80,2|2,1:2|1:2,0:0:0:0:
109,212,53524,2,0,P|167:248|194:172,1,160,2|8,0:0|0:0,0:0:0:0:
315,71,54896,6,0,B|386:76|386:76|401:69|401:69|484:74,2,160,4|8|2,1:2|0:3|1:1,0:0:0:0:
235,66,56610,1,2,0:1:0:0:
154,65,56953,2,0,L|163:153,1,80,8|2,0:3|0:0,0:0:0:0:
203,213,57639,6,0,B|214:323|214:323|178:368,2,160,4|8|2,1:2|0:3|1:2,0:0:0:0:
250,60,59696,1,8,0:3:0:0:
317,204,60381,6,0,L|491:191,1,160,4|8,1:2|0:3,0:0:0:0:
485,271,61410,1,2,0:1:0:0:
490,350,61753,2,0,L|410:356,1,80,2|2,1:1|0:1,0:0:0:0:
330,363,62439,2,0,L|250:368,1,80,8|2,0:3|0:0,0:0:0:0:
170,374,63124,6,0,B|129:380|91:369|91:369|64:335|55:283,1,160,0|10,1:0|3:2,0:0:0:0:
102,229,64153,2,0,B|181:229|181:229|255:259|255:259|311:257|311:257|371:227,1,280,2|0,1:2|1:0,0:0:0:0:
473,168,65867,6,0,B|478:97|478:97|471:82|471:82|476:-1,2,160,4|8|2,1:2|0:3|1:0,0:0:0:0:
494,244,67581,1,2,0:1:0:0:
505,323,67924,2,0,L|420:316,1,80,8|2,0:3|0:0,0:0:0:0:
345,317,68610,6,0,B|278:361|278:361|203:336,2,160,4|8|2,1:2|0:3|1:2,0:0:0:0:
471,218,70667,1,8,0:3:0:0:
347,116,71353,6,0,L|178:114,1,160,4|8,1:2|0:3,0:0:0:0:
107,116,72381,1,2,0:1:0:0:
26,114,72724,2,0,L|31:201,1,80,2|2,1:1|0:1,0:0:0:0:
31,274,73410,2,0,L|115:268,1,80,8|2,0:3|0:0,0:0:0:0:
153,200,74096,6,0,B|259:197|259:197|298:233,1,160,0|10,1:0|0:2,0:0:0:0:
347,297,75124,2,0,B|392:302|392:302|401:309|401:309|475:313|475:313|510:229|510:229|473:169,1,280,0|0,1:0|1:0,0:0:0:0:
400,88,76839,6,0,B|359:43|359:43|241:47,1,160,4|8,1:0|0:3,0:0:0:0:
122,128,78210,2,0,B|162:172|162:172|280:168,1,160,2|8,1:2|0:3,0:0:0:0:
299,239,79239,1,2,1:0:0:0:
270,313,79581,6,0,B|109:319,1,160,0|8,1:0|0:3,0:0:0:0:
6,196,80953,2,0,B|4:37,1,160,0|8,1:0|0:3,0:0:0:0:
79,8,81981,1,2,0:3:0:0:
151,41,82324,6,0,P|185:84|166:186,1,160,4|8,1:0|0:3,0:0:0:0:
72,309,83696,2,0,P|115:343|217:324,1,160,2|8,1:2|0:3,0:0:0:0:
278,280,84724,1,6,0:3:0:0:
330,340,85067,6,0,L|502:353,1,160,0|10,1:0|0:3,0:0:0:0:
511,193,86439,2,0,L|414:185,1,80,0|2,1:0|0:2,0:0:0:0:
351,177,87124,1,10,0:2:0:0:
233,285,87810,6,0,B|174:287|174:287|136:267|136:267|77:269,1,160,4|8,1:0|0:3,0:0:0:0:
3,127,89181,2,0,B|62:125|62:125|100:145|100:145|158:143,1,160,2|8,1:2|0:3,0:0:0:0:
227,102,90210,1,0,1:0:0:0:
296,142,90553,6,0,B|377:143|377:143|436:89,1,160,0|8,1:0|0:3,0:0:0:0:
492,239,91924,2,0,B|411:238|411:238|352:292,1,160,0|8,1:0|0:3,0:0:0:0:
279,258,92953,1,2,0:3:0:0:
210,299,93296,6,0,P|174:235|215:148,1,160,4|8,1:0|0:3,0:0:0:0:
332,65,94667,1,2,1:2:0:0:
433,188,95353,2,0,P|449:225|456:264,1,80,8|6,0:3|0:3,0:0:0:0:
434,341,96039,6,0,B|354:355|354:355|280:324|280:324|214:347|214:347|198:340|198:340|119:334,1,320,0|0,1:0|1:0,0:0:0:0:
44,213,98781,6,0,L|15:81,1,120,4|0,1:0|1:0,0:0:0:0:
108,18,99810,2,0,L|236:58,1,120,0|0,1:0|1:0,0:0:0:0:
338,83,100839,2,0,L|416:59,1,80,8|0,0:0|1:0,0:0:0:0:
492,41,101524,6,0,L|479:210,1,160,0|8,1:0|0:0,0:0:0:0:
456,359,102896,2,0,P|400:378|343:361,2,120,0|0|0,1:0|1:0|1:0,0:0:0:0:
466,279,104267,6,0,L|475:154,1,120,4|0,1:0|1:0,0:0:0:0:
370,99,105296,2,0,L|256:151,1,120,0|0,1:0|1:0,0:0:0:0:
155,206,106324,2,0,L|164:298,1,80,8|0,0:0|1:0,0:0:0:0:
176,364,107010,6,0,B|224:370|224:370|251:354|251:354|347:361,1,160,0|8,1:0|0:0,0:0:0:0:
468,277,108381,2,0,P|482:165|380:116,1,240,0|8,1:0|0:0,0:0:0:0:
314,159,109753,6,0,L|324:279,1,120,4|0,1:0|1:0,0:0:0:0:
228,372,110781,2,0,L|101:382,1,120,0|0,1:0|1:0,0:0:0:0:
19,300,111810,2,0,L|12:217,1,80,8|0,0:0|1:0,0:0:0:0:
3,140,112496,6,0,B|96:152|96:152|159:127,1,160,0|8,1:0|0:0,0:0:0:0:
271,240,113867,2,0,L|267:322,2,80,0|0|10,1:0|0:0|0:0,0:0:0:0:
321,177,114896,1,0,1:0:0:0:
366,243,115239,6,0,L|485:247,1,120,4|0,1:0|1:0,0:0:0:0:
509,130,116267,2,0,L|389:126,1,120,0|0,1:0|1:0,0:0:0:0:
269,120,117296,2,0,L|271:28,1,80,8|0,0:0|1:0,0:0:0:0:
194,16,117981,6,0,B|139:20|139:20|130:18|130:18|68:21,2,120,12|8|8,0:0|0:0|0:0,0:0:0:0:
347,61,119696,1,0,1:0:0:0:
282,108,120039,2,0,L|278:192,1,80,8|8,0:0|0:0,0:0:0:0:
274,267,120724,5,0,1:0:0:0:
256,192,126210,12,0,130153,0:0:0:0:
346,164,131696,6,0,L|465:173,2,120,2|2|2,0:3|0:3|0:3,0:0:0:0:
257,84,133239,1,2,0:3:0:0:
170,166,133753,2,0,L|81:174,1,80,2|2,0:3|0:3,0:0:0:0:
10,184,134439,2,0,L|16:64,2,120,2|2|2,0:3|0:3|0:3,0:0:0:0:
10,184,137181,6,0,L|16:303,2,120,2|2|2,0:3|0:3|0:3,0:0:0:0:
102,106,138724,1,2,0:3:0:0:
185,192,139239,2,0,L|179:281,1,80,2|2,0:3|0:3,0:0:0:0:
174,351,139924,2,0,L|308:342,1,120,2|2,0:3|0:3,0:0:0:0:
413,334,140953,1,2,0:3:0:0:
411,192,142667,6,0,B|331:192|331:192|299:176|299:176|211:176|211:176|179:192|179:192|99:192,1,320,4|0,0:0|0:0,0:0:0:0:
4,62,144724,2,0,L|84:62,1,80,2|2,0:3|0:3,0:0:0:0:
152,19,145410,2,0,B|282:16,2,120,2|2|2,0:3|0:3|0:3,0:0:0:0:
98,192,148153,6,0,B|176:210|176:210|255:192|255:192|333:210|333:210|411:192,1,320,4|0,0:0|0:0,0:0:0:0:
488,331,150210,2,0,L|402:356,1,80,2|2,0:3|0:3,0:0:0:0:
333,372,150896,2,0,L|203:370,1,120,2|2,0:3|0:3,0:0:0:0:
93,366,151924,1,2,0:3:0:0:
324,234,153639,6,0,B|387:215|421:169|421:169|429:224|483:271,2,240,2|2|2,1:2|1:2|1:2,0:0:0:0:
187,151,156381,2,0,B|123:169|89:215|89:215|81:160|27:113,2,240,2|2|2,1:2|1:2|1:2,0:0:0:0:
324,234,159124,6,0,L|454:226,2,120,2|2|2,1:2|1:2|1:2,0:0:0:0:
315,154,160496,2,0,L|307:34,2,120,2|2|2,1:2|1:2|1:2,0:0:0:0:
249,200,161867,6,0,B|89:187|89:187|48:103,1,240,2|2,1:2|1:2,0:0:0:0:
68,36,163239,2,0,P|137:25|138:96,1,160,2|8,3:0|0:0,0:0:0:0:
17,201,164610,6,0,B|14:253|14:253|43:298|43:298|39:353,1,160,4|8,1:0|0:3,0:0:0:0:
198,363,165981,2,0,B|204:311|204:311|240:271|240:271|246:217,1,160,2|8,1:2|0:3,0:0:0:0:
261,139,167010,1,0,1:0:0:0:
185,166,167353,6,0,B|110:190|110:190|33:163,1,160,0|8,1:0|0:3,0:0:0:0:
24,323,168724,2,0,L|106:304,1,80,0|0,1:0|1:0,0:0:0:0:
180,291,169410,1,0,1:0:0:0:
320,368,170096,6,0,P|356:382|395:373,1,80,4|0,1:0|0:0,0:0:0:0:
468,341,170781,2,0,B|480:178,1,160,8|2,0:3|1:2,0:0:0:0:
333,115,172153,2,0,L|239:118,1,80,8|6,0:3|0:3,0:0:0:0:
242,197,172839,6,0,L|409:191,1,160,0|8,1:0|0:3,0:0:0:0:
478,331,174210,2,0,L|396:329,1,80,0|0,1:0|1:0,0:0:0:0:
336,277,174896,1,8,0:3:0:0:
186,333,175581,6,0,B|108:354|108:354|38:316,1,160,4|8,1:0|0:3,0:0:0:0:
55,157,176953,2,0,B|132:135|132:135|202:173,1,160,2|8,1:2|0:3,0:0:0:0:
272,211,177981,1,0,1:0:0:0:
345,243,178324,6,0,P|332:158|258:130,1,160,0|8,1:0|0:3,0:0:0:0:
140,222,179696,2,0,P|145:298|213:335,1,160,0|8,1:0|0:3,0:0:0:0:
289,359,180724,1,2,0:3:0:0:
355,314,181067,6,0,L|365:153,1,160,4|8,1:0|0:3,0:0:0:0:
222,81,182439,2,0,L|236:245,1,160,2|8,1:2|0:3,0:0:0:0:
247,319,183467,1,6,0:3:0:0:
326,313,183810,6,0,B|397:307|397:307|407:301|407:301|490:296,2,160,0|8|8,1:0|0:3|0:0,0:0:0:0:
83,103,186553,6,0,L|90:277,1,160,4|8,1:0|0:3,0:0:0:0:
93,342,187581,1,2,0:1:0:0:
163,304,187924,2,0,P|220:289|249:291,1,80,0|2,1:0|0:1,0:0:0:0:
320,300,188610,2,0,P|359:307|393:327,1,80,8|2,0:3|0:0,0:0:0:0:
452,382,189296,6,0,P|497:324|477:239,1,160,4|8,1:0|0:3,0:0:0:0:
363,135,190667,2,0,B|365:97|365:97|355:77|355:77|364:60|364:60|367:18,2,120,0|0|0,1:0|1:0|1:0,0:0:0:0:
360,215,192039,6,0,B|328:245|328:245|210:260,1,160,4|8,1:0|0:3,0:0:0:0:
133,270,193067,1,2,0:1:0:0:
63,230,193410,2,0,P|41:196|31:158,1,80,0|2,1:0|0:1,0:0:0:0:
76,91,194096,2,0,P|116:88|155:99,1,80,8|2,0:3|0:0,0:0:0:0:
214,150,194781,6,0,L|374:141,1,160,0|8,1:0|0:3,0:0:0:0:
435,191,195810,2,0,B|408:228|408:228|404:243|404:243|371:290|371:290|202:284,1,280,0|0,1:0|1:0,0:0:0:0:
90,276,197524,6,0,P|32:227|63:151,1,160,4|8,1:0|0:3,0:0:0:0:
132,128,198553,1,2,0:1:0:0:
186,186,198896,2,0,P|221:204|261:201,1,80,0|2,1:0|0:1,0:0:0:0:
335,172,199581,2,0,P|371:155|410:158,1,80,8|2,0:3|0:0,0:0:0:0:
482,193,200267,6,0,L|494:353,1,160,4|8,1:0|0:3,0:0:0:0:
334,364,201639,2,0,B|286:326|286:326|303:255,2,120,0|0|0,1:0|1:0|0:0,0:0:0:0:
414,364,203010,6,0,P|457:295|438:221,1,160,4|8,1:0|0:3,0:0:0:0:
376,173,204039,1,2,0:1:0:0:
299,151,204381,2,0,P|260:149|224:165,1,80,2|2,1:1|0:1,0:0:0:0:
157,211,205067,2,0,P|136:244|132:283,1,80,8|2,0:3|1:2,0:0:0:0:
159,359,205753,6,0,L|286:370,2,120,6|0|10,1:0|1:0|0:0,0:0:0:0:
240,221,207467,2,0,L|360:230,1,120,10|0,0:0|1:0,0:0:0:0:
356,109,208496,6,0,L|229:120,2,120,4|0|10,1:0|1:0|0:0,0:0:0:0:
303,260,210210,2,0,L|176:270,1,120,10|0,0:0|1:0,0:0:0:0:
64,284,211239,6,0,P|58:209|110:151,1,160,4|8,1:0|0:0,0:0:0:0:
191,138,212267,2,0,B|241:135|241:135|260:128|260:128|310:126|310:126|361:191|361:191|447:183,1,280,0|0,1:0|1:0,0:0:0:0:
505,85,213981,5,0,1:0:0:0:
