osu file format v14

[General]
AudioFilename: audio.mp3
AudioLeadIn: 0
PreviewTime: 54827
Countdown: 0
SampleSet: Soft
StackLeniency: 0.4
Mode: 0
LetterboxInBreaks: 0
WidescreenStoryboard: 1

[Editor]
Bookmarks: 33056,70084,70427
DistanceSpacing: 0.4
BeatDivisor: 8
GridSize: 4
TimelineZoom: 2.899999

[Metadata]
Title:The Quick and the Dead
TitleUnicode:The Quick and the Dead
Artist:Rudebrat
ArtistUnicode:Rudebrat
Creator:Agent_James
Version:502 - ED BETA
Source:
Tags:dubstep instrumental wubs Kuro Fuyusaki FunnyA electronic
BeatmapID:1689770
BeatmapSetID:772288

[Difficulty]
HPDrainRate:6.5
CircleSize:4
OverallDifficulty:8
ApproachRate:9
SliderMultiplier:1.7
SliderTickRate:1

[Events]
//Background and Video events
0,0,"wallhaven-700087.jpg",0,0
//Break Periods
2,120924,131096
//Storyboard Layer 0 (Background)
//Storyboard Layer 1 (Fail)
//Storyboard Layer 2 (Pass)
//Storyboard Layer 3 (Foreground)
//Storyboard Layer 4 (Overlay)
//Storyboard Sound Samples

[TimingPoints]
39,342.857142857143,4,2,2,50,1,0
21296,-133.333333333333,4,2,2,50,0,0
21981,-111.111111111111,4,2,2,50,0,0
40839,-111.111111111111,4,2,2,50,0,0
43239,-200,4,2,2,50,0,0
43581,-83.3333333333333,4,2,2,50,0,0
54896,-100,4,2,2,80,0,1
55581,-83.3333333333333,4,2,2,80,0,1
55839,-83.3333333333333,4,2,2,5,0,1
55924,-83.3333333333333,4,2,2,80,0,1
56010,-83.3333333333333,4,2,2,5,0,1
56096,-83.3333333333333,4,2,2,80,0,1
56181,-83.3333333333333,4,2,2,5,0,1
56267,-83.3333333333333,4,2,2,80,0,1
56353,-83.3333333333333,4,2,2,5,0,1
56439,-83.3333333333333,4,2,2,80,0,1
56524,-83.3333333333333,4,2,2,5,0,1
56610,-83.3333333333333,4,2,2,80,0,1
56696,-83.3333333333333,4,2,2,5,0,1
56781,-83.3333333333333,4,2,2,80,0,1
56867,-83.3333333333333,4,2,2,5,0,1
56953,-66.6666666666667,4,2,2,80,0,1
57639,-100,4,2,2,80,0,1
58324,-83.3333333333333,4,2,2,80,0,1
58581,-83.3333333333333,4,2,2,5,0,1
58667,-83.3333333333333,4,2,2,80,0,1
58753,-83.3333333333333,4,2,2,5,0,1
58839,-83.3333333333333,4,2,2,80,0,1
58924,-83.3333333333333,4,2,2,5,0,1
59010,-66.6666666666667,4,2,2,80,0,1
59439,-66.6666666666667,4,2,2,5,0,1
59524,-66.6666666666667,4,2,2,80,0,1
59610,-66.6666666666667,4,2,2,5,0,1
59696,-66.6666666666667,4,2,2,80,0,1
60039,-100,4,2,2,80,0,1
60381,-100,4,2,2,80,0,1
61067,-83.3333333333333,4,2,2,80,0,1
61324,-83.3333333333333,4,2,2,5,0,1
61410,-83.3333333333333,4,2,2,80,0,1
61496,-83.3333333333333,4,2,2,5,0,1
61581,-83.3333333333333,4,2,2,80,0,1
61667,-83.3333333333333,4,2,2,5,0,1
61753,-83.3333333333333,4,2,2,80,0,1
61839,-83.3333333333333,4,2,2,5,0,1
61924,-83.3333333333333,4,2,2,80,0,1
62010,-83.3333333333333,4,2,2,5,0,1
62096,-83.3333333333333,4,2,2,80,0,1
62181,-83.3333333333333,4,2,2,5,0,1
62267,-83.3333333333333,4,2,2,80,0,1
62353,-83.3333333333333,4,2,2,5,0,1
62439,-66.6666666666667,4,2,2,80,0,1
64153,-83.3333333333333,4,2,2,80,0,1
65353,-100,4,2,2,80,0,1
65867,-100,4,2,2,80,0,1
66550,-83.3333333333333,4,2,2,80,0,1
66810,-83.3333333333333,4,2,2,5,0,1
66896,-83.3333333333333,4,2,2,80,0,1
66981,-83.3333333333333,4,2,2,5,0,1
67067,-83.3333333333333,4,2,2,80,0,1
67153,-83.3333333333333,4,2,2,5,0,1
67239,-83.3333333333333,4,2,2,80,0,1
67324,-83.3333333333333,4,2,2,5,0,1
67410,-83.3333333333333,4,2,2,80,0,1
67496,-83.3333333333333,4,2,2,5,0,1
67581,-83.3333333333333,4,2,2,80,0,1
67667,-83.3333333333333,4,2,2,5,0,1
67753,-83.3333333333333,4,2,2,80,0,1
67839,-83.3333333333333,4,2,2,5,0,1
67924,-66.6666666666667,4,2,2,80,0,1
68610,-100,4,2,2,80,0,1
69296,-83.3333333333333,4,2,2,80,0,1
69553,-83.3333333333333,4,2,2,5,0,1
69639,-83.3333333333333,4,2,2,80,0,1
69724,-83.3333333333333,4,2,2,5,0,1
69810,-83.3333333333333,4,2,2,80,0,1
69896,-83.3333333333333,4,2,2,5,0,1
69981,-66.6666666666667,4,2,2,80,0,1
70410,-66.6666666666667,4,2,2,5,0,1
70496,-66.6666666666667,4,2,2,80,0,1
70581,-66.6666666666667,4,2,2,5,0,1
70667,-66.6666666666667,4,2,2,80,0,1
71010,-100,4,2,2,80,0,1
71353,-100,4,2,2,80,0,1
72039,-83.3333333333333,4,2,2,80,0,1
72296,-83.3333333333333,4,2,2,5,0,1
72381,-83.3333333333333,4,2,2,80,0,1
72467,-83.3333333333333,4,2,2,5,0,1
72553,-83.3333333333333,4,2,2,80,0,1
72639,-83.3333333333333,4,2,2,5,0,1
72724,-83.3333333333333,4,2,2,80,0,1
72810,-83.3333333333333,4,2,2,5,0,1
72896,-83.3333333333333,4,2,2,80,0,1
72981,-83.3333333333333,4,2,2,5,0,1
73067,-83.3333333333333,4,2,2,80,0,1
73153,-83.3333333333333,4,2,2,5,0,1
73239,-83.3333333333333,4,2,2,80,0,1
73324,-83.3333333333333,4,2,2,5,0,1
73410,-66.6666666666667,4,2,2,80,0,1
74096,-66.6666666666667,4,2,2,65,0,0
76324,-100,4,2,2,65,0,0
76839,-133.333333333333,4,2,2,80,0,1
77524,-100,4,2,2,80,0,1
79581,-133.333333333333,4,2,2,80,0,1
79924,-83.3333333333333,4,2,2,80,0,1
80010,-66.6666666666667,4,2,2,5,0,1
80096,-83.3333333333333,4,2,2,80,0,1
80181,-66.6666666666667,4,2,2,5,0,1
80267,-66.6666666666667,4,2,2,80,0,1
80953,-133.333333333333,4,2,2,80,0,1
81296,-83.3333333333333,4,2,2,80,0,1
81381,-66.6666666666667,4,2,2,5,0,1
81467,-83.3333333333333,4,2,2,80,0,1
81553,-66.6666666666667,4,2,2,5,0,1
81639,-83.3333333333333,4,2,2,80,0,1
81724,-66.6666666666667,4,2,2,5,0,1
81810,-83.3333333333333,4,2,2,50,0,1
81896,-66.6666666666667,4,2,2,5,0,1
81981,-66.6666666666667,4,2,2,80,0,1
82324,-133.333333333333,4,2,2,80,0,1
83010,-100,4,2,2,80,0,1
84381,-200,4,2,2,80,0,1
84724,-50,4,2,2,80,0,1
85067,-133.333333333333,4,2,2,80,0,1
85410,-66.6666666666667,4,2,2,80,0,1
85496,-66.6666666666667,4,2,2,5,0,1
85581,-66.6666666666667,4,2,2,80,0,1
85667,-66.6666666666667,4,2,2,5,0,1
85753,-66.6666666666667,4,2,2,80,0,1
86439,-133.333333333333,4,2,2,80,0,1
86781,-66.6666666666667,4,2,2,80,0,1
87296,-200,4,2,2,80,0,1
87810,-133.333333333333,4,2,2,80,0,1
88496,-100,4,2,2,80,0,1
90553,-133.333333333333,4,2,2,80,0,1
90896,-83.3333333333333,4,2,2,80,0,1
90981,-66.6666666666667,4,2,2,5,0,1
91067,-83.3333333333333,4,2,2,80,0,1
91153,-66.6666666666667,4,2,2,5,0,1
91239,-66.6666666666667,4,2,2,80,0,1
91924,-133.333333333333,4,2,2,80,0,1
92267,-83.3333333333333,4,2,2,80,0,1
92353,-66.6666666666667,4,2,2,5,0,1
92439,-83.3333333333333,4,2,2,80,0,1
92524,-66.6666666666667,4,2,2,5,0,1
92610,-83.3333333333333,4,2,2,80,0,1
92696,-66.6666666666667,4,2,2,5,0,1
92781,-83.3333333333333,4,2,2,80,0,1
92867,-66.6666666666667,4,2,2,5,0,1
92953,-66.6666666666667,4,2,2,80,0,1
93296,-133.333333333333,4,2,2,80,0,1
93981,-100,4,2,2,80,0,1
95353,-200,4,2,2,80,0,1
95696,-50,4,2,2,80,0,1
96039,-133.333333333333,4,2,2,80,0,1
96381,-66.6666666666667,4,2,2,80,0,1
96724,-200,4,2,2,80,0,1
97410,-200,4,2,2,20,0,1
97753,-200,4,2,2,40,0,1
98096,-200,4,2,2,60,0,1
98439,-200,4,2,2,80,0,1
98781,-200,4,2,2,60,0,0
101524,-200,4,2,2,70,0,0
102210,-133.333333333333,4,2,2,70,0,0
102896,-83.3333333333333,4,2,2,70,0,0
103924,-66.6666666666667,4,2,2,70,0,0
104267,-200,4,2,2,60,0,0
107010,-200,4,2,2,70,0,0
107696,-133.333333333333,4,2,2,70,0,0
108381,-200,4,2,2,70,0,0
109410,-100,4,2,2,70,0,0
109753,-200,4,2,2,60,0,0
112496,-200,4,2,2,70,0,0
113181,-133.333333333333,4,2,2,70,0,0
113867,-83.3333333333333,4,2,2,70,0,0
114896,-66.6666666666667,4,2,2,60,0,0
115239,-200,4,2,2,60,0,0
117981,-100,4,2,2,60,0,0
119010,-200,4,2,2,60,0,0
131696,-200,4,2,2,50,0,0
142667,-200,4,2,2,50,0,0
144210,-200,4,2,2,50,0,0
148153,-200,4,2,2,50,0,0
149696,-200,4,2,2,50,0,0
153639,-200,4,2,2,60,0,0
159124,-200,4,2,2,70,0,0
161867,-100,4,2,2,60,0,0
164610,-133.333333333333,4,2,2,80,0,1
165296,-100,4,2,2,80,0,1
167353,-133.333333333333,4,2,2,80,0,1
167696,-83.3333333333333,4,2,2,80,0,1
167781,-66.6666666666667,4,2,2,5,0,1
167867,-83.3333333333333,4,2,2,80,0,1
167953,-66.6666666666667,4,2,2,5,0,1
168039,-66.6666666666667,4,2,2,80,0,1
168724,-100,4,2,2,80,0,1
169410,-200,4,2,2,80,0,1
170010,-200,4,2,2,5,0,1
170096,-133.333333333333,4,2,2,80,0,1
170781,-100,4,2,2,80,0,1
172153,-200,4,2,2,80,0,1
172496,-50,4,2,2,80,0,1
172839,-133.333333333333,4,2,2,80,0,1
173181,-66.6666666666667,4,2,2,80,0,1
173267,-66.6666666666667,4,2,2,5,0,1
173353,-66.6666666666667,4,2,2,80,0,1
173439,-66.6666666666667,4,2,2,5,0,1
173524,-66.6666666666667,4,2,2,80,0,1
174210,-166.666666666667,4,2,2,80,0,0
174467,-166.666666666667,4,2,2,10,0,0
174553,-166.666666666667,4,2,2,80,0,0
174810,-166.666666666667,4,2,2,10,0,0
174896,-55.5555555555556,4,2,2,80,0,0
175067,-55.5555555555556,4,2,2,10,0,0
175153,-55.5555555555556,4,2,2,80,0,0
175324,-55.5555555555556,4,2,2,10,0,0
175410,-27.7777777777778,4,2,2,80,0,0
175496,-55.5555555555556,4,2,2,10,0,0
175581,-133.333333333333,4,2,2,80,0,1
176267,-100,4,2,2,80,0,1
178324,-133.333333333333,4,2,2,80,0,1
178667,-83.3333333333333,4,2,2,80,0,1
178753,-66.6666666666667,4,2,2,5,0,1
178839,-83.3333333333333,4,2,2,80,0,1
178924,-66.6666666666667,4,2,2,5,0,1
179010,-66.6666666666667,4,2,2,80,0,1
179696,-133.333333333333,4,2,2,80,0,1
180039,-83.3333333333333,4,2,2,80,0,1
180124,-66.6666666666667,4,2,2,5,0,1
180210,-83.3333333333333,4,2,2,80,0,1
180296,-66.6666666666667,4,2,2,5,0,1
180381,-83.3333333333333,4,2,2,80,0,1
180467,-66.6666666666667,4,2,2,5,0,1
180553,-83.3333333333333,4,2,2,80,0,1
180639,-66.6666666666667,4,2,2,5,0,1
180724,-66.6666666666667,4,2,2,80,0,1
181067,-133.333333333333,4,2,2,80,0,1
181753,-100,4,2,2,80,0,1
183124,-200,4,2,2,80,0,1
183467,-50,4,2,2,80,0,1
183810,-133.333333333333,4,2,2,80,0,1
184153,-66.6666666666667,4,2,2,80,0,1
184496,-200,4,2,2,80,0,1
185181,-83.3333333333333,4,2,2,80,0,0
185353,-83.3333333333333,4,2,2,80,0,0
185696,-83.3333333333333,4,2,2,80,0,0
185867,-100,4,2,2,80,0,0
186553,-100,4,2,2,80,0,1
187239,-66.6666666666667,4,2,2,80,0,1
187324,-66.6666666666667,4,2,2,5,0,1
187410,-66.6666666666667,4,2,2,80,0,1
187496,-66.6666666666667,4,2,2,5,0,1
187581,-66.6666666666667,4,2,2,80,0,1
187667,-66.6666666666667,4,2,2,5,0,1
187753,-66.6666666666667,4,2,2,80,0,1
187839,-66.6666666666667,4,2,2,5,0,1
187924,-66.6666666666667,4,2,2,80,0,1
188010,-66.6666666666667,4,2,2,5,0,1
188096,-66.6666666666667,4,2,2,80,0,1
188181,-66.6666666666667,4,2,2,5,0,1
188267,-66.6666666666667,4,2,2,80,0,1
188353,-66.6666666666667,4,2,2,5,0,1
188439,-66.6666666666667,4,2,2,80,0,1
188524,-66.6666666666667,4,2,2,5,0,1
188610,-66.6666666666667,4,2,2,80,0,1
189296,-100,4,2,2,80,0,1
189981,-66.6666666666667,4,2,2,80,0,1
190067,-66.6666666666667,4,2,2,5,0,1
190153,-66.6666666666667,4,2,2,80,0,1
190239,-66.6666666666667,4,2,2,5,0,1
190324,-66.6666666666667,4,2,2,80,0,1
190410,-66.6666666666667,4,2,2,5,0,1
190496,-66.6666666666667,4,2,2,80,0,1
190581,-66.6666666666667,4,2,2,5,0,1
190667,-100,4,2,2,80,0,1
192039,-100,4,2,2,80,0,1
192724,-66.6666666666667,4,2,2,80,0,1
192810,-66.6666666666667,4,2,2,5,0,1
192896,-66.6666666666667,4,2,2,80,0,1
192981,-66.6666666666667,4,2,2,5,0,1
193067,-66.6666666666667,4,2,2,80,0,1
193153,-66.6666666666667,4,2,2,5,0,1
193239,-66.6666666666667,4,2,2,80,0,1
193324,-66.6666666666667,4,2,2,5,0,1
193410,-66.6666666666667,4,2,2,80,0,1
193496,-66.6666666666667,4,2,2,5,0,1
193581,-66.6666666666667,4,2,2,80,0,1
193667,-66.6666666666667,4,2,2,5,0,1
193753,-66.6666666666667,4,2,2,80,0,1
193839,-66.6666666666667,4,2,2,5,0,1
193924,-66.6666666666667,4,2,2,80,0,1
194010,-66.6666666666667,4,2,2,5,0,1
194096,-66.6666666666667,4,2,2,80,0,1
195810,-83.3333333333333,4,2,2,80,0,1
197010,-100,4,2,2,80,0,1
197524,-100,4,2,2,80,0,1
198210,-66.6666666666667,4,2,2,80,0,1
198296,-66.6666666666667,4,2,2,5,0,1
198381,-66.6666666666667,4,2,2,80,0,1
198467,-66.6666666666667,4,2,2,5,0,1
198553,-66.6666666666667,4,2,2,80,0,1
198639,-66.6666666666667,4,2,2,5,0,1
198724,-66.6666666666667,4,2,2,80,0,1
198810,-66.6666666666667,4,2,2,5,0,1
198896,-66.6666666666667,4,2,2,80,0,1
198981,-66.6666666666667,4,2,2,5,0,1
199067,-66.6666666666667,4,2,2,80,0,1
199153,-66.6666666666667,4,2,2,5,0,1
199239,-66.6666666666667,4,2,2,80,0,1
199324,-66.6666666666667,4,2,2,5,0,1
199410,-66.6666666666667,4,2,2,80,0,1
199496,-66.6666666666667,4,2,2,5,0,1
199581,-66.6666666666667,4,2,2,80,0,1
200267,-100,4,2,2,80,0,1
200953,-66.6666666666667,4,2,2,80,0,1
201039,-66.6666666666667,4,2,2,5,0,1
201124,-66.6666666666667,4,2,2,80,0,1
201210,-66.6666666666667,4,2,2,5,0,1
201296,-66.6666666666667,4,2,2,80,0,1
201381,-66.6666666666667,4,2,2,5,0,1
201467,-66.6666666666667,4,2,2,80,0,1
201553,-66.6666666666667,4,2,2,5,0,1
201639,-100,4,2,2,80,0,1
202667,-66.6666666666667,4,2,2,80,0,1
203010,-100,4,2,2,80,0,1
203696,-66.6666666666667,4,2,2,80,0,1
203781,-66.6666666666667,4,2,2,5,0,1
203867,-66.6666666666667,4,2,2,80,0,1
203953,-66.6666666666667,4,2,2,5,0,1
204039,-66.6666666666667,4,2,2,80,0,1
204124,-66.6666666666667,4,2,2,5,0,1
204210,-66.6666666666667,4,2,2,80,0,1
204296,-66.6666666666667,4,2,2,5,0,1
204381,-66.6666666666667,4,2,2,80,0,1
204467,-66.6666666666667,4,2,2,5,0,1
204553,-66.6666666666667,4,2,2,80,0,1
204639,-66.6666666666667,4,2,2,5,0,1
204724,-66.6666666666667,4,2,2,80,0,1
204810,-66.6666666666667,4,2,2,5,0,1
204896,-66.6666666666667,4,2,2,80,0,1
204981,-66.6666666666667,4,2,2,5,0,1
205067,-66.6666666666667,4,2,2,80,0,1
205753,-66.6666666666667,4,2,2,80,0,0
206781,-83.3333333333333,4,2,2,80,0,0
211239,-100,4,2,2,80,0,0
213467,-133.333333333333,4,2,2,80,0,0
218781,-133.333333333333,4,2,2,5,0,0

[Colours]
Combo1 : 212,212,212
Combo2 : 0,128,255
Combo3 : 117,255,255
Combo4 : 1,86,137
SliderTrackOverride : 15,25,35
SliderBorder : 220,220,220

[HitObjects]
120,164,21296,5,8,0:0:0:0:
120,164,21981,2,0,L|304:160,1,152.999995330811,6|0,0:0|0:0,0:0:0:0:
272,160,22496,1,2,0:0:0:0:
124,76,22667,2,0,P|52:108|40:200,1,152.999995330811,8|2,0:0|0:0,0:0:0:0:
192,256,23353,1,0,1:2:0:0:
112,308,23524,2,0,B|91:264|91:264|127:160,1,152.999995330811,2|0,0:0|0:0,0:0:0:0:
368,272,24039,2,0,L|380:352,1,76.4999976654053,10|0,0:0|0:0,0:0:0:0:
280,264,24381,2,0,L|292:184,1,76.4999976654053,2|0,0:0|0:0,0:0:0:0:
484,152,24724,6,0,L|461:303,1,152.999995330811,2|0,1:2|0:0,0:0:0:0:
461,303,25239,1,2,0:0:0:0:
336,138,25410,2,0,B|440:130|440:130|496:158,1,152.999995330811,8|2,0:0|0:0,0:0:0:0:
86,166,26096,2,0,P|101:93|56:34,1,152.999995330811,0|2,1:0|0:0,0:0:0:0:
15,113,26610,1,0,0:0:0:0:
236,168,26781,2,0,B|152:184|152:184|64:160,1,152.999995330811,8|0,0:0|1:0,0:0:0:0:
86,166,27467,6,0,L|90:318,1,152.999995330811,2|0,1:2|0:0,0:0:0:0:
168,360,27981,1,2,0:0:0:0:
340,248,28153,2,0,P|261:240|205:314,1,152.999995330811,8|2,0:0|0:0,0:0:0:0:
412,320,28839,2,0,B|433:276|433:276|425:172,1,152.999995330811,0|0,1:0|0:0,0:0:0:0:
416,92,29353,1,0,0:0:0:0:
296,32,29524,2,0,P|308:67|336:92,1,76.4999976654053,10|0,0:0|0:0,0:0:0:0:
416,92,29867,2,0,P|444:66|456:31,1,76.4999976654053,2|0,0:0|0:0,0:0:0:0:
320,168,30210,6,0,L|168:164,1,152.999995330811,2|0,1:2|0:0,0:0:0:0:
112,240,30724,1,2,0:0:0:0:
320,168,30896,2,0,P|366:232|330:317,1,152.999995330811,8|2,0:0|0:0,0:0:0:0:
184,336,31581,2,0,P|212:267|282:244,1,152.999995330811,0|2,1:0|0:0,0:0:0:0:
349,299,32096,1,0,1:0:0:0:
349,299,32181,1,0,1:0:0:0:
349,299,32267,1,8,0:0:0:0:
240,168,32610,5,0,1:0:0:0:
349,299,32781,1,8,0:0:0:0:
452,128,32953,6,0,B|409:104|409:104|305:109,1,152.999995330811,2|0,1:2|0:0,0:0:0:0:
324,192,33467,1,2,0:0:0:0:
216,104,33639,2,0,P|249:37|320:14,1,152.999995330811,8|2,0:0|0:0,0:0:0:0:
216,104,34324,1,0,1:0:0:0:
168,176,34496,2,0,B|88:188|88:188|15:165,1,152.999995330811,2|0,0:0|0:0,0:0:0:0:
20,272,35010,2,0,P|14:309|25:345,1,76.4999976654053,10|0,0:0|0:0,0:0:0:0:
136,296,35353,2,0,L|104:300,6,19.1249994163513,2|0|0|0|0|0|0,1:2|1:0|1:0|1:0|1:0|1:0|1:0,0:0:0:0:
236,332,35696,6,0,B|278:355|278:355|382:350,1,152.999995330811,2|0,1:2|0:0,0:0:0:0:
472,308,36210,1,2,0:0:0:0:
386,172,36381,2,0,P|315:194|287:263,1,152.999995330811,8|2,0:0|0:0,0:0:0:0:
448,224,37067,2,0,B|471:181|471:181|466:77,1,152.999995330811,0|2,1:0|0:0,0:0:0:0:
466,77,37581,1,0,1:0:0:0:
271,83,37753,1,8,0:0:0:0:
271,83,38096,2,0,P|259:119|266:157,1,76.4999976654053,0|0,1:0|0:0,0:0:0:0:
271,83,38439,6,0,L|103:91,1,152.999995330811,2|0,1:2|0:0,0:0:0:0:
324,256,39124,2,0,B|332:216|320:160|320:160|344:144|360:116,1,152.999995330811,8|2,0:0|0:0,0:0:0:0:
404,288,39810,2,0,P|349:337|275:327,1,152.999995330811,0|0,1:0|0:0,0:0:0:0:
240,252,40324,1,0,0:0:0:0:
436,216,40496,2,0,L|512:220,1,76.4999976654053,10|0,0:2|1:0,0:0:0:0:
289,92,40839,2,0,L|272:100,6,19.1249994163513,2|0|0|0|0|0|0,1:2|1:0|1:0|1:0|1:0|1:0|1:0,0:0:0:0:
212,172,41181,6,0,P|178:105|207:36,1,152.999995330811,2|0,1:2|0:0,0:0:0:0:
358,119,41867,2,0,L|350:279,1,152.999995330811,8|2,0:0|0:0,0:0:0:0:
350,271,42553,2,0,P|281:242|215:276,1,152.999995330811,0|2,1:0|0:0,0:0:0:0:
108,276,43067,1,0,1:0:0:0:
108,276,43153,1,0,1:0:0:0:
108,276,43239,2,0,L|96:212,1,63.75,8|0,0:0|0:0,0:0:0:0:
36,168,43581,6,0,P|88:176|76:100,1,152.999995330811,0|0,0:0|0:0,0:0:0:0:
78,100,43924,5,2,1:2:0:0:
148,56,44267,1,2,1:2:0:0:
216,104,44610,1,2,1:2:0:0:
184,180,44953,1,2,1:2:0:0:
254,224,45296,1,0,1:0:0:0:
320,176,45639,1,2,1:2:0:0:
288,100,45981,1,2,1:2:0:0:
356,52,46324,1,2,1:2:0:0:
444,281,46667,5,2,1:2:0:0:
341,275,47010,1,2,1:2:0:0:
314,176,47353,1,2,1:2:0:0:
401,120,47696,1,2,1:2:0:0:
374,21,48039,1,0,1:0:0:0:
271,15,48381,1,2,1:2:0:0:
232,109,48724,1,2,1:2:0:0:
314,176,49067,1,2,1:2:0:0:
188,312,49410,5,2,1:2:0:0:
214,213,49581,1,0,1:0:0:0:
286,285,49753,1,0,1:0:0:0:
116,240,49924,1,2,1:2:0:0:
214,213,50096,1,0,1:0:0:0:
90,339,50267,1,0,1:0:0:0:
42,168,50439,1,2,1:2:0:0:
116,240,50610,1,0,1:0:0:0:
236,116,50781,5,2,1:2:0:0:
141,141,50953,1,0,1:0:0:0:
166,46,51124,1,0,1:0:0:0:
214,213,51296,1,2,1:2:0:0:
141,141,51467,1,0,1:0:0:0:
331,87,51639,1,0,1:0:0:0:
281,278,51810,1,2,1:2:0:0:
236,116,51981,1,0,1:0:0:0:
426,130,52153,5,2,1:2:0:0:
419,154,52238,1,0,1:0:0:0:
403,175,52324,1,0,1:0:0:0:
382,188,52410,1,0,1:0:0:0:
358,193,52495,1,2,1:2:0:0:
333,189,52581,1,0,1:0:0:0:
314,176,52667,1,0,1:0:0:0:
337,167,52752,1,0,1:0:0:0:
362,167,52838,1,2,1:2:0:0:
385,177,52924,1,0,1:0:0:0:
405,194,53009,1,0,1:0:0:0:
416,217,53095,1,0,1:0:0:0:
418,241,53181,1,2,1:2:0:0:
410,266,53266,1,0,1:0:0:0:
395,287,53352,1,0,1:0:0:0:
374,300,53438,1,0,1:0:0:0:
350,304,53524,6,0,L|366:347,14,25.4999992218018,2|2|2|2|2|2|2|2|2|2|2|2|2|0|0,0:0|0:0|0:0|0:0|0:0|0:0|0:0|0:0|0:0|0:0|0:0|0:0|0:0|0:0|0:0,0:0:0:0:
293,185,54210,5,8,0:0:0:0:
235,38,54467,5,0,1:0:0:0:
390,48,54724,5,0,1:0:0:0:
214,286,54896,6,0,B|42:250|42:250|130:238,1,255,4|0,1:2|0:0,0:0:0:0:
382,247,55581,5,8,0:3:0:0:
382,247,55667,1,0,0:0:0:0:
382,247,55753,2,0,L|409:312,1,50.9999984436036,2|0,0:1|0:0,0:0:0:0:
304,336,55924,1,2,0:1:0:0:
494,255,56096,1,2,0:1:0:0:
249,176,56267,6,0,L|198:174,1,50.9999984436036,2|0,1:1|0:0,0:0:0:0:
352,116,56438,2,0,L|402:114,1,50.9999984436036,2|0,0:1|0:0,0:0:0:0:
248,206,56610,2,0,L|197:204,1,50.9999984436036,2|0,0:1|0:0,0:0:0:0:
354,83,56781,2,0,L|404:81,1,50.9999984436036,2|0,0:1|0:0,0:0:0:0:
252,240,56953,6,0,L|124:232,1,127.500004863739,8|0,0:3|0:0,0:0:0:0:
316,312,57296,2,0,L|443:304,1,127.500004863739,2|0,0:0|0:0,0:0:0:0:
220,295,57639,6,0,P|155:223|252:251,1,255,4|0,1:2|0:0,0:0:0:0:
104,360,58324,5,8,0:3:0:0:
104,360,58410,1,0,0:0:0:0:
104,360,58496,2,0,P|81:336|70:289,1,50.9999984436036,2|0,0:1|0:0,0:0:0:0:
94,274,58667,2,0,P|84:305|49:338,1,50.9999984436036,2|0,0:1|0:0,0:0:0:0:
24,326,58839,2,0,P|56:318|102:332,1,50.9999984436036,2|0,0:1|0:0,0:0:0:0:
252,213,59010,6,0,B|364:269|328:149|452:221,1,191.250007295609,2|0,1:2|0:0,0:0:0:0:
502,90,59353,2,0,P|501:58|487:31,1,63.7500024318696,0|0,0:0|0:0,0:0:0:0:
416,151,59524,2,0,P|417:183|432:211,1,63.7500024318696,2|0,1:2|0:0,0:0:0:0:
372,48,59696,2,0,P|300:8|188:72,1,191.250007295609,8|0,0:3|0:0,0:0:0:0:
204,45,60039,2,0,P|119:67|79:35,1,127.5,2|0,1:2|0:0,0:0:0:0:
90,48,60381,6,0,P|120:120|16:72,1,255,4|0,1:2|0:0,0:0:0:0:
41,244,61067,5,8,0:3:0:0:
41,244,61153,1,0,0:0:0:0:
41,244,61239,2,0,L|29:328,1,50.9999984436036,2|0,0:1|0:0,0:0:0:0:
124,364,61410,1,2,0:1:0:0:
171,197,61581,1,2,0:1:0:0:
283,338,61753,6,0,L|233:330,1,50.9999984436036,2|0,1:1|0:0,0:0:0:0:
338,199,61924,2,0,L|388:207,1,50.9999984436036,2|0,0:1|0:0,0:0:0:0:
281,366,62096,2,0,L|231:358,1,50.9999984436036,2|0,0:1|0:0,0:0:0:0:
331,223,62267,2,0,L|381:231,1,50.9999984436036,2|0,0:1|0:0,0:0:0:0:
162,128,62439,6,0,P|135:71|152:11,1,127.500004863739,8|0,0:3|0:0,0:0:0:0:
333,106,62781,2,0,P|353:165|331:224,1,127.500004863739,2|0,0:0|0:0,0:0:0:0:
152,12,63124,5,0,1:0:0:0:
333,106,63296,1,2,0:0:0:0:
225,111,63467,1,2,0:0:0:0:
412,8,63639,1,2,1:0:0:0:
276,28,63810,1,10,3:2:0:0:
456,108,63981,1,0,0:0:0:0:
120,104,64153,6,0,B|72:80|24:92|4:144|40:184|52:192|92:188|92:188|140:176|168:212|168:240|128:276,1,305.999990661621,2|0,1:2|1:0,0:0:0:0:
154,240,65011,1,0,1:0:0:0:
108,222,65096,1,0,1:0:0:0:
101,174,65182,1,8,0:3:0:0:
236,272,65353,2,0,P|212:306|81:294,1,170,0|0,1:0|0:0,0:0:0:0:
224,188,65867,6,0,B|352:192|352:192|376:244|376:244|304:224,1,255,4|0,1:2|0:0,0:0:0:0:
232,196,66553,5,8,0:3:0:0:
232,196,66639,1,0,0:0:0:0:
232,196,66725,2,0,P|219:167|224:119,1,50.9999984436036,2|0,0:1|0:0,0:0:0:0:
357,16,66896,1,2,0:1:0:0:
324,137,67067,1,2,0:1:0:0:
111,28,67239,2,0,P|85:23|60:25,1,50.9999984436036,2|0,1:0|0:0,0:0:0:0:
159,138,67410,2,0,P|184:140|209:135,1,50.9999984436036,2|0,0:1|0:0,0:0:0:0:
98,50,67581,2,0,P|72:45|47:47,1,50.9999984436036,2|0,0:1|0:0,0:0:0:0:
163,163,67753,2,0,P|188:165|213:160,1,50.9999984436036,2|0,0:1|0:0,0:0:0:0:
338,90,67924,6,0,P|324:146|380:165,1,127.500004863739,8|0,0:3|0:0,0:0:0:0:
205,333,68267,2,0,P|253:300|229:246,1,127.500004863739,2|0,0:0|0:0,0:0:0:0:
416,244,68610,6,0,P|362:262|457:336,1,255,4|0,1:2|0:0,0:0:0:0:
500,192,69296,5,8,0:3:0:0:
500,192,69381,1,0,0:0:0:0:
500,192,69467,2,0,L|449:119,1,50.9999984436036,2|0,0:1|0:0,0:0:0:0:
492,104,69639,2,0,L|470:150,1,50.9999984436036,2|0,0:1|0:0,0:0:0:0:
420,155,69810,2,0,L|470:150,1,50.9999984436036,2|0,0:1|0:0,0:0:0:0:
416,28,69981,6,0,P|344:68|232:4,1,191.250007295609,2|0,1:2|0:0,0:0:0:0:
248,30,70324,2,0,P|263:59|263:90,1,63.7500024318696,0|0,0:0|0:0,0:0:0:0:
193,210,70495,2,0,P|178:181|178:150,1,63.7500024318696,2|0,1:2|0:0,0:0:0:0:
276,236,70667,2,0,P|252:280|124:264,1,191.250007295609,8|0,0:3|0:0,0:0:0:0:
68,196,71010,2,0,P|81:247|45:201,1,127.5,0|0,1:2|0:0,0:0:0:0:
0,248,71353,6,0,P|64:293|91:166,1,255,4|0,1:2|0:0,0:0:0:0:
7,76,72039,5,8,0:3:0:0:
7,76,72125,1,0,0:0:0:0:
7,76,72211,2,0,P|16:98|34:117,1,50.9999984436036,2|0,0:1|0:0,0:0:0:0:
243,86,72381,1,2,0:1:0:0:
104,48,72553,1,2,0:1:0:0:
216,184,72724,2,0,L|272:184,1,50.9999984436036,2|0,1:1|0:0,0:0:0:0:
340,105,72896,2,0,L|341:55,1,50.9999984436036,2|0,0:1|0:0,0:0:0:0:
216,212,73067,2,0,L|272:212,1,50.9999984436036,2|0,0:1|0:0,0:0:0:0:
372,105,73239,2,0,L|373:55,1,50.9999984436036,2|0,0:1|0:0,0:0:0:0:
176,320,73410,6,0,L|48:323,1,127.500004863739,8|0,0:3|0:0,0:0:0:0:
260,316,73753,2,0,L|387:312,1,127.500004863739,2|0,0:0|0:0,0:0:0:0:
324,224,74096,5,0,1:0:0:0:
176,320,74267,1,2,0:0:0:0:
260,316,74439,1,2,0:0:0:0:
112,232,74610,1,0,1:0:0:0:
216,232,74781,1,10,0:2:0:0:
48,144,74953,1,0,0:0:0:0:
152,144,75124,6,0,B|208:112|272:136|272:136|340:176|411:111|411:111|348:144|283:79,1,382.500014591218,0|0,1:0|1:0,0:0:0:0:
312,103,75981,1,0,1:0:0:0:
285,63,76066,1,0,1:0:0:0:
289,16,76152,1,8,0:3:0:0:
440,32,76324,2,0,P|499:87|489:168,1,170,0|0,1:0|0:0,0:0:0:0:
372,264,76839,6,0,P|372:212|428:272,1,191.250007295609,4|0,1:0|0:0,0:0:0:0:
364,340,77524,2,0,L|184:328,1,170,8|0,0:3|0:0,0:0:0:0:
124,216,78039,1,2,0:0:0:0:
206,166,78210,2,0,P|222:218|210:258,1,85,2|2,1:2|0:0,0:0:0:0:
32,248,78553,2,0,P|26:206|41:167,1,85,0|0,0:0|0:0,0:0:0:0:
216,247,78896,2,0,P|255:231|281:199,1,85,8|0,0:3|0:0,0:0:0:0:
281,198,79239,1,2,1:0:0:0:
206,166,79410,1,2,0:0:0:0:
389,180,79581,6,0,B|381:217|381:217|392:252,1,63.7500024318696,0|0,1:0|0:0,0:0:0:0:
279,115,79924,6,0,L|282:54,1,50.9999984436036,2|0,0:1|0:0,0:0:0:0:
206,166,80096,2,0,L|203:233,1,50.9999984436036,2|0,0:1|0:0,0:0:0:0:
127,127,80267,2,0,L|133:0,1,127.500004863739,8|0,0:3|0:0,0:0:0:0:
279,115,80610,2,0,L|285:243,1,127.500004863739,0|0,0:0|0:0,0:0:0:0:
133,314,80953,2,0,B|168:306|168:306|205:312,1,63.7500024318696,0|0,1:0|0:0,0:0:0:0:
454,191,81296,2,0,L|445:244,1,50.9999984436036,2|0,0:1|0:0,0:0:0:0:
312,243,81467,2,0,L|369:220,1,50.9999984436036,2|0,1:1|0:0,0:0:0:0:
433,340,81639,2,0,L|388:303,1,50.9999984436036,8|0,0:3|0:0,0:0:0:0:
380,132,81810,2,0,L|389:81,1,50.9999984436036,2|0,0:1|0:0,0:0:0:0:
296,85,81981,1,2,0:3:0:0:
255,114,82066,1,2,0:3:0:0:
212,129,82153,2,0,P|180:132|149:124,1,63.7500024318696,2|2,0:0|0:0,0:0:0:0:
88,72,82324,6,0,P|133:98|53:116,1,191.250007295609,4|0,1:0|0:0,0:0:0:0:
148,176,83010,2,0,P|168:260|120:340,1,170,8|0,0:3|0:0,0:0:0:0:
80,244,83524,1,2,0:0:0:0:
232,344,83696,2,0,P|273:349|312:334,1,85,2|2,1:2|0:0,0:0:0:0:
288,168,84039,2,0,P|262:201|256:242,1,85,0|0,0:0|0:0,0:0:0:0:
424,228,84381,2,0,L|360:232,1,63.75,8|0,0:3|0:0,0:0:0:0:
424,228,84724,6,0,B|464:156|412:108|412:108|384:128|356:160,1,170,6|0,0:3|0:0,0:0:0:0:
392,316,85067,6,0,P|428:324|471:306,1,63.7500024318696,0|0,1:0|0:0,0:0:0:0:
444,168,85410,6,0,L|408:272,1,63.7500024318696,2|0,0:0|0:0,0:0:0:0:
361,72,85581,2,0,L|397:176,1,63.7500024318696,2|0,0:0|0:0,0:0:0:0:
445,21,85753,2,0,L|369:153,1,127.500004863739,10|0,0:3|0:0,0:0:0:0:
216,20,86096,2,0,L|292:152,1,127.500004863739,2|0,0:0|0:0,0:0:0:0:
356,256,86439,6,0,L|312:184,1,63.7500024318696,0|0,1:0|0:0,0:0:0:0:
136,60,86781,5,2,0:2:0:0:
162,104,86866,1,2,0:2:0:0:
184,140,86953,2,0,L|217:194,1,63.7500024318696,2|2,1:2|0:2,0:0:0:0:
184,328,87124,2,0,L|150:273,1,63.7500024318696,10|0,0:2|0:0,0:0:0:0:
52,104,87296,6,0,L|112:208,1,106.25,0|0,0:0|0:0,0:0:0:0:
105,196,87810,6,0,P|24:208|72:264,1,191.250007295609,4|0,1:0|0:0,0:0:0:0:
325,257,88496,2,0,L|156:261,1,170,8|0,0:3|0:0,0:0:0:0:
374,176,89010,1,2,0:0:0:0:
325,257,89181,2,0,P|377:273|417:261,1,85,2|2,1:2|0:0,0:0:0:0:
405,93,89524,2,0,P|364:87|325:103,1,85,0|0,0:0|0:0,0:0:0:0:
481,128,89867,2,0,P|487:86|472:47,1,85,8|0,0:3|0:0,0:0:0:0:
405,93,90210,1,0,1:0:0:0:
472,47,90381,1,2,0:0:0:0:
231,127,90553,6,0,L|143:139,1,63.7500024318696,0|0,1:0|0:0,0:0:0:0:
141,219,90896,6,0,L|144:277,1,50.9999984436036,2|0,0:1|0:0,0:0:0:0:
80,117,91067,2,0,L|78:62,1,50.9999984436036,2|0,0:1|0:0,0:0:0:0:
48,208,91239,2,0,L|52:336,1,127.500004863739,8|0,0:3|0:0,0:0:0:0:
272,339,91581,2,0,L|276:212,1,127.500004863739,0|0,0:0|0:0,0:0:0:0:
168,136,91924,6,0,L|165:199,1,63.7500024318696,0|0,1:0|0:0,0:0:0:0:
146,29,92267,6,0,P|178:23|204:28,1,50.9999984436036,2|0,0:1|0:0,0:0:0:0:
271,131,92439,2,0,P|251:106|242:79,1,50.9999984436036,2|0,1:1|0:0,0:0:0:0:
302,17,92610,2,0,P|333:10|359:15,1,50.9999984436036,8|0,0:3|0:0,0:0:0:0:
411,104,92782,2,0,P|379:110|353:106,1,50.9999984436036,2|0,0:1|0:0,0:0:0:0:
476,24,92953,1,2,0:3:0:0:
508,64,93038,1,2,0:3:0:0:
512,110,93125,2,0,P|512:142|501:172,1,63.7500024318696,2|2,0:0|0:0,0:0:0:0:
420,248,93296,6,0,P|454:180|481:251,1,191.250007295609,4|0,1:0|0:0,0:0:0:0:
272,339,93981,2,0,P|354:323|435:347,1,170,8|0,0:3|0:0,0:0:0:0:
168,368,94496,1,2,0:0:0:0:
242,251,94667,2,0,L|234:155,1,85,2|2,1:2|0:0,0:0:0:0:
129,103,95010,2,0,L|121:187,1,85,0|0,0:0|0:0,0:0:0:0:
352,148,95353,2,0,L|344:72,1,63.75,8|0,0:3|0:0,0:0:0:0:
352,148,95696,6,0,P|324:224|296:116,1,255,6|0,0:3|0:0,0:0:0:0:
448,160,96039,6,0,P|448:192|440:228,1,63.7500024318696,0|0,1:0|0:0,0:0:0:0:
324,316,96381,5,2,0:0:0:0:
273,323,96466,1,2,0:0:0:0:
231,304,96553,2,0,P|203:287|182:263,1,63.7500024318696,2|2,0:0|0:0,0:0:0:0:
152,188,96724,2,0,P|156:224|116:188,1,127.5,8|0,0:3|0:0,0:0:0:0:
32,136,97410,5,0,1:0:0:0:
39,120,97496,1,0,0:0:0:0:
50,108,97581,1,0,0:0:0:0:
64,98,97667,1,0,0:0:0:0:
80,92,97752,1,0,1:0:0:0:
96,92,97839,1,0,0:0:0:0:
118,95,97925,1,0,0:0:0:0:
139,106,98011,1,0,0:0:0:0:
156,120,98096,5,8,0:0:0:0:
180,136,98181,1,0,0:0:0:0:
209,143,98267,1,0,0:0:0:0:
238,140,98353,1,0,0:0:0:0:
265,128,98438,1,0,1:0:0:0:
288,104,98524,1,0,0:0:0:0:
328,112,98609,1,0,0:0:0:0:
360,76,98695,1,0,0:0:0:0:
409,94,98781,6,0,P|425:150|401:206,1,106.25,4|0,1:0|0:0,0:0:0:0:
410,194,99296,1,0,1:0:0:0:
403,282,99467,2,0,L|403:342,1,42.5,8|0,0:0|0:0,0:0:0:0:
334,236,99810,2,0,P|278:220|222:244,1,106.25,0|0,1:0|0:0,0:0:0:0:
281,302,100324,2,0,P|225:318|169:294,1,106.25,0|0,1:0|0:0,0:0:0:0:
155,226,100839,2,0,L|163:150,1,63.75,8|0,0:0|0:0,0:0:0:0:
88,112,101181,2,0,L|80:188,1,63.75,0|0,1:0|1:0,0:0:0:0:
252,160,101524,6,0,P|237:95|185:75,1,127.5,0|0,1:0|0:0,0:0:0:0:
252,160,102210,2,0,L|464:152,1,191.250007295609,8|0,0:0|0:0,0:0:0:0:
446,159,103067,1,0,0:0:0:0:
446,159,103153,1,0,0:0:0:0:
446,159,103239,2,0,L|431:237,1,50.9999984436036,0|0,0:0|0:0,0:0:0:0:
428,260,103410,2,0,L|437:209,1,50.9999984436036,0|0,1:0|0:0,0:0:0:0:
341,141,103581,2,0,L|323:219,1,50.9999984436036,8|0,0:0|0:0,0:0:0:0:
318,240,103753,2,0,L|329:189,1,50.9999984436036,2|0,3:0|0:0,0:0:0:0:
231,131,103924,2,0,B|190:275|190:275|185:248|171:217,1,191.250007295609,0|0,1:0|0:0,0:0:0:0:
92,180,104267,6,0,P|77:230|93:280,1,106.25,4|0,1:0|0:0,0:0:0:0:
92,279,104781,1,0,1:0:0:0:
190,276,104953,2,0,P|186:249|173:227,1,42.5,8|0,0:0|0:0,0:0:0:0:
44,360,105296,2,0,P|94:374|144:358,1,106.25,0|0,1:0|0:0,0:0:0:0:
180,236,105810,2,0,P|230:221|280:237,1,106.25,0|0,1:0|0:0,0:0:0:0:
352,292,106324,2,0,P|367:263|367:232,1,63.75,8|0,0:0|0:0,0:0:0:0:
416,160,106667,2,0,P|387:145|356:145,1,63.75,0|0,1:0|1:0,0:0:0:0:
276,168,107010,6,0,B|216:184|176:176|176:144|212:124|216:152,1,127.5,0|0,1:0|0:0,0:0:0:0:
140,228,107696,2,0,P|110:157|173:62,1,191.250007295609,8|0,0:0|0:0,0:0:0:0:
260,64,108381,2,0,P|300:76|348:60,1,85,0|0,1:0|0:0,0:0:0:0:
416,24,108896,1,0,1:0:0:0:
476,88,109067,2,0,P|488:120|476:160,1,63.75,8|0,0:0|0:0,0:0:0:0:
452,172,109410,1,8,0:0:0:0:
410,165,109495,1,8,0:0:0:0:
370,178,109581,1,0,1:0:0:0:
341,208,109667,1,0,1:0:0:0:
328,248,109753,6,0,P|278:263|228:247,1,106.25,4|0,1:0|0:0,0:0:0:0:
228,247,110267,1,0,1:0:0:0:
152,284,110439,2,0,L|156:344,1,42.5,8|0,0:0|0:0,0:0:0:0:
80,240,110781,2,0,P|65:190|81:140,1,106.25,0|0,1:0|0:0,0:0:0:0:
160,184,111296,2,0,P|175:134|160:84,1,106.25,0|0,1:0|0:0,0:0:0:0:
80,48,111810,2,0,L|37:51,1,42.5,8|0,0:0|0:0,0:0:0:0:
160,84,112153,2,0,L|202:80,1,42.5,0|0,1:0|0:0,0:0:0:0:
280,20,112496,6,0,P|304:68|280:140,1,127.5,0|0,1:0|0:0,0:0:0:0:
216,176,113181,2,0,P|289:153|255:235,1,191.250007295609,8|0,0:0|0:0,0:0:0:0:
280,240,114039,1,0,0:0:0:0:
280,240,114124,1,0,0:0:0:0:
280,240,114210,2,0,P|283:271|276:296,1,50.9999984436036,0|0,0:0|0:0,0:0:0:0:
234,313,114381,2,0,P|259:294|290:289,1,50.9999984436036,0|0,1:0|0:0,0:0:0:0:
409,315,114553,2,0,P|380:302|362:283,1,50.9999984436036,10|0,0:0|0:0,0:0:0:0:
368,238,114724,2,0,P|371:269|360:298,1,50.9999984436036,2|0,3:0|0:0,0:0:0:0:
293,152,114896,2,0,B|257:68|329:20|329:20|341:76,1,191.250007295609,0|0,1:0|0:0,0:0:0:0:
180,160,115239,6,0,P|130:175|80:160,1,106.25,4|0,1:0|0:0,0:0:0:0:
80,160,115753,1,0,1:0:0:0:
20,104,115924,2,0,L|28:56,1,42.5,8|0,0:0|0:0,0:0:0:0:
0,192,116267,2,0,L|16:312,1,106.25,0|0,1:0|0:0,0:0:0:0:
100,260,116781,2,0,L|116:380,1,106.25,0|0,1:0|0:0,0:0:0:0:
192,296,117296,2,0,L|204:368,1,63.75,8|0,0:0|0:0,0:0:0:0:
280,288,117639,2,0,L|292:360,1,63.75,0|0,1:0|0:0,0:0:0:0:
380,288,117981,6,0,P|371:240|344:210,1,85,12|0,0:0|0:0,0:0:0:0:
272,180,118324,1,0,1:0:0:0:
311,33,118496,2,0,P|274:64|261:102,1,85,8|0,0:0|0:0,0:0:0:0:
272,180,118839,1,0,1:0:0:0:
136,261,119010,6,0,B|177:261|177:261|213:236,1,85,8|0,0:0|0:0,0:0:0:0:
136,261,119524,1,0,1:0:0:0:
136,261,119610,1,0,1:0:0:0:
136,261,119696,1,0,1:0:0:0:
124,108,119867,1,0,1:0:0:0:
40,320,120039,1,8,0:0:0:0:
272,180,120210,1,0,1:0:0:0:
32,160,120381,1,8,0:0:0:0:
188,304,120724,5,0,1:0:0:0:
432,56,131696,5,2,0:3:0:0:
432,96,132210,1,2,0:3:0:0:
432,136,132724,1,2,0:3:0:0:
432,176,133239,1,2,0:3:0:0:
332,88,133753,5,2,0:3:0:0:
320,128,134096,1,2,0:3:0:0:
432,216,134439,37,2,0:3:0:0:
432,256,134953,1,2,0:3:0:0:
432,296,135467,1,2,0:3:0:0:
152,288,137181,21,2,0:3:0:0:
117,264,137696,1,2,0:3:0:0:
94,228,138210,1,2,0:3:0:0:
88,186,138724,1,2,0:3:0:0:
212,184,139239,5,2,0:3:0:0:
224,216,139581,1,2,0:3:0:0:
99,146,139924,37,2,0:3:0:0:
126,113,140439,1,2,0:3:0:0:
163,93,140953,1,2,0:3:0:0:
356,64,142667,6,0,B|300:92|300:92|268:88|268:88|267:80|267:80|236:68|236:68|204:88|204:88|164:92|164:92|168:136|168:136|164:144|164:144|168:180|168:180|156:216|156:216,1,340,4|0,0:0|0:0,0:0:0:0:
162,92,144210,1,2,0:3:0:0:
72,32,144724,5,2,0:3:0:0:
56,72,145067,1,2,0:3:0:0:
155,173,145410,5,2,0:3:0:0:
170,134,145924,1,2,0:3:0:0:
162,92,146439,1,2,0:3:0:0:
108,316,148153,6,0,B|166:318|166:318|184:324|184:324|256:324|256:324|280:288|280:288|292:284|292:284|324:248|324:248|276:252|276:252|264:256|264:256|232:256,1,340,4|0,0:0|0:0,0:0:0:0:
324,248,149696,1,2,0:3:0:0:
208,132,150210,5,2,0:3:0:0:
176,156,150553,1,2,0:3:0:0:
336,168,150896,37,2,0:3:0:0:
334,125,151410,1,2,0:3:0:0:
332,83,151924,1,2,0:3:0:0:
336,168,152610,5,0,0:0:0:0:
338,211,153124,1,0,0:0:0:0:
248,80,153639,5,2,1:2:0:0:
178,36,153982,1,2,1:2:0:0:
112,84,154325,1,2,1:2:0:0:
144,160,154667,1,2,1:2:0:0:
182,232,155011,1,0,1:0:0:0:
140,304,155353,1,2,1:2:0:0:
59,304,155696,1,2,1:2:0:0:
18,234,156039,1,2,1:2:0:0:
248,80,156381,5,2,1:2:0:0:
351,86,156724,1,2,1:2:0:0:
378,185,157067,1,2,1:2:0:0:
291,241,157410,1,2,1:2:0:0:
318,340,157753,1,0,1:0:0:0:
421,346,158095,1,2,1:2:0:0:
460,252,158438,1,2,1:2:0:0:
378,185,158781,1,2,1:2:0:0:
191,237,159124,5,2,1:2:0:0:
242,152,159296,1,0,1:0:0:0:
291,241,159467,1,0,1:0:0:0:
143,151,159639,1,2,1:2:0:0:
294,67,159810,1,0,1:0:0:0:
242,152,159981,1,0,1:0:0:0:
194,64,160153,1,2,1:2:0:0:
290,238,160324,5,0,1:0:0:0:
341,153,160496,1,2,1:2:0:0:
390,242,160667,1,0,1:0:0:0:
242,152,160839,1,0,1:0:0:0:
393,68,161010,1,2,1:2:0:0:
341,153,161181,1,0,1:0:0:0:
293,65,161353,1,0,1:0:0:0:
441,156,161524,1,2,1:2:0:0:
290,238,161696,1,0,1:0:0:0:
135,90,161867,5,2,1:2:0:0:
132,110,161952,1,0,1:0:0:0:
135,131,162038,1,0,1:0:0:0:
145,150,162124,1,0,1:0:0:0:
157,167,162209,1,2,1:2:0:0:
168,186,162295,1,0,1:0:0:0:
173,206,162381,1,0,1:0:0:0:
174,228,162467,1,0,1:0:0:0:
171,251,162553,1,2,1:2:0:0:
160,232,162638,1,0,1:0:0:0:
158,211,162724,1,0,1:0:0:0:
163,191,162810,1,0,1:0:0:0:
176,174,162895,1,2,1:2:0:0:
195,164,162981,1,0,1:0:0:0:
215,161,163067,1,0,1:0:0:0:
236,166,163153,1,0,1:0:0:0:
251,177,163239,6,0,L|283:171,14,21.25,2|2|2|2|2|2|2|2|2|2|2|2|2|0|0,0:0|0:0|0:0|0:0|0:0|0:0|0:0|0:0|0:0|0:0|0:0|0:0|0:0|0:0|0:0,0:0:0:0:
434,159,163924,5,8,0:0:0:0:
315,101,164181,5,4,0:3:0:0:
319,239,164438,5,0,0:3:0:0:
156,157,164610,6,0,B|92:145|36:165|36:165|16:145|28:117|28:117|72:129,1,191.250007295609,4|0,1:0|0:0,0:0:0:0:
251,177,165296,2,0,L|255:377,1,170,8|0,0:3|0:0,0:0:0:0:
160,252,165810,1,2,0:0:0:0:
254,346,165981,2,0,P|306:362|346:350,1,85,2|2,1:2|0:2,0:0:0:0:
448,216,166324,2,0,P|406:210|367:225,1,85,0|0,0:0|0:0,0:0:0:0:
464,352,166667,2,0,P|489:318|495:277,1,85,8|0,0:3|0:0,0:0:0:0:
448,216,167010,1,0,1:0:0:0:
496,276,167181,1,2,0:0:0:0:
381,130,167353,6,0,L|377:54,1,63.7500024318696,0|0,1:0|0:0,0:0:0:0:
318,182,167696,6,0,L|310:249,1,50.9999984436036,2|0,0:1|0:0,0:0:0:0:
463,131,167867,2,0,L|458:81,1,50.9999984436036,2|0,0:1|0:0,0:0:0:0:
300,100,168039,2,0,B|200:100|200:100|174:89,1,127.500004863739,8|0,0:3|0:0,0:0:0:0:
226,16,168381,2,0,B|326:16|326:16|352:27,1,127.500004863739,0|0,0:0|0:0,0:0:0:0:
257,258,168724,6,0,P|226:228|217:187,1,85,0|0,1:0|0:0,0:0:0:0:
276,260,168981,1,0,0:0:0:0:
290,261,169066,1,0,1:0:0:0:
304,268,169152,1,0,1:0:0:0:
314,278,169238,1,0,1:0:0:0:
321,291,169323,1,0,1:0:0:0:
324,304,169410,6,0,P|380:276|460:316,1,148.75,0|0,1:0|1:0,0:0:0:0:
388,360,170096,6,0,L|384:168,1,191.250007295609,4|0,1:0|0:0,0:0:0:0:
433,98,170781,2,0,P|352:89|300:152,1,170,8|0,0:3|0:0,0:0:0:0:
300,151,171296,1,2,0:0:0:0:
433,98,171467,2,0,P|449:46|437:6,1,85,2|2,1:2|0:0,0:0:0:0:
234,103,171810,2,0,P|271:142|311:152,1,85,0|0,0:0|0:0,0:0:0:0:
423,217,172153,2,0,L|379:162,1,63.75,8|0,0:3|0:0,0:0:0:0:
423,217,172496,6,0,P|474:279|367:249,1,255,6|0,0:3|0:0,0:0:0:0:
280,248,172839,6,0,P|272:280|288:320,1,63.7500024318696,0|0,1:0|0:0,0:0:0:0:
293,165,173181,6,0,P|261:164|231:175,1,63.7500024318696,2|0,0:0|0:0,0:0:0:0:
120,256,173353,2,0,P|149:267|181:266,1,63.7500024318696,2|0,0:0|0:0,0:0:0:0:
62,69,173524,2,0,L|48:196,1,127.500004863739,8|0,0:3|0:0,0:0:0:0:
134,382,173867,2,0,L|120:256,1,127.500004863739,2|0,0:0|0:0,0:0:0:0:
207,255,174210,6,0,L|284:255,1,76.4999976654053,0|0,1:0|0:0,0:0:0:0:
232,175,174553,2,0,L|308:175,1,76.4999976654053,0|0,1:0|0:0,0:0:0:0:
253,96,174896,6,0,L|445:97,1,152.999995330811,8|0,0:3|0:0,0:0:0:0:
385,176,175153,2,0,L|232:175,1,152.999995330811,8|0,0:3|0:0,0:0:0:0:
207,255,175410,6,0,L|359:255,1,152.999995330811,8|0,0:3|0:0,0:0:0:0:
232,344,175581,6,0,B|128:360|156:284|49:300,1,191.250007295609,4|0,1:0|0:0,0:0:0:0:
207,255,176267,2,0,B|232:176|232:176|206:91,1,170,8|0,0:3|0:0,0:0:0:0:
140,32,176781,1,2,0:0:0:0:
24,124,176953,2,0,L|140:108,1,85,2|2,1:2|0:0,0:0:0:0:
312,16,177296,2,0,L|227:4,1,85,0|0,0:0|0:0,0:0:0:0:
360,84,177639,2,0,P|388:53|398:13,1,85,8|0,0:3|0:0,0:0:0:0:
312,16,177981,1,0,1:0:0:0:
399,13,178153,1,2,0:0:0:0:
360,152,178324,6,0,L|360:224,1,63.7500024318696,0|0,1:0|0:0,0:0:0:0:
424,284,178667,6,0,L|431:227,1,50.9999984436036,2|0,0:1|0:0,0:0:0:0:
284,225,178839,2,0,L|292:283,1,50.9999984436036,2|0,0:1|0:0,0:0:0:0:
458,341,179010,2,0,L|482:161,1,127.500004863739,8|0,0:3|0:0,0:0:0:0:
260,208,179353,2,0,L|284:388,1,127.500004863739,0|0,0:0|0:0,0:0:0:0:
256,84,179696,6,0,L|168:92,1,63.7500024318696,0|0,1:0|0:0,0:0:0:0:
101,88,180039,6,0,L|142:146,1,50.9999984436036,2|0,0:1|0:0,0:0:0:0:
163,245,180210,2,0,L|192:184,1,50.9999984436036,2|0,1:1|0:0,0:0:0:0:
260,116,180381,2,0,L|192:122,1,50.9999984436036,8|0,0:3|0:0,0:0:0:0:
45,191,180553,2,0,L|99:196,1,50.9999984436036,2|0,0:1|0:0,0:0:0:0:
272,196,180724,1,2,0:3:0:0:
304,236,180809,1,2,0:3:0:0:
308,282,180896,2,0,P|308:314|297:344,1,63.7500024318696,2|2,0:2|0:2,0:0:0:0:
150,310,181067,6,0,P|185:243|213:314,1,191.250007295609,4|0,1:0|0:0,0:0:0:0:
297,343,181753,2,0,B|413:351|413:351|469:319,1,170,8|0,0:3|0:0,0:0:0:0:
459,324,182267,1,2,0:2:0:0:
400,160,182439,2,0,P|384:212|396:252,1,85,2|2,1:2|0:0,0:0:0:0:
480,24,182781,2,0,P|495:63|489:104,1,85,0|0,0:0|0:0,0:0:0:0:
348,72,183124,2,0,L|416:72,1,63.75,8|0,0:3|0:0,0:0:0:0:
348,72,183467,6,0,B|176:71|176:71|225:78|248:120,1,255,6|0,0:3|0:0,0:0:0:0:
168,224,183810,6,0,P|159:193|167:162,1,63.7500024318696,0|0,1:0|0:0,0:0:0:0:
232,296,184153,5,2,0:2:0:0:
186,320,184238,1,2,0:2:0:0:
140,316,184325,2,0,P|107:309|79:294,1,63.7500024318696,2|2,0:2|0:2,0:0:0:0:
232,296,184496,2,0,P|292:276|360:296,1,127.5,8|0,0:3|0:0,0:0:0:0:
440,184,185181,5,8,0:0:0:0:
440,184,185267,1,8,0:0:0:0:
440,184,185353,2,0,L|440:272,1,50.9999984436036,0|0,1:0|1:0,0:0:0:0:
352,344,185524,1,4,0:3:0:0:
352,344,185610,1,4,0:3:0:0:
352,344,185696,2,0,L|352:256,1,50.9999984436036,0|0,1:0|1:0,0:0:0:0:
328,192,185867,5,0,0:0:0:0:
285,193,185952,1,0,0:0:0:0:
243,195,186038,1,0,0:0:0:0:
200,197,186124,1,0,0:0:0:0:
158,199,186209,1,8,0:0:0:0:
158,199,186553,6,0,P|168:116|80:104,1,170,4|0,1:0|0:0,0:0:0:0:
98,94,187239,6,0,L|8:84,1,63.7500024318696,8|0,0:3|0:0,0:0:0:0:
158,199,187410,2,0,L|232:192,1,63.7500024318696,2|0,0:1|0:0,0:0:0:0:
72,264,187581,2,0,L|-12:256,1,63.7500024318696,2|0,0:1|0:0,0:0:0:0:
157,341,187753,2,0,L|245:345,1,63.7500024318696,2|0,0:1|0:0,0:0:0:0:
284,186,187924,6,0,L|210:193,1,63.7500024318696,0|0,1:0|0:0,0:0:0:0:
220,343,188096,2,0,L|283:346,1,63.7500024318696,2|0,0:1|0:0,0:0:0:0:
280,160,188267,2,0,L|206:167,1,63.7500024318696,2|0,0:1|0:0,0:0:0:0:
224,368,188439,2,0,L|296:372,1,63.7500024318696,2|0,0:1|0:0,0:0:0:0:
440,232,188610,6,0,L|452:76,1,127.500004863739,8|0,0:3|0:0,0:0:0:0:
344,216,188953,2,0,L|356:372,1,127.500004863739,2|0,0:0|0:0,0:0:0:0:
348,124,189296,6,0,P|328:75|294:143,1,170,4|0,1:0|0:0,0:0:0:0:
291,141,189981,6,0,P|260:148|228:140,1,63.7500024318696,8|0,0:3|0:0,0:0:0:0:
111,56,190153,2,0,P|142:49|174:57,1,63.7500024318696,2|0,0:1|0:0,0:0:0:0:
288,164,190324,2,0,P|257:171|225:163,1,63.7500024318696,2|0,0:1|0:0,0:0:0:0:
107,84,190496,2,0,P|138:77|170:85,1,63.7500024318696,2|0,0:1|0:0,0:0:0:0:
260,248,190667,6,0,P|180:236|135:150,1,170,0|0,1:0|0:0,0:0:0:0:
135,164,191181,1,0,1:0:0:0:
348,236,191353,2,0,P|340:296|308:320,1,85,8|0,0:3|0:0,0:0:0:0:
264,92,191696,2,0,P|262:133|287:167,1,85,0|0,1:0|0:0,0:0:0:0:
460,24,192039,6,0,P|460:99|380:183,1,170,4|0,1:0|0:0,0:0:0:0:
404,172,192724,6,0,L|467:174,1,63.7500024318696,8|0,0:3|0:0,0:0:0:0:
348,236,192896,2,0,L|284:232,1,63.7500024318696,2|0,0:1|0:0,0:0:0:0:
408,296,193067,2,0,L|471:298,1,63.7500024318696,2|0,0:1|0:0,0:0:0:0:
352,360,193239,2,0,L|288:356,1,63.7500024318696,2|0,0:1|0:0,0:0:0:0:
140,336,193410,6,0,L|145:270,1,63.7500024318696,0|0,1:0|0:0,0:0:0:0:
228,183,193581,2,0,L|304:184,1,63.7500024318696,2|0,0:1|0:0,0:0:0:0:
105,302,193753,2,0,L|110:236,1,63.7500024318696,2|0,0:1|0:0,0:0:0:0:
193,149,193924,2,0,L|269:150,1,63.7500024318696,2|0,0:1|0:0,0:0:0:0:
0,348,194096,6,0,L|6:221,1,127.500004863739,8|0,0:3|0:0,0:0:0:0:
231,56,194439,2,0,L|228:184,1,127.500004863739,2|0,0:0|0:0,0:0:0:0:
44,80,194781,5,0,1:0:0:0:
40,224,194953,1,0,0:0:0:0:
140,8,195124,1,0,0:0:0:0:
136,152,195296,1,0,1:0:0:0:
231,56,195467,1,8,0:3:0:0:
235,200,195639,1,0,0:0:0:0:
356,32,195810,6,0,B|384:112|264:116|316:200|348:244|348:244|360:196|396:184,1,305.999990661621,0|0,1:0|1:0,0:0:0:0:
389,186,196668,1,0,1:0:0:0:
434,202,196753,1,0,1:0:0:0:
478,186,196839,1,8,0:3:0:0:
416,288,197010,2,0,P|340:328|272:276,1,170,0|0,1:0|0:0,0:0:0:0:
256,216,197524,6,0,P|268:276|212:220,1,170,4|0,1:0|0:0,0:0:0:0:
197,248,198210,6,0,L|105:256,1,63.7500024318696,8|0,0:3|0:0,0:0:0:0:
8,168,198381,2,0,L|80:176,1,63.7500024318696,2|0,0:1|0:0,0:0:0:0:
156,104,198553,2,0,L|148:172,1,63.7500024318696,2|0,0:1|0:0,0:0:0:0:
48,320,198724,2,0,L|56:244,1,63.7500024318696,2|0,0:1|0:0,0:0:0:0:
76,32,198896,6,0,L|68:100,1,63.7500024318696,0|0,1:0|0:0,0:0:0:0:
248,104,199067,2,0,L|256:36,1,63.7500024318696,2|0,0:1|0:0,0:0:0:0:
104,36,199239,2,0,L|96:104,1,63.7500024318696,2|0,0:1|0:0,0:0:0:0:
277,108,199410,2,0,L|285:40,1,63.7500024318696,2|0,0:1|0:0,0:0:0:0:
208,184,199581,6,0,L|224:316,1,127.500004863739,8|0,0:3|0:0,0:0:0:0:
400,184,199924,2,0,L|416:52,1,127.500004863739,2|0,0:0|0:0,0:0:0:0:
466,237,200267,6,0,P|392:271|324:228,1,170,4|0,1:0|0:0,0:0:0:0:
324,228,200953,6,0,L|308:336,1,63.7500024318696,8|0,0:3|0:0,0:0:0:0:
188,368,201124,2,0,L|204:260,1,63.7500024318696,2|0,0:1|0:0,0:0:0:0:
288,224,201296,2,0,L|272:332,1,63.7500024318696,2|0,0:1|0:0,0:0:0:0:
152,364,201467,2,0,L|168:256,1,63.7500024318696,2|0,0:1|0:0,0:0:0:0:
216,168,201639,6,0,P|170:215|89:155,1,170,0|0,1:0|0:0,0:0:0:0:
91,169,202153,1,0,1:0:0:0:
310,141,202324,2,0,L|287:223,1,85,8|0,0:3|0:0,0:0:0:0:
184,44,202667,2,0,L|220:183,1,127.500004863739,0|0,0:0|0:0,0:0:0:0:
266,322,203010,6,0,P|309:257|380:292,1,170,4|0,1:0|0:0,0:0:0:0:
379,290,203696,6,0,L|408:232,1,63.7500024318696,8|0,0:3|0:0,0:0:0:0:
356,136,203867,2,0,L|394:187,1,63.7500024318696,2|0,0:1|0:0,0:0:0:0:
504,196,204039,2,0,L|440:200,1,63.7500024318696,2|0,0:1|0:0,0:0:0:0:
460,60,204210,2,0,L|444:128,1,63.7500024318696,2|0,0:1|0:0,0:0:0:0:
279,207,204381,6,0,L|264:144,1,63.7500024318696,2|0,1:1|0:0,0:0:0:0:
288,59,204553,2,0,L|350:41,1,63.7500024318696,2|0,0:1|0:0,0:0:0:0:
247,211,204724,2,0,L|232:148,1,63.7500024318696,2|0,0:1|0:0,0:0:0:0:
266,30,204896,2,0,L|328:12,1,63.7500024318696,2|0,0:1|0:0,0:0:0:0:
368,208,205067,6,0,P|344:268|276:288,1,127.500004863739,8|0,0:3|0:0,0:0:0:0:
200,126,205410,2,0,P|224:186|292:206,1,127.500004863739,2|8,1:2|0:3,0:0:0:0:
400,56,205753,5,6,1:0:0:0:
284,116,205924,1,0,0:0:0:0:
440,244,206096,1,10,0:0:0:0:
368,172,206267,1,0,1:0:0:0:
256,316,206439,1,2,0:0:0:0:
464,152,206610,1,0,1:2:0:0:
264,216,206781,2,0,L|152:208,1,101.999996887207,10|0,0:0|0:0,0:0:0:0:
121,115,207124,5,2,0:0:0:0:
168,208,207295,1,0,1:0:0:0:
30,160,207467,2,0,P|17:111|33:63,1,101.999996887207,10|0,0:0|0:0,0:0:0:0:
224,109,207810,1,2,0:0:0:0:
121,115,207981,1,0,1:0:0:0:
280,208,208153,2,0,P|317:174|330:125,1,101.999996887207,10|0,0:0|0:0,0:0:0:0:
178,23,208496,6,0,P|188:72|223:108,1,101.999996887207,4|0,1:0|0:0,0:0:0:0:
392,36,208839,1,10,0:0:0:0:
289,29,209010,1,0,1:0:0:0:
280,208,209181,1,2,0:0:0:0:
330,125,209352,1,0,1:0:0:0:
178,200,209524,2,0,P|183:250|215:288,1,101.999996887207,10|0,0:0|0:0,0:0:0:0:
380,207,209867,5,2,0:0:0:0:
330,294,210039,1,0,1:0:0:0:
330,125,210210,2,0,L|456:136,1,101.999996887207,10|0,0:0|0:0,0:0:0:0:
223,108,210553,1,2,0:0:0:0:
288,30,210724,1,0,1:0:0:0:
431,133,210896,1,8,0:0:0:0:
330,125,211067,1,0,0:0:0:0:
128,219,211239,6,0,P|196:195|220:99,1,170,4|0,1:0|0:0,0:0:0:0:
222,107,211753,1,0,1:0:0:0:
64,160,211924,2,0,P|38:204|49:259,1,85,8|0,0:0|0:0,0:0:0:0:
222,330,212267,2,0,P|203:250|127:218,1,170,0|0,1:0|0:0,0:0:0:0:
128,220,212781,5,0,1:0:0:0:
404,192,213124,1,0,1:0:0:0:
404,148,213209,1,0,1:0:0:0:
404,103,213295,1,8,0:0:0:0:
316,216,213467,2,0,P|368:272|476:248,1,191.250007295609,0|0,1:0|1:0,0:0:0:0:
256,192,214067,12,0,218781,0:0:0:0:
