osu file format v14

[General]
AudioFilename: audio.mp3
AudioLeadIn: 0
PreviewTime: 54827
Countdown: 0
SampleSet: Soft
StackLeniency: 0.4
Mode: 0
LetterboxInBreaks: 0
WidescreenStoryboard: 1

[Editor]
Bookmarks: 33056,70084,70427,81033,93376
DistanceSpacing: 1.3
BeatDivisor: 8
GridSize: 4
TimelineZoom: 2.3

[Metadata]
Title:The Quick and the Dead
TitleUnicode:The Quick and the Dead
Artist:Rudebrat
ArtistUnicode:Rudebrat
Creator:Agent_James
Version:358 - HD DELTA
Source:
Tags:dubstep instrumental wubs Kuro Fuyusaki FunnyA electronic
BeatmapID:1645685
BeatmapSetID:772288

[Difficulty]
HPDrainRate:6
CircleSize:4
OverallDifficulty:6
ApproachRate:8
SliderMultiplier:1.5
SliderTickRate:1

[Events]
//Background and Video events
0,0,"wallhaven-700087.jpg",0,0
//Break Periods
2,120924,130946
2,144238,147403
2,149724,152889
//Storyboard Layer 0 (Background)
//Storyboard Layer 1 (Fail)
//Storyboard Layer 2 (Pass)
//Storyboard Layer 3 (Foreground)
//Storyboard Layer 4 (Overlay)
//Storyboard Sound Samples

[TimingPoints]
39,342.857142857143,4,2,2,50,1,0
21296,-133.333333333333,4,2,2,50,0,0
21981,-111.111111111111,4,2,2,50,0,0
40539,-111.111111111111,4,2,2,20,0,0
40839,-111.111111111111,4,2,2,50,0,0
43239,-133.333333333333,4,2,2,50,0,0
43581,-100,4,2,2,50,0,0
43924,-111.111111111111,4,2,2,50,0,0
49410,-133.333333333333,4,2,2,50,0,0
50781,-111.111111111111,4,2,2,50,0,0
54896,-111.111111111111,4,2,2,80,0,1
55581,-100,4,2,2,80,0,1
55839,-100,4,2,2,5,0,1
55924,-100,4,2,2,80,0,1
56010,-100,4,2,2,5,0,1
56096,-100,4,2,2,80,0,1
56181,-100,4,2,2,5,0,1
56267,-100,4,2,2,80,0,1
56353,-100,4,2,2,5,0,1
56439,-100,4,2,2,80,0,1
56524,-100,4,2,2,5,0,1
56610,-100,4,2,2,80,0,1
56696,-100,4,2,2,5,0,1
56781,-100,4,2,2,80,0,1
56867,-100,4,2,2,5,0,1
56953,-100,4,2,2,80,0,1
57639,-111.111111111111,4,2,2,80,0,1
58324,-100,4,2,2,80,0,1
58581,-100,4,2,2,5,0,1
58667,-100,4,2,2,80,0,1
58753,-100,4,2,2,5,0,1
58839,-100,4,2,2,80,0,1
58924,-100,4,2,2,5,0,1
59010,-100,4,2,2,80,0,1
59439,-100,4,2,2,5,0,1
59524,-100,4,2,2,80,0,1
59610,-100,4,2,2,5,0,1
59696,-100,4,2,2,80,0,1
60039,-100,4,2,2,80,0,1
60381,-111.111111111111,4,2,2,80,0,1
61067,-100,4,2,2,80,0,1
61324,-100,4,2,2,5,0,1
61410,-100,4,2,2,80,0,1
61496,-100,4,2,2,5,0,1
61581,-100,4,2,2,80,0,1
61667,-100,4,2,2,5,0,1
61753,-100,4,2,2,80,0,1
61839,-100,4,2,2,5,0,1
61924,-100,4,2,2,80,0,1
62010,-100,4,2,2,5,0,1
62096,-100,4,2,2,80,0,1
62181,-100,4,2,2,5,0,1
62267,-100,4,2,2,80,0,1
62353,-100,4,2,2,5,0,1
62439,-100,4,2,2,80,0,1
63124,-111.111111111111,4,2,2,80,0,1
64153,-111.111111111111,4,2,2,80,0,1
65353,-100,4,2,2,80,0,1
65867,-111.111111111111,4,2,2,80,0,1
66550,-100,4,2,2,80,0,1
66810,-100,4,2,2,5,0,1
66896,-100,4,2,2,80,0,1
66981,-100,4,2,2,5,0,1
67067,-100,4,2,2,80,0,1
67153,-100,4,2,2,5,0,1
67239,-100,4,2,2,80,0,1
67324,-100,4,2,2,5,0,1
67410,-100,4,2,2,80,0,1
67496,-100,4,2,2,5,0,1
67581,-100,4,2,2,80,0,1
67667,-100,4,2,2,5,0,1
67753,-100,4,2,2,80,0,1
67839,-100,4,2,2,5,0,1
67924,-100,4,2,2,80,0,1
68610,-100,4,2,2,80,0,1
69296,-100,4,2,2,80,0,1
69553,-100,4,2,2,5,0,1
69639,-100,4,2,2,80,0,1
69724,-100,4,2,2,5,0,1
69810,-100,4,2,2,80,0,1
69896,-100,4,2,2,5,0,1
69981,-100,4,2,2,80,0,1
70410,-100,4,2,2,5,0,1
70496,-100,4,2,2,80,0,1
70581,-100,4,2,2,5,0,1
70667,-100,4,2,2,80,0,1
71010,-100,4,2,2,80,0,1
71353,-111.111111111111,4,2,2,80,0,1
72039,-100,4,2,2,80,0,1
72296,-100,4,2,2,5,0,1
72381,-100,4,2,2,80,0,1
72467,-100,4,2,2,5,0,1
72553,-100,4,2,2,80,0,1
72639,-100,4,2,2,5,0,1
72724,-100,4,2,2,80,0,1
72810,-100,4,2,2,5,0,1
72896,-100,4,2,2,80,0,1
72981,-100,4,2,2,5,0,1
73067,-100,4,2,2,80,0,1
73153,-100,4,2,2,5,0,1
73239,-100,4,2,2,80,0,1
73324,-100,4,2,2,5,0,1
73410,-100,4,2,2,80,0,1
74096,-111.111111111111,4,2,2,65,0,0
76324,-100,4,2,2,65,0,0
76839,-111.111111111111,4,2,2,80,0,1
77524,-100,4,2,2,80,0,1
79581,-100,4,2,2,80,0,1
79924,-100,4,2,2,80,0,1
80010,-100,4,2,2,5,0,1
80096,-100,4,2,2,80,0,1
80181,-100,4,2,2,5,0,1
80267,-100,4,2,2,80,0,1
80953,-100,4,2,2,80,0,1
81296,-100,4,2,2,80,0,1
81381,-100,4,2,2,5,0,1
81467,-100,4,2,2,80,0,1
81553,-100,4,2,2,5,0,1
81639,-100,4,2,2,80,0,1
81724,-100,4,2,2,5,0,1
81810,-100,4,2,2,50,0,1
81896,-100,4,2,2,5,0,1
81981,-100,4,2,2,80,0,1
82324,-111.111111111111,4,2,2,80,0,1
83010,-100,4,2,2,80,0,1
84381,-100,4,2,2,80,0,1
84724,-90.9090909090909,4,2,2,80,0,1
85067,-100,4,2,2,80,0,1
85410,-100,4,2,2,80,0,1
85496,-100,4,2,2,5,0,1
85581,-100,4,2,2,80,0,1
85667,-100,4,2,2,5,0,1
85753,-100,4,2,2,80,0,1
86439,-100,4,2,2,80,0,1
86781,-100,4,2,2,80,0,1
87296,-125,4,2,2,80,0,1
87810,-111.111111111111,4,2,2,80,0,1
88496,-100,4,2,2,80,0,1
90553,-100,4,2,2,80,0,1
90896,-100,4,2,2,80,0,1
90981,-100,4,2,2,5,0,1
91067,-100,4,2,2,80,0,1
91153,-100,4,2,2,5,0,1
91239,-100,4,2,2,80,0,1
91924,-100,4,2,2,80,0,1
92267,-100,4,2,2,80,0,1
92353,-100,4,2,2,5,0,1
92439,-100,4,2,2,80,0,1
92524,-100,4,2,2,5,0,1
92610,-100,4,2,2,80,0,1
92696,-100,4,2,2,5,0,1
92781,-100,4,2,2,80,0,1
92867,-100,4,2,2,5,0,1
92953,-100,4,2,2,80,0,1
93296,-111.111111111111,4,2,2,80,0,1
93981,-100,4,2,2,80,0,1
95353,-100,4,2,2,80,0,1
95696,-90.9090909090909,4,2,2,80,0,1
96039,-100,4,2,2,80,0,1
96381,-100,4,2,2,80,0,1
96724,-111.111111111111,4,2,2,80,0,1
97410,-100,4,2,2,20,0,1
97753,-100,4,2,2,40,0,1
98096,-100,4,2,2,60,0,1
98439,-100,4,2,2,80,0,1
98781,-100,4,2,2,60,0,0
101524,-111.111111111111,4,2,2,70,0,0
102210,-100,4,2,2,70,0,0
102896,-100,4,2,2,70,0,0
104267,-100,4,2,2,60,0,0
107010,-111.111111111111,4,2,2,70,0,0
107696,-100,4,2,2,70,0,0
108381,-100,4,2,2,70,0,0
109410,-100,4,2,2,70,0,0
109753,-100,4,2,2,60,0,0
112496,-111.111111111111,4,2,2,70,0,0
113181,-100,4,2,2,70,0,0
113867,-100,4,2,2,70,0,0
114896,-100,4,2,2,60,0,0
115239,-100,4,2,2,60,0,0
117981,-100,4,2,2,60,0,0
119010,-111.111111111111,4,2,2,60,0,0
131696,-125,4,2,2,50,0,0
142667,-200,4,2,2,50,0,0
144210,-200,4,2,2,50,0,0
148153,-200,4,2,2,50,0,0
149696,-200,4,2,2,50,0,0
153639,-111.111111111111,4,2,2,60,0,0
159124,-133.333333333333,4,2,2,70,0,0
160496,-125,4,2,2,70,0,0
161867,-100,4,2,2,60,0,0
164610,-111.111111111111,4,2,2,80,0,1
165296,-100,4,2,2,80,0,1
167353,-100,4,2,2,80,0,1
167696,-100,4,2,2,80,0,1
167781,-100,4,2,2,5,0,1
167867,-100,4,2,2,80,0,1
167953,-100,4,2,2,5,0,1
168039,-100,4,2,2,80,0,1
168724,-100,4,2,2,80,0,1
169410,-100,4,2,2,80,0,1
170010,-100,4,2,2,5,0,1
170096,-100,4,2,2,80,0,1
170781,-100,4,2,2,80,0,1
172153,-100,4,2,2,80,0,1
172496,-90.9090909090909,4,2,2,80,0,1
172839,-100,4,2,2,80,0,1
173181,-100,4,2,2,80,0,1
173267,-100,4,2,2,5,0,1
173353,-100,4,2,2,80,0,1
173439,-100,4,2,2,5,0,1
173524,-100,4,2,2,80,0,1
174210,-100,4,2,2,80,0,0
174467,-100,4,2,2,10,0,0
174553,-100,4,2,2,80,0,0
174810,-100,4,2,2,10,0,0
174896,-100,4,2,2,80,0,0
175067,-100,4,2,2,10,0,0
175153,-100,4,2,2,80,0,0
175324,-100,4,2,2,10,0,0
175410,-100,4,2,2,80,0,0
175496,-100,4,2,2,10,0,0
175581,-100,4,2,2,80,0,1
176267,-100,4,2,2,80,0,1
178324,-100,4,2,2,80,0,1
178667,-100,4,2,2,80,0,1
178753,-100,4,2,2,5,0,1
178839,-100,4,2,2,80,0,1
178924,-100,4,2,2,5,0,1
179010,-100,4,2,2,80,0,1
179696,-100,4,2,2,80,0,1
180039,-100,4,2,2,80,0,1
180124,-100,4,2,2,5,0,1
180210,-100,4,2,2,80,0,1
180296,-100,4,2,2,5,0,1
180381,-100,4,2,2,80,0,1
180467,-100,4,2,2,5,0,1
180553,-100,4,2,2,80,0,1
180639,-100,4,2,2,5,0,1
180724,-100,4,2,2,80,0,1
181067,-100,4,2,2,80,0,1
181753,-100,4,2,2,80,0,1
183124,-100,4,2,2,80,0,1
183467,-90.9090909090909,4,2,2,80,0,1
183810,-100,4,2,2,80,0,1
184153,-100,4,2,2,80,0,1
184496,-100,4,2,2,80,0,1
185181,-100,4,2,2,80,0,0
185353,-100,4,2,2,80,0,0
185696,-100,4,2,2,80,0,0
185867,-100,4,2,2,80,0,0
186553,-100,4,2,2,80,0,1
187239,-100,4,2,2,80,0,1
187324,-100,4,2,2,5,0,1
187410,-100,4,2,2,80,0,1
187496,-100,4,2,2,5,0,1
187581,-100,4,2,2,80,0,1
187667,-100,4,2,2,5,0,1
187753,-100,4,2,2,80,0,1
187839,-100,4,2,2,5,0,1
187924,-100,4,2,2,80,0,1
188010,-100,4,2,2,5,0,1
188096,-100,4,2,2,80,0,1
188181,-100,4,2,2,5,0,1
188267,-100,4,2,2,80,0,1
188353,-100,4,2,2,5,0,1
188439,-100,4,2,2,80,0,1
188524,-100,4,2,2,5,0,1
188610,-100,4,2,2,80,0,1
189296,-100,4,2,2,80,0,1
189981,-100,4,2,2,80,0,1
190067,-100,4,2,2,5,0,1
190153,-100,4,2,2,80,0,1
190239,-100,4,2,2,5,0,1
190324,-100,4,2,2,80,0,1
190410,-100,4,2,2,5,0,1
190496,-100,4,2,2,80,0,1
190581,-100,4,2,2,5,0,1
190667,-100,4,2,2,80,0,1
192039,-100,4,2,2,80,0,1
192724,-100,4,2,2,80,0,1
192810,-100,4,2,2,5,0,1
192896,-100,4,2,2,80,0,1
192981,-100,4,2,2,5,0,1
193067,-100,4,2,2,80,0,1
193153,-100,4,2,2,5,0,1
193239,-100,4,2,2,80,0,1
193324,-100,4,2,2,5,0,1
193410,-100,4,2,2,80,0,1
193496,-100,4,2,2,5,0,1
193581,-100,4,2,2,80,0,1
193667,-100,4,2,2,5,0,1
193753,-100,4,2,2,80,0,1
193839,-100,4,2,2,5,0,1
193924,-100,4,2,2,80,0,1
194010,-100,4,2,2,5,0,1
194096,-100,4,2,2,80,0,1
195810,-111.111111111111,4,2,2,80,0,1
197010,-100,4,2,2,80,0,1
197524,-100,4,2,2,80,0,1
198210,-100,4,2,2,80,0,1
198296,-100,4,2,2,5,0,1
198381,-100,4,2,2,80,0,1
198467,-100,4,2,2,5,0,1
198553,-100,4,2,2,80,0,1
198639,-100,4,2,2,5,0,1
198724,-100,4,2,2,80,0,1
198810,-100,4,2,2,5,0,1
198896,-100,4,2,2,80,0,1
198981,-100,4,2,2,5,0,1
199067,-100,4,2,2,80,0,1
199153,-100,4,2,2,5,0,1
199239,-100,4,2,2,80,0,1
199324,-100,4,2,2,5,0,1
199410,-100,4,2,2,80,0,1
199496,-100,4,2,2,5,0,1
199581,-100,4,2,2,80,0,1
200267,-100,4,2,2,80,0,1
200953,-100,4,2,2,80,0,1
201039,-100,4,2,2,5,0,1
201124,-100,4,2,2,80,0,1
201210,-100,4,2,2,5,0,1
201296,-100,4,2,2,80,0,1
201381,-100,4,2,2,5,0,1
201467,-100,4,2,2,80,0,1
201553,-100,4,2,2,5,0,1
201639,-100,4,2,2,80,0,1
202667,-100,4,2,2,80,0,1
203010,-100,4,2,2,80,0,1
203696,-100,4,2,2,80,0,1
203781,-100,4,2,2,5,0,1
203867,-100,4,2,2,80,0,1
203953,-100,4,2,2,5,0,1
204039,-100,4,2,2,80,0,1
204124,-100,4,2,2,5,0,1
204210,-100,4,2,2,80,0,1
204296,-100,4,2,2,5,0,1
204381,-100,4,2,2,80,0,1
204467,-100,4,2,2,5,0,1
204553,-100,4,2,2,80,0,1
204639,-100,4,2,2,5,0,1
204724,-100,4,2,2,80,0,1
204810,-100,4,2,2,5,0,1
204896,-100,4,2,2,80,0,1
204981,-100,4,2,2,5,0,1
205067,-100,4,2,2,80,0,1
205753,-100,4,2,2,80,0,0
206781,-100,4,2,2,80,0,0
211239,-100,4,2,2,80,0,0
213467,-100,4,2,2,80,0,0
218781,-100,4,2,2,5,0,0

[Colours]
Combo1 : 212,212,212
Combo2 : 0,128,255
Combo3 : 117,255,255
Combo4 : 1,86,137
SliderTrackOverride : 15,25,35
SliderBorder : 220,220,220

[HitObjects]
92,80,21296,5,8,0:0:0:0:
92,80,21981,6,0,P|68:148|104:224,1,134.999995880127,6|0,0:0|0:0,0:0:0:0:
132,280,22496,1,2,0:0:0:0:
188,212,22667,2,0,P|251:193|313:217,1,134.999995880127,8|2,0:0|0:0,0:0:0:0:
460,316,23353,2,0,L|460:160,1,134.999995880127,0|0,1:2|0:0,0:0:0:0:
488,96,23867,1,0,0:0:0:0:
420,40,24039,2,0,L|340:36,1,67.4999979400635,10|0,0:0|0:0,0:0:0:0:
312,112,24381,2,0,L|392:116,1,67.4999979400635,2|0,0:0|0:0,0:0:0:0:
340,192,24724,6,0,L|204:184,1,134.999995880127,2|0,1:2|0:0,0:0:0:0:
152,112,25239,1,2,0:0:0:0:
100,180,25410,2,0,P|76:248|112:324,1,134.999995880127,8|2,0:0|0:0,0:0:0:0:
272,312,26096,2,0,P|225:257|141:250,1,134.999995880127,0|2,1:0|0:0,0:0:0:0:
184,332,26610,1,0,0:0:0:0:
272,312,26781,2,0,B|340:296|340:296|424:320,1,134.999995880127,8|0,0:0|1:0,0:0:0:0:
402,313,27467,6,0,L|404:160,1,134.999995880127,2|0,1:2|0:0,0:0:0:0:
248,96,28153,2,0,P|316:120|392:84,1,134.999995880127,8|2,0:0|0:0,0:0:0:0:
220,16,28839,2,0,B|176:40|176:40|156:136,1,134.999995880127,0|0,1:0|0:0,0:0:0:0:
216,188,29353,1,0,0:0:0:0:
158,123,29524,2,0,P|120:116|82:123,1,67.4999979400635,10|0,0:0|0:0,0:0:0:0:
64,204,29867,2,0,P|102:211|140:204,1,67.4999979400635,2|0,0:0|0:0,0:0:0:0:
216,188,30210,6,0,L|212:332,1,134.999995880127,2|0,1:2|0:0,0:0:0:0:
292,360,30724,1,2,0:0:0:0:
372,328,30896,2,0,L|375:193,1,134.999995880127,8|2,0:0|0:0,0:0:0:0:
345,21,31581,2,0,P|281:39|219:15,1,134.999995880127,0|2,1:0|0:0,0:0:0:0:
144,60,32096,1,0,1:0:0:0:
144,60,32181,1,0,1:0:0:0:
144,60,32267,2,0,P|137:98|144:136,1,67.4999979400635,8|0,0:0|0:0,0:0:0:0:
224,96,32610,1,0,1:0:0:0:
216,184,32781,1,8,0:0:0:0:
292,144,32953,6,0,P|353:120|417:138,1,134.999995880127,2|0,1:2|0:0,0:0:0:0:
467,210,33467,1,2,0:0:0:0:
386,246,33639,2,0,P|367:309|391:371,1,134.999995880127,8|2,0:0|0:0,0:0:0:0:
243,271,34324,2,0,L|95:275,1,134.999995880127,0|0,1:0|0:0,0:0:0:0:
44,336,34839,1,0,0:0:0:0:
109,275,35010,2,0,L|105:179,1,67.4999979400635,10|0,0:0|0:0,0:0:0:0:
32,160,35353,2,0,L|28:64,1,67.4999979400635,2|0,1:2|1:0,0:0:0:0:
112,68,35696,6,0,P|173:91|237:73,1,134.999995880127,2|0,1:2|0:0,0:0:0:0:
308,24,36210,1,2,0:0:0:0:
372,84,36381,2,0,B|388:152|388:152|364:236,1,134.999995880127,8|2,0:0|0:0,0:0:0:0:
288,368,37067,2,0,B|272:300|272:300|296:216,1,134.999995880127,0|2,1:0|0:0,0:0:0:0:
370,214,37581,1,0,1:0:0:0:
289,237,37753,2,0,P|225:255|163:231,1,134.999995880127,8|0,0:0|1:0,0:0:0:0:
163,231,38439,6,0,L|172:376,1,134.999995880127,2|0,1:2|0:0,0:0:0:0:
76,216,39124,2,0,L|84:81,1,134.999995880127,8|2,0:0|0:0,0:0:0:0:
260,88,39810,2,0,L|268:222,1,134.999995880127,0|0,1:0|0:0,0:0:0:0:
336,276,40324,1,0,0:0:0:0:
388,204,40496,2,0,L|455:208,1,67.4999979400635,10|0,0:2|1:0,0:0:0:0:
504,280,40839,2,0,L|499:347,1,67.4999979400635,2|0,1:2|1:0,0:0:0:0:
412,356,41181,6,0,B|344:372|344:372|260:348,1,134.999995880127,2|0,1:2|0:0,0:0:0:0:
224,288,41696,1,2,0:0:0:0:
172,220,41867,2,0,B|104:204|104:204|20:228,1,134.999995880127,8|2,0:0|0:0,0:0:0:0:
200,144,42553,2,0,P|218:80|194:18,1,134.999995880127,0|2,1:0|0:0,0:0:0:0:
136,84,43067,1,0,1:0:0:0:
136,84,43153,1,0,1:0:0:0:
136,84,43239,2,0,L|40:80,1,84.3750032186509,8|0,0:0|0:0,0:0:0:0:
16,112,43581,6,0,P|25:155|-4:208,1,75,0|0,0:0|0:0,0:0:0:0:
44,268,43924,6,0,B|140:248|140:248|192:272,1,134.999995880127,2|2,1:2|1:2,0:0:0:0:
128,340,44439,2,0,P|182:352|256:308,1,134.999995880127,2|2,0:0|0:0,0:0:0:0:
300,244,44953,2,0,P|288:304|336:284,1,134.999995880127,2|0,1:2|1:0,0:0:0:0:
388,216,45467,2,0,P|332:160|260:160,1,134.999995880127,0|2,0:0|0:0,0:0:0:0:
200,188,45981,2,0,P|196:154|203:121,1,67.4999979400635,2|2,1:2|0:0,0:0:0:0:
220,36,46324,2,0,P|250:49|275:71,1,67.4999979400635,2|0,1:2|0:0,0:0:0:0:
203,121,46667,6,0,L|51:113,1,134.999995880127,2|2,1:2|1:2,0:0:0:0:
4,172,47181,2,0,P|20:228|-4:308,1,134.999995880127,2|2,0:0|0:0,0:0:0:0:
60,368,47696,2,0,L|194:360,1,134.999995880127,2|0,1:2|1:0,0:0:0:0:
264,304,48210,2,0,P|248:248|272:168,1,134.999995880127,0|2,0:0|0:0,0:0:0:0:
352,196,48724,2,0,P|385:199|418:192,1,67.4999979400635,2|2,1:2|0:0,0:0:0:0:
504,176,49067,2,0,P|490:145|468:120,1,67.4999979400635,2|0,1:2|0:0,0:0:0:0:
420,64,49410,6,0,L|308:84,1,112.500004291535,2|0,1:2|1:0,0:0:0:0:
292,12,49924,2,0,L|180:32,1,112.500004291535,2|0,1:2|1:0,0:0:0:0:
196,104,50439,2,0,L|140:114,1,56.2500021457673,2|0,1:2|1:0,0:0:0:0:
52,116,50781,2,0,P|40:200|72:244,1,134.999995880127,2|0,1:2|1:0,0:0:0:0:
8,304,51296,2,0,P|92:316|136:284,1,134.999995880127,2|0,1:2|1:0,0:0:0:0:
216,312,51810,2,0,P|216:268|206:248,1,67.4999979400635,2|0,1:2|1:0,0:0:0:0:
172,168,52153,6,0,L|160:116,3,33.7499989700318,2|0|0|0,1:2|1:0|1:0|1:0,0:0:0:0:
196,104,52496,2,0,L|204:56,3,33.7499989700318,2|0|0|0,1:2|1:0|1:0|1:0,0:0:0:0:
244,68,52839,2,0,L|283:39,3,33.7499989700318,2|0|0|0,1:2|1:0|1:0|1:0,0:0:0:0:
308,72,53181,2,0,L|356:79,3,33.7499989700318,2|0|0|0,1:2|1:0|1:0|1:0,0:0:0:0:
356,120,53524,6,0,L|370:139,12,16.8749994850159,2|2|2|2|2|2|2|2|2|2|2|2|2,0:0|0:0|0:0|0:0|0:0|0:0|0:0|0:0|0:0|0:0|0:0|0:0|0:0,0:0:0:0:
308,196,54210,6,0,P|356:216|412:204,2,101.249996910095,8|0|0,0:0|1:0|1:0,0:0:0:0:
403,208,54896,6,0,L|400:352,1,134.999995880127,4|0,1:2|0:0,0:0:0:0:
204,352,55581,2,0,L|208:405,2,37.5,8|0|2,0:3|0:0|0:1,0:0:0:0:
192,256,55924,1,2,0:1:0:0:
96,280,56096,1,2,0:1:0:0:
128,188,56267,6,0,L|132:108,1,75,2|2,1:1|0:1,0:0:0:0:
216,60,56610,2,0,L|212:140,1,75,2|2,0:1|0:1,0:0:0:0:
284,200,56953,2,0,L|440:200,1,150,8|2,0:3|0:0,0:0:0:0:
434,200,57639,6,0,P|452:264|432:332,1,134.999995880127,4|0,1:2|0:0,0:0:0:0:
284,200,58324,2,0,L|285:246,2,37.5,8|0|2,0:3|0:0|0:1,0:0:0:0:
280,100,58667,1,2,0:1:0:0:
192,144,58839,1,2,0:1:0:0:
196,48,59010,6,0,P|224:16|268:8,1,75,2|0,1:2|0:0,0:0:0:0:
348,36,59353,1,0,0:0:0:0:
280,100,59524,1,2,1:2:0:0:
372,132,59696,2,0,P|407:120|430:91,1,75,8|0,0:3|0:0,0:0:0:0:
492,16,60039,2,0,L|520:100,1,75,2|0,1:2|0:0,0:0:0:0:
480,168,60381,6,0,B|464:232|464:232|488:308,1,134.999995880127,4|0,1:2|0:0,0:0:0:0:
292,332,61067,2,0,L|327:378,2,37.5,8|0|2,0:3|0:0|0:1,0:0:0:0:
228,260,61410,1,2,0:1:0:0:
164,332,61581,1,2,0:1:0:0:
88,256,61753,6,0,L|8:260,1,75,2|2,1:1|0:1,0:0:0:0:
8,164,62096,2,0,L|82:160,1,75,2|2,0:1|0:1,0:0:0:0:
180,144,62439,2,0,P|197:87|164:4,1,150,8|2,0:3|0:0,0:0:0:0:
340,24,63124,6,0,L|412:20,2,67.4999979400635,0|2|2,1:0|0:0|0:0,0:0:0:0:
292,100,63639,1,2,1:0:0:0:
340,172,63810,1,10,3:2:0:0:
292,244,63981,1,0,0:0:0:0:
340,316,64153,6,0,B|244:360|244:264|140:320,1,202.499993820191,2|0,1:2|1:0,0:0:0:0:
60,164,65010,1,0,1:0:0:0:
60,164,65096,1,0,1:0:0:0:
60,164,65181,1,8,0:3:0:0:
80,68,65353,2,0,P|156:96|232:64,1,150,0|0,1:0|0:0,0:0:0:0:
272,4,65867,6,0,P|248:40|320:60,1,134.999995880127,4|0,1:2|0:0,0:0:0:0:
419,28,66553,2,0,L|464:34,2,37.5,8|0|2,0:3|0:0|0:1,0:0:0:0:
397,123,66896,1,2,0:1:0:0:
492,139,67067,1,2,0:1:0:0:
424,208,67239,6,0,L|336:200,1,75,2|2,1:0|0:1,0:0:0:0:
264,248,67581,2,0,P|287:276|322:288,1,75,2|2,0:1|0:1,0:0:0:0:
416,308,67924,2,0,P|360:304|396:364,1,150,8|2,0:3|0:0,0:0:0:0:
192,376,68610,6,0,B|204:332|185:305|185:305|196:296|196:296|182:262|195:236,1,150,4|0,1:2|0:0,0:0:0:0:
116,64,69296,2,0,L|133:13,2,37.5,8|0|2,0:3|0:0|0:1,0:0:0:0:
85,155,69639,1,2,0:1:0:0:
180,136,69810,1,2,0:1:0:0:
85,155,69981,6,0,P|95:192|136:222,1,75,2|0,1:2|0:0,0:0:0:0:
220,224,70324,1,0,0:0:0:0:
180,136,70496,1,2,1:2:0:0:
240,60,70667,2,0,P|266:85|275:121,1,75,8|0,0:3|0:0,0:0:0:0:
364,164,71010,2,0,P|399:153|435:163,1,75,0|0,1:2|0:0,0:0:0:0:
400,244,71353,6,0,B|400:352|400:352|384:320,1,134.999995880127,4|0,1:2|0:0,0:0:0:0:
224,224,72039,2,0,L|255:191,2,37.5,8|0|2,0:3|0:0|0:1,0:0:0:0:
152,292,72381,1,2,0:1:0:0:
88,220,72553,1,2,0:1:0:0:
28,296,72724,6,0,P|1:270|-7:234,1,75,2|2,1:1|0:1,0:0:0:0:
88,220,73067,2,0,P|114:194|123:158,1,75,2|2,0:1|0:1,0:0:0:0:
28,140,73410,2,0,P|68:80|156:72,1,150,8|2,0:3|0:0,0:0:0:0:
312,104,74096,6,0,L|296:32,2,67.4999979400635,0|2|2,1:0|0:0|0:0,0:0:0:0:
252,168,74610,1,0,1:0:0:0:
320,220,74781,1,10,0:2:0:0:
260,284,74953,1,0,0:0:0:0:
328,336,75124,2,0,B|392:328|452:332|452:332|448:312|452:292|452:292|428:312|404:312,1,202.499993820191,0|0,1:0|1:0,0:0:0:0:
252,368,75981,1,0,1:0:0:0:
252,368,76067,1,0,1:0:0:0:
252,368,76153,1,8,0:3:0:0:
256,272,76324,6,0,B|184:296|184:296|112:260,1,150,0|0,1:0|0:0,0:0:0:0:
36,228,76839,6,0,P|92:156|28:84,1,202.499993820191,4|0,1:0|0:0,0:0:0:0:
120,116,77524,2,0,P|192:133|270:116,1,150,8|0,0:3|0:0,0:0:0:0:
356,76,78039,1,2,0:0:0:0:
430,140,78210,6,0,P|438:175|464:202,1,75,2|2,1:2|0:0,0:0:0:0:
472,300,78553,2,0,P|445:326|437:362,1,75,0|0,0:0|0:0,0:0:0:0:
348,320,78896,2,0,L|260:312,1,75,8|0,0:3|0:0,0:0:0:0:
176,332,79239,1,2,1:0:0:0:
204,240,79410,1,2,0:0:0:0:
108,260,79581,6,0,P|101:223|115:188,1,75,0|0,1:0|0:0,0:0:0:0:
200,140,79924,1,2,0:1:0:0:
112,96,80095,1,2,0:1:0:0:
196,48,80267,2,0,P|264:76|288:116,1,112.5,8|0,0:3|0:0,0:0:0:0:
304,152,80610,2,0,L|392:140,1,75,0|0,0:0|0:0,0:0:0:0:
464,92,80953,6,0,P|457:128|471:163,1,75,0|0,1:0|0:0,0:0:0:0:
484,260,81296,1,2,0:1:0:0:
484,260,81467,1,2,1:1:0:0:
388,240,81639,1,8,0:3:0:0:
388,240,81810,1,2,0:1:0:0:
412,332,81981,2,0,L|420:376,2,37.5,2|2|2,0:3|0:3|0:0,0:0:0:0:
316,300,82324,6,0,P|252:324|192:296,1,134.999995880127,4|0,1:0|0:0,0:0:0:0:
104,124,83010,2,0,L|96:288,1,150,8|0,0:3|0:0,0:0:0:0:
194,298,83524,1,2,0:0:0:0:
200,200,83696,6,0,L|203:111,1,75,2|2,1:2|0:0,0:0:0:0:
289,169,84039,2,0,L|286:258,1,75,0|0,0:0|0:0,0:0:0:0:
378,213,84381,2,0,L|380:138,1,75,8|0,0:3|0:0,0:0:0:0:
339,38,84724,2,0,P|373:80|394:32,1,123.75000377655,6|0,0:3|0:0,0:0:0:0:
443,23,85067,6,0,P|449:59|435:94,1,75,0|0,1:0|0:0,0:0:0:0:
380,174,85410,1,2,0:0:0:0:
447,244,85581,1,2,0:0:0:0:
371,306,85753,2,0,P|318:286|265:299,1,112.5,10|0,0:3|0:0,0:0:0:0:
223,274,86096,2,0,P|236:239|230:202,1,75,2|0,0:0|0:0,0:0:0:0:
137,234,86439,6,0,L|58:227,1,75,0|0,1:0|0:0,0:0:0:0:
48,131,86781,1,2,0:2:0:0:
48,131,86867,1,2,0:2:0:0:
48,131,86953,2,0,P|41:94|55:59,1,75,2|10,1:2|0:2,0:0:0:0:
129,106,87296,2,0,L|261:104,1,120,0|0,0:0|0:0,0:0:0:0:
311,42,87810,6,0,P|285:65|379:110,1,202.499993820191,4|0,1:0|0:0,0:0:0:0:
396,17,88496,2,0,P|453:42|471:135,1,150,8|0,0:3|0:0,0:0:0:0:
418,201,89010,1,2,0:0:0:0:
350,270,89181,6,0,P|337:304|342:341,1,75,2|2,1:2|0:0,0:0:0:0:
248,368,89524,2,0,L|163:367,1,75,0|0,0:0|0:0,0:0:0:0:
78,343,89867,2,0,P|90:308|85:271,1,75,8|0,0:3|0:0,0:0:0:0:
65,175,90210,1,0,1:0:0:0:
157,203,90381,1,2,0:0:0:0:
135,107,90553,6,0,P|172:100|207:114,1,75,0|0,1:0|0:0,0:0:0:0:
281,175,90896,1,2,0:1:0:0:
233,260,91067,1,2,0:1:0:0:
308,322,91239,2,0,L|420:322,1,112.5,8|0,0:3|0:0,0:0:0:0:
444,279,91581,2,0,P|437:242|451:207,1,75,0|0,0:0|0:0,0:0:0:0:
495,121,91924,6,0,L|415:117,1,75,0|0,1:0|0:0,0:0:0:0:
363,37,92267,1,2,0:1:0:0:
363,37,92439,1,2,1:1:0:0:
310,118,92610,1,8,0:3:0:0:
310,118,92781,1,2,0:1:0:0:
252,38,92953,1,2,0:3:0:0:
252,38,93039,1,2,0:3:0:0:
252,38,93124,2,0,L|204:41,1,37.5,2|2,0:0|0:0,0:0:0:0:
171,27,93296,6,0,P|196:50|102:95,1,202.499993820191,4|0,1:0|0:0,0:0:0:0:
87,1,93982,2,0,P|29:26|11:119,1,150,8|0,0:3|0:0,0:0:0:0:
103,98,94496,1,2,0:0:0:0:
108,186,94667,6,0,L|112:291,1,75,2|2,1:2|0:0,0:0:0:0:
194,312,95010,2,0,L|190:207,1,75,0|0,0:0|0:0,0:0:0:0:
271,181,95353,2,0,L|275:286,1,75,8|0,0:3|0:0,0:0:0:0:
362,317,95696,6,0,P|418:323|380:272,1,123.75000377655,6|0,0:3|0:0,0:0:0:0:
400,226,96039,6,0,P|435:237|460:265,1,75,0|0,1:0|0:0,0:0:0:0:
459,167,96381,1,2,0:0:0:0:
459,167,96467,1,2,0:0:0:0:
459,167,96553,2,0,L|456:100,1,37.5,2|2,0:0|0:0,0:0:0:0:
457,80,96724,2,0,B|385:77|385:77|336:97|336:97|235:93,1,202.499993820191,8|0,0:3|0:0,0:0:0:0:
194,167,97410,6,0,L|218:207,6,37.5,0|0|0|0|0|0|0,1:0|0:0|0:0|0:0|1:0|0:0|0:0,0:0:0:0:
157,77,98096,2,0,L|179:35,2,37.5,8|0|0,0:0|0:0|0:0,0:0:0:0:
99,157,98439,2,0,L|52:157,2,37.5,0|0|8,1:0|0:0|0:0,0:0:0:0:
38,232,98781,6,0,L|90:386,1,150,4|0,1:0|0:0,0:0:0:0:
179,342,99296,2,0,P|262:316|328:359,1,150,0|0,1:0|0:0,0:0:0:0:
409,366,99810,2,0,L|456:223,1,150,0|0,1:0|0:0,0:0:0:0:
359,196,100324,2,0,L|311:53,1,150,0|0,1:0|0:0,0:0:0:0:
212,51,100839,2,0,L|188:122,1,75,8|0,0:0|0:0,0:0:0:0:
118,53,101181,2,0,L|94:124,1,75,0|0,1:0|1:0,0:0:0:0:
59,205,101524,6,0,P|125:180|84:269,1,202.499993820191,0|0,1:0|0:0,0:0:0:0:
27,320,102210,2,0,P|107:356|221:291,1,225,8|0,0:0|0:0,0:0:0:0:
337,138,103067,2,0,L|336:84,2,37.5,0|0|0,0:0|0:0|0:0,0:0:0:0:
338,235,103410,1,0,1:0:0:0:
338,235,103581,1,8,0:0:0:0:
421,183,103753,1,2,3:0:0:0:
495,245,103924,2,0,P|514:213|513:176,1,75,0|8,1:0|0:0,0:0:0:0:
492,84,104267,6,0,B|412:86|412:86|348:24,1,150,4|0,1:0|0:0,0:0:0:0:
263,37,104781,2,0,B|212:85|212:85|132:83,1,150,0|0,1:0|0:0,0:0:0:0:
76,164,105296,2,0,L|228:168,1,150,0|0,1:0|0:0,0:0:0:0:
288,243,105810,2,0,P|336:172|314:115,1,150,0|0,1:0|0:0,0:0:0:0:
225,167,106324,2,0,P|198:192|189:228,1,75,8|0,0:0|0:0,0:0:0:0:
94,250,106667,2,0,P|102:285|129:311,1,75,0|0,1:0|1:0,0:0:0:0:
217,317,107010,6,0,P|317:282|403:332,1,202.499993820191,0|0,1:0|0:0,0:0:0:0:
493,305,107696,2,0,L|484:70,1,225,8|0,0:0|0:0,0:0:0:0:
398,39,108381,2,0,L|403:192,1,150,0|0,1:0|0:0,0:0:0:0:
323,246,108896,1,0,1:0:0:0:
294,153,109067,2,0,P|242:135|184:155,1,112.5,8|0,0:0|0:0,0:0:0:0:
170,195,109410,2,0,L|170:248,3,37.5,8|8|0|0,0:0|0:0|1:0|1:0,0:0:0:0:
149,277,109753,6,0,P|86:249|14:302,1,150,4|0,1:0|0:0,0:0:0:0:
92,354,110267,2,0,P|158:381|220:343,1,150,0|0,1:0|0:0,0:0:0:0:
267,258,110781,2,0,P|333:230|395:268,1,150,0|0,1:0|0:0,0:0:0:0:
487,235,111296,2,0,B|476:336|476:336|426:362,1,150,0|0,1:0|0:0,0:0:0:0:
395,268,111810,2,0,L|383:192,1,75,8|0,0:0|0:0,0:0:0:0:
460,133,112153,2,0,L|471:58,1,75,0|0,1:0|0:0,0:0:0:0:
383,52,112496,6,0,B|340:74|340:74|224:76|224:76|192:56,1,202.499993820191,0|0,1:0|0:0,0:0:0:0:
97,78,113181,2,0,B|115:149|115:149|85:213|85:213|100:312,1,225,8|0,0:0|0:0,0:0:0:0:
287,337,114039,2,0,L|260:375,2,37.5,0|0|0,0:0|0:0|0:0,0:0:0:0:
346,260,114381,1,0,1:0:0:0:
346,260,114553,1,10,0:0:0:0:
249,244,114724,1,2,3:0:0:0:
304,163,114896,2,0,P|340:152|376:162,1,75,0|8,1:0|0:0,0:0:0:0:
443,231,115239,6,0,P|471:175|415:90,1,150,4|0,1:0|0:0,0:0:0:0:
347,58,115753,2,0,L|183:59,1,150,0|0,1:0|0:0,0:0:0:0:
106,95,116267,2,0,P|70:158|98:224,1,150,0|0,1:0|0:0,0:0:0:0:
190,258,116781,2,0,B|262:238|262:238|340:258,1,150,0|0,1:0|0:0,0:0:0:0:
423,299,117296,2,0,L|450:373,1,75,8|0,0:0|0:0,0:0:0:0:
351,358,117639,2,0,L|276:340,1,75,0|0,1:0|0:0,0:0:0:0:
334,256,117981,6,0,L|387:200,1,75,12|0,0:0|0:0,0:0:0:0:
337,116,118324,1,0,1:0:0:0:
385,201,118496,2,0,L|438:145,1,75,8|0,0:0|0:0,0:0:0:0:
402,54,118839,1,0,1:0:0:0:
436,146,119010,2,0,B|492:89|492:89|492:33,1,134.999995880127,8|0,0:0|0:0,0:0:0:0:
408,61,119524,1,0,1:0:0:0:
408,61,119610,1,0,1:0:0:0:
408,61,119696,5,0,1:0:0:0:
330,20,119867,1,0,1:0:0:0:
286,95,120038,2,0,L|211:95,1,67.4999979400635,8|0,0:0|1:0,0:0:0:0:
161,28,120381,2,0,L|86:28,1,67.4999979400635,8|0,0:0|0:0,0:0:0:0:
37,95,120724,5,0,1:0:0:0:
88,288,131696,6,0,P|144:268|216:296,1,120,2|2,0:3|0:3,0:0:0:0:
236,356,132210,2,0,P|272:324|264:240,1,120,2|0,0:3|0:0,0:0:0:0:
212,208,132724,2,0,P|209:149|250:107,1,120,2|0,0:3|0:0,0:0:0:0:
288,176,133239,2,0,B|396:180|396:180|380:164,1,120,2|0,0:3|0:0,0:0:0:0:
348,104,133753,6,0,P|332:72|332:40,1,60,2|0,0:3|0:0,0:0:0:0:
408,44,134096,2,0,P|422:70|425:99,1,60,2|0,0:3|0:0,0:0:0:0:
387,171,134439,2,0,L|391:299,1,120,2|0,0:3|0:0,0:0:0:0:
396,368,134953,2,0,B|336:348|336:348|268:368,1,120,2|0,0:3|0:0,0:0:0:0:
281,364,135467,1,2,0:3:0:0:
88,272,137181,6,0,B|88:224|88:224|104:196|104:196|104:144,1,120,2|0,0:3|0:0,0:0:0:0:
48,92,137696,2,0,B|104:72|104:72|168:96,1,120,2|0,0:3|0:0,0:0:0:0:
184,168,138210,2,0,B|240:189|240:189|296:169,1,120,2|0,0:3|0:0,0:0:0:0:
276,92,138724,2,0,B|340:80|368:132|368:132|392:112,1,120,2|0,0:3|0:0,0:0:0:0:
436,76,139239,6,0,L|472:144,1,60,2|0,0:3|0:0,0:0:0:0:
424,196,139581,2,0,L|395:249,1,60,2|0,0:3|0:0,0:0:0:0:
420,324,139924,2,0,P|363:309|314:341,1,120,2|0,0:3|0:0,0:0:0:0:
236,352,140439,2,0,P|179:366|130:334,1,120,2|0,0:3|0:0,0:0:0:0:
130,334,140953,1,2,0:3:0:0:
144,68,142667,6,0,B|120:108|144:160|144:160|124:188|124:188|184:244|224:200|224:200|252:176|288:184,1,300,4|0,0:0|0:0,0:0:0:0:
312,20,148153,6,0,B|288:68|316:128|316:128|304:140|304:140|328:196|292:240|292:240|300:196|264:176,1,300,4|0,0:0|0:0,0:0:0:0:
108,76,153639,6,0,P|173:65|229:99,1,134.999995880127,2|2,1:2|1:2,0:0:0:0:
156,148,154153,2,0,B|180:176|180:176|288:176,1,134.999995880127,2|2,0:0|0:0,0:0:0:0:
316,96,154667,2,0,B|420:96|420:96|380:132,1,134.999995880127,2|0,1:2|1:0,0:0:0:0:
368,200,155181,2,0,P|366:266|408:317,1,134.999995880127,0|2,0:0|0:0,0:0:0:0:
328,280,155696,2,0,L|244:272,1,67.4999979400635,2|2,1:2|0:0,0:0:0:0:
204,340,156039,2,0,L|120:348,1,67.4999979400635,2|0,1:2|0:0,0:0:0:0:
64,296,156381,6,0,L|72:160,1,134.999995880127,2|2,1:2|1:2,0:0:0:0:
76,72,156896,2,0,B|124:72|152:116|152:116|212:120,1,134.999995880127,2|2,0:0|0:0,0:0:0:0:
283,130,157410,2,0,P|262:191|200:208,1,134.999995880127,2|0,1:2|1:0,0:0:0:0:
194,118,157924,2,0,P|215:56|277:40,1,134.999995880127,0|2,0:0|0:0,0:0:0:0:
356,80,158439,2,0,P|389:83|422:76,1,67.4999979400635,2|2,1:2|0:0,0:0:0:0:
488,132,158781,2,0,P|485:165|492:198,1,67.4999979400635,2|0,1:2|0:0,0:0:0:0:
452,276,159124,6,0,L|340:296,1,112.500004291535,2|0,1:2|1:0,0:0:0:0:
324,224,159638,2,0,L|212:244,1,112.500004291535,2|0,1:2|1:0,0:0:0:0:
227,330,160153,2,0,L|170:340,1,56.2500021457673,2|0,1:2|1:0,0:0:0:0:
108,276,160496,6,0,P|88:204|116:160,1,120,2|0,1:2|1:0,0:0:0:0:
56,108,161010,2,0,P|128:88|172:116,1,120,2|0,1:2|1:0,0:0:0:0:
240,128,161524,2,0,P|242:95|229:64,1,60,2|0,1:2|1:0,0:0:0:0:
312,44,161867,6,0,L|368:40,3,37.5,2|0|0|0,1:2|1:0|1:0|1:0,0:0:0:0:
376,84,162210,2,0,L|418:120,3,37.5,2|0|0|0,1:2|1:0|1:0|1:0,0:0:0:0:
396,156,162553,2,0,L|400:211,3,37.5,2|0|0|0,1:2|1:0|1:0|1:0,0:0:0:0:
356,216,162896,2,0,L|319:258,3,37.5,2|0|0|0,1:2|1:0|1:0|1:0,0:0:0:0:
292,216,163239,6,0,L|256:220,12,18.75,2|2|2|2|2|2|2|2|2|2|2|2|2,0:0|0:0|0:0|0:0|0:0|0:0|0:0|0:0|0:0|0:0|0:0|0:0|0:0,0:0:0:0:
204,176,163924,6,0,L|196:60,2,112.5,8|4|0,0:0|0:3|0:3,0:0:0:0:
135,231,164610,6,0,B|191:187|255:215|255:215|275:263|323:259,1,202.499993820191,4|0,1:0|0:0,0:0:0:0:
376,187,165296,2,0,P|423:257|395:316,1,150,8|0,0:3|0:0,0:0:0:0:
309,259,165810,1,2,0:0:0:0:
228,312,165981,6,0,P|214:346|221:382,1,75,2|2,1:2|0:2,0:0:0:0:
136,336,166324,2,0,P|99:328|65:342,1,75,0|0,0:0|0:0,0:0:0:0:
80,244,166667,2,0,L|80:156,1,75,8|0,0:3|0:0,0:0:0:0:
156,104,167010,1,0,1:0:0:0:
68,60,167181,1,2,0:0:0:0:
156,104,167353,6,0,P|193:111|228:97,1,75,0|0,1:0|0:0,0:0:0:0:
304,36,167696,1,2,0:1:0:0:
400,60,167867,1,2,0:1:0:0:
412,156,168039,2,0,L|416:268,1,112.5,8|0,0:3|0:0,0:0:0:0:
384,304,168381,2,0,P|349:290|313:297,1,75,0|0,0:0|0:0,0:0:0:0:
218,320,168724,6,0,P|181:326|147:312,1,75,0|0,1:0|0:0,0:0:0:0:
68,253,169067,2,0,L|76:209,3,37.5,0|0|0|0,1:0|1:0|1:0|1:0,0:0:0:0:
81,167,169410,2,0,P|193:195|173:91,1,262.5,0|0,1:0|1:0,0:0:0:0:
156,45,170096,6,0,B|231:65|231:65|307:41,1,150,4|0,1:0|0:0,0:0:0:0:
475,128,170781,2,0,L|479:288,1,150,8|0,0:3|0:0,0:0:0:0:
452,372,171296,1,2,0:0:0:0:
355,322,171467,6,0,P|320:308|284:315,1,75,2|2,1:2|0:0,0:0:0:0:
192,344,171810,2,0,P|157:357|121:350,1,75,0|0,0:0|0:0,0:0:0:0:
156,260,172153,2,0,L|168:176,1,75,8|0,0:3|0:0,0:0:0:0:
144,80,172496,6,0,P|117:125|87:82,1,123.75000377655,6|0,0:3|0:0,0:0:0:0:
40,72,172839,6,0,P|34:108|48:143,1,75,0|0,1:0|0:0,0:0:0:0:
112,216,173181,1,2,0:0:0:0:
36,280,173353,1,2,0:0:0:0:
112,340,173524,2,0,B|168:320|168:320|228:332,1,112.5,8|0,0:3|0:0,0:0:0:0:
268,344,173867,2,0,P|255:309|261:272,1,75,2|0,0:0|0:0,0:0:0:0:
240,176,174210,6,0,B|292:186|292:186|348:166,1,112.5,0|0,1:0|0:0,0:0:0:0:
384,196,174553,2,0,P|378:232|391:267,1,75,0|0,1:0|0:0,0:0:0:0:
472,216,174896,2,0,B|496:200|496:200|496:108,2,112.5,8|8|8,0:3|0:3|0:3,0:0:0:0:
391,267,175581,6,0,P|473:311|472:217,1,225,4|0,1:0|0:0,0:0:0:0:
396,156,176267,2,0,P|374:84|385:10,1,150,8|0,0:3|0:0,0:0:0:0:
460,76,176781,1,2,0:0:0:0:
396,156,176953,6,0,L|316:164,1,75,2|2,1:2|0:0,0:0:0:0:
227,135,177296,2,0,P|215:101|220:64,1,75,0|0,0:0|0:0,0:0:0:0:
314,92,177639,2,0,P|327:127|321:164,1,75,8|0,0:3|0:0,0:0:0:0:
248,228,177981,1,0,1:0:0:0:
320,296,178153,1,2,0:0:0:0:
248,360,178324,6,0,L|173:356,1,75,0|0,1:0|0:0,0:0:0:0:
144,264,178667,1,2,0:1:0:0:
173,356,178839,1,2,0:1:0:0:
80,332,179010,2,0,P|51:264|63:218,1,112.5,8|0,0:3|0:0,0:0:0:0:
92,192,179353,2,0,L|96:104,1,75,0|0,0:0|0:0,0:0:0:0:
56,28,179696,6,0,P|91:41|128:35,1,75,0|0,1:0|0:0,0:0:0:0:
224,16,180039,1,2,0:1:0:0:
224,16,180210,1,2,1:1:0:0:
220,112,180381,1,8,0:3:0:0:
220,112,180553,1,2,0:1:0:0:
308,68,180724,2,0,L|344:52,2,37.5,2|2|2,0:3|0:3|0:2,0:0:0:0:
304,164,181067,6,0,B|316:200|301:235|301:235|312:264|312:264|288:292|288:348|332:372,1,225,4|0,1:0|0:0,0:0:0:0:
407,311,181753,2,0,P|395:271|299:235,1,150,8|0,0:3|0:0,0:0:0:0:
212,276,182267,1,2,0:2:0:0:
120,312,182439,6,0,P|114:275|127:240,1,75,2|2,1:2|0:0,0:0:0:0:
208,184,182781,2,0,P|213:147|200:112,1,75,0|0,0:0|0:0,0:0:0:0:
108,84,183124,2,0,P|102:120|115:155,1,75,8|0,0:3|0:0,0:0:0:0:
200,112,183467,6,0,L|336:108,1,123.75000377655,6|0,0:3|0:0,0:0:0:0:
323,108,183810,6,0,P|317:144|330:179,1,75,0|0,1:0|0:0,0:0:0:0:
424,148,184153,2,0,L|425:110,2,37.5,2|2|2,0:2|0:2|0:2,0:0:0:0:
400,244,184496,2,0,B|336:288|268:256|268:256|240:264|228:280|228:280|208:264|184:260,1,225,8|0,0:3|0:0,0:0:0:0:
120,196,185181,6,0,L|120:136,2,37.5,8|8|0,0:0|0:0|1:0,0:0:0:0:
40,252,185524,2,0,L|40:312,2,37.5,4|4|0,0:3|0:3|1:0,0:0:0:0:
24,156,185867,1,0,0:0:0:0:
24,156,185953,1,0,0:0:0:0:
24,156,186039,1,0,0:0:0:0:
24,156,186124,1,0,0:0:0:0:
24,156,186210,2,0,L|24:88,1,37.5,8|0,0:0|0:0,0:0:0:0:
24,118,186553,6,0,P|88:72|172:92,1,150,4|0,1:0|0:0,0:0:0:0:
155,80,187239,2,0,L|256:80,1,75,8|2,0:3|0:1,0:0:0:0:
232,164,187581,2,0,L|336:164,1,75,2|2,0:1|0:1,0:0:0:0:
396,112,187924,2,0,P|409:147|404:184,1,75,0|2,1:0|0:1,0:0:0:0:
496,212,188267,2,0,P|480:245|450:267,1,75,2|2,0:1|0:1,0:0:0:0:
352,268,188610,2,0,L|232:272,1,112.5,8|0,0:3|0:0,0:0:0:0:
220,280,188953,2,0,P|214:316|227:351,1,75,2|0,0:0|0:0,0:0:0:0:
136,320,189296,6,0,B|128:272|160:228|160:228|148:196|116:180,1,150,4|0,1:0|0:0,0:0:0:0:
128,187,189981,2,0,P|122:150|135:115,1,75,8|2,0:3|0:1,0:0:0:0:
156,20,190324,2,0,P|169:54|163:91,1,75,2|2,0:1|0:1,0:0:0:0:
248,40,190667,2,0,P|284:34|360:112,1,150,0|0,1:0|0:0,0:0:0:0:
296,180,191181,1,0,1:0:0:0:
392,200,191353,2,0,P|425:184|447:154,1,75,8|0,0:3|0:0,0:0:0:0:
468,252,191696,2,0,P|462:288|475:323,1,75,0|0,1:0|0:0,0:0:0:0:
376,332,192039,6,0,B|304:308|304:308|220:340,1,150,4|0,1:0|0:0,0:0:0:0:
234,334,192724,2,0,B|224:296|224:296|232:248,1,75,8|2,0:3|0:1,0:0:0:0:
132,268,193067,2,0,B|126:303|126:303|136:341,1,75,2|2,0:1|0:1,0:0:0:0:
148,244,193410,2,0,B|153:208|153:208|143:170,1,75,0|2,1:0|0:1,0:0:0:0:
48,176,193753,2,0,B|58:214|58:214|52:249,1,75,2|2,0:1|0:1,0:0:0:0:
36,152,194096,2,0,B|20:96|20:96|36:36,1,112.5,8|0,0:3|0:0,0:0:0:0:
56,52,194439,2,0,P|90:65|127:59,1,75,2|0,0:0|0:0,0:0:0:0:
220,24,194781,6,0,P|252:16|304:24,2,75,0|0|0,1:0|0:0|0:0,0:0:0:0:
127,59,195296,1,0,1:0:0:0:
200,124,195467,1,8,0:3:0:0:
220,24,195639,1,0,0:0:0:0:
296,72,195810,6,0,B|340:172|260:176|304:280,1,202.499993820191,0|0,1:0|1:0,0:0:0:0:
476,284,196667,1,0,1:0:0:0:
476,284,196753,1,0,1:0:0:0:
476,284,196839,1,8,0:3:0:0:
388,328,197010,2,0,P|304:364|204:316,1,187.5,0|0,1:0|0:0,0:0:0:0:
218,331,197524,6,0,B|210:283|242:239|242:239|230:207|198:191,1,150,4|0,1:0|0:0,0:0:0:0:
210,198,198210,2,0,P|173:191|138:204,1,75,8|2,0:3|0:1,0:0:0:0:
44,232,198553,2,0,P|78:245|115:238,1,75,2|2,0:1|0:1,0:0:0:0:
210,198,198896,2,0,P|216:161|203:126,1,75,0|2,1:0|0:1,0:0:0:0:
172,32,199239,2,0,P|165:68|178:103,1,75,2|2,0:1|0:1,0:0:0:0:
264,56,199581,2,0,B|320:40|320:40|380:56,1,112.5,8|0,0:3|0:0,0:0:0:0:
364,76,199924,2,0,P|351:110|357:147,1,75,2|0,0:0|0:0,0:0:0:0:
452,116,200267,6,0,B|488:100|488:100|456:224,1,150,4|0,1:0|0:0,0:0:0:0:
460,207,200953,2,0,L|436:300,1,75,8|2,0:3|0:1,0:0:0:0:
352,320,201296,2,0,L|376:227,1,75,2|2,0:1|0:1,0:0:0:0:
357,147,201639,2,0,P|328:170|224:140,1,150,0|0,1:0|0:0,0:0:0:0:
172,64,202153,1,0,1:0:0:0:
104,136,202324,2,0,P|91:170|97:207,1,75,8|0,0:3|0:0,0:0:0:0:
172,268,202667,2,0,L|260:268,1,75,0|0,0:0|0:0,0:0:0:0:
316,340,203010,6,0,L|160:340,1,150,4|0,1:0|0:0,0:0:0:0:
166,340,203696,2,0,P|159:303|172:268,1,75,8|2,0:3|0:1,0:0:0:0:
236,192,204039,2,0,P|249:157|242:120,1,75,2|2,0:1|0:1,0:0:0:0:
148,148,204381,2,0,L|40:144,1,75,2|2,1:1|0:1,0:0:0:0:
100,52,204724,2,0,L|174:54,1,75,2|2,0:1|0:1,0:0:0:0:
242,120,205067,2,0,L|370:124,1,112.5,8|0,0:3|0:0,0:0:0:0:
354,123,205410,2,0,L|344:200,1,75,2|8,1:2|0:3,0:0:0:0:
368,292,205753,6,0,P|332:298|297:285,1,75,6|0,1:0|0:0,0:0:0:0:
220,224,206096,1,10,0:0:0:0:
136,272,206267,2,0,L|140:356,1,75,0|2,1:0|0:0,0:0:0:0:
44,324,206610,1,0,1:2:0:0:
60,228,206781,2,0,P|66:192|53:157,1,75,10|0,0:0|0:0,0:0:0:0:
16,64,207124,5,2,0:0:0:0:
16,64,207296,1,0,1:0:0:0:
112,84,207467,2,0,L|196:76,1,75,10|0,0:0|0:0,0:0:0:0:
276,36,207810,1,2,0:0:0:0:
256,132,207981,1,0,1:0:0:0:
364,80,208153,2,0,P|377:45|371:8,1,75,10|0,0:0|0:0,0:0:0:0:
352,104,208496,6,0,P|346:140|359:175,1,75,4|0,1:0|0:0,0:0:0:0:
444,228,208839,1,10,0:0:0:0:
376,296,209010,2,0,P|339:301|304:288,1,75,0|2,1:0|0:0,0:0:0:0:
252,208,209353,1,0,1:0:0:0:
180,272,209524,2,0,P|166:306|172:343,1,75,10|0,0:0|0:0,0:0:0:0:
76,320,209867,5,2,0:0:0:0:
76,320,210039,1,0,1:0:0:0:
112,228,210210,2,0,P|125:193|119:156,1,75,10|0,0:0|0:0,0:0:0:0:
24,184,210553,1,2,0:0:0:0:
48,88,210724,1,0,1:0:0:0:
144,64,210896,2,0,P|180:58|215:71,1,75,8|0,0:0|0:0,0:0:0:0:
292,132,211239,6,0,P|340:148|304:52,1,225,4|0,1:0|1:0,0:0:0:0:
292,132,211924,2,0,L|296:288,1,150,8|0,0:0|1:0,0:0:0:0:
295,281,212781,1,0,1:0:0:0:
104,324,213124,1,0,1:0:0:0:
104,324,213210,1,0,1:0:0:0:
104,324,213296,2,0,L|100:240,1,75,8|0,0:0|1:0,0:0:0:0:
384,172,213981,5,0,1:0:0:0:
