osu file format v14

[General]
AudioFilename: audio.mp3
AudioLeadIn: 0
PreviewTime: 125432
Countdown: 0
SampleSet: Soft
StackLeniency: 0.2
Mode: 0
LetterboxInBreaks: 0
WidescreenStoryboard: 1

[Editor]
Bookmarks: 12507,24433,36358,48283,60209,60395,60488,60768,60861,61047,61141,61234,61420,61606,61886,61979,62165,62352,62445,62631,62724,62911,63004,63190,63283,63470,63656,63749,63936,64122,64215,64401,64495,64681,64867,64960,65147,65333,65519,65613,78097,90023,101948,113874,125799,137724,149650,161575,166612
DistanceSpacing: 1
BeatDivisor: 4
GridSize: 4
TimelineZoom: 1

[Metadata]
Title:Paradise
TitleUnicode:Paradise
Artist:Rude-a
ArtistUnicode:Rude-α
Creator:arronchu1207
Version:Infinity
Source:SK∞ エスケーエイト
Tags:rude-alpha Lobelia Abhor [_Abhor_] sk8 skate the infinity anime japanese jpop j-pop pop rap hip hop opening op full ver version
BeatmapID:2872860
BeatmapSetID:1391326

[Difficulty]
HPDrainRate:6
CircleSize:4.5
OverallDifficulty:8.8
ApproachRate:9.1
SliderMultiplier:1.8
SliderTickRate:1

[Events]
//Background and Video events
0,0,"skate.jpg",0,0
//Break Periods
2,60415,65019
//Storyboard Layer 0 (Background)
//Storyboard Layer 1 (Fail)
//Storyboard Layer 2 (Pass)
//Storyboard Layer 3 (Foreground)
//Storyboard Layer 4 (Overlay)
//Storyboard Sound Samples

[TimingPoints]
588,372.670807453416,4,2,2,50,1,0
6271,-100,4,2,2,5,0,0
6364,-100,4,2,2,50,0,0
6457,-100,4,2,2,5,0,0
6550,-100,4,2,2,50,0,0
11395,-100,4,2,2,50,0,0
12513,-100,4,2,1,50,0,0
12886,-50,4,2,1,70,0,0
13165,-50,4,2,1,5,0,0
13258,-50,4,2,1,70,0,0
13352,-50,4,2,1,5,0,0
13445,-100,4,2,1,70,0,0
15215,-100,4,2,1,5,0,0
15308,-100,4,2,1,70,0,0
15401,-100,4,2,1,5,0,0
15494,-100,4,2,1,70,0,0
16147,-100,4,2,1,5,0,0
16240,-100,4,2,1,70,0,0
16892,-100,4,2,1,5,0,0
16985,-100,4,2,1,70,0,0
18755,-100,4,2,1,5,0,0
18848,-50,4,2,1,70,0,0
19128,-50,4,2,1,5,0,0
19221,-50,4,2,1,70,0,0
19314,-50,4,2,1,5,0,0
19407,-100,4,2,1,70,0,0
22109,-100,4,2,1,5,0,0
22202,-100,4,2,1,70,0,0
22668,-100,4,2,1,5,0,0
22762,-100,4,2,1,70,0,0
24718,-100,4,2,1,5,0,0
24811,-100,4,2,1,70,0,0
26022,-100,4,2,1,5,0,0
26116,-100,4,2,1,70,0,0
26209,-100,4,2,1,5,0,0
26302,-100,4,2,1,70,0,0
27699,-100,4,2,1,5,0,0
27793,-100,4,2,1,70,0,0
29004,-100,4,2,1,5,0,0
29097,-100,4,2,1,70,0,0
29190,-100,4,2,1,5,0,0
29283,-100,4,2,1,70,0,0
31799,-100,4,2,1,5,0,0
31892,-100,4,2,1,70,0,0
32171,-100,4,2,1,5,0,0
32265,-100,4,2,1,70,0,0
33383,-125,4,2,1,70,0,0
35991,-250,4,2,1,70,0,0
36271,-250,4,2,1,5,0,0
36364,-50,4,2,1,80,0,1
36643,-50,4,2,1,5,0,1
36737,-83.3333333333333,4,2,1,80,0,0
37948,-83.3333333333333,4,2,1,5,0,0
38041,-62.5,4,2,1,80,0,0
38134,-62.5,4,2,1,5,0,0
38227,-83.3333333333333,4,2,1,80,0,0
39252,-83.3333333333333,4,2,1,5,0,0
39345,-83.3333333333333,4,2,1,80,0,0
39625,-83.3333333333333,4,2,1,5,0,0
39718,-83.3333333333333,4,2,1,80,0,0
40650,-62.5,4,2,1,80,0,0
40929,-62.5,4,2,1,5,0,0
41022,-62.5,4,2,1,80,0,0
41116,-62.5,4,2,1,5,0,0
41209,-62.5,4,2,1,80,0,0
42327,-50,4,2,1,80,0,0
42606,-50,4,2,1,5,0,0
42699,-83.3333333333333,4,2,1,80,0,0
45308,-62.5,4,2,1,80,0,0
45588,-62.5,4,2,1,5,0,0
45681,-100,4,2,1,80,0,0
48289,-100,4,2,1,70,0,0
51178,-100,4,2,1,5,0,0
51271,-100,4,2,1,70,0,0
53414,-100,4,2,1,5,0,0
53507,-100,4,2,1,70,0,0
57513,-100,4,2,1,5,0,0
57606,-100,4,2,1,70,0,0
60215,-100,4,2,1,70,0,0
66178,-66.6666666666667,4,2,1,70,0,0
66457,-66.6666666666667,4,2,1,5,0,0
66550,-100,4,2,1,70,0,0
69159,-66.6666666666667,4,2,1,70,0,0
69439,-66.6666666666667,4,2,1,5,0,0
69532,-100,4,2,1,70,0,0
78383,-100,4,2,1,5,0,0
78476,-100,4,2,1,70,0,0
79687,-100,4,2,1,5,0,0
79780,-100,4,2,1,70,0,0
79873,-100,4,2,1,5,0,0
79966,-100,4,2,1,70,0,0
82668,-100,4,2,1,5,0,0
82762,-100,4,2,1,70,0,0
82855,-100,4,2,1,5,0,0
82948,-100,4,2,1,70,0,0
87047,-125,4,2,1,70,0,0
89656,-250,4,2,1,70,0,0
89935,-250,4,2,1,5,0,0
90028,-50,4,2,1,80,0,1
90308,-50,4,2,1,5,0,1
90401,-83.3333333333333,4,2,1,80,0,0
91612,-83.3333333333333,4,2,1,5,0,0
91706,-62.5,4,2,1,80,0,0
91799,-62.5,4,2,1,5,0,0
91892,-83.3333333333333,4,2,1,80,0,0
92917,-83.3333333333333,4,2,1,5,0,0
93010,-83.3333333333333,4,2,1,80,0,0
93289,-83.3333333333333,4,2,1,5,0,0
93383,-83.3333333333333,4,2,1,80,0,0
94314,-62.5,4,2,1,80,0,0
94594,-62.5,4,2,1,5,0,0
94687,-62.5,4,2,1,80,0,0
94780,-62.5,4,2,1,5,0,0
94873,-62.5,4,2,1,80,0,0
95991,-50,4,2,1,80,0,0
96271,-50,4,2,1,5,0,0
96364,-83.3333333333333,4,2,1,80,0,0
98973,-62.5,4,2,1,80,0,0
99252,-62.5,4,2,1,5,0,0
99345,-100,4,2,1,80,0,0
101954,-100,4,2,1,70,0,0
104842,-100,4,2,1,5,0,0
104935,-100,4,2,1,70,0,0
107078,-100,4,2,1,5,0,0
107171,-100,4,2,1,70,0,0
111178,-100,4,2,1,5,0,0
111271,-100,4,2,1,70,0,0
113880,-100,4,2,1,60,0,0
125805,-50,4,2,1,90,0,1
126084,-50,4,2,1,5,0,1
126178,-83.3333333333333,4,2,1,90,0,1
127389,-83.3333333333333,4,2,1,5,0,1
127482,-50,4,2,1,90,0,1
127575,-50,4,2,1,5,0,1
127668,-83.3333333333333,4,2,1,90,0,1
128693,-83.3333333333333,4,2,1,5,0,1
128786,-83.3333333333333,4,2,1,90,0,1
129066,-83.3333333333333,4,2,1,5,0,1
129159,-83.3333333333333,4,2,1,90,0,1
130091,-62.5,4,2,1,90,0,1
130370,-62.5,4,2,1,5,0,1
130463,-62.5,4,2,1,90,0,1
130557,-62.5,4,2,1,5,0,1
130650,-62.5,4,2,1,90,0,1
131768,-50,4,2,1,90,0,1
132047,-50,4,2,1,5,0,1
132140,-83.3333333333333,4,2,1,90,0,1
132793,-83.3333333333333,4,2,1,5,0,1
132886,-83.3333333333333,4,2,1,90,0,1
132979,-83.3333333333333,4,2,1,5,0,1
133072,-83.3333333333333,4,2,1,90,0,1
133165,-83.3333333333333,4,2,1,5,0,1
133258,-83.3333333333333,4,2,1,90,0,1
134749,-62.5,4,2,1,90,0,1
135029,-62.5,4,2,1,5,0,1
135122,-100,4,2,1,90,0,1
146954,-100,4,2,1,5,0,1
147047,-100,4,2,1,80,0,1
149656,-100,4,2,1,70,0,0
149935,-100,4,2,1,5,0,0
150029,-100,4,2,1,70,0,0
151240,-100,4,2,1,5,0,0
151333,-100,4,2,1,70,0,0
151426,-100,4,2,1,5,0,0
151519,-100,4,2,1,70,0,0
152917,-100,4,2,1,5,0,0
153010,-100,4,2,1,70,0,0
154221,-100,4,2,1,5,0,0
154314,-100,4,2,1,70,0,0
154407,-100,4,2,1,5,0,0
154501,-100,4,2,1,70,0,0
155898,-100,4,2,1,5,0,0
155991,-100,4,2,1,70,0,0
157202,-100,4,2,1,5,0,0
157296,-100,4,2,1,70,0,0
157389,-100,4,2,1,5,0,0
157482,-100,4,2,1,70,0,0
158600,-66.6666666666667,4,2,1,70,0,0
158880,-66.6666666666667,4,2,1,5,0,0
158973,-66.6666666666667,4,2,1,70,0,0
161581,-250,4,2,1,70,0,0
166612,-250,4,2,1,30,0,0

[Colours]
Combo1 : 128,255,255
Combo2 : 255,0,0
Combo3 : 18,124,255
Combo4 : 255,128,128

[HitObjects]
159,109,588,6,0,P|172:65|143:24,1,90,8|0,0:0|0:0,0:0:0:0:
67,121,960,2,0,P|45:82|58:41,1,90,8|0,0:0|0:0,0:0:0:0:
159,109,1333,2,0,P|172:65|143:24,1,90,8|0,0:0|0:0,0:0:0:0:
67,121,1706,2,0,P|45:82|58:41,1,90,8|0,0:0|0:0,0:0:0:0:
213,252,2078,6,0,L|202:350,1,90,8|0,0:0|0:0,0:0:0:0:
114,238,2451,2,0,L|103:336,1,90,8|0,0:0|0:0,0:0:0:0:
213,252,2824,2,0,L|202:350,1,90,8|0,0:0|0:0,0:0:0:0:
114,238,3196,2,0,L|103:336,1,90,8|0,0:0|0:0,0:0:0:0:
321,358,3569,6,0,B|366:367|366:367|410:347,1,90,8|0,0:0|0:0,0:0:0:0:
311,269,3942,2,0,B|351:250|351:250|396:259,1,90,8|0,0:0|0:0,0:0:0:0:
321,358,4314,2,0,B|366:367|366:367|410:347,1,90,8|0,0:0|0:0,0:0:0:0:
311,269,4687,2,0,B|351:250|351:250|396:259,1,90,8|0,0:0|0:0,0:0:0:0:
497,97,5060,6,0,B|492:139|492:139|495:145|495:145|490:190,1,90,8|0,0:0|0:0,0:0:0:0:
385,79,5432,2,0,B|390:121|390:121|387:127|387:127|392:172,1,90,8|0,0:0|0:0,0:0:0:0:
497,97,5805,2,0,B|492:139|492:139|495:145|495:145|490:190,1,90,8|0,0:0|0:0,0:0:0:0:
385,79,6178,2,0,B|383:59|383:59|384:56|384:56|382:35,1,45,8|0,1:2|0:0,0:0:0:0:
391,167,6364,2,0,B|393:187|393:187|391:190|391:190|394:211,1,45,0|0,1:2|0:0,0:0:0:0:
233,63,6550,6,0,P|220:33|239:57,1,90,8|0,0:0|0:0,0:0:0:0:
254,156,6923,2,0,P|267:186|248:162,1,90,8|0,0:0|0:0,0:0:0:0:
233,63,7296,2,0,P|220:33|239:57,1,90,8|0,0:0|0:0,0:0:0:0:
254,156,7668,2,0,P|267:186|248:162,1,90,8|0,0:0|0:0,0:0:0:0:
65,189,8041,6,0,B|43:213|43:213|54:282,1,90,8|0,0:0|0:0,0:0:0:0:
153,333,8414,2,0,B|175:309|175:309|164:240,1,90,8|0,0:0|0:0,0:0:0:0:
65,189,8786,2,0,B|43:213|43:213|54:282,1,90,8|0,0:0|0:0,0:0:0:0:
153,333,9159,2,0,B|175:309|175:309|164:240,1,90,8|0,0:0|0:0,0:0:0:0:
297,211,9532,6,0,P|332:236|375:225,1,90,8|0,0:0|0:0,0:0:0:0:
277,331,9904,2,0,P|319:320|355:345,1,90,8|0,0:0|0:0,0:0:0:0:
297,211,10277,2,0,P|332:236|375:225,1,90,8|0,0:0|0:0,0:0:0:0:
277,331,10650,2,0,P|319:320|355:345,1,90,8|0,0:0|0:0,0:0:0:0:
490,271,11022,6,0,B|484:230|484:230|487:217|487:217|481:174,1,90,8|0,0:0|0:0,0:0:0:0:
408,21,11395,2,0,P|410:46|401:70,1,45,10|0,0:0|0:0,0:0:0:0:
297,55,11581,2,0,P|295:30|304:6,1,45,2|0,0:3|0:0,0:0:0:0:
421,20,11768,2,0,P|423:45|414:69,1,45,10|0,0:2|0:0,0:0:0:0:
286,55,11954,2,0,P|284:30|293:6,1,45,2|0,0:3|0:0,0:0:0:0:
351,148,12140,5,10,0:0:0:0:
351,148,12327,1,2,0:3:0:0:
192,219,12513,5,6,3:2:0:0:
289,236,12699,1,2,0:0:0:0:
206,99,12886,6,0,B|146:80|123:3|123:3|145:80|112:145,1,270,10|0,0:0|0:0,0:0:0:0:
34,183,13258,2,0,P|21:149|35:98,1,90,0|0,3:2|0:0,0:0:0:0:
220,0,13445,1,2,0:0:0:0:
192,219,13631,5,8,0:0:0:0:
192,219,13817,1,0,3:2:0:0:
301,67,14004,5,8,0:0:0:0:
287,166,14190,1,0,3:2:0:0:
301,67,14376,5,8,0:0:0:0:
273,265,14563,1,0,3:2:0:0:
287,166,14749,5,8,0:0:0:0:
259,364,14935,1,0,3:2:0:0:
411,234,15122,6,0,P|379:224|366:228,1,45,10|0,0:0|0:0,0:0:0:0:
354,325,15308,2,0,P|386:335|399:331,1,45,10|0,0:0|0:0,0:0:0:0:
273,265,15494,6,0,P|224:262|166:279,1,90,2|2,3:2|0:0,0:0:0:0:
25,104,15867,2,0,P|50:148|136:166,1,135,10|0,0:0|0:0,0:0:0:0:
203,135,16240,5,0,3:2:0:0:
181,4,16426,1,2,0:0:0:0:
203,135,16612,1,8,0:0:0:0:
299,84,16799,2,0,L|308:26,1,45,0|0,3:2|0:0,0:0:0:0:
280,218,16985,5,8,0:0:0:0:
361,163,17171,1,0,3:2:0:0:
369,261,17358,5,8,0:0:0:0:
280,218,17544,1,0,3:2:0:0:
458,304,17730,5,8,0:0:0:0:
280,218,17917,1,0,3:2:0:0:
369,261,18103,5,10,0:0:0:0:
191,175,18289,1,2,3:2:0:0:
170,134,18383,1,8,0:0:0:0:
193,95,18476,5,2,3:2:0:0:
280,218,18662,2,0,L|272:263,1,45,2|0,0:0|0:0,0:0:0:0:
115,382,18848,6,0,B|34:348|5:217|139:192|144:288,1,270,10|0,0:0|0:0,0:0:0:0:
208,364,19221,2,0,B|244:360|244:360|254:352|254:352|300:347,1,90,0|0,3:2|0:0,0:0:0:0:
503,379,19407,1,2,3:2:0:0:
352,248,19594,1,8,0:0:0:0:
352,248,19780,1,0,3:2:0:0:
457,99,19966,5,8,0:0:0:0:
443,194,20153,1,0,3:2:0:0:
457,99,20339,5,8,0:0:0:0:
429,289,20525,1,0,3:2:0:0:
443,194,20712,5,8,0:0:0:0:
415,384,20898,1,2,3:2:0:0:
324,360,21084,5,10,0:0:0:0:
296,170,21271,1,2,3:2:0:0:
295,160,21364,1,8,0:0:0:0:
294,150,21457,6,0,L|303:43,1,90,2|0,3:2|0:0,0:0:0:0:
145,14,21830,6,0,P|155:62|160:165,1,135,10|0,0:0|0:0,0:0:0:0:
109,220,22202,1,10,0:0:0:0:
6,202,22389,1,2,3:2:0:0:
203,366,22575,6,0,L|248:362,1,45,10|0,0:0|0:0,0:0:0:0:
106,377,22761,1,2,3:2:0:0:
315,256,22948,5,10,0:0:0:0:
109,220,23134,1,2,3:2:0:0:
212,238,23320,5,8,0:0:0:0:
6,202,23507,1,0,3:2:0:0:
73,104,23693,5,8,0:0:0:0:
89,96,23786,1,8,0:0:0:0:
106,93,23879,1,8,0:0:0:0:
124,96,23973,1,8,0:0:0:0:
152,126,24066,5,8,0:0:0:0:
182,139,24159,1,8,0:0:0:0:
215,144,24252,1,0,3:2:0:0:
248,139,24345,1,0,3:2:0:0:
299,76,24438,6,0,P|290:138|283:215,1,135,4|0,3:2|0:0,0:0:0:0:
296,294,24811,5,10,0:0:0:0:
396,221,24997,1,2,0:0:0:0:
410,345,25184,5,2,3:2:0:0:
296,294,25370,1,2,0:0:0:0:
511,271,25556,5,10,0:0:0:0:
396,221,25743,2,0,P|400:139|409:73,1,135,2|0,3:2|0:0,0:0:0:0:
466,4,26115,2,0,P|487:4|469:15,1,45,2|0,3:2|0:0,0:0:0:0:
406,86,26302,5,8,0:0:0:0:
239,35,26488,1,0,3:2:0:0:
322,0,26674,5,8,0:0:0:0:
159,70,26861,1,2,3:2:0:0:
239,35,27047,5,10,0:0:0:0:
76,105,27233,1,10,0:0:0:0:
201,240,27420,6,0,P|257:207|330:216,1,135,0|0,3:2|0:0,0:0:0:0:
371,286,27792,1,10,0:0:0:0:
477,146,27979,1,2,0:0:0:0:
375,28,28165,5,2,3:2:0:0:
391,116,28351,1,2,0:0:0:0:
407,204,28538,1,10,0:0:0:0:
379,20,28724,6,0,B|322:13|305:58|234:40,1,135,2|0,3:2|0:0,0:0:0:0:
165,19,29097,2,0,P|161:50|177:86,1,45,2|0,3:2|0:0,0:0:0:0:
247,42,29283,5,8,0:0:0:0:
114,206,29469,1,0,3:2:0:0:
95,117,29656,5,8,0:0:0:0:
133,295,29842,1,2,3:2:0:0:
114,206,30028,5,8,0:0:0:0:
152,384,30215,1,2,3:2:0:0:
159,378,30308,1,8,0:0:0:0:
166,372,30401,6,0,P|209:366|271:360,1,90,4|2,3:2|0:0,0:0:0:0:
422,316,30774,1,10,0:0:0:0:
335,298,30960,1,2,0:0:0:0:
395,232,31147,5,2,3:2:0:0:
422,316,31333,1,2,3:2:0:0:
368,148,31519,5,10,0:0:0:0:
422,316,31706,2,0,L|415:370,1,45,2|0,3:2|0:0,0:0:0:0:
368,148,31892,6,0,B|304:137|301:188|227:169,1,135,2|0,0:0|0:0,0:0:0:0:
168,119,32265,5,10,0:0:0:0:
141,288,32451,1,2,3:2:0:0:
155,203,32637,5,10,0:0:0:0:
128,372,32824,1,2,3:2:0:0:
0,196,33010,5,8,0:0:0:0:
141,288,33196,1,10,0:0:0:0:
147,286,33289,1,8,0:0:0:0:
153,284,33383,6,0,B|228:281|220:346|304:334,1,144,4|0,3:2|0:0,0:0:0:0:
283,335,33942,1,2,3:2:0:0:
404,221,34128,2,0,P|396:273|388:371,1,144,8|0,0:0|3:2,0:0:0:0:
319,191,34687,6,0,P|376:51|478:162,1,360,10|2,0:0|0:0,0:0:0:0:
477,162,35991,6,0,B|451:173|451:173|420:157,1,54,2|0,0:0|0:0,0:0:0:0:
361,108,36364,6,0,P|356:16|449:95,1,270,6|0,3:2|0:0,0:0:0:0:
428,161,36737,1,10,0:0:0:0:
268,190,36923,2,0,L|208:181,1,53.9999983520508,2|0,0:0|0:0,0:0:0:0:
355,287,37109,1,0,3:2:0:0:
355,287,37296,2,0,L|415:278,1,53.9999983520508,2|0,0:0|0:0,0:0:0:0:
244,375,37482,1,8,0:0:0:0:
244,375,37668,6,0,B|192:364|192:364|161:331|161:331|98:316,1,161.999995056153,2|0,3:2|0:0,0:0:0:0:
23,355,38041,2,0,P|10:319|19:284,1,72,2|0,3:2|0:0,0:0:0:0:
211,178,38227,1,8,0:0:0:0:
233,272,38414,1,2,3:2:0:0:
189,84,38600,5,8,0:0:0:0:
233,272,38786,1,2,3:2:0:0:
211,178,38973,5,8,0:0:0:0:
255,366,39159,2,0,P|244:379|248:356,1,53.9999983520508,10|0,0:0|0:0,0:0:0:0:
360,261,39345,6,0,P|424:249|501:317,1,161.999995056153,0|0,3:2|0:0,0:0:0:0:
409,343,39718,1,8,0:0:0:0:
375,158,39904,2,0,B|366:133|366:133|375:104,1,53.9999983520508,2|0,0:0|0:0,0:0:0:0:
270,5,40091,1,0,3:2:0:0:
270,5,40277,2,0,B|279:30|279:30|270:59,1,53.9999983520508,2|0,0:0|0:0,0:0:0:0:
101,167,40463,1,8,0:0:0:0:
101,167,40650,6,0,B|75:164|48:186|48:186|57:124|124:92|181:117,1,216,2|0,3:2|0:0,0:0:0:0:
225,193,41022,2,0,B|220:226|220:226|222:231|222:231|216:269,1,72,2|0,3:2|0:0,0:0:0:0:
137,311,41209,5,10,0:0:0:0:
302,284,41395,1,0,3:2:0:0:
227,363,41581,5,8,0:0:0:0:
392,336,41768,1,0,3:2:0:0:
302,284,41954,5,10,0:0:0:0:
467,257,42140,1,0,3:2:0:0:
463,248,42233,1,8,0:0:0:0:
463,239,42327,6,0,B|454:195|482:109|482:109|449:192|397:213,1,270,6|0,3:2|0:0,0:0:0:0:
312,197,42699,1,10,0:0:0:0:
189,54,42886,6,0,L|196:-2,1,53.9999983520508,2|0,0:0|0:0,0:0:0:0:
249,126,43072,1,0,3:2:0:0:
249,126,43258,1,2,3:2:0:0:
47,98,43445,5,8,3:2:0:0:
233,240,43631,1,2,3:2:0:0:
53,354,43817,6,0,P|28:308|41:257,1,107.999996704102,2|0,0:0|3:2,0:0:0:0:
112,223,44097,1,2,0:0:0:0:
127,227,44190,5,8,0:0:0:0:
306,173,44376,1,2,3:2:0:0:
217,146,44563,5,10,0:0:0:0:
396,200,44749,1,0,3:2:0:0:
306,173,44935,5,8,0:0:0:0:
485,227,45122,1,2,0:0:0:0:
488,235,45215,1,8,0:0:0:0:
490,244,45308,6,0,P|417:293|397:198,1,216,6|0,0:0|0:0,0:0:0:0:
470,147,45681,1,8,0:0:0:0:
346,20,45867,1,2,0:0:0:0:
326,60,45960,1,2,0:0:0:0:
344,101,46053,5,10,0:0:0:0:
472,63,46240,1,2,3:2:0:0:
216,63,46426,6,0,L|163:68,1,45,10|2,0:0|0:0,0:0:0:0:
344,101,46612,1,2,3:2:0:0:
152,286,46799,5,8,0:0:0:0:
120,156,46985,1,2,3:2:0:0:
377,229,47171,5,8,0:0:0:0:
280,322,47358,1,2,3:2:0:0:
120,156,47544,1,10,0:0:0:0:
110,112,47637,1,8,0:0:0:0:
129,76,47730,1,10,0:0:0:0:
163,63,47824,1,8,0:0:0:0:
193,69,47917,5,0,3:2:0:0:
213,87,48010,1,0,3:2:0:0:
223,106,48103,1,0,3:2:0:0:
224,123,48196,1,0,3:2:0:0:
222,136,48289,5,6,3:2:0:0:
190,226,48476,1,2,0:0:0:0:
312,302,48662,5,10,0:0:0:0:
280,212,48848,1,2,0:0:0:0:
402,136,49035,5,2,3:2:0:0:
370,226,49221,1,2,0:0:0:0:
402,136,49407,1,10,0:0:0:0:
465,302,49594,6,0,B|472:234|472:234|456:210,1,90,2|0,3:2|0:0,0:0:0:0:
306,64,49966,2,0,B|299:132|299:132|315:156,1,90,2|8,3:2|0:0,0:0:0:0:
213,371,50339,5,2,0:0:0:0:
246,275,50525,1,8,0:0:0:0:
32,209,50712,5,2,0:0:0:0:
65,305,50898,1,8,0:0:0:0:
199,165,51084,2,0,L|207:110,1,45,10|0,0:0|0:0,0:0:0:0:
218,36,51271,5,2,3:2:0:0:
307,1,51457,1,2,0:0:0:0:
455,110,51643,5,10,0:0:0:0:
366,75,51830,1,2,0:0:0:0:
289,205,52016,5,2,3:2:0:0:
289,205,52389,5,10,0:0:0:0:
378,170,52575,1,2,3:2:0:0:
365,352,52761,5,0,0:0:0:0:
365,352,52948,2,0,B|367:310|367:310|362:304|362:304|365:262,1,90,2|8,3:2|0:0,0:0:0:0:
285,160,53320,2,0,L|289:213,1,45,2|0,3:2|0:0,0:0:0:0:
279,65,53507,5,10,0:0:0:0:
200,116,53693,1,2,3:2:0:0:
363,108,53879,5,10,0:0:0:0:
279,65,54066,1,0,3:2:0:0:
276,57,54159,1,8,0:0:0:0:
273,49,54252,5,6,3:2:0:0:
285,160,54438,1,2,0:0:0:0:
432,170,54625,5,10,0:0:0:0:
444,59,54811,1,2,0:0:0:0:
285,160,54997,5,2,3:2:0:0:
297,271,55184,1,2,3:2:0:0:
285,160,55370,1,10,0:0:0:0:
464,277,55556,6,0,B|424:297|424:297|374:286,1,90,2|0,3:2|0:0,0:0:0:0:
118,150,55929,2,0,B|158:130|158:130|208:141,1,90,2|8,3:2|0:0,0:0:0:0:
70,324,56302,5,2,0:0:0:0:
52,230,56488,1,8,0:0:0:0:
202,139,56674,5,6,0:0:0:0:
184,233,56861,1,8,3:2:0:0:
312,315,57047,1,2,3:2:0:0:
310,306,57140,1,8,0:0:0:0:
308,297,57233,6,0,P|356:280|434:326,1,135,0|0,3:2|0:0,0:0:0:0:
480,382,57606,1,8,0:0:0:0:
504,205,57792,1,2,0:0:0:0:
497,206,57886,1,2,0:0:0:0:
490,208,57979,5,10,0:0:0:0:
308,126,58165,1,2,3:2:0:0:
399,167,58351,5,10,0:0:0:0:
217,249,58538,1,2,3:2:0:0:
308,209,58724,5,8,0:0:0:0:
126,127,58910,1,2,3:2:0:0:
216,169,59097,5,8,0:0:0:0:
34,251,59283,1,2,3:2:0:0:
224,382,59469,1,10,0:0:0:0:
262,357,59563,1,8,0:0:0:0:
274,319,59656,1,10,0:0:0:0:
259,285,59749,1,8,0:0:0:0:
233,268,59842,5,0,3:2:0:0:
207,267,59935,1,0,3:2:0:0:
186,273,60028,1,0,3:2:0:0:
173,285,60122,1,0,3:2:0:0:
166,295,60215,5,0,3:2:0:0:
165,137,65619,6,0,L|158:83,1,45,2|0,0:0|0:0,0:0:0:0:
152,148,65805,2,0,L|146:104,1,45,2|0,0:0|0:0,0:0:0:0:
114,237,65991,1,2,0:0:0:0:
114,237,66178,6,0,B|163:211|214:224|244:246|244:246|204:269|203:312,1,202.500007724762,6|0,3:2|0:0,0:0:0:0:
285,323,66550,1,8,0:0:0:0:
424,192,66737,1,2,0:0:0:0:
407,106,66923,5,0,3:2:0:0:
407,106,67109,1,0,0:0:0:0:
360,256,67296,1,8,0:0:0:0:
504,226,67482,1,2,3:2:0:0:
282,92,67668,5,2,3:2:0:0:
303,213,67855,1,2,0:0:0:0:
424,192,68041,1,10,0:0:0:0:
403,71,68227,1,2,0:0:0:0:
375,262,68414,5,10,0:0:0:0:
354,141,68600,1,2,0:0:0:0:
324,334,68786,5,10,0:0:0:0:
303,213,68973,1,2,0:0:0:0:
296,208,69066,1,0,3:2:0:0:
288,204,69159,6,0,B|200:181|196:288|88:255,1,202.500007724762,2|0,3:2|0:0,0:0:0:0:
21,215,69532,1,8,0:0:0:0:
138,68,69718,1,2,0:0:0:0:
126,157,69904,5,0,3:2:0:0:
126,157,70091,1,0,0:0:0:0:
66,7,70277,1,8,0:0:0:0:
225,27,70463,1,2,0:0:0:0:
238,204,70650,5,2,3:2:0:0:
120,186,70836,1,2,0:0:0:0:
138,68,71022,1,10,0:0:0:0:
256,86,71209,1,2,3:2:0:0:
71,119,71395,5,10,0:0:0:0:
189,137,71581,1,0,3:2:0:0:
2,168,71768,5,10,0:0:0:0:
120,186,71954,1,2,3:2:0:0:
124,193,72047,1,8,0:0:0:0:
128,200,72140,5,2,3:2:0:0:
43,294,72327,1,2,0:0:0:0:
207,374,72513,5,10,0:0:0:0:
122,280,72699,1,2,0:0:0:0:
286,200,72886,5,2,3:2:0:0:
201,294,73072,1,2,3:2:0:0:
365,374,73258,5,10,0:0:0:0:
280,280,73445,1,2,0:0:0:0:
459,289,73631,5,2,0:0:0:0:
365,374,73817,1,2,3:2:0:0:
374,195,74004,5,10,0:0:0:0:
459,289,74190,1,2,3:2:0:0:
468,110,74376,5,10,0:0:0:0:
374,195,74563,1,0,3:2:0:0:
383,16,74749,5,10,0:0:0:0:
468,110,74935,1,0,3:2:0:0:
476,108,75028,1,8,0:0:0:0:
484,107,75122,5,2,3:2:0:0:
488,205,75308,1,2,0:0:0:0:
370,293,75494,5,10,0:0:0:0:
374,195,75681,1,2,0:0:0:0:
256,107,75867,5,10,0:0:0:0:
260,205,76053,1,0,3:2:0:0:
252,9,76240,5,10,0:0:0:0:
260,205,76426,1,2,3:2:0:0:
138,195,76612,5,10,0:0:0:0:
142,97,76799,1,0,3:2:0:0:
134,293,76985,5,10,0:0:0:0:
142,97,77171,1,2,3:2:0:0:
234,333,77358,5,8,0:0:0:0:
250,341,77451,1,8,0:0:0:0:
267,343,77544,1,8,0:0:0:0:
285,341,77637,1,8,0:0:0:0:
314,313,77730,5,8,0:0:0:0:
344,299,77824,1,8,0:0:0:0:
377,295,77917,1,0,3:2:0:0:
410,299,78010,1,0,3:2:0:0:
444,371,78103,6,0,P|453:309|460:232,1,135,4|0,3:2|0:0,0:0:0:0:
415,166,78476,1,10,0:0:0:0:
282,210,78662,1,2,0:0:0:0:
311,73,78848,5,2,3:2:0:0:
415,166,79035,1,2,0:0:0:0:
178,117,79221,5,10,0:0:0:0:
282,209,79407,2,0,P|277:277|266:343,1,135,2|0,3:2|0:0,0:0:0:0:
182,379,79780,6,0,B|159:374|159:374|186:359,1,45,2|0,3:2|0:0,0:0:0:0:
266,343,79966,1,8,0:0:0:0:
141,236,80153,1,0,3:2:0:0:
373,218,80339,5,8,0:0:0:0:
266,343,80525,1,2,3:2:0:0:
248,111,80712,5,10,0:0:0:0:
373,218,80898,2,0,L|463:204,1,90,10|0,0:0|3:2,0:0:0:0:
248,111,81271,2,0,L|159:124,1,90,2|8,0:0|0:0,0:0:0:0:
21,236,81643,1,2,0:0:0:0:
131,364,81830,5,2,3:2:0:0:
142,275,82016,1,2,0:0:0:0:
153,188,82202,1,10,0:0:0:0:
139,372,82389,6,0,B|183:375|183:375|217:349|217:349|277:354,1,135,2|0,3:2|0:0,0:0:0:0:
349,377,82761,2,0,B|354:355|354:355|348:326,1,45,2|0,3:2|0:0,0:0:0:0:
264,352,82948,5,8,0:0:0:0:
396,178,83134,1,0,3:2:0:0:
415,267,83320,5,8,0:0:0:0:
377,89,83507,1,2,3:2:0:0:
396,178,83693,5,8,0:0:0:0:
358,0,83879,1,2,3:2:0:0:
351,6,83973,1,8,0:0:0:0:
344,12,84066,6,0,P|301:18|239:24,1,90,4|2,3:2|0:0,0:0:0:0:
88,68,84438,1,10,0:0:0:0:
175,86,84625,1,2,0:0:0:0:
115,152,84811,5,2,3:2:0:0:
88,68,84997,1,2,3:2:0:0:
142,236,85184,5,10,0:0:0:0:
88,68,85370,1,2,3:2:0:0:
242,189,85556,5,2,0:0:0:0:
209,375,85743,1,2,3:2:0:0:
350,291,85929,5,10,0:0:0:0:
323,122,86115,1,2,0:0:0:0:
337,207,86302,5,10,0:0:0:0:
310,38,86488,1,2,0:0:0:0:
505,180,86674,5,8,0:0:0:0:
323,122,86861,1,10,0:0:0:0:
317,124,86954,1,8,0:0:0:0:
311,126,87047,6,0,B|277:138|239:126|239:126|214:89|166:95,1,144,2|2,0:0|0:0,0:0:0:0:
284,40,87606,1,2,3:2:0:0:
163,204,87792,2,0,B|138:240|155:281|155:281|205:287|228:248,1,144,8|2,0:0|3:2,0:0:0:0:
184,89,88351,6,0,B|161:57|120:48|67:62|55:118|55:118|49:123|49:123|58:125|58:125|52:129|52:129|43:184|85:223|130:225|166:201,1,360,10|2,0:0|0:0,0:0:0:0:
162,203,89656,6,0,B|178:200|188:190|188:190|190:202|199:212,1,54,2|0,0:0|0:0,0:0:0:0:
160,287,90028,6,0,B|229:283|232:430|82:399|51:313,1,270,6|0,3:2|0:0,0:0:0:0:
81,222,90401,1,10,0:0:0:0:
244,145,90587,2,0,L|238:203,1,53.9999983520508,2|0,0:0|0:0,0:0:0:0:
109,86,90774,1,0,3:2:0:0:
109,86,90960,2,0,L|103:33,1,53.9999983520508,2|0,0:0|0:0,0:0:0:0:
252,45,91147,1,8,0:0:0:0:
252,45,91333,6,0,B|298:48|321:82|321:82|360:95|401:68,1,161.999995056153,2|0,3:2|0:0,0:0:0:0:
470,126,91706,2,0,P|471:171|439:205,1,72,2|0,3:2|0:0,0:0:0:0:
233,241,91892,1,8,0:0:0:0:
244,145,92078,1,2,3:2:0:0:
221,336,92265,5,8,0:0:0:0:
244,145,92451,1,2,3:2:0:0:
233,241,92637,5,8,0:0:0:0:
255,49,92824,2,0,P|269:40|258:60,1,53.9999983520508,10|0,0:0|0:0,0:0:0:0:
119,141,93010,6,0,B|67:133|21:168|21:168|26:133|0:108,1,161.999995056153,0|0,3:2|0:0,0:0:0:0:
70,49,93383,1,8,0:0:0:0:
118,257,93569,2,0,B|127:282|127:282|118:311,1,53.9999983520508,2|0,0:0|0:0,0:0:0:0:
256,384,93755,1,0,3:2:0:0:
256,384,93942,2,0,B|247:359|247:359|256:330,1,53.9999983520508,2|0,0:0|0:0,0:0:0:0:
339,233,94128,2,0,B|348:208|348:208|339:179,1,53.9999983520508,10|0,0:0|0:0,0:0:0:0:
404,52,94314,6,0,B|412:89|446:105|446:105|437:167|370:199|313:174,1,216,2|0,3:2|0:0,0:0:0:0:
265,124,94687,2,0,B|232:119|232:119|227:121|227:121|189:115,1,72,2|0,3:2|0:0,0:0:0:0:
106,44,94873,5,10,0:0:0:0:
133,209,95060,1,0,3:2:0:0:
54,134,95246,5,8,0:0:0:0:
81,299,95432,1,0,3:2:0:0:
133,209,95619,5,10,0:0:0:0:
160,374,95805,1,0,3:2:0:0:
169,370,95898,1,8,0:0:0:0:
179,367,95991,6,0,B|223:358|309:386|309:386|226:353|205:301,1,270,6|0,3:2|0:0,0:0:0:0:
229,209,96364,1,10,0:0:0:0:
410,263,96550,6,0,L|403:319,1,53.9999983520508,2|0,0:0|0:0,0:0:0:0:
358,175,96737,1,0,3:2:0:0:
358,175,96923,1,2,3:2:0:0:
498,304,97109,5,8,3:2:0:0:
275,125,97296,1,2,3:2:0:0:
432,48,97482,6,0,P|457:94|444:145,1,107.999996704102,2|0,0:0|3:2,0:0:0:0:
373,179,97761,1,2,0:0:0:0:
358,175,97855,5,8,0:0:0:0:
185,210,98041,1,2,0:0:0:0:
274,237,98227,5,10,0:0:0:0:
95,183,98414,1,0,0:0:0:0:
185,210,98600,5,8,0:0:0:0:
6,156,98786,1,2,0:0:0:0:
3,148,98879,1,8,0:0:0:0:
1,139,98973,6,0,P|74:90|94:185,1,216,6|0,0:0|0:0,0:0:0:0:
21,236,99345,1,8,0:0:0:0:
164,364,99532,1,2,0:0:0:0:
184,324,99625,1,2,0:0:0:0:
166,283,99718,5,10,0:0:0:0:
38,321,99904,1,2,3:2:0:0:
294,321,100091,5,10,0:0:0:0:
166,283,100277,1,2,3:2:0:0:
358,98,100463,5,12,0:0:0:0:
390,228,100650,1,2,3:2:0:0:
133,155,100836,5,8,0:0:0:0:
230,62,101022,1,2,3:2:0:0:
390,228,101209,1,10,0:0:0:0:
400,272,101302,1,8,0:0:0:0:
381,308,101395,1,10,0:0:0:0:
347,321,101488,1,8,0:0:0:0:
317,315,101581,5,0,3:2:0:0:
297,297,101674,1,0,3:2:0:0:
287,278,101768,1,0,3:2:0:0:
286,261,101861,1,0,3:2:0:0:
288,248,101954,5,6,3:2:0:0:
320,158,102140,1,2,0:0:0:0:
197,14,102327,5,10,0:0:0:0:
229,104,102513,1,2,0:0:0:0:
108,248,102699,5,2,3:2:0:0:
140,158,102886,1,2,0:0:0:0:
108,248,103072,1,10,0:0:0:0:
44,125,103258,6,0,B|49:169,1,45,2|0,3:2|0:0,0:0:0:0:
90,58,103445,1,0,0:0:0:0:
205,321,103631,2,0,B|210:277,1,45,2|0,3:2|0:0,0:0:0:0:
139,368,103817,1,8,0:0:0:0:
290,99,104004,6,0,B|293:74|293:74|285:55,1,45,2|0,3:2|0:0,0:0:0:0:
226,4,104190,1,8,0:0:0:0:
417,187,104376,2,0,B|413:162|413:162|422:143,1,45,2|0,3:2|0:0,0:0:0:0:
471,81,104563,1,8,0:0:0:0:
311,219,104749,2,0,L|303:274,1,45,10|0,0:0|0:0,0:0:0:0:
292,348,104935,5,2,3:2:0:0:
203,383,105122,1,2,0:0:0:0:
55,274,105308,5,10,0:0:0:0:
144,309,105494,1,2,0:0:0:0:
221,179,105681,5,2,3:2:0:0:
221,179,106053,5,10,0:0:0:0:
132,214,106240,1,2,3:2:0:0:
150,73,106426,5,0,0:0:0:0:
150,73,106612,2,0,L|146:126,1,45,2|0,3:2|0:0,0:0:0:0:
99,9,106799,1,8,0:0:0:0:
225,224,106985,2,0,L|221:171,1,45,2|0,3:2|0:0,0:0:0:0:
231,319,107171,5,10,0:0:0:0:
310,268,107358,1,2,3:2:0:0:
147,276,107544,5,10,0:0:0:0:
231,319,107730,1,0,3:2:0:0:
234,327,107824,1,8,0:0:0:0:
237,335,107917,5,6,3:2:0:0:
225,224,108103,1,2,0:0:0:0:
57,160,108289,5,10,0:0:0:0:
45,271,108476,1,2,0:0:0:0:
225,224,108662,5,2,3:2:0:0:
213,113,108848,1,2,3:2:0:0:
225,224,109035,1,10,0:0:0:0:
72,129,109221,6,0,B|117:123,1,45,2|0,3:2|0:0,0:0:0:0:
157,56,109407,1,0,0:0:0:0:
356,255,109594,2,0,B|311:249,1,45,2|0,3:2|0:0,0:0:0:0:
250,302,109780,1,8,0:0:0:0:
440,60,109966,5,2,0:0:0:0:
458,154,110153,1,8,0:0:0:0:
308,245,110339,5,2,0:0:0:0:
326,151,110525,1,8,3:2:0:0:
198,69,110712,1,2,3:2:0:0:
200,78,110805,1,8,0:0:0:0:
202,87,110898,6,0,P|154:104|76:58,1,135,0|0,3:2|0:0,0:0:0:0:
30,2,111271,1,8,0:0:0:0:
70,186,111457,1,2,0:0:0:0:
77,185,111550,1,2,0:0:0:0:
84,183,111643,5,10,0:0:0:0:
266,265,111830,1,2,3:2:0:0:
84,338,112016,5,10,0:0:0:0:
266,256,112202,1,2,3:2:0:0:
195,171,112389,5,8,0:0:0:0:
377,253,112575,1,2,3:2:0:0:
195,343,112761,5,8,0:0:0:0:
377,261,112948,1,2,3:2:0:0:
230,74,113134,1,10,0:0:0:0:
192,99,113227,1,8,0:0:0:0:
180,137,113320,1,10,0:0:0:0:
195,171,113414,1,8,0:0:0:0:
221,188,113507,5,0,3:2:0:0:
247,189,113600,1,0,3:2:0:0:
268,183,113693,1,0,3:2:0:0:
281,171,113786,1,0,3:2:0:0:
288,161,113879,5,8,0:0:0:0:
379,141,114252,1,8,0:0:0:0:
288,161,114625,1,8,0:0:0:0:
379,141,114997,1,8,0:0:0:0:
288,161,115370,1,8,0:0:0:0:
379,141,115743,1,8,0:0:0:0:
288,161,116115,1,8,0:0:0:0:
379,141,116488,1,8,0:0:0:0:
498,282,116861,5,8,0:0:0:0:
407,262,117233,1,8,0:0:0:0:
498,282,117606,1,8,0:0:0:0:
407,262,117979,1,8,0:0:0:0:
498,282,118351,1,8,0:0:0:0:
407,262,118724,1,8,0:0:0:0:
498,282,119097,1,8,0:0:0:0:
407,262,119469,1,8,0:0:0:0:
407,262,119656,1,0,3:2:0:0:
245,384,119842,5,8,0:0:0:0:
336,364,120215,1,8,0:0:0:0:
245,384,120587,1,8,0:0:0:0:
336,364,120960,1,8,0:0:0:0:
245,384,121333,1,8,0:0:0:0:
336,364,121706,1,8,0:0:0:0:
245,384,122078,1,8,0:0:0:0:
336,364,122451,1,8,0:0:0:0:
245,384,122637,2,0,L|192:375,1,45,0|0,3:2|3:2,0:0:0:0:
132,313,122824,5,14,0:0:0:0:
256,203,123010,1,0,0:0:0:0:
380,93,123196,1,0,3:2:0:0:
146,79,123383,5,14,0:0:0:0:
256,203,123569,1,0,0:0:0:0:
366,327,123755,1,0,3:2:0:0:
134,68,123942,5,14,0:0:0:0:
125,56,124314,5,0,3:2:0:0:
256,360,124501,1,8,0:0:0:0:
262,371,124873,5,0,3:2:0:0:
446,185,125060,1,8,0:0:0:0:
405,167,125153,1,8,0:0:0:0:
360,167,125246,1,8,0:0:0:0:
320,187,125339,1,8,0:0:0:0:
296,211,125432,5,0,3:2:0:0:
275,219,125525,1,0,3:2:0:0:
253,223,125619,1,0,3:2:0:0:
230,222,125712,1,0,3:2:0:0:
144,176,125805,6,0,B|166:126|157:54|119:2|119:2|169:11|202:53,1,270,6|0,0:0|0:0,0:0:0:0:
47,114,126178,1,10,0:0:0:0:
230,222,126364,2,0,L|287:215,1,53.9999983520508,2|0,0:0|0:0,0:0:0:0:
55,277,126550,1,0,3:2:0:0:
55,277,126737,2,0,L|-2:270,1,53.9999983520508,2|0,0:0|0:0,0:0:0:0:
202,370,126923,1,8,0:0:0:0:
202,370,127109,6,0,B|290:381|274:323|369:340,1,161.999995056153,2|0,0:0|0:0,0:0:0:0:
441,378,127482,2,0,B|453:332|453:332|432:280,1,90,2|0,3:2|0:0,0:0:0:0:
319,181,127668,5,8,0:0:0:0:
505,206,127855,1,2,0:0:0:0:
226,169,128041,5,8,0:0:0:0:
412,194,128227,1,2,0:0:0:0:
133,156,128414,5,8,0:0:0:0:
319,181,128600,2,0,B|314:154|314:154|300:178,1,53.9999983520508,2|0,3:2|0:0,0:0:0:0:
141,262,128786,6,0,B|194:252|194:252|241:282|241:282|297:272,1,161.999995056153,0|0,3:2|0:0,0:0:0:0:
382,255,129159,1,8,0:0:0:0:
173,376,129345,2,0,P|164:353|158:363,1,53.9999983520508,2|0,0:0|0:0,0:0:0:0:
33,231,129532,1,0,3:2:0:0:
33,231,129718,2,0,P|42:208|48:218,1,53.9999983520508,2|0,0:0|0:0,0:0:0:0:
149,151,129904,2,0,P|140:128|134:138,1,53.9999983520508,10|0,0:0|0:0,0:0:0:0:
0,82,130091,6,0,B|28:92|64:78|83:51|83:51|93:59|93:59|132:34|184:38|216:72,1,216,2|0,3:2|0:0,0:0:0:0:
258,129,130463,2,0,B|289:143|289:143|327:132,1,72,2|0,3:2|0:0,0:0:0:0:
446,104,130650,5,10,0:0:0:0:
414,307,130836,1,0,3:2:0:0:
462,5,131022,5,8,0:0:0:0:
430,208,131209,1,0,3:2:0:0:
256,10,131395,5,10,0:0:0:0:
288,213,131581,1,0,3:2:0:0:
290,222,131674,1,8,0:0:0:0:
292,230,131768,6,0,P|284:321|202:228,1,270,6|0,3:2|0:0,0:0:0:0:
227,161,132140,1,10,0:0:0:0:
430,129,132327,2,0,L|491:138,1,53.9999983520508,2|0,0:0|0:0,0:0:0:0:
256,10,132513,1,0,3:2:0:0:
256,10,132699,6,0,P|224:12|196:30,1,53.9999983520508,2|0,3:2|0:0,0:0:0:0:
110,72,132886,2,0,P|95:100|97:133,1,53.9999983520508,8|0,3:2|0:0,0:0:0:0:
90,229,133072,2,0,P|107:255|137:270,1,53.9999983520508,0|0,3:2|0:0,0:0:0:0:
261,248,133258,6,0,P|305:240|360:278,1,107.999996704102,2|0,0:0|3:2,0:0:0:0:
383,360,133538,1,2,0:0:0:0:
379,375,133631,5,8,0:0:0:0:
486,213,133817,1,2,0:0:0:0:
438,287,134004,5,10,0:0:0:0:
331,125,134190,1,0,0:0:0:0:
383,202,134376,5,8,0:0:0:0:
490,40,134563,1,2,3:2:0:0:
485,35,134656,1,8,0:0:0:0:
480,30,134749,6,0,B|397:45|397:45|350:20|350:20|265:36,1,216,6|0,3:2|0:0,0:0:0:0:
204,80,135122,1,8,0:0:0:0:
327,292,135308,1,2,0:0:0:0:
224,330,135494,5,10,0:0:0:0:
348,113,135681,1,2,3:2:0:0:
258,168,135867,5,10,0:0:0:0:
419,356,136053,1,2,3:2:0:0:
454,177,136240,5,8,0:0:0:0:
417,368,136426,1,2,3:2:0:0:
472,82,136612,5,10,0:0:0:0:
436,272,136799,1,2,3:2:0:0:
379,39,136985,1,10,0:0:0:0:
423,29,137078,1,8,0:0:0:0:
459,48,137171,1,10,0:0:0:0:
472,82,137265,1,8,0:0:0:0:
466,112,137358,5,0,3:2:0:0:
448,132,137451,1,0,3:2:0:0:
429,142,137544,1,0,3:2:0:0:
412,143,137637,1,0,3:2:0:0:
399,141,137730,5,6,3:2:0:0:
307,112,137917,1,2,0:0:0:0:
232,242,138103,5,10,0:0:0:0:
324,213,138289,1,2,0:0:0:0:
245,17,138476,6,0,L|237:67,1,45,2|0,3:2|0:0,0:0:0:0:
169,125,138662,2,0,L|177:175,1,45,2|0,0:0|0:0,0:0:0:0:
232,242,138848,1,10,0:0:0:0:
411,341,139035,6,0,P|415:320|399:326,1,45,2|0,3:2|0:0,0:0:0:0:
344,384,139221,1,0,0:0:0:0:
315,190,139407,2,0,P|311:169|327:175,1,45,2|0,3:2|0:0,0:0:0:0:
388,229,139594,1,8,0:0:0:0:
228,350,139780,6,0,L|180:353,1,45,2|0,3:2|0:0,0:0:0:0:
96,362,139966,1,8,0:0:0:0:
7,194,140153,2,0,L|55:197,1,45,2|0,3:2|0:0,0:0:0:0:
139,204,140339,1,8,0:0:0:0:
101,63,140525,2,0,P|90:32|94:12,1,45,10|0,0:0|0:0,0:0:0:0:
181,24,140712,5,2,3:2:0:0:
139,204,140898,1,2,0:0:0:0:
309,242,141084,5,10,0:0:0:0:
267,62,141271,1,2,0:0:0:0:
455,150,141457,5,2,3:2:0:0:
455,150,141830,2,0,B|448:173|448:173|457:202,1,45,10|0,0:0|0:0,0:0:0:0:
501,281,142016,2,0,B|508:304|508:304|501:324,1,45,2|0,3:2|0:0,0:0:0:0:
423,381,142202,5,0,0:0:0:0:
226,331,142389,1,2,3:2:0:0:
177,255,142575,5,8,0:0:0:0:
374,205,142761,1,2,3:2:0:0:
423,129,142948,5,10,0:0:0:0:
226,79,143134,1,2,3:2:0:0:
324,104,143320,5,10,0:0:0:0:
127,54,143507,1,0,3:2:0:0:
121,58,143600,1,8,0:0:0:0:
116,62,143693,5,6,3:2:0:0:
141,188,143879,1,2,0:0:0:0:
2,239,144066,5,10,0:0:0:0:
27,113,144252,1,2,0:0:0:0:
232,344,144438,6,0,P|200:356|176:355,1,45,2|0,3:2|0:0,0:0:0:0:
93,384,144625,2,0,P|66:362|55:341,1,45,2|0,3:2|0:0,0:0:0:0:
2,239,144811,1,10,0:0:0:0:
235,127,144997,6,0,P|252:135|236:138,1,45,2|0,3:2|0:0,0:0:0:0:
155,141,145184,1,0,0:0:0:0:
96,255,145370,2,0,P|79:263|95:266,1,45,2|0,3:2|0:0,0:0:0:0:
178,273,145556,1,8,0:0:0:0:
324,371,145743,6,0,L|331:314,1,45,2|0,0:0|0:0,0:0:0:0:
340,235,145929,1,8,0:0:0:0:
493,151,146115,2,0,L|487:106,1,45,6|0,0:0|0:0,0:0:0:0:
477,15,146302,1,8,0:0:0:0:
234,13,146488,1,2,3:2:0:0:
227,26,146581,1,8,0:0:0:0:
225,39,146674,6,0,P|230:91|239:183,1,135,4|0,3:2|0:0,0:0:0:0:
191,249,147047,5,8,0:0:0:0:
415,130,147233,1,2,3:2:0:0:
183,238,147420,5,10,0:0:0:0:
436,246,147606,1,2,3:2:0:0:
181,224,147792,5,10,0:0:0:0:
396,357,147979,1,2,3:2:0:0:
282,120,148165,5,12,0:0:0:0:
226,357,148351,1,2,3:2:0:0:
54,194,148538,1,10,0:0:0:0:
252,243,148724,5,2,0:0:0:0:
156,275,148910,1,2,0:0:0:0:
174,173,149097,1,2,0:0:0:0:
174,173,149656,6,0,L|159:33,1,135,4|0,3:2|0:0,0:0:0:0:
238,4,150028,2,0,B|283:13|283:13|242:35,1,90,10|0,0:0|0:0,0:0:0:0:
80,113,150401,1,0,3:2:0:0:
270,204,150587,1,0,0:0:0:0:
300,108,150774,1,10,0:0:0:0:
96,253,150960,6,0,P|143:242|221:287,1,135,0|0,3:2|0:0,0:0:0:0:
249,355,151333,2,0,P|245:374|231:362,1,45,0|0,3:2|0:0,0:0:0:0:
216,280,151519,5,10,0:0:0:0:
430,333,151706,1,0,3:2:0:0:
211,272,151892,5,8,0:0:0:0:
422,210,152078,1,0,3:2:0:0:
202,267,152265,5,10,0:0:0:0:
354,108,152451,1,8,0:0:0:0:
136,21,152637,6,0,B|95:33|95:33|120:150,1,135,0|0,3:2|0:0,0:0:0:0:
220,146,153010,2,0,B|230:99|230:99|184:78,1,90,10|0,0:0|0:0,0:0:0:0:
58,201,153383,1,0,3:2:0:0:
200,311,153569,1,0,0:0:0:0:
162,217,153755,1,10,0:0:0:0:
0,327,153942,6,0,B|50:322|50:322|75:345|75:345|140:338,1,135,0|0,3:2|0:0,0:0:0:0:
202,353,154314,2,0,B|208:333|208:333|200:311,1,45,0|0,3:2|0:0,0:0:0:0:
125,339,154501,1,10,0:0:0:0:
335,216,154687,1,0,3:2:0:0:
115,126,154873,5,8,0:0:0:0:
299,290,155060,1,0,3:2:0:0:
343,57,155246,1,10,0:0:0:0:
314,48,155339,1,0,3:2:0:0:
285,55,155432,1,0,3:2:0:0:
263,75,155525,1,0,3:2:0:0:
325,137,155619,6,0,B|390:129|389:191|468:170,1,135,4|0,3:2|0:0,0:0:0:0:
451,9,155991,2,0,B|428:33|428:33|441:97,1,90,10|0,0:0|0:0,0:0:0:0:
287,304,156364,1,0,3:2:0:0:
325,137,156550,1,0,3:2:0:0:
452,257,156737,1,10,0:0:0:0:
383,314,156923,6,0,P|437:292|485:345,1,135,0|0,3:2|0:0,0:0:0:0:
388,358,157296,2,0,L|382:309,1,45,0|0,3:2|0:0,0:0:0:0:
484,341,157482,5,10,0:0:0:0:
283,355,157668,1,0,3:2:0:0:
477,226,157855,5,8,0:0:0:0:
276,240,158041,1,4,3:2:0:0:
470,111,158227,5,10,0:0:0:0:
269,125,158414,1,0,3:2:0:0:
261,120,158507,1,8,0:0:0:0:
254,115,158600,6,0,P|261:32|331:82,1,202.500007724762,6|0,3:2|0:0,0:0:0:0:
334,174,158973,5,10,0:0:0:0:
97,97,159159,1,0,3:2:0:0:
344,180,159345,5,8,0:0:0:0:
100,231,159532,1,0,3:2:0:0:
355,180,159718,5,10,0:0:0:0:
169,346,159904,1,0,3:2:0:0:
171,98,160091,5,12,0:0:0:0:
357,264,160277,1,0,3:2:0:0:
355,16,160463,5,10,0:0:0:0:
169,182,160650,1,0,3:2:0:0:
417,332,160836,1,8,0:0:0:0:
461,342,160929,1,8,0:0:0:0:
497,323,161022,1,8,0:0:0:0:
510,289,161115,1,8,0:0:0:0:
504,259,161209,5,8,3:2:0:0:
486,239,161302,1,8,3:2:0:0:
467,229,161395,1,8,3:2:0:0:
450,228,161488,1,8,3:2:0:0:
372,254,161581,6,0,B|288:296|172:236|29:68|-91:138|-128:325|-17:463|177:534|233:253|97:145|271:98|375:87|398:175,1,972,14|8,3:2|0:0,0:0:0:0:
