osu file format v14

[General]
AudioFilename: audio.mp3
AudioLeadIn: 0
PreviewTime: 125432
Countdown: 0
SampleSet: Soft
StackLeniency: 0.4
Mode: 0
LetterboxInBreaks: 0
WidescreenStoryboard: 1

[Editor]
Bookmarks: 12507,24433,36358,48283,60209,60395,60488,60768,60861,61047,61141,61234,61420,61606,61886,61979,62165,62352,62445,62631,62724,62911,63004,63190,63283,63470,63656,63749,63936,64122,64215,64401,64495,64681,64867,64960,65147,65333,65519,65613,78097,90023,101948,113874,125799,137724,149650,161575
DistanceSpacing: 1.4
BeatDivisor: 4
GridSize: 4
TimelineZoom: 1

[Metadata]
Title:Paradise
TitleUnicode:Paradise
Artist:Rude-a
ArtistUnicode:Rude-α
Creator:arronchu1207
Version:Hard
Source:SK∞ エスケーエイト
Tags:rude-alpha Lobelia Abhor [_Abhor_] sk8 skate the infinity anime japanese jpop j-pop pop rap hip hop opening op full ver version
BeatmapID:2878333
BeatmapSetID:1391326

[Difficulty]
HPDrainRate:4
CircleSize:4
OverallDifficulty:6
ApproachRate:7.7
SliderMultiplier:1.4
SliderTickRate:1

[Events]
//Background and Video events
0,0,"skate.jpg",0,0
//Break Periods
2,60415,64719
2,114080,121551
//Storyboard Layer 0 (Background)
//Storyboard Layer 1 (Fail)
//Storyboard Layer 2 (Pass)
//Storyboard Layer 3 (Foreground)
//Storyboard Layer 4 (Overlay)
//Storyboard Sound Samples

[TimingPoints]
588,372.670807453416,4,2,2,50,1,0
588,-125,4,2,2,50,0,0
11302,-125,4,2,2,5,0,0
11395,-125,4,2,2,50,0,0
12513,-100,4,2,1,50,0,0
12886,-100,4,2,1,70,0,0
34687,-200,4,2,1,70,0,0
36364,-100,4,2,1,80,0,1
36737,-100,4,2,1,80,0,0
48289,-100,4,2,1,70,0,0
88351,-200,4,2,1,70,0,0
90028,-100,4,2,1,80,0,1
90401,-100,4,2,1,80,0,0
101954,-100,4,2,1,70,0,0
113879,-100,4,2,1,60,0,0
125805,-90.9090909090909,4,2,1,90,0,1
137730,-100,4,2,1,80,0,1
149656,-100,4,2,1,70,0,0
163072,-100,4,2,1,60,0,0
164563,-100,4,2,1,50,0,0
166053,-100,4,2,1,40,0,0
166612,-100,4,2,1,30,0,0

[Colours]
Combo1 : 128,255,255
Combo2 : 255,0,0
Combo3 : 18,124,255
Combo4 : 255,128,128

[HitObjects]
360,257,588,6,0,P|408:237|464:255,2,112,8|8|8,0:0|0:0|0:0,0:0:0:0:
308,330,1519,1,0,0:0:0:0:
232,280,1706,2,0,L|238:209,1,56,8|0,0:0|0:0,0:0:0:0:
180,154,2078,6,0,B|136:151|136:151|115:160|115:160|64:154,2,112,8|8|8,0:0|0:0|0:0,0:0:0:0:
236,224,3010,1,0,0:0:0:0:
303,165,3196,2,0,P|335:158|368:172,1,56,8|0,0:0|0:0,0:0:0:0:
429,216,3569,6,0,P|437:164|450:82,2,112,8|8|8,0:0|0:0|0:0,0:0:0:0:
475,293,4501,1,0,0:0:0:0:
403,346,4687,2,0,L|337:334,1,56,8|0,0:0|0:0,0:0:0:0:
275,282,5060,6,0,P|225:278|168:326,2,112,8|8|8,0:0|0:0|0:0,0:0:0:0:
347,229,5991,1,0,0:0:0:0:
286,162,6178,1,8,1:2:0:0:
286,162,6364,1,0,1:2:0:0:
349,98,6550,6,0,L|461:89,2,112,8|8|8,0:0|0:0|0:0,0:0:0:0:
285,33,7482,1,0,0:0:0:0:
208,78,7668,2,0,P|201:113|211:145,1,56,8|0,0:0|0:0,0:0:0:0:
243,213,8041,6,0,P|264:257|242:329,2,112,8|8|8,0:0|0:0|0:0,0:0:0:0:
174,271,8973,1,0,0:0:0:0:
112,206,9159,2,0,L|119:140,1,56,8|0,0:0|0:0,0:0:0:0:
124,60,9532,6,0,P|73:71|5:77,2,112,8|8|8,0:0|0:0|0:0,0:0:0:0:
200,13,10463,1,0,0:0:0:0:
268,70,10650,2,0,L|256:137,1,56,8|0,0:0|0:0,0:0:0:0:
305,207,11022,6,0,P|345:198|393:212,1,84,8|0,0:0|0:0,0:0:0:0:
397,214,11395,2,0,L|388:149,1,56,10|2,0:0|0:3,0:0:0:0:
469,293,11768,2,0,L|461:348,1,56,10|2,0:2|0:3,0:0:0:0:
359,369,12140,2,0,L|350:304,1,56,10|2,0:0|0:3,0:0:0:0:
250,356,12513,5,6,3:2:0:0:
250,356,12886,2,0,B|172:368|187:304|98:332,1,140,10|0,0:0|3:2,0:0:0:0:
22,353,13445,1,2,0:0:0:0:
2,257,13631,1,8,0:0:0:0:
97,234,13817,1,0,3:2:0:0:
97,234,14004,6,0,P|110:197|110:167,1,70,8|0,0:0|3:2,0:0:0:0:
207,168,14376,2,0,P|199:129|184:103,1,70,8|0,0:0|3:2,0:0:0:0:
269,55,14749,2,0,P|243:25|217:10,1,70,8|0,0:0|3:2,0:0:0:0:
120,28,15122,1,10,0:0:0:0:
120,28,15308,1,10,0:0:0:0:
184,103,15494,5,2,3:2:0:0:
184,103,15867,2,0,L|169:248,1,140,10|0,0:0|3:2,0:0:0:0:
224,323,16426,1,2,0:0:0:0:
306,271,16612,2,0,L|299:200,1,70,8|0,0:0|3:2,0:0:0:0:
342,113,16985,6,0,P|377:99|416:103,1,70,8|0,0:0|3:2,0:0:0:0:
507,100,17358,2,0,P|501:137|478:169,1,70,8|0,0:0|3:2,0:0:0:0:
435,249,17730,2,0,P|405:225|389:189,1,70,8|0,0:0|3:2,0:0:0:0:
408,100,18103,1,10,0:0:0:0:
484,163,18289,1,2,3:2:0:0:
493,170,18383,1,8,0:0:0:0:
502,177,18476,5,2,3:2:0:0:
383,332,18848,2,0,B|361:303|321:303|321:303|296:337|251:339,1,140,10|0,0:0|3:2,0:0:0:0:
205,258,19407,1,2,3:2:0:0:
114,297,19594,1,8,0:0:0:0:
60,221,19780,1,0,3:2:0:0:
60,221,19966,6,0,P|59:178|73:147,1,70,8|0,0:0|3:2,0:0:0:0:
98,59,20339,2,0,P|135:79|155:107,1,70,8|0,0:0|3:2,0:0:0:0:
219,172,20712,2,0,P|182:194|148:197,1,70,8|2,0:0|3:2,0:0:0:0:
68,153,21084,1,10,0:0:0:0:
152,100,21271,1,2,3:2:0:0:
161,95,21364,1,8,0:0:0:0:
170,90,21457,6,0,B|179:53|179:53|166:11,1,70,2|0,3:2|0:0,0:0:0:0:
265,0,21830,2,0,L|412:18,1,140,10|10,0:0|0:0,0:0:0:0:
477,82,22389,1,2,3:2:0:0:
412,155,22575,2,0,P|401:197|412:229,1,70,10|2,0:0|3:2,0:0:0:0:
474,301,22948,5,10,0:0:0:0:
474,301,23134,1,2,3:2:0:0:
401,366,23320,1,8,0:0:0:0:
401,366,23507,1,0,3:2:0:0:
339,289,23693,2,0,L|299:293,3,35,8|8|8|8,0:0|0:0|0:0|0:0,0:0:0:0:
265,261,24066,2,0,L|225:257,3,35,8|8|0|0,0:0|0:0|3:2|3:2,0:0:0:0:
195,223,24438,6,0,P|208:278|183:361,1,140,4|10,3:2|0:0,0:0:0:0:
90,381,24997,1,2,0:0:0:0:
16,315,25184,2,0,L|24:244,2,70,2|2|10,3:2|0:0|0:0,0:0:0:0:
90,381,25743,1,2,3:2:0:0:
164,317,25929,5,2,0:0:0:0:
164,317,26115,2,0,B|198:312|198:312|240:328,2,70,2|8|0,3:2|0:0|3:2,0:0:0:0:
99,242,26674,2,0,L|93:166,1,70,8|2,0:0|3:2,0:0:0:0:
163,102,27047,1,10,0:0:0:0:
163,102,27233,1,10,0:0:0:0:
234,169,27420,6,0,P|258:120|237:37,1,140,0|10,3:2|0:0,0:0:0:0:
147,4,27979,1,2,0:0:0:0:
70,64,28165,2,0,L|66:137,1,70,2|2,3:2|0:0,0:0:0:0:
21,221,28538,1,10,0:0:0:0:
107,267,28724,6,0,P|163:256|240:316,1,140,2|2,3:2|3:2,0:0:0:0:
295,371,29283,2,0,P|339:384|369:379,1,70,8|0,0:0|3:2,0:0:0:0:
342,284,29656,2,0,P|386:273|410:253,1,70,8|2,0:0|3:2,0:0:0:0:
339,185,30028,2,0,P|372:153|382:124,1,70,8|2,0:0|3:2,0:0:0:0:
382,122,30308,1,8,0:0:0:0:
383,112,30401,6,0,L|375:37,1,70,4|2,3:2|0:0,0:0:0:0:
283,8,30774,2,0,B|251:5|251:5|217:31,1,70,10|2,0:0|0:0,0:0:0:0:
180,117,31147,2,0,B|150:139|150:139|117:136,1,70,2|2,3:2|3:2,0:0:0:0:
45,202,31519,1,10,0:0:0:0:
45,202,31706,1,2,3:2:0:0:
107,276,31892,6,0,L|253:262,1,140,2|10,0:0|0:0,0:0:0:0:
329,210,32451,1,2,3:2:0:0:
382,291,32637,2,0,L|370:365,1,70,10|2,0:0|3:2,0:0:0:0:
467,378,33010,2,0,L|478:308,1,70,8|10,0:0|0:0,0:0:0:0:
487,304,33289,1,8,0:0:0:0:
496,299,33383,5,4,3:2:0:0:
405,67,33942,1,2,3:2:0:0:
405,67,34128,2,0,P|378:107|287:108,1,140,8|0,0:0|3:2,0:0:0:0:
325,27,34687,6,0,P|333:73|344:205,1,175,10|2,0:0|0:0,0:0:0:0:
82,45,36364,6,0,P|123:23|207:74,1,140,6|10,3:2|0:0,0:0:0:0:
238,150,36923,2,0,L|228:220,1,70,2|0,0:0|3:2,0:0:0:0:
142,267,37296,2,0,L|131:197,1,70,2|8,0:0|0:0,0:0:0:0:
228,220,37668,6,0,P|262:223|297:251,1,70,2|0,3:2|0:0,0:0:0:0:
374,295,38041,2,0,P|354:322|312:339,1,70,2|8,3:2|0:0,0:0:0:0:
236,383,38414,2,0,P|221:352|228:307,1,70,2|8,3:2|0:0,0:0:0:0:
290,242,38786,2,0,P|304:211|297:166,1,70,2|8,3:2|0:0,0:0:0:0:
235,102,39159,5,10,0:0:0:0:
162,167,39345,2,0,P|141:128|169:29,1,140,0|8,3:2|0:0,0:0:0:0:
249,1,39904,2,0,L|330:14,1,70,2|0,0:0|3:2,0:0:0:0:
386,80,40277,2,0,L|373:161,1,70,2|8,0:0|0:0,0:0:0:0:
424,234,40650,6,0,P|386:205|287:216,1,140,2|2,3:2|3:2,0:0:0:0:
245,292,41209,1,10,0:0:0:0:
245,292,41395,1,0,3:2:0:0:
166,233,41581,1,8,0:0:0:0:
166,233,41768,1,0,3:2:0:0:
111,314,41954,1,10,0:0:0:0:
28,261,42140,1,0,3:2:0:0:
20,254,42233,1,8,0:0:0:0:
12,247,42327,6,0,L|29:98,1,140,6|10,3:2|0:0,0:0:0:0:
95,36,42886,1,2,0:0:0:0:
174,93,43072,2,0,P|185:137|176:163,1,70,0|2,3:2|3:2,0:0:0:0:
119,238,43445,2,0,P|108:282|117:308,1,70,8|2,3:2|3:2,0:0:0:0:
192,364,43817,6,0,L|296:355,1,105,2|2,0:0|0:0,0:0:0:0:
308,363,44190,2,0,L|314:288,1,70,8|2,0:0|3:2,0:0:0:0:
397,242,44563,2,0,L|391:172,1,70,10|0,0:0|3:2,0:0:0:0:
330,95,44935,1,8,0:0:0:0:
253,157,45122,1,2,0:0:0:0:
245,164,45215,1,8,0:0:0:0:
237,171,45308,6,0,B|162:187|177:128|100:146,1,140,6|8,0:0|0:0,0:0:0:0:
28,207,45867,1,2,0:0:0:0:
34,214,45960,1,2,0:0:0:0:
40,221,46053,2,0,P|46:269|40:301,1,70,10|2,0:0|3:2,0:0:0:0:
118,352,46426,2,0,P|166:346|198:352,1,70,10|2,0:0|3:2,0:0:0:0:
281,377,46799,5,8,0:0:0:0:
281,377,46985,1,2,3:2:0:0:
314,284,47171,2,0,L|305:209,1,70,8|2,0:0|3:2,0:0:0:0:
231,150,47544,2,0,L|239:103,3,35,10|8|10|8,0:0|0:0|0:0|0:0,0:0:0:0:
264,74,47917,2,0,L|256:27,3,35,0|0|0|0,3:2|3:2|3:2|3:2,0:0:0:0:
289,1,48289,6,0,L|366:8,1,70,6|2,3:2|0:0,0:0:0:0:
431,73,48662,2,0,B|440:107|440:107|425:156,1,70,10|2,0:0|0:0,0:0:0:0:
362,211,49035,1,2,3:2:0:0:
362,211,49221,2,0,P|352:243|361:281,1,70,2|10,0:0|0:0,0:0:0:0:
429,346,49594,6,0,P|375:323|305:361,1,140,2|2,3:2|3:2,0:0:0:0:
222,307,50153,1,8,0:0:0:0:
222,307,50339,2,0,L|212:228,1,70,2|8,0:0|0:0,0:0:0:0:
126,284,50712,2,0,L|116:205,1,70,2|8,0:0|0:0,0:0:0:0:
50,142,51084,1,10,0:0:0:0:
50,142,51271,6,0,P|44:101|59:68,1,70,2|2,3:2|0:0,0:0:0:0:
131,15,51643,2,0,P|172:9|205:24,1,70,10|2,0:0|0:0,0:0:0:0:
259,95,52016,1,2,3:2:0:0:
436,12,52389,1,10,0:0:0:0:
436,12,52575,6,0,L|417:154,1,140,2|2,3:2|3:2,0:0:0:0:
346,218,53134,2,0,L|353:294,1,70,8|2,0:0|3:2,0:0:0:0:
282,357,53507,1,10,0:0:0:0:
204,297,53693,1,2,3:2:0:0:
129,360,53879,1,10,0:0:0:0:
48,302,54066,1,0,3:2:0:0:
41,296,54159,1,8,0:0:0:0:
34,290,54252,6,0,P|24:248|32:210,1,70,6|2,3:2|0:0,0:0:0:0:
80,138,54625,2,0,P|122:128|160:136,1,70,10|2,0:0|0:0,0:0:0:0:
239,178,54997,1,2,3:2:0:0:
239,178,55184,2,0,L|246:108,1,70,2|10,3:2|0:0,0:0:0:0:
315,39,55556,6,0,B|352:47|385:31|385:31|417:30|456:58,1,140,2|2,3:2|3:2,0:0:0:0:
498,141,56115,1,8,0:0:0:0:
498,141,56302,2,0,P|504:181|488:217,1,70,2|8,0:0|0:0,0:0:0:0:
473,303,56674,2,0,P|435:288|412:256,1,70,6|8,0:0|3:2,0:0:0:0:
404,169,57047,1,2,3:2:0:0:
405,160,57140,1,8,0:0:0:0:
406,151,57233,5,0,3:2:0:0:
250,32,57606,2,0,L|258:108,1,70,8|2,0:0|0:0,0:0:0:0:
202,183,57979,1,10,0:0:0:0:
202,183,58165,1,2,3:2:0:0:
121,126,58351,1,10,0:0:0:0:
121,126,58538,1,2,3:2:0:0:
55,198,58724,6,0,P|45:243|55:284,1,70,8|2,0:0|3:2,0:0:0:0:
111,341,59097,2,0,P|156:351|197:341,1,70,8|2,0:0|3:2,0:0:0:0:
253,284,59469,2,0,L|301:289,3,35,10|8|10|8,0:0|0:0|0:0|0:0,0:0:0:0:
328,259,59842,2,0,L|376:254,3,35,0|0|0|0,3:2|3:2|3:2|3:2,0:0:0:0:
407,234,60215,5,0,3:2:0:0:
108,327,65619,6,0,L|35:314,2,70,2|2|2,0:0|0:0|0:0,0:0:0:0:
197,287,66178,6,0,B|239:292|261:329|261:329|293:311|345:318,1,140,6|8,3:2|0:0,0:0:0:0:
418,344,66737,1,2,0:0:0:0:
418,344,66923,2,0,P|425:304|413:270,1,70,0|0,3:2|0:0,0:0:0:0:
368,190,67296,2,0,L|373:116,1,70,8|2,0:0|3:2,0:0:0:0:
442,51,67668,5,2,3:2:0:0:
442,51,67855,1,2,0:0:0:0:
347,26,68041,2,0,P|317:39|292:69,1,70,10|2,0:0|0:0,0:0:0:0:
197,45,68414,2,0,P|193:77|206:114,1,70,10|2,0:0|0:0,0:0:0:0:
138,184,68786,2,0,P|164:203|202:210,1,70,10|2,0:0|0:0,0:0:0:0:
211,208,69066,1,0,3:2:0:0:
220,205,69159,6,0,L|206:354,1,140,2|8,3:2|0:0,0:0:0:0:
298,379,69718,1,2,0:0:0:0:
380,326,69904,2,0,P|391:287|381:254,1,70,0|0,3:2|0:0,0:0:0:0:
327,178,70277,2,0,P|320:144|330:111,1,70,8|2,0:0|0:0,0:0:0:0:
399,41,70650,5,2,3:2:0:0:
399,41,70836,1,2,0:0:0:0:
424,140,71022,1,10,0:0:0:0:
424,140,71209,1,2,3:2:0:0:
330,110,71395,2,0,L|254:118,1,70,10|0,0:0|3:2,0:0:0:0:
196,191,71768,1,10,0:0:0:0:
116,133,71954,1,2,3:2:0:0:
110,126,72047,1,8,0:0:0:0:
105,119,72140,6,0,B|95:85|95:85|113:40,1,70,2|2,3:2|0:0,0:0:0:0:
194,6,72513,1,10,0:0:0:0:
257,80,72699,1,2,0:0:0:0:
344,35,72886,2,0,P|380:32|423:49,2,70,2|2|10,3:2|3:2|0:0,0:0:0:0:
257,80,73445,1,2,0:0:0:0:
313,166,73631,5,2,0:0:0:0:
313,166,73817,1,2,3:2:0:0:
226,212,74004,1,10,0:0:0:0:
226,212,74190,1,2,3:2:0:0:
276,295,74376,6,0,L|267:366,1,70,10|0,0:0|3:2,0:0:0:0:
168,367,74749,2,0,L|176:297,1,70,10|0,0:0|3:2,0:0:0:0:
174,288,75028,1,8,0:0:0:0:
171,280,75122,6,0,P|135:268|102:276,1,70,2|2,3:2|0:0,0:0:0:0:
44,197,75494,2,0,P|56:161|48:128,1,70,10|2,0:0|0:0,0:0:0:0:
114,57,75867,2,0,B|152:79|152:79|258:68,1,140,10|10,0:0|0:0,0:0:0:0:
323,7,76426,1,2,3:2:0:0:
394,74,76612,5,10,0:0:0:0:
394,74,76799,1,0,3:2:0:0:
336,153,76985,1,10,0:0:0:0:
336,153,77171,1,2,3:2:0:0:
411,216,77358,2,0,P|416:243|415:260,3,35,8|8|8|8,0:0|0:0|0:0|0:0,0:0:0:0:
388,290,77730,2,0,P|383:317|384:334,3,35,8|8|0|0,0:0|0:0|3:2|3:2,0:0:0:0:
417,359,78103,6,0,P|375:332|282:338,1,140,4|10,3:2|0:0,0:0:0:0:
200,381,78662,1,2,0:0:0:0:
148,297,78849,2,0,L|156:226,2,70,2|2|10,3:2|0:0|0:0,0:0:0:0:
200,381,79408,1,2,3:2:0:0:
287,335,79594,5,2,0:0:0:0:
287,335,79780,2,0,B|300:299|300:299|292:264,2,70,2|8|0,3:2|0:0|3:2,0:0:0:0:
200,381,80339,2,0,L|130:366,1,70,8|2,0:0|3:2,0:0:0:0:
39,348,80712,1,10,0:0:0:0:
39,348,80898,6,0,P|31:311|45:275,1,70,10|0,0:0|3:2,0:0:0:0:
121,224,81271,2,0,P|129:187|115:151,1,70,2|8,0:0|0:0,0:0:0:0:
56,81,81644,1,2,0:0:0:0:
132,19,81830,2,0,L|205:32,1,70,2|2,3:2|0:0,0:0:0:0:
298,17,82203,1,10,0:0:0:0:
306,114,82389,6,0,P|266:169|275:237,1,140,2|2,3:2|3:2,0:0:0:0:
352,298,82948,2,0,P|396:311|426:306,1,70,8|0,0:0|3:2,0:0:0:0:
399,211,83321,2,0,P|443:200|467:180,1,70,8|2,0:0|3:2,0:0:0:0:
396,112,83693,2,0,P|429:80|439:51,1,70,8|2,0:0|3:2,0:0:0:0:
439,49,83973,1,8,0:0:0:0:
440,39,84066,6,0,L|368:29,1,70,4|2,3:2|0:0,0:0:0:0:
299,95,84438,2,0,L|227:105,1,70,10|2,0:0|0:0,0:0:0:0:
152,53,84810,1,2,3:2:0:0:
152,53,84997,1,2,3:2:0:0:
102,138,85184,2,0,P|96:175|110:209,1,70,10|2,0:0|3:2,0:0:0:0:
178,271,85556,6,0,L|167:346,2,70,2|2|10,0:0|3:2|0:0,0:0:0:0:
250,203,86116,1,2,0:0:0:0:
327,262,86302,2,0,L|401:274,1,70,10|2,0:0|0:0,0:0:0:0:
414,177,86675,2,0,L|344:166,1,70,8|10,0:0|0:0,0:0:0:0:
340,157,86954,1,8,0:0:0:0:
335,148,87048,5,2,0:0:0:0:
175,43,87420,1,2,0:0:0:0:
175,43,87606,2,0,P|202:3|293:2,1,140,2|2,3:2|0:0,0:0:0:0:
367,57,88165,1,2,3:2:0:0:
367,57,88351,6,0,P|356:120|346:236,1,175,10|2,0:0|0:0,0:0:0:0:
222,355,90029,6,0,P|173:374|90:337,1,140,6|10,3:2|0:0,0:0:0:0:
164,275,90588,2,0,L|154:205,1,70,2|0,0:0|3:2,0:0:0:0:
70,153,90961,2,0,L|81:83,1,70,2|8,0:0|0:0,0:0:0:0:
158,23,91333,6,0,P|188:8|233:15,1,70,2|0,3:2|0:0,0:0:0:0:
322,15,91706,2,0,P|318:48|290:84,1,70,2|8,3:2|0:0,0:0:0:0:
246,160,92079,2,0,P|217:140|201:98,1,70,2|8,3:2|0:0,0:0:0:0:
298,77,92451,2,0,P|329:62|364:64,1,70,2|8,3:2|0:0,0:0:0:0:
410,151,92824,5,10,0:0:0:0:
484,87,93010,2,0,P|505:126|477:225,1,140,0|8,3:2|0:0,0:0:0:0:
410,151,93569,2,0,L|329:164,1,70,2|0,0:0|3:2,0:0:0:0:
272,232,93942,1,2,0:0:0:0:
272,232,94128,1,10,0:0:0:0:
210,154,94315,6,0,P|181:192|192:291,1,140,2|2,3:2|3:2,0:0:0:0:
248,362,94874,1,10,0:0:0:0:
248,362,95060,1,0,3:2:0:0:
327,303,95246,1,8,0:0:0:0:
327,303,95433,1,0,3:2:0:0:
382,384,95619,1,10,0:0:0:0:
465,331,95805,1,0,3:2:0:0:
473,324,95898,1,8,0:0:0:0:
481,317,95992,6,0,L|464:168,1,140,6|10,3:2|0:0,0:0:0:0:
403,100,96551,1,2,0:0:0:0:
332,167,96737,2,0,P|298:174|265:162,1,70,0|2,3:2|3:2,0:0:0:0:
198,235,97110,2,0,P|209:279|200:305,1,70,8|2,3:2|3:2,0:0:0:0:
107,274,97482,6,0,L|116:170,1,105,2|2,0:0|0:0,0:0:0:0:
117,156,97855,2,0,L|34:162,1,70,8|2,0:0|0:0,0:0:0:0:
40,63,98227,2,0,L|109:57,1,70,10|0,0:0|0:0,0:0:0:0:
189,0,98600,1,8,0:0:0:0:
264,62,98787,1,2,0:0:0:0:
271,70,98880,1,8,0:0:0:0:
278,78,98973,6,0,B|267:219,1,140,6|8,0:0|0:0,0:0:0:0:
331,291,99532,1,2,0:0:0:0:
338,297,99625,1,2,0:0:0:0:
345,303,99718,2,0,P|393:309|425:303,1,70,10|2,0:0|3:2,0:0:0:0:
487,240,100091,2,0,P|493:192|487:160,1,70,10|2,0:0|3:2,0:0:0:0:
454,84,100464,5,12,0:0:0:0:
454,84,100650,1,2,3:2:0:0:
373,139,100836,2,0,L|298:130,1,70,8|2,0:0|3:2,0:0:0:0:
228,194,101209,2,0,L|236:241,3,35,10|8|10|8,0:0|0:0|0:0|0:0,0:0:0:0:
261,270,101582,2,0,L|253:317,3,35,0|0|0|0,3:2|0:0|3:2|3:2,0:0:0:0:
217,336,101954,6,0,L|146:343,1,70,6|2,3:2|0:0,0:0:0:0:
60,297,102327,2,0,B|51:263|51:263|66:214,1,70,10|2,0:0|0:0,0:0:0:0:
147,179,102700,1,2,3:2:0:0:
147,179,102886,2,0,P|157:147|148:109,1,70,2|10,0:0|0:0,0:0:0:0:
82,40,103259,6,0,P|138:14|214:38,1,140,2|2,3:2|3:2,0:0:0:0:
296,91,103818,1,8,0:0:0:0:
296,91,104004,2,0,L|306:12,1,70,2|8,3:2|0:0,0:0:0:0:
393,102,104377,2,0,L|402:33,1,70,2|8,3:2|0:0,0:0:0:0:
489,124,104749,1,10,0:0:0:0:
489,124,104936,6,0,P|495:165|480:198,1,70,2|2,3:2|0:0,0:0:0:0:
407,251,105308,2,0,P|366:257|333:242,1,70,10|2,0:0|0:0,0:0:0:0:
280,171,105681,1,2,3:2:0:0:
142,310,106054,1,10,0:0:0:0:
142,310,106240,6,0,L|1:290,1,140,2|2,3:2|3:2,0:0:0:0:
12,192,106799,2,0,L|87:203,1,70,8|2,0:0|3:2,0:0:0:0:
157,140,107172,1,10,0:0:0:0:
217,217,107358,1,2,3:2:0:0:
300,164,107544,1,10,0:0:0:0:
366,236,107731,1,0,3:2:0:0:
372,243,107824,1,8,0:0:0:0:
378,250,107917,6,0,P|380:293|366:329,1,70,6|2,3:2|0:0,0:0:0:0:
291,373,108289,2,0,L|218:362,1,70,10|2,0:0|0:0,0:0:0:0:
162,290,108662,1,2,3:2:0:0:
162,290,108848,2,0,L|89:301,1,70,2|10,3:2|0:0,0:0:0:0:
20,233,109221,6,0,B|28:196|12:163|12:163|39:137|39:92,1,140,2|2,3:2|3:2,0:0:0:0:
118,43,109780,1,8,0:0:0:0:
118,43,109967,2,0,P|158:37|194:53,1,70,2|8,0:0|0:0,0:0:0:0:
280,68,110339,2,0,P|265:106|233:129,1,70,2|8,0:0|3:2,0:0:0:0:
146,137,110712,1,2,3:2:0:0:
137,136,110805,1,8,0:0:0:0:
128,135,110898,5,0,3:2:0:0:
22,300,111271,2,0,B|9:331|9:331|14:376,1,70,8|2,0:0|0:0,0:0:0:0:
112,347,111644,1,10,0:0:0:0:
112,347,111830,1,2,3:2:0:0:
105,253,112016,1,10,0:0:0:0:
105,253,112203,1,2,3:2:0:0:
191,207,112389,6,0,P|201:252|191:293,1,70,8|2,0:0|3:2,0:0:0:0:
274,336,112762,2,0,P|319:326|360:336,1,70,8|2,0:0|3:2,0:0:0:0:
403,253,113134,2,0,L|408:205,3,35,10|8|10|8,0:0|0:0|0:0|0:0,0:0:0:0:
378,178,113507,2,0,L|373:130,3,35,0|0|0|0,3:2|3:2|3:2|3:2,0:0:0:0:
353,99,113880,5,8,0:0:0:0:
154,116,122451,6,0,L|145:80,3,35,8|0|0|0,0:0|3:2|3:2|3:2,0:0:0:0:
169,38,122824,6,0,L|248:45,1,70,14|0,0:0|0:0,0:0:0:0:
307,113,123196,1,0,3:2:0:0:
307,113,123383,2,0,L|300:192,1,70,14|0,0:0|0:0,0:0:0:0:
232,251,123755,1,0,3:2:0:0:
232,251,123942,2,0,L|153:244,1,70,14|0,0:0|0:0,0:0:0:0:
94,176,124314,5,0,3:2:0:0:
94,176,124501,1,8,0:0:0:0:
23,358,124873,1,0,3:2:0:0:
23,358,125060,2,0,L|64:348,3,35,8|8|8|8,0:0|0:0|0:0|0:0,0:0:0:0:
98,323,125432,2,0,L|139:333,3,35,0|0|0|0,3:2|3:2|3:2|3:2,0:0:0:0:
170,367,125805,6,0,P|159:323|207:230,1,154.000004699707,6|10,0:0|0:0,0:0:0:0:
311,256,126364,2,0,P|316:214|301:175,1,77.0000023498536,2|0,0:0|3:2,0:0:0:0:
232,101,126737,2,0,P|227:59|242:20,1,77.0000023498536,2|8,0:0|0:0,0:0:0:0:
334,74,127109,6,0,L|417:83,1,77.0000023498536,2|0,0:0|0:0,0:0:0:0:
466,174,127482,2,0,L|457:257,1,77.0000023498536,2|8,3:2|0:0,0:0:0:0:
366,306,127855,2,0,L|283:297,1,77.0000023498536,2|8,0:0|0:0,0:0:0:0:
234,206,128227,2,0,L|243:123,1,77.0000023498536,2|8,0:0|0:0,0:0:0:0:
164,54,128600,1,2,3:2:0:0:
89,131,128786,6,0,L|102:297,1,154.000004699707,0|8,3:2|0:0,0:0:0:0:
190,346,129345,2,0,B|227:356|227:356|270:339,1,77.0000023498536,2|0,0:0|3:2,0:0:0:0:
356,287,129718,1,2,0:0:0:0:
356,287,129904,1,10,0:0:0:0:
261,234,130091,6,0,P|245:193|289:93,1,154.000004699707,2|2,3:2|3:2,0:0:0:0:
352,180,130650,1,10,0:0:0:0:
352,180,130836,1,0,3:2:0:0:
437,114,131022,1,8,0:0:0:0:
437,114,131209,1,0,3:2:0:0:
368,31,131394,1,10,0:0:0:0:
284,96,131581,1,0,3:2:0:0:
276,103,131674,1,8,0:0:0:0:
268,110,131768,6,0,B|210:99|210:99|186:75|186:75|122:63,1,154.000004699707,6|10,3:2|0:0,0:0:0:0:
44,134,132327,1,2,0:0:0:0:
126,203,132513,2,0,P|137:249|126:282,1,77.0000023498536,0|2,3:2|3:2,0:0:0:0:
212,345,132886,2,0,P|258:334|291:345,1,77.0000023498536,8|0,3:2|3:2,0:0:0:0:
389,369,133258,6,0,L|394:289,1,77.0000023498536,2|0,0:0|3:2,0:0:0:0:
402,282,133538,1,2,0:0:0:0:
409,273,133631,2,0,L|404:193,1,77.0000023498536,8|2,0:0|0:0,0:0:0:0:
340,108,134004,1,10,0:0:0:0:
340,108,134190,1,0,0:0:0:0:
253,171,134376,1,8,0:0:0:0:
192,81,134563,1,2,3:2:0:0:
186,72,134656,1,8,0:0:0:0:
179,64,134749,6,0,B|132:59|99:77|99:77|87:109|45:127,1,154.000004699707,6|8,3:2|0:0,0:0:0:0:
17,228,135308,1,2,0:0:0:0:
117,265,135494,2,0,P|125:224|112:179,1,77.0000023498536,10|2,0:0|3:2,0:0:0:0:
17,228,135867,2,0,P|9:269|22:314,1,77.0000023498536,10|2,0:0|3:2,0:0:0:0:
100,371,136240,5,8,0:0:0:0:
100,371,136426,1,2,3:2:0:0:
117,265,136612,1,10,0:0:0:0:
117,265,136799,1,2,3:2:0:0:
196,337,136985,2,0,P|225:341|242:335,3,38.5000011749268,10|8|10|8,0:0|0:0|0:0|0:0,0:0:0:0:
281,313,137358,2,0,P|310:309|327:315,3,38.5000011749268,0|0|0|0,3:2|3:2|3:2|3:2,0:0:0:0:
362,340,137730,6,0,L|432:331,1,70,6|2,3:2|0:0,0:0:0:0:
491,253,138103,2,0,L|482:183,1,70,10|2,0:0|0:0,0:0:0:0:
421,113,138476,1,2,3:2:0:0:
421,113,138662,2,0,P|383:109|349:129,1,70,2|10,0:0|0:0,0:0:0:0:
290,197,139035,6,0,B|244:206|200:180|200:180|173:195|178:228,1,140,2|2,3:2|3:2,0:0:0:0:
221,305,139594,1,8,0:0:0:0:
156,378,139780,2,0,B|122:387|122:387|78:380,1,70,2|8,3:2|0:0,0:0:0:0:
13,316,140153,2,0,B|4:282|4:282|11:238,1,70,2|8,3:2|0:0,0:0:0:0:
55,161,140525,1,10,0:0:0:0:
143,203,140712,6,0,L|136:275,1,70,2|2,3:2|0:0,0:0:0:0:
233,283,141084,2,0,L|239:213,1,70,10|2,0:0|0:0,0:0:0:0:
312,147,141457,2,0,P|369:133|437:173,1,140,2|10,3:2|0:0,0:0:0:0:
360,234,142016,6,0,P|353:272|368:310,1,70,2|0,3:2|0:0,0:0:0:0:
291,369,142389,2,0,P|253:362|215:377,1,70,2|8,3:2|0:0,0:0:0:0:
142,317,142761,1,2,3:2:0:0:
209,245,142948,1,10,0:0:0:0:
209,245,143134,1,2,3:2:0:0:
133,183,143320,2,0,L|57:190,1,70,10|0,0:0|3:2,0:0:0:0:
55,184,143600,1,8,0:0:0:0:
48,179,143693,6,0,B|37:144|37:144|50:108,1,70,6|2,3:2|0:0,0:0:0:0:
113,38,144066,2,0,L|192:47,1,70,10|2,0:0|0:0,0:0:0:0:
255,119,144438,1,2,3:2:0:0:
255,119,144625,2,0,L|334:110,1,70,2|10,3:2|0:0,0:0:0:0:
388,36,144997,6,0,P|418:79|404:170,1,140,2|2,3:2|3:2,0:0:0:0:
324,213,145556,1,8,0:0:0:0:
398,278,145743,2,0,L|472:285,1,70,2|8,0:0|0:0,0:0:0:0:
459,382,146115,2,0,L|389:375,1,70,6|8,0:0|0:0,0:0:0:0:
308,319,146488,1,2,3:2:0:0:
303,311,146581,1,8,0:0:0:0:
298,303,146674,6,0,B|258:288|223:308|223:308|212:344|166:357,1,140,4|8,3:2|0:0,0:0:0:0:
135,264,147233,1,2,3:2:0:0:
51,315,147420,2,0,P|37:272|42:236,1,70,10|2,0:0|3:2,0:0:0:0:
103,174,147792,2,0,P|117:131|112:95,1,70,10|2,0:0|3:2,0:0:0:0:
185,38,148165,5,12,0:0:0:0:
185,38,148351,1,2,3:2:0:0:
258,103,148538,1,10,0:0:0:0:
258,103,148724,2,0,L|338:93,2,70,2|2|2,0:0|0:0|0:0,0:0:0:0:
258,103,149656,6,0,L|251:257,1,140,4|10,3:2|0:0,0:0:0:0:
435,174,150401,2,0,P|424:141|427:98,1,70,0|0,3:2|0:0,0:0:0:0:
481,25,150774,1,10,0:0:0:0:
481,25,150960,2,0,P|433:6|351:40,1,140,0|0,3:2|3:2,0:0:0:0:
283,104,151519,2,0,L|211:98,1,70,10|0,0:0|3:2,0:0:0:0:
139,163,151892,2,0,L|133:235,1,70,8|0,0:0|3:2,0:0:0:0:
192,311,152265,1,10,0:0:0:0:
192,311,152451,1,8,0:0:0:0:
271,254,152637,6,0,P|317:251|388:328,1,140,0|10,3:2|0:0,0:0:0:0:
510,159,153383,2,0,L|437:168,1,70,0|0,3:2|0:0,0:0:0:0:
368,101,153755,1,10,0:0:0:0:
368,101,153942,6,0,L|221:89,1,140,0|0,3:2|3:2,0:0:0:0:
151,27,154501,1,10,0:0:0:0:
151,27,154687,1,0,3:2:0:0:
82,97,154873,1,8,0:0:0:0:
82,97,155060,1,0,3:2:0:0:
142,173,155246,2,0,L|136:217,3,35,10|0|0|0,0:0|3:2|3:2|3:2,0:0:0:0:
100,240,155619,6,0,B|107:297|107:297|116:309|116:309|125:375,1,140,4|10,3:2|0:0,0:0:0:0:
319,348,156364,2,0,B|328:313|328:313|317:277,1,70,0|0,3:2|3:2,0:0:0:0:
239,230,156737,1,10,0:0:0:0:
239,230,156923,6,0,P|282:192|379:212,1,140,0|0,3:2|3:2,0:0:0:0:
442,251,157482,1,10,0:0:0:0:
442,251,157668,1,0,3:2:0:0:
496,169,157855,1,8,0:0:0:0:
496,169,158041,1,4,3:2:0:0:
414,115,158227,1,10,0:0:0:0:
360,197,158413,1,0,3:2:0:0:
355,206,158507,1,8,0:0:0:0:
350,215,158600,6,0,L|359:297,1,70,6|0,3:2|0:0,0:0:0:0:
258,245,158973,2,0,L|267:327,1,70,10|0,0:0|3:2,0:0:0:0:
166,275,159345,2,0,L|175:357,1,70,8|0,0:0|3:2,0:0:0:0:
74,305,159718,2,0,L|83:387,1,70,10|0,0:0|3:2,0:0:0:0:
166,275,160091,5,12,0:0:0:0:
166,275,160277,1,0,3:2:0:0:
93,209,160463,1,10,0:0:0:0:
93,209,160650,1,0,3:2:0:0:
157,135,160836,2,0,L|195:140,3,35,8|8|8|8,0:0|0:0|0:0|0:0,0:0:0:0:
230,109,161209,2,0,L|268:104,3,35,8|8|8|8,3:2|3:2|3:2|3:2,0:0:0:0:
307,128,161581,5,14,3:2:0:0:
256,192,161674,12,8,166612,0:0:0:0:
