osu file format v14

[General]
AudioFilename: audio.mp3
AudioLeadIn: 0
PreviewTime: 125432
Countdown: 0
SampleSet: Soft
StackLeniency: 0.4
Mode: 0
LetterboxInBreaks: 0
WidescreenStoryboard: 1

[Editor]
Bookmarks: 12507,24433,36358,48283,60209,60395,60488,60768,60861,61047,61141,61234,61420,61606,61886,61979,62165,62352,62445,62631,62724,62911,63004,63190,63283,63470,63656,63749,63936,64122,64215,64401,64495,64681,64867,64960,65147,65333,65519,65613,78097,90023,101948,113874,125799,137724,149650,161575
DistanceSpacing: 1
BeatDivisor: 2
GridSize: 4
TimelineZoom: 1

[Metadata]
Title:Paradise
TitleUnicode:Paradise
Artist:Rude-a
ArtistUnicode:Rude-α
Creator:arronchu1207
Version:Easy
Source:SK∞ エスケーエイト
Tags:rude-alpha Lobelia Abhor [_Abhor_] sk8 skate the infinity anime japanese jpop j-pop pop rap hip hop opening op full ver version
BeatmapID:2874669
BeatmapSetID:1391326

[Difficulty]
HPDrainRate:2
CircleSize:3
OverallDifficulty:2
ApproachRate:4.5
SliderMultiplier:0.999999999999999
SliderTickRate:1

[Events]
//Background and Video events
0,0,"skate.jpg",0,0
//Break Periods
2,60415,64858
2,114079,121504
//Storyboard Layer 0 (Background)
//Storyboard Layer 1 (Fail)
//Storyboard Layer 2 (Pass)
//Storyboard Layer 3 (Foreground)
//Storyboard Layer 4 (Overlay)
//Storyboard Sound Samples

[TimingPoints]
588,372.670807453416,4,2,2,50,1,0
11395,-100,4,2,2,50,0,0
12513,-100,4,2,1,50,0,0
12886,-100,4,2,1,70,0,0
36364,-100,4,2,1,80,0,1
36737,-100,4,2,1,80,0,0
48289,-100,4,2,1,70,0,0
90028,-100,4,2,1,80,0,1
90401,-100,4,2,1,80,0,0
101954,-100,4,2,1,70,0,0
113879,-100,4,2,1,60,0,0
125805,-100,4,2,1,90,0,1
137730,-100,4,2,1,80,0,1
149656,-100,4,2,1,70,0,0
163072,-100,4,2,1,60,0,0
164563,-100,4,2,1,50,0,0
166053,-100,4,2,1,40,0,0
166612,-100,4,2,1,30,0,0

[Colours]
Combo1 : 128,255,255
Combo2 : 255,0,0
Combo3 : 18,124,255
Combo4 : 255,128,128

[HitObjects]
62,225,588,6,0,P|53:271|73:324,2,99.9999999999999,8|8|8,0:0|0:0|0:0,0:0:0:0:
155,189,1706,1,8,0:0:0:0:
112,98,2078,2,0,L|9:84,2,99.9999999999999,8|8|8,0:0|0:0|0:0,0:0:0:0:
311,116,3569,6,0,B|334:68|334:68|324:11,2,99.9999999999999,8|8|8,0:0|0:0|0:0,0:0:0:0:
257,200,4687,1,8,0:0:0:0:
334,263,5060,2,0,L|441:249,2,99.9999999999999,8|8|8,0:0|0:0|0:0,0:0:0:0:
269,339,6178,1,8,1:2:0:0:
183,287,6550,6,0,P|118:299|92:331,2,99.9999999999999,8|8|8,0:0|0:0|0:0,0:0:0:0:
255,218,7668,1,8,0:0:0:0:
195,137,8041,2,0,P|132:114|94:129,2,99.9999999999999,8|8|8,0:0|0:0|0:0,0:0:0:0:
394,148,9532,6,0,L|383:46,2,99.9999999999999,8|8|8,0:0|0:0|0:0,0:0:0:0:
466,216,10650,1,8,0:0:0:0:
410,299,11022,1,8,0:0:0:0:
315,265,11395,2,0,B|310:308|310:308|314:324|314:324|308:375,2,99.9999999999999,10|10|10,0:0|0:2|0:0,0:0:0:0:
248,190,12513,5,6,3:2:0:0:
180,263,12886,2,0,B|150:235|149:193|149:193|119:217|68:230|20:198,1,200,10|8,0:0|0:0,0:0:0:0:
151,43,14376,1,8,0:0:0:0:
223,111,14749,2,0,P|277:119|323:96,1,99.9999999999999,8|10,0:0|0:0,0:0:0:0:
380,23,15494,5,2,3:2:0:0:
461,80,15867,2,0,B|495:123|497:173|497:173|449:208|449:276,1,200,10|8,0:0|0:0,0:0:0:0:
288,374,17358,1,8,0:0:0:0:
272,275,17730,2,0,L|288:174,1,99.9999999999999,8|10,0:0|0:0,0:0:0:0:
262,79,18476,5,2,3:2:0:0:
170,116,18848,2,0,B|132:118|106:113|76:89|76:89|27:93|-3:149,1,200,10|8,0:0|0:0,0:0:0:0:
75,330,20339,1,8,0:0:0:0:
167,292,20712,2,0,B|213:276|213:276|259:301,1,99.9999999999999,8|10,0:0|0:0,0:0:0:0:
344,351,21457,5,2,3:2:0:0:
415,281,21830,1,10,0:0:0:0:
342,211,22202,2,0,P|335:164|360:115,1,99.9999999999999,10|10,0:0|0:0,0:0:0:0:
413,35,22948,2,0,L|516:48,2,99.9999999999999,10|8|8,0:0|0:0|0:0,0:0:0:0:
218,83,24439,6,0,P|200:129|211:189,1,99.9999999999999,4|10,3:2|0:0,0:0:0:0:
271,254,25184,1,2,3:2:0:0:
179,372,25743,2,0,B|133:369|111:320|111:320|68:346|15:330,1,150,2|8,3:2|0:0,0:0:0:0:
56,236,26675,1,8,0:0:0:0:
126,165,27047,1,10,0:0:0:0:
214,212,27420,6,0,P|228:157|210:111,1,99.9999999999999,0|10,3:2|0:0,0:0:0:0:
159,33,28165,1,2,3:2:0:0:
307,13,28724,2,0,P|363:13|437:84,1,150,2|8,3:2|0:0,0:0:0:0:
460,167,29656,1,8,0:0:0:0:
397,245,30029,1,8,0:0:0:0:
316,185,30401,6,0,L|213:178,1,99.9999999999999,4|10,3:2|0:0,0:0:0:0:
144,248,31147,2,0,B|126:295|126:295|141:348,1,99.9999999999999,2|10,3:2|0:0,0:0:0:0:
231,302,31892,2,0,B|330:333|328:249|442:282,1,200,2|10,0:0|0:0,0:0:0:0:
488,201,33010,1,8,0:0:0:0:
438,113,33383,5,4,3:2:0:0:
255,32,34128,2,0,B|199:26|199:26|172:47|172:47|103:37,1,150,8|10,0:0|0:0,0:0:0:0:
29,274,35619,2,0,L|131:258,1,99.9999999999999,2|2,0:0|0:0,0:0:0:0:
198,188,36364,6,0,P|222:229|195:335,1,150,6|2,3:2|0:0,0:0:0:0:
109,359,37296,1,2,0:0:0:0:
38,287,37668,2,0,B|19:239|19:239|39:185,1,99.9999999999999,2|2,3:2|3:2,0:0:0:0:
102,119,38414,2,0,B|150:100|150:100|204:120,1,99.9999999999999,2|2,3:2|3:2,0:0:0:0:
279,171,39159,6,0,B|333:180|371:138|371:138|421:136|458:183,1,200,10|2,0:0|0:0,0:0:0:0:
467,278,40277,1,2,0:0:0:0:
506,369,40650,2,0,P|452:377|376:314,1,150,2|10,3:2|0:0,0:0:0:0:
329,128,41954,1,10,0:0:0:0:
243,74,42327,6,0,B|210:45|156:55|156:55|151:94|106:126,1,150,6|2,3:2|0:0,0:0:0:0:
57,37,43258,1,2,3:2:0:0:
24,183,43817,2,0,P|39:233|38:285,1,99.9999999999999,2|8,0:0|0:0,0:0:0:0:
136,302,44563,2,0,P|136:252|150:204,1,99.9999999999999,10|8,0:0|0:0,0:0:0:0:
247,177,45308,6,0,B|355:169|330:254|445:236,1,200,6|10,0:0|0:0,0:0:0:0:
425,137,46426,1,10,0:0:0:0:
418,37,46799,2,0,B|465:15|465:15|512:35,2,99.9999999999999,8|8|10,0:0|0:0|0:0,0:0:0:0:
334,92,47917,1,0,3:2:0:0:
250,37,48289,6,0,P|231:86|247:141,1,99.9999999999999,6|10,3:2|0:0,0:0:0:0:
317,195,49035,1,2,3:2:0:0:
286,341,49594,2,0,L|181:352,1,99.9999999999999,2|2,3:2|3:2,0:0:0:0:
115,282,50339,2,0,B|70:306|70:306|14:293,2,99.9999999999999,2|2|10,0:0|0:0|0:0,0:0:0:0:
136,236,51271,6,0,L|126:131,1,99.9999999999999,2|10,3:2|0:0,0:0:0:0:
118,36,52016,1,2,3:2:0:0:
264,68,52575,2,0,P|304:72|346:111,2,99.9999999999999,2|2|2,3:2|3:2|3:2,0:0:0:0:
231,106,53507,2,0,L|240:205,1,99.9999999999999,10|10,0:0|0:0,0:0:0:0:
300,285,54252,6,0,P|255:308|206:299,1,99.9999999999999,6|10,3:2|0:0,0:0:0:0:
118,253,54998,1,2,3:2:0:0:
183,118,55556,2,0,P|209:74|271:62,1,99.9999999999999,2|2,3:2|3:2,0:0:0:0:
334,119,56302,2,0,L|324:220,2,99.9999999999999,2|6|2,0:0|0:0|3:2,0:0:0:0:
370,84,57234,6,0,P|413:76|473:105,1,99.9999999999999,0|8,3:2|0:0,0:0:0:0:
505,187,57979,1,10,0:0:0:0:
484,284,58352,1,10,0:0:0:0:
399,337,58724,2,0,B|350:353|350:353|296:334,2,99.9999999999999,8|8|10,0:0|0:0|0:0,0:0:0:0:
484,284,59842,1,0,3:2:0:0:
396,236,60215,5,0,3:2:0:0:
205,130,66178,6,0,B|130:151|138:88|54:116,2,150,6|2|8,3:2|0:0|0:0,0:0:0:0:
269,54,67668,2,0,P|317:39|372:51,1,99.9999999999999,2|10,3:2|0:0,0:0:0:0:
451,97,68414,1,10,0:0:0:0:
404,291,69159,6,0,B|437:308|473:296|473:296|501:340|464:387,2,150,2|2|8,3:2|0:0|0:0,0:0:0:0:
316,242,70650,2,0,P|268:242|224:270,1,99.9999999999999,2|10,3:2|0:0,0:0:0:0:
166,350,71395,1,10,0:0:0:0:
28,204,72140,5,2,3:2:0:0:
88,123,72513,1,10,0:0:0:0:
31,40,72886,2,0,P|76:22|131:33,1,99.9999999999999,2|10,3:2|0:0,0:0:0:0:
221,58,73631,2,0,L|322:47,2,99.9999999999999,2|10|10,0:0|0:0|0:0,0:0:0:0:
213,259,75122,6,0,B|199:304|199:304|213:363,1,99.9999999999999,2|10,3:2|0:0,0:0:0:0:
311,355,75867,2,0,B|325:310|325:310|311:251,1,99.9999999999999,10|10,0:0|0:0,0:0:0:0:
264,171,76612,2,0,P|218:156|166:171,2,99.9999999999999,10|10|8,0:0|0:0|0:0,0:0:0:0:
462,142,78103,6,0,B|482:98|482:98|474:41,1,99.9999999999999,4|10,3:2|0:0,0:0:0:0:
380,81,78848,1,2,3:2:0:0:
240,26,79407,2,0,B|157:20|185:75|91:59,1,150,2|8,3:2|0:0,0:0:0:0:
30,134,80339,1,8,0:0:0:0:
95,210,80712,1,10,0:0:0:0:
37,292,81084,6,0,P|84:310|136:300,1,99.9999999999999,0|8,3:2|0:0,0:0:0:0:
217,249,81830,1,2,3:2:0:0:
246,101,82389,2,0,B|289:92|307:61|307:61|341:88|396:81,1,150,2|8,3:2|0:0,0:0:0:0:
467,41,83320,1,8,0:0:0:0:
510,131,83693,1,8,0:0:0:0:
420,176,84066,6,0,P|408:226|428:288,1,99.9999999999999,4|10,3:2|0:0,0:0:0:0:
342,336,84811,2,0,P|292:324|230:344,1,99.9999999999999,2|10,3:2|0:0,0:0:0:0:
165,275,85556,2,0,L|176:175,2,99.9999999999999,2|10|10,0:0|0:0|0:0,0:0:0:0:
94,345,86674,1,8,0:0:0:0:
25,272,87047,5,2,0:0:0:0:
129,101,87792,2,0,B|183:91|183:91|215:112|215:112|283:100,1,150,8|10,0:0|0:0,0:0:0:0:
428,296,89283,2,0,P|379:276|325:284,1,99.9999999999999,2|2,0:0|0:0,0:0:0:0:
263,353,90028,6,0,B|190:369|190:369|112:327,1,150,6|2,3:2|0:0,0:0:0:0:
48,266,90960,1,2,0:0:0:0:
107,185,91333,2,0,P|114:128|92:86,2,99.9999999999999,2|2|2,3:2|3:2|3:2,0:0:0:0:
48,266,92451,1,2,3:2:0:0:
123,333,92824,6,0,B|226:356|212:272|326:297,1,200,10|2,0:0|0:0,0:0:0:0:
403,337,93942,1,2,0:0:0:0:
467,261,94314,2,0,P|490:200|450:120,1,150,2|10,3:2|0:0,0:0:0:0:
277,214,95619,1,10,0:0:0:0:
219,295,95991,6,0,B|185:303|154:290|154:290|134:336|85:345,1,150,6|2,3:2|0:0,0:0:0:0:
63,247,96923,1,2,3:2:0:0:
165,137,97482,2,0,L|171:27,1,99.9999999999999,2|8,0:0|0:0,0:0:0:0:
270,45,98227,2,0,L|264:144,1,99.9999999999999,10|8,0:0|0:0,0:0:0:0:
324,226,98973,6,0,B|376:203|423:222|423:222|475:193|472:142,1,200,6|10,0:0|0:0,0:0:0:0:
425,54,100091,1,10,0:0:0:0:
329,23,100463,2,0,P|267:25|233:53,2,99.9999999999999,12|8|10,0:0|0:0|0:0,0:0:0:0:
307,120,101581,1,0,3:2:0:0:
222,174,101954,6,0,L|124:159,1,99.9999999999999,6|10,3:2|0:0,0:0:0:0:
25,137,102699,1,2,3:2:0:0:
56,283,103258,2,0,P|52:338|83:376,1,99.9999999999999,2|2,3:2|3:2,0:0:0:0:
172,339,104004,2,0,P|218:370|267:362,2,99.9999999999999,2|2|10,3:2|3:2|0:0,0:0:0:0:
159,290,104935,6,0,L|154:187,1,99.9999999999999,2|10,3:2|0:0,0:0:0:0:
207,105,105681,1,2,3:2:0:0:
350,59,106240,2,0,B|396:44|396:44|453:68,2,99.9999999999999,2|2|2,3:2|3:2|3:2,0:0:0:0:
317,97,107171,2,0,L|322:200,1,99.9999999999999,10|10,0:0|0:0,0:0:0:0:
399,259,107917,6,0,P|455:251|494:269,1,99.9999999999999,6|10,3:2|0:0,0:0:0:0:
438,352,108662,1,2,3:2:0:0:
289,371,109221,2,0,P|264:314|275:280,1,99.9999999999999,2|2,3:2|3:2,0:0:0:0:
219,197,109966,2,0,P|244:140|233:106,2,99.9999999999999,2|2|2,0:0|0:0|3:2,0:0:0:0:
170,209,110898,6,0,L|66:196,1,99.9999999999999,0|8,3:2|0:0,0:0:0:0:
16,112,111643,2,0,P|23:65|71:33,1,99.9999999999999,10|10,0:0|0:0,0:0:0:0:
159,61,112389,2,0,B|207:52|207:52|261:81,2,99.9999999999999,8|8|10,0:0|0:0|0:0,0:0:0:0:
194,154,113507,1,0,3:2:0:0:
126,227,113879,5,8,0:0:0:0:
212,131,122824,6,0,P|164:91|68:105,2,150,14|14|14,0:0|0:0|0:0,0:0:0:0:
241,226,124314,2,0,L|231:289,1,50,0|8,3:2|0:0,0:0:0:0:
363,350,125060,2,0,B|412:360|412:360|468:337,1,99.9999999999999,8|0,0:0|3:2,0:0:0:0:
496,248,125805,6,0,L|481:97,1,150,6|2,0:0|0:0,0:0:0:0:
404,34,126737,1,2,0:0:0:0:
337,108,127109,2,0,P|285:91|242:105,2,99.9999999999999,2|2|2,0:0|3:2|0:0,0:0:0:0:
399,186,128227,1,2,0:0:0:0:
341,267,128600,6,0,B|357:312|357:312|339:377,2,99.9999999999999,2|2|2,3:2|0:0|0:0,0:0:0:0:
253,315,129718,1,2,0:0:0:0:
188,238,130091,2,0,B|112:231|126:286|43:269,1,150,2|10,3:2|0:0,0:0:0:0:
58,70,131395,1,10,0:0:0:0:
157,54,131768,6,0,B|212:48|212:48|249:69|249:69|314:62,1,150,6|2,3:2|0:0,0:0:0:0:
399,50,132699,1,2,3:2:0:0:
475,179,133258,2,0,P|491:235|478:284,1,99.9999999999999,2|8,0:0|0:0,0:0:0:0:
398,329,134004,2,0,P|382:273|395:224,1,99.9999999999999,10|8,0:0|0:0,0:0:0:0:
325,157,134749,6,0,B|281:177|281:177|222:169,2,99.9999999999999,6|8|10,3:2|0:0|0:0,0:0:0:0:
266,75,135867,1,10,0:0:0:0:
177,28,136240,2,0,P|117:23|79:40,1,99.9999999999999,8|10,0:0|0:0,0:0:0:0:
33,125,136985,2,0,P|28:185|45:223,1,99.9999999999999,10|0,0:0|3:2,0:0:0:0:
128,272,137730,6,0,B|174:253|174:253|224:268,1,99.9999999999999,6|10,3:2|0:0,0:0:0:0:
180,358,138476,1,2,3:2:0:0:
327,383,139035,2,0,P|365:352|383:306,1,99.9999999999999,2|2,3:2|3:2,0:0:0:0:
391,205,139780,2,0,P|441:197|493:222,2,99.9999999999999,2|2|10,3:2|3:2|0:0,0:0:0:0:
341,215,140712,6,0,L|331:109,1,99.9999999999999,2|10,3:2|0:0,0:0:0:0:
335,15,141457,1,2,3:2:0:0:
186,36,142016,2,0,B|136:31|136:31|87:58,2,99.9999999999999,2|2|2,3:2|3:2|3:2,0:0:0:0:
215,76,142948,2,0,L|204:178,1,99.9999999999999,10|10,0:0|0:0,0:0:0:0:
125,236,143693,6,0,P|77:223|28:243,1,99.9999999999999,6|10,3:2|0:0,0:0:0:0:
81,326,144438,1,2,3:2:0:0:
220,270,144997,2,0,P|251:308|298:323,1,99.9999999999999,2|2,3:2|3:2,0:0:0:0:
390,284,145743,2,0,P|446:293|490:272,2,99.9999999999999,2|6|2,0:0|0:0|3:2,0:0:0:0:
362,242,146674,6,0,L|371:138,1,99.9999999999999,4|8,3:2|0:0,0:0:0:0:
296,74,147420,1,10,0:0:0:0:
220,139,147792,1,10,0:0:0:0:
154,63,148165,2,0,B|111:42|111:42|55:54,2,99.9999999999999,12|10|2,0:0|0:0|0:0,0:0:0:0:
390,118,149656,6,0,L|402:223,1,99.9999999999999,4|10,3:2|0:0,0:0:0:0:
333,290,150401,2,0,P|266:317|189:274,1,150,0|0,3:2|3:2,0:0:0:0:
176,138,151519,2,0,B|125:130|125:130|78:164,2,99.9999999999999,10|8|10,0:0|0:0|0:0,0:0:0:0:
253,200,152637,6,0,P|273:150|265:99,1,99.9999999999999,0|10,3:2|0:0,0:0:0:0:
191,39,153383,1,0,3:2:0:0:
93,153,153942,2,0,L|104:310,1,150,0|10,3:2|0:0,0:0:0:0:
186,358,154873,1,8,0:0:0:0:
265,297,155246,1,10,0:0:0:0:
346,355,155619,6,0,P|366:305|351:246,1,99.9999999999999,4|10,3:2|0:0,0:0:0:0:
279,199,156364,1,0,3:2:0:0:
155,284,156923,2,0,B|138:242|95:232|95:232|63:253|26:246,1,150,0|10,3:2|0:0,0:0:0:0:
39,147,157855,1,8,0:0:0:0:
103,70,158227,1,10,0:0:0:0:
202,82,158600,6,0,B|249:62|249:62|309:78,2,99.9999999999999,6|10|8,3:2|0:0|0:0,0:0:0:0:
172,177,159718,1,10,0:0:0:0:
253,235,160091,2,0,P|275:290|265:338,2,99.9999999999999,12|10|8,0:0|0:0|0:0,0:0:0:0:
175,298,161209,1,8,3:2:0:0:
91,243,161581,5,14,3:2:0:0:
256,192,161768,12,8,166612,0:0:0:0:
