osu file format v14

[General]
AudioFilename: audio.mp3
AudioLeadIn: 0
PreviewTime: 53309
Countdown: 0
SampleSet: Soft
StackLeniency: 0.6
Mode: 0
LetterboxInBreaks: 0
WidescreenStoryboard: 1

[Editor]
Bookmarks: 13148,75083,137019,167986
DistanceSpacing: 0.9
BeatDivisor: 4
GridSize: 16
TimelineZoom: 2.3

[Metadata]
Title:LIFE
TitleUnicode:LIFE
Artist:Rude-a
ArtistUnicode:Rude-α
Creator:elicz1
Version:Collab Insane
Source:Dr.STONE
Tags:Some Hero FuJu AirinCat Chompy ドクターストーン rude-alpha alpha dr doctor stone dr.stone anime ending ending1 ed ed1 J-pop japanese Senku Ishigami e=mc2 e=mc^2
BeatmapID:3249147
BeatmapSetID:1581758

[Difficulty]
HPDrainRate:5
CircleSize:3.5
OverallDifficulty:7.2
ApproachRate:8.6
SliderMultiplier:2
SliderTickRate:1

[Events]
//Background and Video events
0,0,"neew.jpg",0,0
//Break Periods
//Storyboard Layer 0 (Background)
//Storyboard Layer 1 (Fail)
//Storyboard Layer 2 (Pass)
//Storyboard Layer 3 (Foreground)
//Storyboard Layer 4 (Overlay)
//Storyboard Sound Samples

[TimingPoints]
245,645.161290322581,4,3,1,50,1,0
2825,-100,4,2,1,50,0,0
13148,-83.3333333333333,4,2,1,60,0,0
44115,-71.4285714285714,4,2,1,70,0,0
51857,-71.4285714285714,4,2,1,80,0,0
54438,-55.5555555555556,4,2,1,90,0,1
75083,-83.3333333333333,4,2,1,60,0,0
95728,-71.4285714285714,4,2,1,70,0,0
103470,-71.4285714285714,4,2,1,80,0,0
106051,-55.5555555555556,4,2,1,90,0,1
126696,-83.3333333333333,4,2,1,60,0,0
137019,-83.3333333333333,4,2,1,70,0,0
137341,-83.3333333333333,4,2,1,60,0,0
144761,-166.666666666667,4,2,0,55,0,0
146374,-166.666666666667,4,2,0,60,0,0
146696,-166.666666666667,4,2,1,80,0,0
147341,-55.5555555555556,4,2,2,90,0,1
147664,-55.5555555555556,4,2,1,90,0,1
167986,-55.5555555555556,4,2,1,50,0,0
178148,-55.5555555555556,4,2,1,30,0,0

[Colours]
Combo1 : 168,168,168
Combo2 : 68,130,221
Combo3 : 97,222,193
Combo4 : 91,217,95
Combo5 : 209,188,167
Combo6 : 217,91,91

[HitObjects]
69,335,2180,54,0,P|89:330|126:316,3,50,0|0|0|0,0:3|0:0|0:0|0:0,0:0:0:0:
188,369,2825,21,2,3:2:0:0:
188,369,3148,2,0,P|232:353|350:319,1,150,2|2,3:2|3:2,0:0:0:0:
447,372,3954,1,2,3:2:0:0:
382,259,4277,1,2,3:2:0:0:
484,179,4599,1,0,3:2:0:0:
475,170,4761,2,0,P|486:124|503:68,1,100,2|2,3:2|0:2,0:0:0:0:
456,9,5245,1,0,3:0:0:0:
373,9,5406,53,2,3:2:0:0:
373,9,5728,2,0,P|357:81|330:169,1,150,2|2,3:2|3:2,0:0:0:0:
223,221,6535,1,2,3:2:0:0:
131,129,6857,1,2,3:2:0:0:
231,36,7180,1,0,3:2:0:0:
233,47,7341,2,0,P|288:67|349:83,1,100,2|2,3:2|0:2,0:0:0:0:
390,130,7825,1,0,3:2:0:0:
392,220,7986,21,2,3:2:0:0:
392,220,8309,2,0,P|341:202|245:176,1,150,2|2,3:2|3:2,0:0:0:0:
147,259,9115,1,2,3:2:0:0:
219,367,9438,1,2,3:2:0:0:
330,297,9761,1,0,3:2:0:0:
337,309,9922,2,0,P|401:328|444:344,1,100,2|2,3:2|0:2,0:0:0:0:
508,312,10406,1,0,3:2:0:0:
512,235,10567,53,2,3:2:0:0:
512,235,10890,2,0,P|492:164|397:174,1,150,2|2,3:2|3:2,0:0:0:0:
347,258,11696,1,2,3:2:0:0:
227,206,12019,1,2,3:2:0:0:
240,68,12341,1,0,3:2:0:0:
244,80,12503,2,0,P|281:91|302:98,1,50,10|2,0:2|3:2,0:0:0:0:
354,46,12825,2,0,P|391:57|412:64,1,50,2|2,3:2|1:2,0:0:0:0:
424,153,13148,53,4,1:2:0:0:
424,153,13470,1,2,1:2:0:0:
347,258,13632,53,0,1:2:0:0:
297,325,13793,2,0,P|237:327|177:335,1,119.999996337891,10|2,0:2|0:2,0:0:0:0:
68,244,14277,2,0,P|127:241|187:233,1,119.999996337891,10|10,3:2|0:2,0:0:0:0:
217,154,14761,1,0,1:2:0:0:
145,109,14922,1,2,3:2:0:0:
12,12,15083,2,0,P|15:41|20:71,1,59.9999981689454,8|0,3:2|0:0,0:0:0:0:
223,68,15406,1,2,0:3:0:0:
223,68,15567,1,0,3:2:0:0:
223,68,15728,1,0,1:2:0:0:
67,244,16051,22,0,P|63:214|58:184,1,59.9999981689454,2|0,1:2|1:2,0:0:0:0:
9,305,16374,2,0,P|4:334|0:364,1,59.9999981689454,10|0,0:2|3:2,0:0:0:0:
141,384,16696,1,2,0:2:0:0:
199,322,16857,2,0,P|178:269|209:221,1,119.999996337891,10|10,0:2|0:2,0:0:0:0:
289,265,17341,1,0,1:2:0:0:
289,265,17503,1,2,3:2:0:0:
289,265,17664,1,8,3:2:0:0:
394,76,17986,53,2,3:2:0:0:
448,165,18148,1,0,1:2:0:0:
394,76,18309,2,0,L|334:72,1,59.9999981689454,0|0,1:2|0:2,0:0:0:0:
451,169,18632,2,0,L|391:165,1,59.9999981689454,2|0,1:2|1:2,0:0:0:0:
512,263,18954,2,0,L|452:259,1,59.9999981689454,10|0,0:2|0:0,0:0:0:0:
337,335,19277,21,2,0:2:0:0:
289,265,19438,2,0,P|231:273|205:324,1,119.999996337891,10|10,3:2|3:2,0:0:0:0:
136,379,19922,1,0,1:2:0:0:
136,379,20083,1,2,3:2:0:0:
136,379,20245,1,8,3:2:0:0:
109,272,20406,1,0,0:0:0:0:
38,230,20567,2,0,L|36:170,1,59.9999981689454,2|0,3:2|1:2,0:0:0:0:
187,93,20890,53,2,3:3:0:0:
264,63,21535,1,0,3:2:0:0:
341,33,22180,1,0,3:2:0:0:
418,3,22825,1,10,0:2:0:0:
368,177,22986,1,2,1:2:0:0:
449,164,23148,2,0,P|444:134|436:105,1,59.9999981689454,2|0,1:2|0:0,0:0:0:0:
267,145,23470,6,0,P|213:167|203:223,1,119.999996337891,6|2,1:2|0:2,0:0:0:0:
285,255,23954,1,2,0:2:0:0:
285,255,24277,1,2,0:2:0:0:
204,369,24438,1,2,1:2:0:0:
204,369,24599,1,2,0:2:0:0:
138,306,24761,2,0,P|108:312|79:317,1,59.9999981689454,2|2,0:2|3:2,0:0:0:0:
0,195,25083,2,0,P|29:201|58:206,1,59.9999981689454,2|2,1:2|0:2,0:0:0:0:
123,144,25406,2,0,B|121:89|98:83|97:27,1,119.999996337891,8|2,0:2|3:2,0:0:0:0:
313,56,25890,5,2,3:2:0:0:
257,0,26051,2,0,P|221:48|210:106,1,119.999996337891,2|2,1:2|0:2,0:0:0:0:
316,60,26535,1,2,0:2:0:0:
417,191,26696,1,10,0:2:0:0:
359,257,26857,2,0,P|323:208|312:150,1,119.999996337891,2|2,0:0|3:2,0:0:0:0:
420,195,27341,2,0,L|479:188,1,59.9999981689454,2|0,3:2|0:0,0:0:0:0:
444,273,27664,2,0,L|503:266,1,59.9999981689454,2|0,1:2|0:0,0:0:0:0:
286,369,27986,2,0,L|226:362,1,59.9999981689454,8|2,0:2|0:2,0:0:0:0:
272,288,28309,2,0,L|212:281,1,59.9999981689454,2|0,0:2|1:2,0:0:0:0:
116,206,28632,69,2,1:2:0:0:
176,159,28793,2,0,B|114:157|114:179|58:176,1,119.999996337891,2|2,0:0|3:2,0:0:0:0:
4,112,29277,2,0,P|0:83|0:53,1,59.9999981689454,10|2,0:2|0:2,0:0:0:0:
78,25,29599,1,2,1:2:0:0:
89,22,29680,1,2,0:2:0:0:
100,20,29761,1,2,0:2:0:0:
167,70,29922,1,2,3:2:0:0:
298,8,30083,6,0,P|259:51|259:110,1,119.999996337891,2|2,3:2|3:2,0:0:0:0:
343,122,30567,1,10,0:2:0:0:
171,74,30728,1,2,0:2:0:0:
343,122,30890,1,2,0:2:0:0:
171,74,31051,1,2,0:2:0:0:
195,256,31212,69,2,1:2:0:0:
195,256,31374,1,2,0:2:0:0:
195,256,31535,1,2,0:2:0:0:
243,161,31696,1,2,1:2:0:0:
361,341,31857,2,0,B|361:274|336:284|336:226,1,119.999996337891,14|2,0:2|0:2,0:0:0:0:
413,210,32341,1,2,0:2:0:0:
211,340,32503,6,0,P|237:353|266:363,1,59.9999981689454,2|2,3:2|0:2,0:0:0:0:
53,230,32825,2,0,P|79:216|108:206,1,59.9999981689454,2|2,1:2|0:2,0:0:0:0:
28,312,33148,1,10,0:2:0:0:
0,137,33309,1,2,0:2:0:0:
173,127,33470,1,2,3:2:0:0:
173,127,33632,1,2,1:2:0:0:
173,127,33793,1,2,1:2:0:0:
248,244,33954,69,2,0:0:0:0:
299,175,34115,2,0,P|293:145|290:115,1,59.9999981689454,2|2,0:2|0:2,0:0:0:0:
151,0,34438,2,0,P|101:31|92:88,1,119.999996337891,10|2,0:2|1:2,0:0:0:0:
30,155,34922,2,0,P|35:184|38:214,2,59.9999981689454,2|2|2,0:2|0:2|3:2,0:0:0:0:
92,88,35406,1,2,1:2:0:0:
152,232,35567,1,2,0:2:0:0:
245,334,35728,2,0,P|245:274|237:214,1,119.999996337891,10|2,0:2|0:2,0:0:0:0:
292,158,36212,1,2,0:2:0:0:
343,258,36374,5,0,3:2:0:0:
343,258,36535,2,0,L|340:287,2,29.9999990844727,2|2|2,0:2|0:2|0:2,0:0:0:0:
417,223,36857,1,2,0:2:0:0:
473,57,37019,2,0,P|488:115|496:174,1,119.999996337891,10|2,0:2|1:2,0:0:0:0:
237,214,37664,2,0,P|221:155|213:96,1,119.999996337891,2|2,0:2|3:2,0:0:0:0:
268,38,38148,1,2,0:2:0:0:
268,38,38309,1,10,0:2:0:0:
268,38,38470,1,2,0:2:0:0:
126,68,38632,2,0,P|117:39|111:9,1,59.9999981689454,2|0,0:2|1:2,0:0:0:0:
46,165,38954,70,0,P|9:209|19:267,1,119.999996337891,0|2,1:2|0:2,0:0:0:0:
105,264,39438,1,2,0:2:0:0:
105,264,39761,1,2,0:0:0:0:
136,345,39922,1,2,1:2:0:0:
216,359,40083,1,2,0:2:0:0:
237,204,40245,1,2,0:2:0:0:
158,194,40406,1,2,3:2:0:0:
270,292,40567,1,2,1:2:0:0:
270,292,40728,1,2,0:2:0:0:
270,292,40890,2,0,B|331:295|319:258|381:254,1,119.999996337891,10|0,0:2|0:2,0:0:0:0:
431,182,41374,5,2,0:2:0:0:
512,370,41535,2,0,P|509:340|504:310,1,59.9999981689454,2|0,1:2|0:0,0:0:0:0:
512,205,41857,1,2,0:2:0:0:
434,186,42019,2,0,P|436:156|441:126,1,59.9999981689454,2|8,1:2|0:2,0:0:0:0:
340,0,42341,2,0,P|342:29|347:59,2,59.9999981689454,2|2|2,0:2|1:2|0:2,0:0:0:0:
161,172,42825,70,0,B|181:113|181:113|138:74,1,119.999996337891,2|2,0:1|1:1,0:0:0:0:
57,93,43470,2,0,B|37:152|37:152|79:190,1,119.999996337891,10|2,3:1|3:1,0:0:0:0:
300,384,43954,21,2,0:2:0:0:
239,328,44115,2,0,L|169:339,1,69.9999978637696,6|0,0:1|0:0,0:0:0:0:
465,179,44599,1,0,1:2:0:0:
432,253,44760,2,0,L|363:265,1,69.9999978637696,10|0,0:1|0:2,0:0:0:0:
161,166,45245,5,0,1:2:0:0:
100,114,45406,2,0,L|30:126,1,69.9999978637696,2|8,0:1|0:1,0:0:0:0:
0,51,45728,1,0,1:2:0:0:
45,264,46051,2,0,L|114:253,1,69.9999978637696,10|0,0:1|0:2,0:0:0:0:
481,335,46535,69,0,1:2:0:0:
425,275,46696,2,0,L|436:205,1,69.9999978637696,2|0,1:1|0:2,0:0:0:0:
351,189,47019,2,0,L|339:258,1,69.9999978637696,2|0,0:3|1:2,0:0:0:0:
253,28,47341,2,0,L|264:97,1,69.9999978637696,10|0,0:1|0:2,0:0:0:0:
179,114,47664,2,0,L|167:44,1,69.9999978637696,0|0,0:0|1:2,0:0:0:0:
97,5,47986,1,2,0:1:0:0:
39,100,48148,1,8,0:1:0:0:
98,157,48309,2,0,P|43:207|-2:277,1,139.999995727539,0|10,1:2|0:1,0:0:0:0:
13,341,48793,1,2,0:2:0:0:
416,288,49115,5,0,1:2:0:0:
392,212,49277,2,0,B|316:204|322:258|261:247,1,139.999995727539,2|0,1:1|0:0,0:0:0:0:
215,51,49761,1,0,1:2:0:0:
286,87,49922,2,0,L|278:157,1,69.9999978637696,10|0,0:1|0:2,0:0:0:0:
110,296,50245,1,0,0:0:0:0:
110,296,50406,1,0,1:2:0:0:
110,296,50567,1,2,0:1:0:0:
171,243,50728,2,0,L|176:174,1,69.9999978637696,8|0,0:1|1:2,0:0:0:0:
449,20,51212,2,0,L|379:14,3,69.9999978637696,10|0|0|0,0:1|0:2|0:0|1:2,0:0:0:0:
298,49,51857,69,2,1:2:0:0:
298,49,52180,1,2,1:2:0:0:
298,49,52503,1,10,0:2:0:0:
134,83,52825,1,2,1:2:0:0:
251,207,53148,1,2,3:1:0:0:
251,207,53793,5,10,0:0:0:0:
134,83,53954,1,8,0:0:0:0:
298,49,54115,1,10,0:0:0:0:
298,49,54277,1,8,0:0:0:0:
362,104,54438,6,0,P|361:149|355:194,1,89.9999972534181,6|0,1:2|0:0,0:0:0:0:
149,317,54761,2,0,P|150:272|156:227,1,89.9999972534181,2|0,1:2|1:2,0:0:0:0:
251,207,55083,2,0,P|244:296|231:385,1,179.999994506836,10|2,0:2|0:0,0:0:0:0:
41,257,55567,2,0,P|34:167|21:78,1,179.999994506836,10|10,0:2|0:2,0:0:0:0:
86,14,56051,2,0,P|130:20|170:40,1,89.9999972534181,0|2,1:2|0:0,0:0:0:0:
335,233,56374,2,0,P|290:226|250:206,1,89.9999972534181,8|2,0:2|0:0,0:0:0:0:
152,135,56696,1,2,3:2:0:0:
133,209,56857,1,2,1:2:0:0:
289,124,57019,38,0,L|269:36,1,89.9999972534181,2|0,1:2|0:0,0:0:0:0:
379,154,57341,2,0,L|381:64,1,89.9999972534181,2|0,1:2|1:2,0:0:0:0:
464,187,57664,2,0,L|487:100,1,89.9999972534181,10|0,0:2|0:0,0:0:0:0:
444,358,57986,1,2,0:0:0:0:
376,307,58148,2,0,L|198:338,1,179.999994506836,10|10,0:2|0:2,0:0:0:0:
138,272,58632,1,0,1:2:0:0:
138,272,58793,1,2,0:0:0:0:
138,272,58954,1,8,0:2:0:0:
253,114,59115,1,0,3:2:0:0:
180,154,59277,2,0,P|205:190|239:220,1,89.9999972534181,0|2,3:2|1:2,0:0:0:0:
40,81,59599,38,0,P|76:56|106:22,1,89.9999972534181,2|0,1:2|0:0,0:0:0:0:
413,159,59922,2,0,P|388:123|354:93,1,89.9999972534181,2|0,1:2|1:2,0:0:0:0:
73,172,60245,1,10,0:2:0:0:
73,172,60406,1,2,0:0:0:0:
73,172,60567,1,2,0:0:0:0:
2,206,60728,2,0,P|18:294|33:383,1,179.999994506836,10|10,0:2|0:2,0:0:0:0:
138,272,61212,2,0,L|126:361,1,89.9999972534181,0|2,1:2|0:0,0:0:0:0:
213,220,61535,1,10,0:2:0:0:
296,320,61696,1,2,0:0:0:0:
213,220,61857,1,2,3:2:0:0:
296,320,62019,1,0,1:2:0:0:
368,268,62180,38,0,P|374:224|374:179,1,89.9999972534181,2|0,1:2|0:0,0:0:0:0:
467,295,62503,2,0,P|473:339|473:384,1,89.9999972534181,2|0,1:2|1:2,0:0:0:0:
377,261,62825,2,0,P|383:216|383:171,1,89.9999972534181,10|0,0:2|0:0,0:0:0:0:
475,287,63148,2,0,P|481:331|481:376,1,89.9999972534181,2|8,0:0|0:2,0:0:0:0:
385,256,63470,2,0,P|391:211|391:166,1,89.9999972534181,2|8,0:0|0:2,0:0:0:0:
435,50,63793,37,2,0:0:0:0:
511,19,63954,1,2,0:0:0:0:
155,61,64115,2,0,P|238:93|327:104,1,179.999994506836,10|2,0:2|1:2,0:0:0:0:
230,0,64599,1,2,1:2:0:0:
51,206,64761,22,0,B|56:110|16:131|22:30,1,179.999994506836,4|0,1:2|1:2,0:0:0:0:
97,0,65245,1,0,1:2:0:0:
229,125,65406,2,0,P|191:148|149:164,2,89.9999972534181,8|0|0,3:2|3:2|3:2,0:0:0:0:
302,169,65890,1,8,0:2:0:0:
375,212,66212,1,8,0:2:0:0:
294,346,66374,53,2,1:2:0:0:
294,346,66535,1,2,0:0:0:0:
294,346,66696,2,0,L|114:328,1,179.999994506836,10|2,0:2|3:2,0:0:0:0:
0,256,67180,2,0,L|90:244,1,89.9999972534181,2|0,1:2|1:2,0:0:0:0:
140,113,67503,2,0,L|230:125,1,89.9999972534181,2|0,0:0|1:2,0:0:0:0:
291,64,67825,1,2,1:2:0:0:
239,0,67986,1,8,0:2:0:0:
239,0,68148,1,2,0:0:0:0:
239,0,68309,1,0,0:0:0:0:
459,24,68470,22,0,P|422:50|390:81,1,89.9999972534181,10|0,0:2|0:0,0:0:0:0:
407,174,68793,2,0,P|378:208|355:247,2,89.9999972534181,8|2|0,0:2|3:2|3:2,0:0:0:0:
390,81,69277,1,8,3:2:0:0:
490,206,69438,1,0,3:0:0:0:
320,138,69599,2,0,L|232:160,1,89.9999972534181,0|2,3:0|1:2,0:0:0:0:
184,234,69922,53,2,1:2:0:0:
184,234,70245,1,2,1:2:0:0:
20,41,70406,2,0,L|108:63,1,89.9999972534181,2|8,1:2|0:2,0:0:0:0:
45,136,70728,2,0,L|133:158,1,89.9999972534181,2|0,0:0|3:0,0:0:0:0:
168,363,71051,2,0,P|250:355|261:272,1,179.999994506836,10|10,0:2|0:2,0:0:0:0:
184,234,71535,1,0,1:2:0:0:
184,234,71696,1,2,0:0:0:0:
404,74,71857,2,0,L|318:102,1,89.9999972534181,10|0,0:2|0:0,0:0:0:0:
469,141,72180,2,0,L|383:169,1,89.9999972534181,2|0,3:2|1:2,0:0:0:0:
261,271,72503,22,0,P|252:182|237:93,1,179.999994506836,2|2,1:2|1:2,0:0:0:0:
116,46,72986,2,0,P|118:90|124:135,1,89.9999972534181,2|8,1:2|0:2,0:0:0:0:
318,102,73309,2,0,P|315:57|309:12,1,89.9999972534181,2|0,0:0|0:0,0:0:0:0:
175,207,73632,1,10,0:2:0:0:
175,207,73954,1,8,0:2:0:0:
109,268,74115,2,0,L|19:254,1,89.9999972534181,0|0,1:2|3:2,0:0:0:0:
249,365,74438,2,0,L|338:351,1,89.9999972534181,8|2,0:2|3:2,0:0:0:0:
202,299,74761,5,2,3:2:0:0:
202,299,74922,1,2,1:2:0:0:
202,299,75083,2,0,P|216:235|279:235,1,119.999996337891,6|2,1:2|1:2,0:0:0:0:
445,72,75728,1,10,0:2:0:0:
144,81,76051,69,2,0:0:0:0:
232,51,76212,1,10,3:2:0:0:
144,81,76374,1,2,0:2:0:0:
232,51,76535,1,10,3:2:0:0:
72,35,76696,2,0,P|87:72|115:178,1,119.999996337891,2|10,1:2|3:2,0:0:0:0:
25,340,77341,5,2,0:3:0:0:
39,335,77422,1,2,0:2:0:0:
53,330,77503,1,2,1:2:0:0:
144,260,77664,2,0,P|207:279|262:291,1,119.999996337891,2|2,1:2|3:2,0:0:0:0:
310,352,78148,1,2,1:2:0:0:
264,194,78309,1,10,0:2:0:0:
506,49,78632,70,0,P|497:83|490:122,1,59.9999981689454,2|10,0:2|3:2,0:0:0:0:
394,195,78954,2,0,P|404:161|411:130,1,59.9999981689454,2|10,0:2|3:2,0:2:0:0:
495,261,79277,1,2,1:2:0:0:
495,261,79438,1,2,0:2:0:0:
347,349,79599,2,0,B|280:346|288:311|208:310,1,119.999996337891,10|2,3:2|3:2,0:2:0:0:
176,364,80083,1,2,1:2:0:0:
176,364,80245,1,0,1:2:0:0:
334,240,80406,6,0,L|351:170,1,59.9999981689454,2|0,0:2|1:2,0:0:0:0:
204,111,80728,1,2,0:2:0:0:
281,84,80890,2,0,L|298:14,1,59.9999981689454,10|2,0:2|3:2,0:0:0:0:
370,109,81212,1,2,0:2:0:0:
370,109,81374,1,10,3:2:0:0:
260,171,81535,2,0,L|242:252,2,59.9999981689454,2|10|2,0:2|3:2|1:2,0:0:0:0:
211,31,82019,1,2,0:2:0:0:
211,31,82180,1,10,3:2:0:0:
501,144,82503,1,2,3:2:0:0:
501,144,82664,1,2,1:2:0:0:
198,285,82986,70,0,L|179:207,1,59.9999981689454,2|2,0:2|3:2,0:0:0:0:
10,201,83309,1,2,1:2:0:0:
81,158,83470,2,0,L|98:231,1,59.9999981689454,10|2,0:2|3:2,0:0:0:0:
31,329,83793,1,2,0:2:0:0:
31,329,83954,1,10,3:2:0:0:
138,381,84115,2,0,L|120:308,1,59.9999981689454,2|2,0:2|3:2,0:0:0:0:
248,214,84438,2,0,L|230:143,1,59.9999981689454,2|2,1:2|0:2,0:0:0:0:
97,70,84761,1,10,0:2:0:0:
279,337,85083,1,2,0:2:0:0:
279,337,85245,1,2,1:2:0:0:
358,286,85406,6,0,P|405:290|425:358,2,119.999996337891,6|2|10,1:2|1:2|0:2,0:2:0:0:
247,162,86374,1,2,0:2:0:0:
247,162,86535,1,10,3:2:0:0:
340,133,86696,2,0,P|365:52|386:-1,1,119.999996337891,2|2,0:2|1:2,0:2:0:0:
299,0,87180,1,2,0:2:0:0:
426,122,87341,1,10,3:2:0:0:
294,306,87664,1,2,0:2:0:0:
294,306,87825,1,2,1:2:0:0:
224,244,87986,70,0,P|192:234|153:221,1,59.9999981689454,2|2,3:2|0:2,0:0:0:0:
99,276,88309,2,0,P|70:266|41:257,1,59.9999981689454,2|0,3:2|1:2,0:0:0:0:
203,366,88632,2,0,P|223:314|286:294,1,119.999996337891,10|2,0:2|0:2,0:2:0:0:
323,359,89115,1,10,3:2:0:0:
447,294,89277,2,0,P|455:233|476:159,1,119.999996337891,2|2,0:2|1:2,0:0:0:0:
426,113,89761,1,2,0:2:0:0:
201,228,90083,1,2,3:2:0:0:
201,228,90245,1,2,3:2:0:0:
358,271,90406,5,2,1:2:0:0:
358,271,90567,2,0,P|330:212|313:157,1,119.999996337891,2|2,1:2|1:2,0:2:0:0:
248,115,91051,1,2,0:2:0:0:
409,186,91212,1,10,0:2:0:0:
409,186,91374,1,2,3:2:0:0:
60,325,91696,69,8,3:2:0:0:
60,325,91857,2,0,P|71:288|82:248,1,59.9999981689454,2|10,0:2|3:2,0:0:0:0:
21,213,92180,2,0,P|32:176|43:136,1,59.9999981689454,2|2,1:2|0:2,0:0:0:0:
223,284,92503,1,10,3:2:0:0:
223,284,92664,1,2,0:2:0:0:
188,40,92986,5,0,1:2:0:0:
188,40,93148,2,0,P|226:51|269:61,1,59.9999981689454,2|2,1:2|0:2,0:0:0:0:
380,150,93470,2,0,P|350:139|297:124,1,59.9999981689454,2|2,3:2|1:2,0:0:0:0:
138,260,93793,2,0,P|159:204|181:137,1,119.999996337891,10|2,0:2|0:2,0:2:0:0:
181,135,94196,1,2,0:2:0:0:
184,123,94277,1,10,3:2:0:0:
344,47,94438,69,2,0:2:0:0:
344,47,94599,1,10,3:2:0:0:
344,47,94761,1,2,1:2:0:0:
450,231,95083,2,0,B|421:176|421:176|351:211,1,119.999996337891,10|0,3:2|3:2,0:0:0:0:
285,283,95567,21,2,1:2:0:0:
320,354,95728,2,0,L|392:333,1,69.9999978637696,6|0,0:1|0:0,0:0:0:0:
93,311,96212,1,0,1:2:0:0:
144,200,96373,2,0,L|161:276,1,69.9999978637696,10|0,0:1|0:2,0:0:0:0:
449,279,96857,5,0,1:2:0:0:
392,222,97019,2,0,L|415:130,1,69.9999978637696,2|8,0:1|0:1,0:0:0:0:
481,118,97341,1,0,1:2:0:0:
325,74,97664,2,0,L|306:164,1,69.9999978637696,10|0,0:1|0:2,0:0:0:0:
30,339,98148,69,0,1:2:0:0:
101,301,98309,2,0,L|112:231,1,69.9999978637696,2|0,1:1|0:2,0:0:0:0:
64,101,98632,2,0,L|52:170,1,69.9999978637696,0|0,1:2|1:2,0:0:0:0:
221,271,98954,2,0,L|290:260,1,69.9999978637696,10|0,0:1|0:2,0:0:0:0:
385,171,99277,2,0,L|316:182,1,69.9999978637696,0|0,0:0|1:2,0:0:0:0:
298,337,99599,5,2,0:1:0:0:
298,337,99761,1,8,0:1:0:0:
372,367,99922,2,0,P|413:318|496:263,1,139.999995727539,0|10,1:2|0:1,0:0:0:0:
84,37,100728,69,0,1:2:0:0:
147,85,100890,2,0,P|115:149|94:238,1,139.999995727539,2|0,1:1|0:0,0:0:0:0:
36,273,101374,1,0,1:2:0:0:
219,299,101535,2,0,P|196:265|187:236,1,69.9999978637696,10|0,0:1|0:2,0:0:0:0:
88,354,101858,1,0,0:0:0:0:
88,354,102019,1,0,1:2:0:0:
88,354,102180,2,0,P|124:359|158:374,1,69.9999978637696,2|8,0:1|0:1,0:0:0:0:
231,381,102503,1,0,1:2:0:0:
490,66,102825,6,0,P|476:107|469:145,1,69.9999978637696,10|0,0:1|0:2,0:0:0:0:
392,152,103148,2,0,P|384:191|370:234,1,69.9999978637696,0|0,0:0|1:2,0:0:0:0:
458,329,103470,69,2,1:2:0:0:
458,329,103793,1,2,1:2:0:0:
206,274,104116,1,10,0:2:0:0:
261,21,104438,1,2,1:2:0:0:
512,76,104761,1,2,3:1:0:0:
348,265,105406,5,10,0:0:0:0:
287,170,105567,1,8,0:0:0:0:
382,108,105728,1,10,0:0:0:0:
445,203,105890,1,8,0:0:0:0:
327,347,106051,6,0,P|289:357|235:379,1,89.9999972534181,6|0,1:2|0:0,0:0:0:0:
210,253,106374,2,0,P|172:263|118:285,1,89.9999972534181,2|0,1:2|1:2,0:0:0:0:
7,375,106696,2,0,P|35:299|65:190,1,179.999994506836,10|2,0:2|0:0,0:0:0:0:
154,38,107180,38,0,P|159:88|205:100,1,89.9999972534181,10|0,0:2|0:0,0:0:0:0:
246,162,107503,2,0,P|300:151|319:106,1,89.9999972534181,10|0,0:2|1:2,0:0:0:0:
386,83,107825,2,0,P|387:31|352:7,1,89.9999972534181,2|8,0:0|0:2,0:0:0:0:
266,51,108148,1,2,0:0:0:0:
266,51,108309,1,2,3:2:0:0:
266,51,108470,1,2,1:2:0:0:
454,148,108632,38,0,P|424:224|400:346,1,179.999994506836,2|2,1:2|1:2,0:0:0:0:
282,376,109115,1,0,1:2:0:0:
214,331,109277,2,0,P|234:267|248:204,1,89.9999972534181,10|0,0:2|0:0,0:0:0:0:
72,190,109599,37,2,0:0:0:0:
72,190,109761,2,0,P|125:200|117:263,1,89.9999972534181,10|0,0:2|0:0,0:0:0:0:
68,323,110083,2,0,P|15:313|23:250,1,89.9999972534181,10|0,0:2|1:2,0:0:0:0:
214,331,110406,1,2,0:0:0:0:
214,331,110567,2,0,P|296:292|388:259,1,179.999994506836,8|0,0:2|3:2,0:0:0:0:
447,305,111051,1,2,1:2:0:0:
510,169,111212,38,0,P|492:127|471:72,1,89.9999972534181,2|0,1:2|0:0,0:0:0:0:
321,115,111535,2,0,P|307:75|287:31,1,89.9999972534181,2|0,1:2|1:2,0:0:0:0:
416,169,111857,1,10,0:2:0:0:
416,169,112019,1,2,0:0:0:0:
393,242,112180,1,2,0:0:0:0:
269,310,112341,38,0,P|312:323|353:340,1,89.9999972534181,10|0,0:2|0:0,0:0:0:0:
171,190,112664,2,0,P|127:176|86:159,1,89.9999972534181,10|0,0:2|1:2,0:0:0:0:
21,315,112986,1,2,0:0:0:0:
150,270,113148,1,10,0:2:0:0:
104,343,113309,1,2,0:0:0:0:
71,240,113470,1,2,3:2:0:0:
432,83,113793,38,0,P|419:124|406:178,1,89.9999972534181,2|0,1:2|0:0,0:0:0:0:
445,320,114115,2,0,P|458:279|471:225,1,89.9999972534181,2|0,1:2|1:2,0:0:0:0:
293,58,114438,38,0,P|280:99|267:153,1,89.9999972534181,10|0,0:2|0:0,0:0:0:0:
306,295,114760,2,0,P|319:254|332:200,1,89.9999972534181,2|8,0:0|0:2,0:0:0:0:
501,160,115083,37,2,0:0:0:0:
501,160,115245,1,8,0:2:0:0:
354,116,115406,38,0,P|323:128|251:148,1,89.9999972534181,2|2,1:2|0:2,0:0:0:0:
75,288,115728,2,0,P|179:252|286:218,1,179.999994506836,10|2,0:2|0:0,0:0:0:0:
139,150,116212,37,2,1:2:0:0:
139,150,116374,1,4,1:2:0:0:
468,308,116696,1,0,1:2:0:0:
164,353,117019,1,8,3:2:0:0:
227,301,117180,2,0,P|240:260|266:199,1,89.9999972534181,0|0,3:2|3:2,0:0:0:0:
133,34,117503,1,8,0:2:0:0:
457,14,117825,1,8,0:2:0:0:
457,14,117986,2,0,P|423:94|385:218,1,179.999994506836,2|10,1:2|0:2,0:0:0:0:
73,285,118632,21,2,3:2:0:0:
73,285,118793,2,0,L|35:171,1,89.9999972534181,2|0,1:2|1:2,0:0:0:0:
195,111,119115,2,0,L|157:-3,1,89.9999972534181,2|0,0:0|1:2,0:0:0:0:
0,118,119438,54,0,L|114:80,1,89.9999972534181,2|8,1:2|0:2,0:0:0:0:
284,200,119761,2,0,L|398:162,1,89.9999972534181,2|0,0:0|0:0,0:0:0:0:
268,39,120083,1,10,0:2:0:0:
492,105,120406,1,8,0:2:0:0:
492,105,120567,2,0,P|475:147|467:192,1,89.9999972534181,2|0,3:2|3:0,0:0:0:0:
485,351,120890,2,0,P|499:310|509:264,1,89.9999972534181,8|0,3:2|3:0,0:0:0:0:
390,293,121212,1,0,3:0:0:0:
390,293,121374,1,2,1:2:0:0:
332,216,121535,22,0,B|239:221|253:270|155:284,1,179.999994506836,2|2,1:2|1:2,0:0:0:0:
30,348,122019,2,0,P|78:352|150:369,1,89.9999972534181,2|8,1:2|0:2,0:0:0:0:
141,183,122341,1,2,0:0:0:0:
429,347,122664,54,0,P|438:298|461:215,1,89.9999972534181,10|0,0:2|0:0,0:0:0:0:
400,50,122986,2,0,P|390:99|368:182,1,89.9999972534181,10|0,0:2|1:2,0:0:0:0:
506,179,123309,1,2,0:0:0:0:
506,179,123470,1,10,0:2:0:0:
238,50,123793,1,2,3:2:0:0:
104,372,124115,22,0,P|186:307|296:252,1,179.999994506836,2|2,1:2|1:2,0:0:0:0:
390,303,124599,2,0,P|354:313|288:347,1,89.9999972534181,2|8,1:2|0:2,0:0:0:0:
87,275,124922,1,2,0:0:0:0:
416,14,125245,54,0,P|399:79|366:227,1,179.999994506836,10|8,0:2|0:2,0:0:0:0:
491,223,125728,1,0,1:2:0:0:
491,223,125890,1,0,3:2:0:0:
470,124,126051,1,8,0:2:0:0:
115,160,126374,1,10,3:2:0:0:
96,62,126535,1,10,1:2:0:0:
197,47,126696,5,2,1:1:0:0:
197,47,126857,1,2,1:1:0:0:
54,346,127664,53,0,3:2:0:0:
54,346,127825,2,0,L|196:374,1,119.999996337891,2|2,1:1|1:1,0:0:0:0:
232,322,128954,2,0,L|316:342,1,59.9999981689454,0|0,3:2|3:2,0:0:0:0:
455,188,129277,21,2,1:1:0:0:
455,188,129438,1,2,1:1:0:0:
28,57,130245,53,0,3:0:0:0:
28,57,130406,2,0,L|75:207,2,119.999996337891,2|2|2,1:1|1:1|1:1,0:0:0:0:
140,205,131374,2,0,L|159:268,2,59.9999981689454,2|2|2,0:0|3:2|3:2,0:0:0:0:
53,359,131857,21,2,1:1:0:0:
53,359,132019,1,2,1:1:0:0:
467,270,132825,53,2,3:2:0:0:
467,270,132986,2,0,L|311:222,2,119.999996337891,2|2|2,1:1|1:1|1:1,0:0:0:0:
230,270,133954,2,0,L|303:291,2,59.9999981689454,0|0|0,3:2|3:2|3:2,0:0:0:0:
385,371,134438,21,2,1:1:0:0:
385,371,134599,1,2,1:1:0:0:
177,40,135406,53,2,3:1:0:0:
177,40,135567,2,0,L|140:190,2,119.999996337891,2|2|2,1:1|1:1|1:1,0:0:0:0:
194,233,136535,2,0,L|174:306,2,59.9999981689454,2|2|2,0:1|0:1|0:1,0:0:0:0:
0,285,137019,53,4,1:2:0:0:
51,351,137180,2,0,L|110:344,2,59.9999981689454,0|2|2,0:0|1:2|1:2,0:0:0:0:
193,376,137664,1,10,0:2:0:0:
98,257,137825,1,2,3:2:0:0:
193,376,137986,1,2,0:2:0:0:
98,257,138147,1,10,3:2:0:0:
244,231,138470,53,10,3:1:0:0:
244,231,138632,1,2,1:1:0:0:
244,231,138793,1,2,3:1:0:0:
312,282,138954,2,0,B|366:298|381:280|431:291,1,119.999996337891,10|2,3:1|3:1,0:2:0:0:
497,143,139438,21,0,1:2:0:0:
497,143,139599,2,0,P|496:84|451:47,1,119.999996337891,2|2,1:1|3:2,0:2:0:0:
330,0,140083,2,0,P|331:29|340:58,1,59.9999981689454,2|10,1:2|0:2,0:0:0:0:
166,135,140567,2,0,P|167:105|176:76,1,59.9999981689454,2|10,0:2|3:2,0:0:0:0:
259,96,140890,1,0,0:2:0:0:
87,166,141051,53,10,3:1:0:0:
161,223,141212,1,2,1:1:0:0:
161,222,141374,1,2,3:1:0:0:
161,222,141535,1,10,3:1:0:0:
92,86,141857,1,2,3:1:0:0:
17,118,142019,1,0,1:2:0:0:
17,118,142180,2,0,L|2:175,1,59.9999981689454,0|0,3:2|0:2,0:2:0:0:
92,314,142503,22,0,L|76:256,1,59.9999981689454,2|0,1:2|1:2,0:2:0:0:
21,378,142825,2,0,L|5:320,1,59.9999981689454,10|0,0:2|0:0,0:2:0:0:
223,314,143148,1,2,0:2:0:0:
223,314,143309,2,0,L|207:371,1,59.9999981689454,10|0,3:2|0:2,0:2:0:0:
325,280,143632,2,0,L|309:337,2,59.9999981689454,8|2|0,3:2|1:2|3:2,0:2:0:0:
422,247,144115,1,10,0:2:0:0:
422,247,144438,1,2,3:2:0:0:
422,247,144599,1,0,1:2:0:0:
314,118,144761,54,0,B|244:106|268:77|208:65,2,119.999996337891,2|2|2,3:3|0:0|0:3,0:0:0:0:
256,192,146212,12,4,147341,3:1:0:0:
88,311,147664,69,2,1:2:0:0:
88,311,147825,1,0,1:0:0:0:
88,311,147986,2,0,P|74:222|56:133,1,179.999994506836,10|2,0:0|0:0,0:0:0:0:
290,19,148470,2,0,P|276:107|258:196,1,179.999994506836,10|10,0:0|0:0,0:0:0:0:
322,254,148954,2,0,P|366:247|409:235,1,89.9999972534181,0|2,1:2|3:2,0:0:0:0:
512,71,149277,2,0,P|474:-4|392:12,1,179.999994506836,8|2,3:2|3:2,0:0:0:0:
411,94,149761,1,2,1:2:0:0:
258,195,149922,54,0,P|248:152|236:108,1,89.9999972534181,2|0,1:2|0:0,0:0:0:0:
195,311,150245,2,0,P|185:267|173:223,1,89.9999972534181,2|0,3:2|1:2,0:0:0:0:
21,78,150567,2,0,P|11:121|0:165,1,89.9999972534181,10|0,2:0|0:0,0:0:0:0:
127,17,150890,2,0,P|117:60|105:104,1,89.9999972534181,2|10,0:0|3:2,0:0:0:0:
173,223,151374,21,10,3:2:0:0:
105,104,151535,1,0,1:2:0:0:
199,131,151696,1,2,0:0:0:0:
82,196,151857,1,8,3:2:0:0:
82,196,152019,1,0,3:0:0:0:
31,369,152180,2,0,P|24:325|14:281,1,89.9999972534181,0|2,3:0|1:2,0:0:0:0:
287,252,152503,54,0,P|248:326|166:306,1,179.999994506836,2|2,1:2|1:2,0:0:0:0:
173,223,152986,1,2,1:2:0:0:
340,376,153148,1,10,3:2:0:0:
376,301,153309,1,2,3:2:0:0:
406,226,153470,1,2,3:2:0:0:
314,55,153632,22,0,P|319:99|333:142,1,89.9999972534181,10|0,3:2|0:0,0:0:0:0:
509,16,153954,2,0,P|503:60|489:103,1,89.9999972534181,10|0,3:2|1:2,0:0:0:0:
415,67,154277,1,2,0:2:0:0:
236,175,154438,2,0,L|414:150,1,179.999994506836,10|2,3:2|3:2,0:0:0:0:
419,70,154922,1,2,1:2:0:0:
215,89,155083,54,0,L|218:0,1,89.9999972534181,2|0,1:2|0:0,0:0:0:0:
129,157,155406,2,0,L|43:130,1,89.9999972534181,2|0,1:2|1:2,0:0:0:0:
168,263,155728,2,0,L|120:338,1,89.9999972534181,10|0,0:2|0:0,0:0:0:0:
275,257,156051,2,0,L|322:332,1,89.9999972534181,2|8,0:0|0:2,0:0:0:0:
303,149,156374,2,0,L|388:122,1,89.9999972534181,2|8,0:0|0:2,0:0:0:0:
217,185,156696,21,2,3:2:0:0:
120,60,156857,1,2,3:2:0:0:
35,38,157019,2,0,P|23:126|49:211,1,179.999994506836,10|2,3:2|3:2,0:0:0:0:
124,163,157503,1,2,1:2:0:0:
408,2,157664,22,0,B|317:-15|317:50|236:31,1,179.999994506836,4|0,1:2|1:2,0:0:0:0:
333,178,158148,1,0,1:2:0:0:
375,106,158309,1,8,3:2:0:0:
488,292,158470,2,0,L|470:203,1,89.9999972534181,0|0,3:2|3:2,0:0:0:0:
264,117,158793,2,0,L|246:205,1,89.9999972534181,8|0,0:2|0:0,0:0:0:0:
155,178,159115,2,0,L|137:266,1,89.9999972534181,8|2,0:2|1:2,0:0:0:0:
54,307,159438,1,2,0:2:0:0:
389,358,159599,54,0,P|303:334|214:337,1,179.999994506836,10|2,0:2|3:2,0:0:0:0:
323,217,160083,2,0,P|279:226|236:241,1,89.9999972534181,2|0,1:2|1:2,0:0:0:0:
325,89,160406,2,0,P|284:109|247:134,1,89.9999972534181,2|0,0:0|1:2,0:0:0:0:
30,128,160728,2,0,P|73:137|116:152,1,89.9999972534181,2|8,1:2|0:2,0:0:0:0:
28,0,161051,2,0,P|68:20|105:45,1,89.9999972534181,2|0,0:0|0:0,0:0:0:0:
312,250,161374,2,0,L|270:74,1,179.999994506836,10|8,0:2|0:2,0:0:0:0:
197,209,161857,2,0,L|155:384,1,179.999994506836,2|8,3:2|3:2,0:0:0:0:
71,359,162341,1,0,3:0:0:0:
34,282,162503,1,0,3:0:0:0:
101,231,162664,1,2,1:2:0:0:
270,341,162825,22,0,P|315:342|360:338,1,89.9999972534181,2|0,1:2|0:0,0:0:0:0:
375,256,163148,1,2,1:2:0:0:
429,100,163309,2,0,P|384:98|339:102,1,89.9999972534181,2|8,1:2|0:2,0:0:0:0:
108,31,163632,2,0,P|190:53|205:137,2,179.999994506836,2|10|10,0:0|0:2|0:2,0:0:0:0:
54,105,164438,1,0,1:2:0:0:
54,105,164599,1,2,0:0:0:0:
54,105,164761,1,10,0:2:0:0:
200,262,165083,53,2,3:2:0:0:
140,197,165245,1,2,1:2:0:0:
205,137,165406,2,0,L|383:157,1,179.999994506836,2|2,1:2|1:2,0:0:0:0:
335,260,165890,2,0,L|424:253,1,89.9999972534181,2|8,1:2|0:0,0:0:0:0:
141,346,166212,2,0,L|230:352,1,89.9999972534181,2|0,3:2|0:0,0:0:0:0:
88,279,166535,1,10,0:2:0:0:
88,279,166857,1,8,0:2:0:0:
29,206,167019,1,0,1:2:0:0:
29,206,167180,1,0,3:2:0:0:
29,206,167341,1,8,0:2:0:0:
465,17,167664,21,2,3:2:0:0:
436,95,167825,1,2,1:2:0:0:
406,171,167986,1,6,3:2:0:0:
