osu file format v14

[General]
AudioFilename: audio.mp3
AudioLeadIn: 0
PreviewTime: 63149
Countdown: 0
SampleSet: Soft
StackLeniency: 0.3
Mode: 0
LetterboxInBreaks: 0
WidescreenStoryboard: 1

[Editor]
Bookmarks: 1697,2342,12665,22988,33310,43633,53955,64278,74601,87343
DistanceSpacing: 1.6
BeatDivisor: 4
GridSize: 16
TimelineZoom: 1.6

[Metadata]
Title:LIFE (TV Size)
TitleUnicode:LIFE (TV Size)
Artist:Rude-a
ArtistUnicode:Rude-α
Creator:wafer
Version:Xenon's Hard
Source:Dr.STONE
Tags:ドクターストーン rude-alpha alpha dr doctor stone dr.stone anime ending1 ed ed1 J-pop japanese Senku Ishigami camison cami iwaifu xehn xenon xenon- xen
BeatmapID:2205687
BeatmapSetID:1053644

[Difficulty]
HPDrainRate:4
CircleSize:3.6
OverallDifficulty:6.5
ApproachRate:7.8
SliderMultiplier:2
SliderTickRate:1

[Events]
//Background and Video events
0,0,"niki-smith-senku-original.jpg",0,0
//Break Periods
//Storyboard Layer 0 (Background)
//Storyboard Layer 1 (Fail)
//Storyboard Layer 2 (Pass)
//Storyboard Layer 3 (Foreground)
//Storyboard Layer 4 (Overlay)
//Storyboard Sound Samples

[TimingPoints]
-238,645.161290322581,4,2,2,25,1,0
1697,-166.666666666667,4,2,2,25,0,0
2342,-100,4,2,1,45,0,0
12020,-100,4,2,1,50,0,0
12665,-83.3333333333333,4,2,1,50,0,0
22343,-83.3333333333333,4,2,1,55,0,0
22988,-83.3333333333333,4,2,1,60,0,0
30730,-83.3333333333333,4,2,1,45,0,0
32665,-83.3333333333333,4,2,1,60,0,0
33310,-74.0740740740741,4,2,1,65,0,0
53955,-74.0740740740741,4,2,1,70,0,0
61697,-74.0740740740741,4,2,1,73,0,0
62988,-74.0740740740741,4,2,1,40,0,0
63632,-64.5161290322581,4,2,1,65,0,0
64278,-64.5161290322581,4,2,1,75,0,0
72020,-64.5161290322581,4,2,1,75,0,0
84923,-100,4,2,1,45,0,0
86697,-100,4,2,1,25,0,0
86858,-166.666666666667,4,2,2,25,0,0

[Colours]
Combo1 : 213,176,68
Combo2 : 170,167,130
Combo3 : 21,176,115
Combo4 : 87,112,125

[HitObjects]
132,87,1697,6,0,L|126:134,3,29.9999990844727
186,172,2342,6,0,L|192:221,1,50,2|0,0:2|0:0,0:0:0:0:
141,283,2665,2,0,P|178:251|226:259,1,100,2|0,0:2|0:0,0:0:0:0:
268,325,3149,1,2,0:2:0:0:
261,333,3471,6,0,L|310:326,1,50,2|0,0:2|0:0,0:0:0:0:
370,274,3794,2,0,P|407:305|455:297,1,100,2|0,0:2|0:0,0:0:0:0:
479,220,4278,2,0,P|441:188|393:196,1,100,2|2,0:2|0:2,0:0:0:0:
316,212,4762,1,0,0:0:0:0:
316,212,4923,6,0,L|266:218,1,50,2|0,0:2|0:0,0:0:0:0:
220,283,5245,2,0,L|92:267,1,100,2|0,0:2|0:0,0:0:0:0:
80,201,5729,1,2,0:2:0:0:
88,193,6052,6,0,P|66:205|42:203,1,50,2|0,0:2|0:0,0:0:0:0:
0,135,6374,2,0,P|37:103|85:111,1,100,2|0,0:2|0:0,0:0:0:0:
139,53,6858,2,0,P|194:47|221:95,1,100,2|2,0:2|0:2,0:0:0:0:
291,122,7342,1,0,0:0:0:0:
291,122,7503,6,0,L|297:171,1,50,2|0,0:2|0:0,0:0:0:0:
364,216,7826,2,0,P|400:184|448:191,1,100,2|0,0:2|0:0,0:0:0:0:
509,138,8310,1,2,0:2:0:0:
502,131,8632,6,0,L|495:82,1,50,2|0,0:2|0:0,0:0:0:0:
430,35,8955,2,0,L|330:22,1,100,2|0,0:2|0:0,0:0:0:0:
271,75,9439,2,0,L|171:87,1,100,2|2,0:2|0:2,0:0:0:0:
116,144,9923,1,0,0:0:0:0:
116,144,10084,6,0,L|110:194,1,50,2|0,0:2|0:0,0:0:0:0:
68,262,10407,2,0,P|101:227|148:236,1,100,2|0,0:2|0:0,0:0:0:0:
191,303,10891,1,2,0:2:0:0:
201,295,11213,6,0,P|225:292|247:304,1,50,2|0,0:2|0:0,0:0:0:0:
290,372,11536,2,0,P|323:334|325:285,1,100,2|0,0:2|0:0,0:0:0:0:
272,226,12020,2,0,L|265:176,1,50,10|0,0:0|0:0,0:0:0:0:
200,129,12342,2,0,L|206:79,1,50,2|0,0:3|3:0,0:0:0:0:
148,24,12665,6,0,P|118:24|94:41,1,59.9999981689454,6|0,0:0|0:0,0:0:0:0:
13,42,12987,2,0,P|69:55|91:108,1,119.999996337891,2|8,0:3|0:0,0:0:0:0:
34,166,13471,1,2,0:2:0:0:
138,288,13794,6,0,L|217:278,1,59.9999981689454,10|2,0:0|3:0,0:0:0:0:
247,217,14116,2,0,L|306:224,1,59.9999981689454,10|2,0:0|3:0,0:0:0:0:
378,271,14439,1,0,0:0:0:0:
378,271,14600,2,0,P|334:238|340:167,1,119.999996337891,8|2,0:0|0:3,0:0:0:0:
396,127,15084,1,2,3:2:0:0:
396,127,15245,6,0,L|388:67,1,59.9999981689454,2|0,0:3|0:0,0:0:0:0:
324,18,15568,2,0,P|265:4|226:45,1,119.999996337891,2|8,0:3|0:0,0:0:0:0:
155,81,16052,1,2,0:2:0:0:
162,90,16374,6,0,L|152:169,1,59.9999981689454,10|2,0:2|0:3,0:0:0:0:
222,193,16697,2,0,L|231:272,1,59.9999981689454,10|2,0:0|3:0,0:0:0:0:
277,323,17020,1,0,0:0:0:0:
277,323,17181,2,0,P|223:282|166:314,1,119.999996337891,8|2,0:0|0:3,0:0:0:0:
121,354,17665,1,2,3:2:0:0:
121,354,17826,6,0,P|91:353|67:336,1,59.9999981689454,2|0,0:3|0:0,0:0:0:0:
13,276,18149,2,0,L|27:156,1,119.999996337891,2|8,0:3|0:0,0:0:0:0:
92,109,18632,1,2,0:0:0:0:
99,117,18955,6,0,L|178:107,1,59.9999981689454,10|2,0:0|0:3,0:0:0:0:
211,48,19278,2,0,L|270:55,1,59.9999981689454,10|2,0:0|3:0,0:0:0:0:
341,14,19600,1,0,0:0:0:0:
341,14,19762,2,0,P|351:71|319:121,1,119.999996337891,8|2,0:0|0:3,0:0:0:0:
269,185,20245,1,2,3:2:0:0:
269,185,20407,6,0,L|283:304,2,119.999996337891,2|2|2,0:3|0:2|0:3,0:0:0:0:
201,141,21213,1,2,0:2:0:0:
331,47,21536,6,0,B|282:12|282:12|228:36,2,119.999996337891,2|2|2,0:2|0:2|0:0,0:0:0:0:
276,106,22342,1,2,1:2:0:0:
276,106,22503,1,0,3:0:0:0:
337,158,22665,2,0,L|346:237,1,59.9999981689454,2|2,3:2|0:0,0:0:0:0:
304,287,22987,5,2,3:0:0:0:
153,230,23310,2,0,P|123:230|99:247,1,59.9999981689454,2|0,3:0|3:0,0:0:0:0:
53,313,23632,2,0,L|67:193,1,119.999996337891,2|2,1:3|0:3,0:0:0:0:
127,138,24116,6,0,P|74:112|18:129,2,119.999996337891,2|2|2,1:2|1:2|0:2,0:0:0:0:
146,215,24923,2,0,L|288:197,1,119.999996337891,2|2,1:3|0:3,0:0:0:0:
325,146,25407,1,0,3:0:0:0:
325,146,25568,5,2,3:0:0:0:
374,299,25891,2,0,L|433:306,1,59.9999981689454,2|0,3:0|3:2,0:0:0:0:
495,254,26213,2,0,L|480:134,1,119.999996337891,2|2,1:3|0:3,0:0:0:0:
412,92,26697,6,0,P|402:24|347:4,2,119.999996337891,2|2|2,1:2|1:2|0:0,0:0:0:0:
346,138,27503,2,0,L|203:120,1,119.999996337891,2|2,1:3|0:3,0:0:0:0:
168,72,27987,1,0,3:2:0:0:
168,72,28149,5,2,3:0:0:0:
250,209,28471,2,0,L|259:288,1,59.9999981689454,2|0,3:0|3:2,0:0:0:0:
302,335,28794,2,0,P|260:295|205:311,1,119.999996337891,2|2,1:3|0:3,0:0:0:0:
172,235,29278,6,0,L|29:217,2,119.999996337891,2|2|2,1:2|1:2|0:0,0:0:0:0:
222,173,30084,2,0,P|263:133|318:149,1,119.999996337891,2|2,1:3|0:3,0:0:0:0:
368,218,30568,1,0,3:2:0:0:
368,218,30729,6,0,L|354:337,2,119.999996337891,2|2|2,0:3|0:0|0:3,0:0:0:0:
434,173,31536,1,2,0:0:0:0:
293,95,31858,6,0,B|244:60|244:60|190:84,2,119.999996337891,2|2|2,0:0|0:0|0:0,0:0:0:0:
238,154,32665,1,2,1:2:0:0:
238,154,32826,1,4,3:3:0:0:
299,206,32987,2,0,L|308:285,1,59.9999981689454,2|2,3:2|0:0,0:0:0:0:
241,313,33310,6,0,P|213:294|180:298,1,67.5000002574921,6|2,3:2|0:0,0:0:0:0:
116,347,33632,1,2,0:2:0:0:
54,295,33794,2,0,L|64:216,1,67.5000002574921,2|0,0:0|1:3,0:0:0:0:
18,161,34116,1,2,0:0:0:0:
69,99,34278,2,0,P|96:80|129:84,1,67.5000002574921,2|2,3:2|0:0,0:0:0:0:
209,71,34600,6,0,P|160:89|153:175,1,135.000000514984,2|2,0:3|3:2,0:0:0:0:
211,210,35084,1,2,0:0:0:0:
285,179,35245,1,2,1:3:0:0:
385,303,35568,2,0,L|480:315,1,67.5000002574921,2|2,0:2|0:0,0:0:0:0:
507,253,35891,6,0,L|488:94,1,135.000000514984,2|2,3:0|0:2,0:0:0:0:
423,75,36374,1,2,0:0:0:0:
359,123,36536,2,0,B|292:105|300:167|234:150,1,135.000000514984,2|0,1:3|3:2,0:0:0:0:
166,106,37020,1,2,0:0:0:0:
104,157,37181,6,0,L|111:224,1,67.5000002574921,2|0,0:3|0:0,0:0:0:0:
47,272,37503,1,2,3:2:0:0:
55,278,37826,2,0,P|108:251|150:309,1,135.000000514984,2|2,1:3|0:2,0:0:0:0:
213,351,38310,1,0,3:0:0:0:
272,296,38471,6,0,L|405:279,1,135.000000514984,2|0,3:0|0:0,0:0:0:0:
451,213,38955,1,2,0:0:0:0:
402,149,39116,2,0,P|420:121|416:88,1,67.5000002574921,2|2,1:3|0:0,0:0:0:0:
351,41,39439,2,0,L|343:-22,2,33.750000128746,2|2|2,3:2|0:0|0:0,0:0:0:0:
286,89,39762,5,2,0:3:0:0:
222,40,39923,2,0,P|157:57|134:126,1,135.000000514984,2|2,0:0|0:0,0:0:0:0:
184,177,40407,5,2,1:3:0:0:
143,246,40568,1,2,0:0:0:0:
195,307,40729,2,0,L|290:295,1,67.5000002574921,2|2,0:2|0:0,0:0:0:0:
325,349,41052,6,0,P|343:286|307:231,1,135.000000514984,2|2,3:0|0:2,0:0:0:0:
228,220,41536,1,2,3:2:0:0:
278,157,41697,2,0,L|268:77,1,67.5000002574921,2|2,1:3|0:0,0:0:0:0:
319,26,42020,2,0,P|351:22|379:40,1,67.5000002574921,2|2,3:2|0:0,0:0:0:0:
460,36,42342,6,0,P|410:48|396:141,1,135.000000514984,2|2,0:3|3:2,0:0:0:0:
352,194,42826,1,2,0:0:0:0:
415,244,42987,2,0,L|481:235,2,67.5000002574921,2|2|2,1:3|0:0|0:2,0:0:0:0:
369,310,43471,1,0,3:0:0:0:
306,260,43632,6,0,P|273:256|245:274,1,67.5000002574921,2|2,3:0|0:0,0:0:0:0:
194,336,43955,1,2,0:0:0:0:
120,305,44116,1,2,0:0:0:0:
126,225,44278,2,0,P|52:205|53:131,1,135.000000514984,2|0,1:3|3:2,0:0:0:0:
2,85,44762,1,2,0:0:0:0:
58,28,44923,6,0,L|125:35,1,67.5000002574921,2|2,0:3|0:0,0:0:0:0:
183,90,45245,2,0,L|249:81,1,67.5000002574921,2|2,3:2|0:0,0:0:0:0:
299,18,45568,1,2,1:3:0:0:
229,162,45891,1,2,0:2:0:0:
315,296,46213,5,2,3:0:0:0:
379,247,46374,2,0,L|385:200,2,33.750000128746,2|2|2,0:0|0:0|0:2,0:0:0:0:
432,307,46697,1,2,0:0:0:0:
486,247,46858,2,0,L|469:113,1,135.000000514984,2|2,1:3|3:2,0:0:0:0:
404,65,47342,1,0,0:0:0:0:
340,113,47503,5,2,0:3:0:0:
207,22,47826,2,0,P|174:18|146:36,1,67.5000002574921,2|2,3:2|0:0,0:0:0:0:
168,114,48149,1,2,1:3:0:0:
126,182,48310,1,2,0:0:0:0:
180,241,48471,2,0,P|207:222|240:226,1,67.5000002574921,2|0,0:2|3:0,0:0:0:0:
256,305,48794,6,0,P|228:323|195:319,1,67.5000002574921,2|2,3:0|0:0,0:0:0:0:
137,374,49116,1,2,0:0:0:0:
89,309,49278,2,0,L|105:175,1,135.000000514984,2|2,0:0|0:0,0:0:0:0:
47,120,49762,1,2,3:2:0:0:
81,47,49923,1,2,0:0:0:0:
162,57,50084,6,0,L|257:46,1,67.5000002574921,2|2,0:3|0:0,0:0:0:0:
280,112,50407,2,0,L|346:120,1,67.5000002574921,2|2,3:2|0:0,0:0:0:0:
410,70,50729,2,0,P|428:133|392:188,1,135.000000514984,2|0,1:3|0:0,0:0:0:0:
312,197,51213,1,2,0:0:0:0:
267,264,51374,6,0,L|132:279,1,135.000000514984,2|2,3:0|0:2,0:0:0:0:
79,220,51858,1,2,3:2:0:0:
134,161,52020,2,0,P|152:133|148:100,1,67.5000002574921,2|2,1:3|0:0,0:0:0:0:
69,84,52342,2,0,P|50:111|54:144,1,67.5000002574921,2|2,3:2|0:0,0:0:0:0:
79,220,52665,5,2,0:3:0:0:
164,356,52987,1,2,3:2:0:0:
241,215,53310,2,0,L|232:148,1,67.5000002574921,2|0,1:3|0:0,0:0:0:0:
312,139,53632,2,0,L|319:206,1,67.5000002574921,2|2,0:2|0:2,0:0:0:0:
289,280,53955,6,0,P|341:329|396:289,1,135.000000514984,6|2,3:2|0:3,0:0:0:0:
450,251,54439,1,0,3:0:0:0:
501,311,54600,2,0,L|481:152,1,135.000000514984,2|2,1:3|0:3,0:0:0:0:
421,127,55084,1,0,3:2:0:0:
352,168,55245,6,0,P|324:150|291:154,1,67.5000002574921,2|0,3:3|1:2,0:0:0:0:
235,211,55568,1,2,3:3:0:0:
90,140,55891,2,0,P|88:68|162:40,1,135.000000514984,2|2,1:3|0:3,0:0:0:0:
207,0,56374,1,0,3:2:0:0:
274,44,56536,6,0,P|256:72|260:105,1,67.5000002574921,2|0,3:3|0:0,0:0:0:0:
338,124,56858,2,0,P|355:96|352:63,1,67.5000002574921,2|0,3:3|3:2,0:0:0:0:
404,3,57181,2,0,P|468:13|495:72,1,135.000000514984,2|2,1:3|0:3,0:0:0:0:
432,122,57665,1,0,3:2:0:0:
479,187,57826,6,0,L|469:266,1,67.5000002574921,2|0,3:3|1:2,0:0:0:0:
403,297,58149,1,2,3:3:0:0:
273,200,58471,2,0,B|207:183|215:245|148:227,1,135.000000514984,2|2,1:3|0:3,0:0:0:0:
89,281,58955,1,2,3:2:0:0:
27,229,59116,6,0,L|46:70,1,135.000000514984,2|2,3:3|0:3,0:0:0:0:
107,45,59600,1,0,3:2:0:0:
176,84,59762,2,0,P|231:72|291:153,1,135.000000514984,2|2,1:3|0:3,0:0:0:0:
241,185,60245,1,0,3:2:0:0:
288,250,60407,6,0,L|278:329,1,67.5000002574921,2|0,0:3|1:2,0:0:0:0:
222,373,60729,1,2,3:3:0:0:
382,343,61052,2,0,L|362:184,1,135.000000514984,2|2,1:3|0:3,0:0:0:0:
308,153,61536,1,0,3:2:0:0:
329,75,61697,5,2,3:2:0:0:
445,185,62020,1,2,3:2:0:0:
400,30,62342,1,2,1:2:0:0:
365,209,62665,2,0,L|382:343,1,135.000000514984,2|2,3:2|0:2,0:0:0:0:
163,68,63632,6,0,B|131:45|131:45|95:56,1,77.5000005912781,2|0,1:2|1:2,0:0:0:0:
78,142,63955,2,0,B|109:164|109:164|145:153,1,77.5000005912781,2|0,1:2|1:2,0:0:0:0:
230,127,64278,6,0,L|241:222,1,77.5000005912781,6|0,3:2|0:0,0:0:0:0:
313,247,64600,2,0,L|303:326,1,77.5000005912781,2|0,3:3|3:2,0:0:0:0:
229,369,64923,2,0,B|305:389|296:318|372:337,1,155.000001182556,2|2,1:3|0:3,0:0:0:0:
456,375,65407,6,0,P|454:299|395:253,1,155.000001182556,2|2,1:2|1:2,0:0:0:0:
332,192,65891,1,2,3:3:0:0:
392,129,66052,2,0,L|382:52,1,77.5000005912781,2|2,0:2|1:3,0:0:0:0:
309,2,66374,1,2,0:2:0:0:
241,56,66536,1,2,0:3:0:0:
169,6,66697,1,2,3:2:0:0:
98,58,66858,6,0,P|67:35|30:39,1,77.5000005912781,2|0,3:3|0:0,0:0:0:0:
4,123,67181,2,0,P|34:145|71:141,1,77.5000005912781,2|0,0:3|3:2,0:0:0:0:
135,202,67503,2,0,B|211:222|202:151|278:170,1,155.000001182556,2|2,1:3|0:3,0:0:0:0:
329,98,67987,6,0,P|380:68|428:142,1,155.000001182556,2|2,1:2|1:2,0:0:0:0:
486,199,68471,1,2,3:3:0:0:
426,262,68632,2,0,L|416:338,1,77.5000005912781,2|2,0:2|1:3,0:0:0:0:
246,383,69116,2,0,P|223:352|227:315,1,77.5000005912781,2|2,0:3|3:2,0:0:0:0:
295,259,69439,6,0,L|283:163,1,77.5000005912781,2|0,3:3|0:0,0:0:0:0:
207,141,69762,2,0,L|218:45,1,77.5000005912781,2|0,3:3|3:2,0:0:0:0:
147,10,70084,1,2,1:3:0:0:
75,59,70245,1,2,0:2:0:0:
100,144,70407,1,2,0:3:0:0:
27,194,70568,6,0,L|38:289,1,77.5000005912781,2|2,1:2|0:3,0:0:0:0:
111,316,70891,2,0,P|148:311|178:334,1,77.5000005912781,2|2,1:2|3:3,0:0:0:0:
255,376,71213,1,2,0:2:0:0:
319,316,71374,1,2,1:3:0:0:
282,237,71536,1,2,0:2:0:0:
345,177,71697,2,0,L|335:100,1,77.5000005912781,2|0,0:3|3:2,0:0:0:0:
264,48,72020,6,0,P|194:31|150:109,1,155.000001182556,2|2,3:3|3:3,0:0:0:0:
79,144,72503,1,0,3:2:0:0:
24,212,72665,6,0,P|101:183|101:258,1,155.000001182556,2|2,1:3|1:3,0:0:0:0:
69,307,73149,1,0,3:2:0:0:
131,368,73310,6,0,L|207:358,1,77.5000005912781,2|0,3:3|1:2,0:0:0:0:
270,296,73632,1,2,3:3:0:0:
351,326,73794,1,2,0:2:0:0:
411,263,73955,2,0,L|392:109,1,155.000001182556,2|2,1:3|0:3,0:0:0:0:
315,66,74439,1,2,3:2:0:0:
245,120,74600,6,0,B|167:139|176:68|100:88,1,155.000001182556,4|2,3:2|0:3,0:0:0:0:
39,150,75084,1,0,3:2:0:0:
96,216,75245,2,0,P|126:193|164:197,1,77.5000005912781,2|0,1:3|0:0,0:0:0:0:
228,256,75568,1,2,0:3:0:0:
297,202,75729,6,0,L|278:48,1,155.000001182556,0|0,1:2|1:2,0:0:0:0:
352,0,76213,1,2,3:3:0:0:
421,56,76374,1,2,0:2:0:0:
390,139,76536,2,0,P|426:130|459:148,1,77.5000005912781,2|0,1:3|0:0,0:0:0:0:
448,236,76858,2,0,P|411:244|378:226,1,77.5000005912781,2|2,0:3|3:2,0:0:0:0:
307,174,77181,6,0,B|231:154|240:225|162:205,1,155.000001182556,2|2,3:3|3:3,0:0:0:0:
138,290,77665,2,0,L|118:131,1,155.000001182556,2|2,3:2|0:2,0:0:0:0:
54,76,78149,1,2,0:3:0:0:
119,16,78310,6,0,P|182:-14|246:33,1,155.000001182556,0|0,1:2|1:2,0:0:0:0:
312,88,78794,2,0,L|300:183,1,77.5000005912781,2|0,3:3|0:0,0:0:0:0:
231,216,79116,2,0,P|195:207|162:225,1,77.5000005912781,2|0,1:3|0:0,0:0:0:0:
173,313,79439,2,0,P|210:321|243:303,1,77.5000005912781,2|2,0:3|3:2,0:0:0:0:
325,332,79762,6,0,P|340:272|432:251,1,155.000001182556,2|2,3:3|3:3,0:0:0:0:
490,191,80245,2,0,L|480:114,1,77.5000005912781,2|2,3:2|1:3,0:0:0:0:
418,52,80568,2,0,P|384:33|347:41,1,77.5000005912781,2|2,0:2|0:3,0:0:0:0:
261,22,80891,6,0,P|323:48|324:134,2,155.000001182556,2|2|2,1:2|1:2|0:2,0:0:0:0:
193,77,81697,2,0,B|117:57|126:128|48:108,1,155.000001182556,2|2,1:3|0:3,0:0:0:0:
0,181,82181,1,2,3:2:0:0:
48,254,82342,6,0,B|126:234|117:305|193:285,1,155.000001182556,2|2,3:3|0:3,0:0:0:0:
270,246,82826,2,0,L|279:169,1,77.5000005912781,2|2,3:2|1:3,0:0:0:0:
202,126,83149,2,0,L|192:49,1,77.5000005912781,2|2,0:2|0:3,0:0:0:0:
265,0,83471,6,0,L|424:20,1,155.000001182556,2|0,1:2|1:2,0:0:0:0:
470,90,83955,1,2,3:3:0:0:
415,251,84278,6,0,L|424:327,1,77.5000005912781,2|0,1:3|0:0,0:0:0:0:
338,338,84600,2,0,L|328:261,1,77.5000005912781,2|0,0:3|3:2,0:0:0:0:
251,228,84923,6,0,L|257:178,1,50,2|0,0:3|0:0,0:0:0:0:
299,110,85245,2,0,P|266:145|219:136,1,100,2|2,0:2|0:3,0:0:0:0:
176,69,85729,1,2,0:2:0:0:
166,77,86052,6,0,P|142:80|120:68,1,50,2|2,0:2|0:3,0:0:0:0:
77,0,86374,2,0,P|44:38|42:87,1,100,2|0,0:2|0:0,0:0:0:0:
94,149,86858,6,0,L|90:178,3,29.9999990844727,0|0|0|0,0:0|0:0|0:0|0:0,0:0:0:0:
