osu file format v14

[General]
AudioFilename: audio.mp3
AudioLeadIn: 0
PreviewTime: 63149
Countdown: 0
SampleSet: Soft
StackLeniency: 0.3
Mode: 0
LetterboxInBreaks: 0
WidescreenStoryboard: 0

[Editor]
DistanceSpacing: 1.1
BeatDivisor: 4
GridSize: 4
TimelineZoom: 1.7

[Metadata]
Title:LIFE (TV Size)
TitleUnicode:LIFE (TV Size)
Artist:Rude-a
ArtistUnicode:Rude-α
Creator:wafer
Version:Summer Sky
Source:Dr.STONE
Tags:ドクターストーン rude-alpha alpha dr doctor stone dr.stone anime ending1 ed ed1 J-pop japanese Senku Ishigami camison cami iwaifu xehn xenon xenon- xen
BeatmapID:2201738
BeatmapSetID:1053644

[Difficulty]
HPDrainRate:5
CircleSize:4.6
OverallDifficulty:8
ApproachRate:8.8
SliderMultiplier:2.5
SliderTickRate:1

[Events]
//Background and Video events
0,0,"niki-smith-senku-original.jpg",0,0
//Break Periods
//Storyboard Layer 0 (Background)
//Storyboard Layer 1 (Fail)
//Storyboard Layer 2 (Pass)
//Storyboard Layer 3 (Foreground)
//Storyboard Layer 4 (Overlay)
//Storyboard Sound Samples

[TimingPoints]
-238,645.161290322581,4,2,2,25,1,0
1697,-166.666666666667,4,2,2,25,0,0
2342,-111.111111111111,4,2,1,45,0,0
12020,-111.111111111111,4,2,1,50,0,0
22342,-100,4,2,1,55,0,0
22988,-100,4,2,1,60,0,0
30729,-125,4,2,1,45,0,0
32665,-125,4,2,1,60,0,0
33310,-90.9090909090909,4,2,1,65,0,0
51374,-100,4,2,1,65,0,0
53955,-83.3333333333333,4,2,1,70,0,0
61697,-100,4,2,1,73,0,0
62020,-90.9090909090909,4,2,1,73,0,0
62342,-83.3333333333333,4,2,1,73,0,0
62665,-76.9230769230769,4,2,1,73,0,0
62988,-76.9230769230769,4,2,1,40,0,0
63633,-76.9230769230769,4,2,1,65,0,0
64278,-66.6666666666667,4,2,1,75,0,0
72020,-58.8235294117647,4,2,1,75,0,0
73633,-66.6666666666667,4,2,1,75,0,0
78310,-76.9230769230769,4,2,1,75,0,0
84923,-142.857142857143,4,2,1,45,0,0
86697,-200,4,2,1,25,0,0
86859,-200,4,2,2,25,0,0

[Colours]
Combo1 : 213,176,68
Combo2 : 170,167,130
Combo3 : 21,176,115
Combo4 : 87,112,125

[HitObjects]
43,73,1697,6,0,L|91:62,3,37.4999988555909,0|0|0|0,0:0|0:0|0:0|0:0,0:0:0:0:
56,199,2342,6,0,P|85:152|139:140,2,112.499996566773,2|2|0,0:2|0:2|0:0,0:0:0:0:
141,325,3149,2,0,L|136:257,1,56.2499982833863,2|0,0:2|0:0,0:0:0:0:
200,212,3471,2,0,L|205:144,1,56.2499982833863,2|0,0:2|0:0,0:0:0:0:
286,120,3794,2,0,L|281:52,1,56.2499982833863,2|0,0:2|0:0,0:0:0:0:
347,27,4116,1,0,0:0:0:0:
347,27,4278,2,0,L|355:139,1,112.499996566773,2|2,0:2|0:2,0:0:0:0:
413,186,4762,1,0,0:0:0:0:
501,197,4923,6,0,P|447:184|400:213,2,112.499996566773,2|2|0,0:2|0:2|0:0,0:0:0:0:
464,382,5729,2,0,L|469:314,1,56.2499982833863,2|0,0:2|0:0,0:0:0:0:
405,269,6052,2,0,L|400:201,1,56.2499982833863,2|0,0:2|0:0,0:0:0:0:
319,177,6374,2,0,L|324:109,1,56.2499982833863,2|0,0:2|0:0,0:0:0:0:
258,84,6697,1,0,0:0:0:0:
258,84,6858,2,0,L|250:196,1,112.499996566773,2|2,0:2|0:2,0:0:0:0:
194,242,7342,1,0,0:0:0:0:
112,209,7503,6,0,P|124:271|128:347,2,112.499996566773,2|2|0,0:2|0:2|0:0,0:0:0:0:
0,361,8310,2,0,P|27:367|53:359,1,56.2499982833863,2|0,0:2|0:0,0:0:0:0:
128,321,8632,2,0,P|155:314|181:322,1,56.2499982833863,2|0,0:2|0:0,0:0:0:0:
260,366,8955,2,0,P|287:372|313:364,1,56.2499982833863,2|0,0:2|0:0,0:0:0:0:
363,314,9278,1,0,0:0:0:0:
363,314,9439,2,0,P|430:297|496:318,1,112.499996566773,2|2,0:2|0:2,0:0:0:0:
499,243,9923,1,0,0:0:0:0:
393,204,10084,6,0,P|455:216|531:220,2,112.499996566773,2|2|0,0:2|0:2|0:0,0:0:0:0:
274,77,10891,2,0,P|267:104|275:130,1,56.2499982833863,2|0,0:2|0:0,0:0:0:0:
386,72,11213,2,0,P|389:44|381:18,1,56.2499982833863,2|0,0:2|0:0,0:0:0:0:
251,55,11536,2,0,P|237:109|254:162,1,112.499996566773,2|0,0:2|0:0,0:0:0:0:
176,39,12020,2,0,L|105:22,1,56.2499982833863,10|0,0:0|0:0,0:0:0:0:
253,40,12342,1,2,0:3:0:0:
253,40,12503,1,0,3:0:0:0:
264,189,12665,6,0,P|318:186|357:147,1,112.499996566773,6|2,0:0|0:3,0:0:0:0:
386,72,13149,1,0,3:0:0:0:
473,184,13310,1,8,0:0:0:0:
400,343,13471,2,0,L|332:348,1,56.2499982833863,2|2,0:2|0:3,0:0:0:0:
230,279,13794,2,0,L|287:284,1,56.2499982833863,10|2,0:0|3:0,0:0:0:0:
195,197,14116,2,0,L|139:202,1,56.2499982833863,10|2,0:0|3:0,0:0:0:0:
94,138,14439,1,0,0:0:0:0:
207,130,14600,2,0,L|95:138,1,112.499996566773,8|2,0:0|0:3,0:0:0:0:
37,82,15084,1,2,3:2:0:0:
13,163,15245,6,0,P|15:109|54:70,1,112.499996566773,2|2,0:3|0:3,0:0:0:0:
128,50,15729,1,0,3:0:0:0:
224,129,15891,1,8,0:0:0:0:
380,52,16052,2,0,L|312:47,1,56.2499982833863,2|2,0:2|0:3,0:0:0:0:
397,137,16374,2,0,L|454:132,1,56.2499982833863,10|2,0:2|0:3,0:0:0:0:
357,236,16697,2,0,L|301:231,1,56.2499982833863,10|2,0:0|3:0,0:0:0:0:
332,301,17020,1,0,0:0:0:0:
444,309,17181,2,0,L|332:301,1,112.499996566773,8|2,0:0|0:3,0:0:0:0:
274,358,17665,1,2,3:2:0:0:
233,264,17826,6,0,P|249:317|258:373,1,112.499996566773,2|2,0:3|0:3,0:0:0:0:
335,377,18310,1,0,3:0:0:0:
444,310,18471,1,8,0:0:0:0:
476,136,18632,2,0,P|449:130|423:138,1,56.2499982833863,2|2,0:0|0:3,0:0:0:0:
294,174,18955,2,0,P|321:183|348:176,1,56.2499982833863,10|2,0:0|0:3,0:0:0:0:
162,133,19278,2,0,P|188:125|216:131,1,56.2499982833863,10|2,0:0|3:0,0:0:0:0:
194,202,19600,1,0,0:0:0:0:
194,202,19762,2,0,P|127:219|61:198,1,112.499996566773,8|2,0:0|0:3,0:0:0:0:
46,150,20245,1,2,3:2:0:0:
0,211,20407,6,0,P|16:157|26:88,2,112.499996566773,2|2|2,0:3|0:2|0:3,0:0:0:0:
51,300,21213,2,0,P|58:327|50:353,1,56.2499982833863,2|0,0:2|0:0,0:0:0:0:
195,272,21536,2,0,P|192:244|200:218,1,56.2499982833863,2|2,0:2|0:3,0:0:0:0:
82,378,21858,2,0,P|96:324|79:271,1,112.499996566773,2|2,0:2|0:0,0:0:0:0:
211,359,22342,2,0,L|282:342,1,62.5,2|0,1:2|3:0,0:0:0:0:
126,211,22665,1,2,3:2:0:0:
79,271,22826,1,2,0:0:0:0:
189,128,22987,5,2,3:0:0:0:
189,128,23310,2,0,L|178:66,1,62.5,2|0,3:0|3:0,0:0:0:0:
324,42,23632,2,0,P|318:102|273:144,1,125,2|2,1:3|0:3,0:0:0:0:
211,4,24116,2,0,B|279:-2|250:47|324:42,1,125,2|2,1:2|1:2,0:0:0:0:
442,29,24600,1,2,3:0:0:0:
442,29,24762,1,2,0:2:0:0:
506,166,24923,2,0,P|446:157|421:103,1,125,2|2,1:3|0:3,0:0:0:0:
356,148,25407,1,0,3:0:0:0:
324,341,25568,5,2,3:0:0:0:
324,341,25891,2,0,L|260:330,1,62.5,2|0,3:0|3:2,0:0:0:0:
85,333,26213,2,0,P|91:273|136:231,1,125,2|2,1:3|0:3,0:0:0:0:
205,367,26697,2,0,L|80:331,1,125,2|2,1:2|1:2,0:0:0:0:
26,218,27181,1,2,3:0:0:0:
26,218,27342,1,2,0:0:0:0:
162,108,27503,2,0,P|144:172|135:252,1,125,2|2,1:3|0:3,0:0:0:0:
199,268,27987,1,0,3:2:0:0:
273,57,28149,5,2,3:0:0:0:
273,57,28471,2,0,L|338:45,1,62.5,2|0,3:0|3:2,0:0:0:0:
475,116,28794,2,0,P|469:56|424:14,1,125,2|2,1:3|0:3,0:0:0:0:
361,153,29278,2,0,B|429:159|400:110|474:115,1,125,2|2,1:2|1:2,0:0:0:0:
462,254,29762,1,2,3:0:0:0:
462,254,29923,1,2,0:0:0:0:
298,237,30084,2,0,P|307:177|361:152,1,125,2|2,1:3|0:3,0:0:0:0:
394,218,30568,1,0,3:2:0:0:
276,111,30729,6,0,L|165:102,2,100,2|2|2,0:3|0:0|0:3,0:0:0:0:
331,64,31536,2,0,P|342:42|342:18,1,50,2|0,0:0|0:0,0:0:0:0:
276,111,31858,2,0,P|264:88|264:64,1,50,2|2,0:0|0:3,0:0:0:0:
220,168,32181,1,2,0:0:0:0:
157,105,32342,5,2,0:0:0:0:
157,105,32503,1,2,0:0:0:0:
73,217,32665,1,2,1:2:0:0:
144,181,32826,1,4,3:3:0:0:
144,181,32987,1,2,3:2:0:0:
31,105,33149,1,2,0:0:0:0:
25,269,33310,6,0,P|5:240|4:207,2,68.7500020980836,6|2|2,3:2|0:0|0:2,0:0:0:0:
88,311,33794,2,0,P|108:340|109:373,1,68.7500020980836,2|0,0:0|1:3,0:0:0:0:
18,355,34116,1,2,0:0:0:0:
142,255,34278,1,2,3:2:0:0:
142,255,34439,1,2,0:0:0:0:
221,287,34600,6,0,L|143:273,1,68.7500020980836,2|2,0:3|0:0,0:0:0:0:
247,364,34923,1,2,3:2:0:0:
311,321,35084,2,0,P|331:292|332:259,1,68.7500020980836,2|2,0:0|1:3,0:0:0:0:
498,374,35568,1,2,0:2:0:0:
498,374,35729,1,2,0:0:0:0:
512,166,35891,6,0,P|439:170|395:244,1,137.500004196167,2|2,3:0|0:2,0:0:0:0:
472,238,36374,1,2,0:0:0:0:
508,91,36536,2,0,P|489:54|445:32,1,91.6666694641114,2|2,1:3|0:0,0:0:0:0:
445,32,36858,1,0,3:2:0:0:
420,102,37020,1,2,0:0:0:0:
278,28,37181,5,2,0:3:0:0:
278,28,37503,2,0,P|303:51|337:56,1,68.7500020980836,2|0,3:2|0:0,0:0:0:0:
205,17,37826,1,2,1:3:0:0:
205,17,37987,1,2,0:0:0:0:
185,127,38149,2,0,P|218:119|244:97,1,68.7500020980836,2|0,0:2|3:0,0:0:0:0:
99,23,38471,6,0,L|8:11,1,91.6666694641114,2|2,3:0|0:0,0:0:0:0:
8,11,38794,1,0,0:0:0:0:
112,95,39009,1,2,0:0:0:0:
112,95,39116,2,0,P|132:66|133:33,1,68.7500020980836,2|2,1:3|0:0,0:0:0:0:
44,166,39439,1,2,3:2:0:0:
44,166,39520,1,2,0:0:0:0:
44,166,39600,1,2,0:0:0:0:
66,265,39762,5,2,0:3:0:0:
66,265,39923,2,0,L|69:333,1,68.7500020980836,2|0,0:0|3:2,0:0:0:0:
144,364,40245,1,2,0:0:0:0:
245,303,40407,2,0,L|173:293,1,68.7500020980836,2|2,1:3|0:0,0:0:0:0:
234,375,40729,2,0,L|306:365,1,68.7500020980836,2|2,0:2|0:0,0:0:0:0:
225,218,41052,5,2,3:0:0:0:
306,172,41213,1,2,0:0:0:0:
402,293,41374,1,2,0:2:0:0:
321,247,41536,1,2,3:2:0:0:
452,116,41697,1,2,1:3:0:0:
498,197,41858,1,2,0:0:0:0:
353,117,42020,1,2,3:2:0:0:
353,117,42181,1,2,0:0:0:0:
476,32,42342,6,0,L|404:22,1,68.7500020980836,2|2,0:3|0:0,0:0:0:0:
353,117,42665,1,2,3:2:0:0:
353,117,42826,1,2,0:0:0:0:
256,40,42987,1,2,1:3:0:0:
256,40,43149,1,2,0:0:0:0:
175,73,43310,1,2,0:2:0:0:
65,22,43471,2,0,L|155:7,1,68.7500020980836,0|2,3:0|3:0,0:0:0:0:
40,165,43794,6,0,P|20:136|19:103,2,68.7500020980836,2|2|2,0:0|0:0|0:0,0:0:0:0:
155,92,44278,1,2,1:3:0:0:
231,191,44439,2,0,L|159:201,1,68.7500020980836,2|0,0:0|3:2,0:0:0:0:
96,258,44762,1,2,0:0:0:0:
96,258,44923,1,2,0:3:0:0:
77,351,45084,1,2,0:0:0:0:
77,351,45245,2,0,L|149:341,1,68.7500020980836,2|2,3:2|0:0,0:0:0:0:
264,246,45568,1,2,1:3:0:0:
264,246,45891,2,0,P|255:282|259:314,1,68.7500020980836,2|0,0:2|0:0,0:0:0:0:
429,306,46213,5,2,3:0:0:0:
446,224,46374,1,2,0:0:0:0:
446,224,46455,1,2,0:0:0:0:
446,224,46536,2,0,L|525:199,1,68.7500020980836,2|2,0:2|0:0,0:0:0:0:
402,93,46858,1,2,1:3:0:0:
402,93,47181,2,0,L|334:90,1,68.7500020980836,2|0,3:2|0:0,0:0:0:0:
156,22,47503,6,0,P|229:26|273:100,1,137.500004196167,2|2,0:3|3:2,0:0:0:0:
193,89,47987,1,2,0:0:0:0:
65,55,48149,1,2,1:3:0:0:
65,55,48310,1,2,0:0:0:0:
61,154,48471,2,0,P|93:143|117:119,1,68.7500020980836,2|0,0:2|3:0,0:0:0:0:
24,219,48794,5,2,3:0:0:0:
62,291,48955,1,2,0:0:0:0:
62,291,49116,1,2,0:0:0:0:
139,253,49278,2,0,L|127:330,1,68.7500020980836,2|2,0:0|1:3,0:0:0:0:
187,368,49600,1,2,0:0:0:0:
300,295,49762,5,2,3:2:0:0:
403,319,49923,1,2,0:0:0:0:
493,230,50084,1,2,0:3:0:0:
454,150,50245,1,2,0:0:0:0:
478,308,50407,1,2,3:2:0:0:
478,308,50568,1,2,0:0:0:0:
511,109,50729,2,0,B|427:97|466:152|371:154,1,137.500004196167,2|0,1:3|0:0,0:0:0:0:
329,112,51213,1,2,0:0:0:0:
489,46,51374,6,0,P|446:95|484:178,1,125,2|2,3:0|0:2,0:0:0:0:
509,207,51858,1,2,3:2:0:0:
483,333,52020,2,0,P|480:304|466:250,1,62.5,2|2,1:3|0:0,0:0:0:0:
394,234,52342,1,2,3:2:0:0:
394,234,52503,1,2,0:0:0:0:
305,317,52665,5,2,0:3:0:0:
164,245,52987,1,2,3:2:0:0:
305,317,53310,1,2,1:3:0:0:
164,245,53632,1,2,0:2:0:0:
98,277,53794,1,2,0:2:0:0:
48,73,53955,6,0,B|60:117|60:117|45:160|45:160|55:228,1,149.999995422363,6|2,3:2|0:3,0:0:0:0:
98,277,54439,1,0,3:0:0:0:
169,99,54600,2,0,B|157:143|157:143|172:186|172:186|162:254,1,149.999995422363,2|2,1:3|0:3,0:0:0:0:
98,277,55084,1,0,3:2:0:0:
48,73,55245,6,0,P|85:49|147:59,2,74.9999977111817,2|0|2,3:3|1:2|3:3,0:0:0:0:
264,117,55891,2,0,B|333:129|333:129|408:99,1,149.999995422363,2|2,1:3|0:3,0:0:0:0:
444,39,56374,1,0,3:2:0:0:
328,254,56536,6,0,B|415:244|379:191|478:182,1,149.999995422363,2|2,3:3|3:3,0:0:0:0:
512,226,57020,1,0,3:2:0:0:
336,347,57181,2,0,B|423:337|387:284|486:275,1,149.999995422363,2|2,1:3|0:3,0:0:0:0:
512,226,57665,1,0,3:2:0:0:
328,254,57826,6,0,L|229:240,2,74.9999977111817,2|0|2,3:3|1:2|3:3,0:0:0:0:
180,355,58471,2,0,B|111:367|111:367|36:337,1,149.999995422363,2|2,1:3|0:3,0:0:0:0:
0,277,58955,1,2,3:2:0:0:
180,201,59116,6,0,P|113:196|25:156,1,149.999995422363,2|2,3:3|0:3,0:0:0:0:
18,93,59600,1,0,3:2:0:0:
216,11,59762,2,0,P|149:15|61:56,1,149.999995422363,2|2,1:3|0:3,0:0:0:0:
18,93,60245,1,0,3:2:0:0:
180,201,60407,6,0,L|279:187,2,74.9999977111817,2|0|2,0:3|1:2|3:3,0:0:0:0:
328,82,61052,2,0,B|397:70|397:70|472:100,1,149.999995422363,2|2,1:3|0:3,0:0:0:0:
512,162,61536,1,0,3:2:0:0:
463,291,61697,6,0,L|455:201,1,62.5,2|0,3:2|0:0,0:0:0:0:
394,307,62020,6,0,L|386:217,1,68.7500020980836,2|0,3:2|0:0,0:0:0:0:
325,322,62342,6,0,L|317:232,1,74.9999977111817,2|0,1:2|0:0,0:0:0:0:
252,339,62665,6,0,L|230:99,1,162.499992561341,2|2,3:2|0:2,0:0:0:0:
237,177,63632,5,2,1:2:0:0:
210,171,63794,1,0,1:2:0:0:
183,166,63955,1,2,1:2:0:0:
157,160,64116,1,0,1:2:0:0:
49,255,64278,6,0,P|41:211|76:147,1,93.7500035762788,6|0,3:2|0:0,0:0:0:0:
230,296,64600,2,0,P|204:332|134:353,1,93.7500035762788,2|0,3:3|3:2,0:0:0:0:
176,85,64923,2,0,L|156:278,1,187.500007152558,2|2,1:3|0:3,0:0:0:0:
275,369,65407,2,0,L|383:359,1,93.7500035762788,2|2,1:2|0:3,0:0:0:0:
323,287,65729,2,0,L|230:296,1,93.7500035762788,2|2,1:2|3:3,0:0:0:0:
482,161,66052,2,0,P|504:202|495:247,1,93.7500035762788,2|2,0:2|1:3,0:0:0:0:
440,292,66374,5,2,0:2:0:0:
345,189,66536,1,2,0:3:0:0:
419,46,66697,1,2,3:2:0:0:
429,117,66858,6,0,P|385:125|321:90,1,93.7500035762788,2|0,3:3|0:0,0:0:0:0:
183,39,67181,2,0,P|227:23|273:31,1,93.7500035762788,2|0,0:3|3:2,0:0:0:0:
254,284,67503,2,0,L|234:91,1,187.500007152558,2|2,1:3|0:3,0:0:0:0:
100,5,67987,2,0,P|75:44|73:90,1,93.7500035762788,2|2,1:2|0:3,0:0:0:0:
41,164,68310,2,0,P|9:129|0:84,1,93.7500035762788,2|2,1:2|3:3,0:0:0:0:
178,254,68632,2,0,P|163:297|126:325,2,93.7500035762788,2|2|0,0:2|1:3|0:0,0:0:0:0:
178,180,69116,1,2,0:3:0:0:
239,308,69278,1,2,3:2:0:0:
203,371,69439,6,0,L|93:347,1,93.7500035762788,2|0,3:3|0:0,0:0:0:0:
283,242,69762,2,0,B|322:214|322:214|374:222,1,93.7500035762788,2|0,3:3|3:2,0:0:0:0:
403,362,70084,1,2,1:3:0:0:
304,337,70245,1,2,0:2:0:0:
367,220,70407,1,2,0:3:0:0:
424,267,70568,6,0,P|438:223|424:180,1,93.7500035762788,2|2,1:2|0:3,0:0:0:0:
252,83,70891,2,0,P|238:127|253:171,1,93.7500035762788,2|2,1:2|3:3,0:0:0:0:
345,65,71213,1,2,0:2:0:0:
346,238,71374,1,2,1:3:0:0:
346,238,71536,1,2,0:2:0:0:
230,188,71697,2,0,P|215:144|230:100,1,93.7500035762788,2|0,0:3|3:2,0:0:0:0:
397,62,72020,6,0,P|349:44|279:30,1,106.250002026558,2|0,3:3|0:0,0:0:0:0:
411,220,72342,2,0,P|389:173|350:113,1,106.250002026558,2|0,3:3|3:2,0:0:0:0:
115,62,72665,6,0,P|163:44|233:30,1,106.250002026558,2|0,1:3|0:0,0:0:0:0:
101,220,72987,2,0,P|123:173|162:113,1,106.250002026558,2|0,1:3|3:2,0:0:0:0:
397,322,73310,6,0,P|349:340|279:354,1,106.250002026558,2|0,3:3|1:2,0:0:0:0:
228,268,73632,1,2,3:3:0:0:
118,316,73794,1,2,0:2:0:0:
36,268,73955,2,0,P|127:271|193:335,1,187.500007152558,2|2,1:3|0:3,0:0:0:0:
67,379,74439,1,2,3:2:0:0:
175,141,74600,6,0,L|82:118,1,93.7500035762788,4|2,3:2|0:3,0:0:0:0:
6,63,74923,2,0,L|97:40,1,93.7500035762788,2|0,0:3|3:2,0:0:0:0:
220,77,75245,1,2,1:3:0:0:
220,77,75407,1,0,0:0:0:0:
314,97,75568,1,2,0:3:0:0:
458,16,75729,2,0,L|353:7,1,93.7500035762788,0|2,1:2|0:3,0:0:0:0:
497,136,76052,1,0,1:2:0:0:
415,237,76213,5,2,3:3:0:0:
305,189,76374,1,2,0:2:0:0:
378,141,76536,2,0,P|332:229|348:343,1,187.500007152558,2|2,1:3|0:3,0:0:0:0:
422,357,77020,1,2,3:2:0:0:
422,357,77181,5,2,3:3:0:0:
250,294,77342,2,0,P|207:311|161:306,1,93.7500035762788,2|2,0:2|3:3,0:0:0:0:
6,180,77665,2,0,P|48:162|94:167,1,93.7500035762788,2|2,3:2|1:3,0:0:0:0:
241,279,77987,2,0,P|198:296|152:291,1,93.7500035762788,2|2,0:2|0:3,0:0:0:0:
170,64,78310,6,0,B|198:131|198:131|189:221,1,162.499992561341,0|0,1:2|1:2,0:0:0:0:
3,242,78794,2,0,B|90:207|44:152|146:135,1,162.499992561341,2|2,3:3|1:3,0:0:0:0:
170,64,79278,1,0,0:0:0:0:
170,64,79439,1,2,0:3:0:0:
50,17,79600,1,2,3:2:0:0:
0,162,79762,6,0,P|-8:122|1:83,1,81.2499962806703,2|0,3:3|0:0,0:0:0:0:
128,215,80084,1,2,3:3:0:0:
128,215,80245,2,0,P|101:252|94:296,1,81.2499962806703,2|2,3:2|1:3,0:0:0:0:
171,361,80568,2,0,L|167:279,1,81.2499962806703,2|2,0:2|0:3,0:0:0:0:
426,242,80891,6,0,L|430:324,1,81.2499962806703,2|2,1:2|3:3,0:0:0:0:
286,103,81213,2,0,L|282:185,1,81.2499962806703,2|2,1:2|0:3,0:0:0:0:
231,34,81536,1,2,0:2:0:0:
310,29,81697,2,0,P|234:46|211:120,1,162.499992561341,2|2,1:3|0:3,0:0:0:0:
286,103,82181,1,2,3:2:0:0:
454,143,82342,6,0,P|431:174|380:190,1,81.2499962806703,2|0,3:3|0:0,0:0:0:0:
407,56,82665,1,2,0:3:0:0:
429,261,82826,2,0,P|392:273|341:257,1,81.2499962806703,2|2,3:2|1:3,0:0:0:0:
424,340,83149,2,0,P|460:327|511:343,1,81.2499962806703,2|2,0:2|0:3,0:0:0:0:
308,365,83471,6,0,B|222:349|262:294|174:284,1,162.499992561341,2|0,1:2|1:2,0:0:0:0:
103,331,83955,2,0,P|96:286|79:246,1,81.2499962806703,2|0,3:3|0:0,0:0:0:0:
38,184,84278,1,2,1:3:0:0:
38,184,84439,1,0,0:0:0:0:
80,117,84600,2,0,L|-7:105,1,81.2499962806703,2|0,0:3|3:2,0:0:0:0:
123,33,84923,6,0,P|152:80|206:92,2,87.499997329712,2|2|2,0:3|0:2|0:3,0:0:0:0:
250,90,85729,2,0,L|293:85,1,43.749998664856,2|0,0:2|0:0,0:0:0:0:
359,42,86052,2,0,L|402:47,1,43.749998664856,2|2,0:2|0:3,0:0:0:0:
460,95,86374,2,0,L|503:90,1,43.749998664856,2|0,0:2|0:0,0:0:0:0:
437,174,86697,6,0,L|394:169,2,31.25,0|0|0,0:0|0:0|0:0,0:0:0:0:
467,244,87181,2,0,L|510:239,1,31.25,0|0,0:0|0:0,0:0:0:0:
