osu file format v14

[General]
AudioFilename: audio.mp3
AudioLeadIn: 0
PreviewTime: 68410
Countdown: 0
SampleSet: Normal
StackLeniency: 0.7
Mode: 1
LetterboxInBreaks: 0
WidescreenStoryboard: 0

[Editor]
DistanceSpacing: 1
BeatDivisor: 4
GridSize: 4
TimelineZoom: 1.6

[Metadata]
Title:Spectacle
TitleUnicode:Spectacle
Artist:Ruby My Dear
ArtistUnicode:Ruby My Dear
Creator:Nifty
Version:Amazement
Source:
Tags:
BeatmapID:1891362
BeatmapSetID:906312

[Difficulty]
HPDrainRate:5
CircleSize:2
OverallDifficulty:7
ApproachRate:10
SliderMultiplier:1.4
SliderTickRate:1

[Events]
//Background and Video events
0,0,"nice.jpg",0,-60
//Break Periods
2,128685,135235
//Storyboard Layer 0 (Background)
//Storyboard Layer 1 (Fail)
//Storyboard Layer 2 (Pass)
//Storyboard Layer 3 (Foreground)
//Storyboard Sound Samples

[TimingPoints]
85,300,3,1,0,50,1,0
85,-142.857142857143,3,1,0,50,0,0
6365,-142.857142857143,3,1,0,20,0,0
6515,-130.513033684109,3,1,0,25,0,0
6665,-120.132530207325,3,1,0,30,0,0
6815,-111.281619281098,3,1,0,35,0,0
6965,-103.645416592387,3,1,0,40,0,0
7115,-96.9900119685675,3,1,0,45,0,0
7265,-91.137680782982,3,1,0,50,0,0
8335,-83.3333333333333,3,1,0,50,0,0
8410,-84.0277526861572,3,1,0,50,0,0
8485,-84.7339143255392,3,1,0,50,0,0
8560,-85.4519725733349,3,1,0,50,0,0
8635,-86.1823048767981,3,1,0,50,0,0
8710,-86.9253042168334,3,1,0,50,0,0
8785,-87.6811492543595,3,1,0,50,0,0
8860,-88.4502542502558,3,1,0,50,0,0
8935,-89.2330508512387,3,1,0,50,0,0
9010,-90.0297458280216,3,1,0,50,0,0
9085,-90.8408776682237,3,1,0,50,0,0
9685,-90.9090909090909,3,1,0,50,0,0
9760,-88.9292034611246,3,1,0,50,0,0
9835,-87.0337168619123,3,1,0,50,0,0
9885,-85.8143697878497,3,1,0,50,0,0
9935,-84.6286452731093,3,1,0,50,0,0
9985,-83.4753109246644,3,1,0,50,0,0
10135,-111.111111111111,3,1,0,50,0,0
10210,-105.33911293933,3,1,0,50,0,0
10285,-100.137187947488,3,1,0,50,0,0
10360,-95.4248553120631,3,1,0,50,0,0
10435,-91.136102655706,3,1,0,50,0,0
10510,-87.2162745568323,3,1,0,50,0,0
10585,-83.6197309117059,3,1,0,50,0,0
10735,-86.9565217391304,3,1,0,50,0,0
10885,-90.9090909090909,3,1,0,50,0,0
11710,-90.0968270600414,3,1,0,50,0,0
11785,-89.2988699228011,3,1,0,50,0,0
11860,-88.515001522458,3,1,0,50,0,0
11935,-87.7447750180096,3,1,0,50,0,0
12010,-86.9877616918076,3,1,0,50,0,0
12085,-86.243773199575,3,1,0,50,0,0
12160,-85.5124031465144,3,1,0,50,0,0
12235,-84.7932613099372,3,1,0,50,0,0
12310,-84.0861849761531,3,1,0,50,0,0
12385,-83.3907339552058,3,1,0,50,0,0
12535,-86.9565217391304,3,1,0,50,0,0
12685,-90.9090909090909,3,1,0,50,0,0
12760,-87.6133168737115,3,1,0,50,0,0
12835,-84.5480778417243,3,1,0,50,0,0
12910,-81.6901362428092,3,1,0,50,0,0
12985,-79.0190886412431,3,1,0,50,0,0
13060,-76.5171241497991,3,1,0,50,0,0
13135,-74.1687903663641,3,1,0,50,0,0
13210,-71.9603066948271,3,1,0,50,0,0
13285,-69.8795416461104,3,1,0,50,0,0
13360,-67.9156813233235,3,1,0,50,0,0
13435,-66.0592300268267,3,1,0,50,0,0
13585,-62.6349783784055,3,1,0,50,0,0
13660,0.1,3,1,0,50,1,0
13660,-99999999999,4,1,0,50,0,0
14012,0.2,3,1,0,50,1,0
14012,-99999999999,4,1,0,50,0,0
14222,0.4,3,1,0,50,1,0
14222,-99999999999,4,1,0,50,0,0
14485,300,3,1,0,50,1,0
14485,-90.9090909090909,3,1,0,50,0,0
15535,-76.9230769230769,3,1,0,50,0,0
15685,-81.9228270584544,3,1,0,50,0,0
15835,-87.6176924654042,3,1,0,50,0,0
15910,-90.7726843207435,3,1,0,50,0,0
15985,-94.1634658935218,3,1,0,50,0,0
16135,-101.76615156033,3,1,0,50,0,0
16285,-110.704456740019,3,1,0,50,0,0
17260,-107.195267972091,3,1,0,50,0,0
17335,-103.546144821709,3,1,0,50,0,0
17410,-100.137187947488,3,1,0,50,0,0
17485,-96.9455369667874,3,1,0,50,0,0
17635,-91.136102655706,3,1,0,50,0,0
17785,-77.0855495428827,3,1,0,50,0,0
17935,-71.5686414840473,3,1,0,50,0,0
18085,-66.7886672989327,3,1,0,50,0,0
18535,-90.9090909090909,3,1,0,50,0,0
18685,-96.6887020218575,3,1,0,50,0,0
18760,-99.8631874332165,3,1,0,50,0,0
18835,-103.253198525957,3,1,0,50,0,0
18910,-106.881455639921,3,1,0,50,0,0
18985,-111.111111111111,3,1,0,50,0,0
19135,-98.4385674432157,3,1,0,50,0,0
19285,-88.3607664059435,3,1,0,50,0,0
19435,-80.1547949399881,3,1,0,50,0,0
19585,-73.3434645105644,3,1,0,50,0,0
19660,-70.3542123529333,3,1,0,50,0,0
19735,-67.5990833564297,3,1,0,50,0,0
19810,-65.0516086937572,3,1,0,50,0,0
19885,-62.6891645540418,3,1,0,50,0,0
20485,-125,3,1,0,30,0,0
21010,-137.784128095148,3,1,0,30,0,0
21085,-142.647044139275,3,1,0,30,0,0
21385,-166.09585059346,3,1,0,30,0,0
21685,-50,3,1,0,50,0,1
22810,-83.3333333333333,3,1,0,30,0,0
23035,-71.5339306893439,3,1,0,30,0,0
23110,-66.8044173752945,3,1,0,30,0,0
23185,-62.6615100421336,3,1,0,30,0,0
23335,-55.7471398929878,3,1,0,30,0,0
23485,-50,3,1,0,50,0,1
24385,-50,3,1,0,50,0,0
24535,-71.4285714285714,3,1,0,50,0,0
24685,-64.5805429157082,3,1,0,50,0,0
24835,-58.9307487092693,3,1,0,50,0,0
24910,-56.4610018214319,3,1,0,50,0,0
24985,-54.1899389875477,3,1,0,50,0,0
25135,-50.1551298165225,3,1,0,50,0,0
25285,-50,3,1,0,50,0,1
26185,-50,3,1,0,50,0,0
26410,-71.4285714285714,3,1,0,50,0,0
26560,-75.42769388123,3,1,0,50,0,0
26785,-82.3429534605861,3,1,0,50,0,0
27010,-90.6541878155332,3,1,0,50,0,0
27085,-50,3,1,0,50,0,1
27985,-50,3,1,0,5,0,0
28810,-50,3,1,0,60,0,0
28885,-50,3,1,0,60,0,1
30685,-50,3,1,0,60,0,0
30985,-50,3,1,0,60,0,1
32485,-50,3,1,0,60,0,0
32785,-50,3,1,0,60,0,1
34285,-50,3,1,0,50,0,0
34585,-52.1699844168257,3,1,0,50,0,0
34735,-53.3271616031638,3,1,0,50,0,0
35035,-55.8026995113916,3,1,0,50,0,0
35185,-57.1287218648186,3,1,0,50,0,0
35485,-59.9792231970845,3,1,0,50,0,0
35635,-61.5138559960631,3,1,0,50,0,0
35935,-64.8314608926903,3,1,0,50,0,0
36085,-66.6281555927341,3,1,0,50,0,0
36385,-70.5378795466954,3,1,0,50,0,0
36535,-72.67003516503,3,1,0,50,0,0
36835,-77.3458613003077,3,1,0,50,0,0
36985,-79.9168864381044,3,1,0,50,0,0
37285,-85.6083026356228,3,1,0,50,0,0
37435,-88.7692673694825,3,1,0,50,0,0
37735,-95.8471353208195,3,1,0,40,0,0
37885,-99.8269998093304,3,1,0,40,0,0
39685,1200,3,1,0,40,1,0
39685,-25,3,1,0,40,0,0
39760,-100,3,1,0,5,0,0
43285,300,4,1,0,50,1,8
43585,-100,4,1,0,50,0,8
43735,-96.7957696376837,4,1,0,50,0,8
43885,-93.7904178081742,4,1,0,50,0,8
44185,-88.3069266187101,4,1,0,50,0,8
44335,-85.7988343370367,4,1,0,50,0,8
44485,-83.429207397501,4,1,0,50,0,8
48685,-62.5,4,1,0,50,0,8
49285,-83.429207397501,4,1,0,50,0,8
52885,-83.3333333333333,4,1,0,50,0,8
52960,-81.6498495193273,4,1,0,50,0,8
53035,-80.0329735851171,4,1,0,50,0,8
53110,-78.4789523373779,4,1,0,50,0,8
53185,-76.9841312610232,4,1,0,50,0,8
53260,-75.5451907553839,4,1,0,50,0,8
53335,-74.1589998620643,4,1,0,50,0,8
53410,-72.8228162622087,4,1,0,50,0,8
53485,-71.4285714285714,4,1,0,50,0,8
53635,-74.045826962307,4,1,0,50,0,8
53785,-76.8621193499617,4,1,0,50,0,8
53935,-79.9011782227741,4,1,0,50,0,8
54085,-83.1903845225953,4,1,0,50,0,8
57685,-83.3333333333333,4,1,0,50,0,8
57760,-81.6498495193273,4,1,0,50,0,8
57835,-80.0329735851171,4,1,0,50,0,8
57910,-78.4789523373779,4,1,0,50,0,8
57985,-76.9841312610232,4,1,0,50,0,8
58060,-75.5451907553839,4,1,0,50,0,8
58135,-74.1589998620643,4,1,0,50,0,8
58210,-72.8228162622087,4,1,0,50,0,8
58285,-71.5339306893439,4,1,0,50,0,8
58585,-62.5806508137362,4,1,0,50,0,8
58885,-83.4767742570985,4,1,0,50,0,8
63010,-83.4767742570985,4,1,0,30,0,8
63085,-125,4,1,0,30,0,8
63160,-121.224904929368,4,1,0,30,0,8
63235,-117.671008334638,4,1,0,30,0,8
63310,-114.319683563116,4,1,0,30,0,8
63385,-111.153843588757,4,1,0,30,0,8
63460,-108.158738090371,4,1,0,30,0,8
63535,-105.320696254059,4,1,0,30,0,8
63610,-102.627889744805,4,1,0,30,0,8
63685,-100.06924791956,4,1,0,30,0,8
63835,-95.316617975761,4,1,0,30,0,8
63985,-90.9949570594798,4,1,0,30,0,8
64135,-87.0481872650243,4,1,0,30,0,8
64285,-83.4295554205851,4,1,0,30,0,8
64435,-80.0997722763474,4,1,0,30,0,8
64585,-77.0255801951828,4,1,0,30,0,8
64735,-74.1786384807621,4,1,0,30,0,8
64885,-71.4285714285714,4,1,0,30,0,8
65035,-72.9121780107079,4,1,0,30,0,8
65185,-74.4586668771365,4,1,0,30,0,8
65335,-76.0722381973922,4,1,0,30,0,8
65485,-77.7572930509085,4,1,0,30,0,8
65635,-79.5186260453717,4,1,0,30,0,8
65785,-81.3616688905523,4,1,0,30,0,8
65935,-83.2921731177843,4,1,0,30,0,8
66085,-85.3164429527338,4,1,0,30,0,8
66235,-87.441632710166,4,1,0,30,0,8
66385,-89.6753215308653,4,1,0,30,0,8
66535,-92.0262053822447,4,1,0,30,0,8
66685,-94.5036667422696,4,1,0,30,0,8
66835,-97.1181169962532,4,1,0,30,0,8
66985,-99.8814407298537,4,1,0,30,0,8
67360,-95.3307022059524,4,1,0,30,0,8
67435,-91.0780821506086,4,1,0,30,0,8
67510,-87.1885950342608,4,1,0,30,0,8
67585,-83.6177731249132,4,1,0,30,0,8
68185,-83.6177731249132,4,1,0,30,0,9
68335,-83.6177731249132,4,1,0,50,0,8
72685,-62.4195567961789,4,1,0,50,0,8
73285,-83.1903845225953,4,1,0,50,0,8
77785,-83.6177731249132,4,1,0,50,0,9
77935,-83.1903845225953,4,1,0,50,0,8
78460,-82.6446280991736,4,1,0,50,0,8
78535,-83.3333333333333,4,1,0,50,0,8
78610,-82.6446280991736,4,1,0,50,0,8
78685,-83.3333333333333,4,1,0,50,0,8
78760,-81.9672131147541,4,1,0,50,0,8
78835,-83.3333333333333,4,1,0,50,0,8
78910,-81.9672131147541,4,1,0,50,0,8
78985,-83.3333333333333,4,1,0,50,0,8
79060,-81.3008130081301,4,1,0,50,0,8
79135,-83.3333333333333,4,1,0,50,0,8
79210,-81.3008130081301,4,1,0,50,0,8
79285,-83.3333333333333,4,1,0,50,0,8
79360,-80.6451612903226,4,1,0,50,0,8
79435,-83.3333333333333,4,1,0,50,0,8
79510,-80.6451612903226,4,1,0,50,0,8
79585,-83.3333333333333,4,1,0,50,0,8
79660,-80,4,1,0,50,0,8
79735,-83.3333333333333,4,1,0,50,0,8
79810,-80,4,1,0,50,0,8
79885,-83.3333333333333,4,1,0,50,0,8
79960,-79.3650793650794,4,1,0,50,0,8
80035,-83.3333333333333,4,1,0,50,0,8
80110,-79.3650793650794,4,1,0,50,0,8
80185,-83.3333333333333,4,1,0,50,0,8
80260,-78.7401574803149,4,1,0,50,0,8
80335,-83.3333333333333,4,1,0,50,0,8
80410,-78.7401574803149,4,1,0,50,0,8
80485,-83.3333333333333,4,1,0,50,0,8
89785,-76.9230769230769,4,1,0,50,0,8
89935,-71.4285714285714,4,1,0,50,0,8
90085,-66.6666666666667,4,1,0,50,0,8
92185,-83.3333333333333,4,1,0,50,0,9
92335,-83.3333333333333,4,1,0,50,0,8
101785,-62.5,4,1,0,50,0,9
101935,-83.3333333333333,4,1,0,50,0,8
105160,-83.3333333333333,4,1,0,50,0,8
105235,-82.6118564536382,4,1,0,50,0,8
105310,-81.9026979567734,4,1,0,50,0,8
105385,-81.2056769264626,4,1,0,50,0,8
105460,-80.5204195758023,4,1,0,50,0,8
105535,-79.8465668371657,4,1,0,50,0,8
105610,-79.1839617636485,4,1,0,50,0,8
105685,-78.5322634097766,4,1,0,50,0,8
105760,-77.8911440105994,4,1,0,50,0,8
105835,-77.2604674412801,4,1,0,50,0,8
105910,-76.6399218885916,4,1,0,50,0,8
105985,-76.0292073803072,4,1,0,50,0,8
106060,-75.4282059250364,4,1,0,50,0,8
106135,-74.8365756279724,4,1,0,50,0,8
106210,-74.2542092854889,4,1,0,50,0,8
106285,-73.6808367195818,4,1,0,50,0,8
106360,-73.1161977237465,4,1,0,50,0,8
106435,-72.5601995695729,4,1,0,50,0,8
106510,-72.0125935623622,4,1,0,50,0,8
106585,-71.4731400366085,4,1,0,50,0,8
106885,-62.5341201793228,4,1,0,50,0,8
108085,-50,4,1,0,50,0,9
109135,-50,4,1,0,50,0,8
110485,-50,4,1,0,50,0,9
111385,-50,4,1,0,50,0,8
111685,-50,4,1,0,50,0,9
112585,-50,4,1,0,50,0,8
112885,-62.5341201793228,4,1,0,50,0,8
114085,-83.3333333333333,4,1,0,50,0,8
114160,-81.6369848196027,4,1,0,50,0,8
114235,-80.00832086537,4,1,0,50,0,8
114310,-78.4433697702786,4,1,0,50,0,8
114385,-76.9384646160001,4,1,0,50,0,8
114460,-75.4902145809349,4,1,0,50,0,8
114535,-74.0954794347997,4,1,0,50,0,8
114610,-72.7513468093078,4,1,0,50,0,8
114685,-71.4550608404115,4,1,0,50,0,8
114835,-68.9963990779321,4,1,0,50,0,8
114985,-66.7013068787057,4,1,0,50,0,8
115135,-64.5539868219491,4,1,0,50,0,8
115285,-62.5406123101189,4,1,0,50,0,8
115360,-61.5802982457005,4,1,0,50,0,8
115435,-60.6490295245541,4,1,0,50,0,8
115510,-59.7455080339785,4,1,0,50,0,8
115585,-58.8685118805487,4,1,0,50,0,8
115735,-57.1895565007083,4,1,0,50,0,8
115885,-55.6036836328333,4,1,0,50,0,8
116035,-54.1034197689568,4,1,0,50,0,8
116185,-52.6819872909974,4,1,0,50,0,8
116335,-51.3333319644445,4,1,0,50,0,8
116485,-50.0520040321894,4,1,0,50,0,9
117085,-62.5812774340675,4,1,0,50,0,8
117685,-71.4285714285714,4,1,0,50,0,8
117760,-70.4307190624263,4,1,0,50,0,8
117835,-69.4604106916242,4,1,0,50,0,8
117910,-68.5164274986571,4,1,0,50,0,8
117985,-67.5977581879475,4,1,0,50,0,8
118060,-66.7033980045011,4,1,0,50,0,8
118135,-65.8324380121764,4,1,0,50,0,8
118210,-64.9838872451576,4,1,0,50,0,8
118285,-64.1569329906498,4,1,0,50,0,8
118360,-63.3508012609344,4,1,0,50,0,8
118435,-62.5646370906943,4,1,0,50,0,8
118435,-62.5646370906943,4,1,0,50,0,8
118435,-62.5646370906943,4,1,0,50,0,8
118585,0.1,3,1,0,50,1,0
118585,-99999999999,4,1,0,50,0,0
118735,0.2,3,1,0,50,1,0
118735,-99999999999,4,1,0,50,0,0
118885,300,4,1,0,50,1,0
118885,-50,4,1,0,50,0,1
121285,-50,4,1,0,50,0,0
121585,-55.5555555555556,4,1,0,50,0,0
121885,-62.5,4,1,0,50,0,0
122185,-71.4285714285714,4,1,0,50,0,0
122485,-71.4285714285714,4,1,0,50,0,1
122560,-69.5746069382581,4,1,0,50,0,1
122635,-67.8144948057488,4,1,0,50,0,1
122710,-66.1411969043274,4,1,0,50,0,1
122785,-64.5484865639098,4,1,0,50,0,1
122860,-63.0307186510418,4,1,0,50,0,1
122935,-61.5826494580111,4,1,0,50,0,1
123010,-60.1996219463742,4,1,0,50,0,1
123085,-58.8773502366281,4,1,0,50,0,1
123160,-57.6119501011378,4,1,0,50,0,1
123235,-56.3997660537704,4,1,0,50,0,1
123310,-55.2375407584004,4,1,0,50,0,1
123385,-54.1222773788365,4,1,0,50,0,1
123460,-53.051129617703,4,1,0,50,0,1
123535,-52.0215577335248,4,1,0,50,0,1
123610,-51.0312132415792,4,1,0,50,0,1
123685,-50.0778460116251,4,1,0,50,0,0
123985,-55.6516783711422,4,1,0,50,0,0
124285,-62.6216817553609,4,1,0,50,0,0
124585,-71.5875469166886,4,1,0,50,0,0
124885,-71.4285714285714,4,1,0,50,0,1
124960,-69.5746069382581,4,1,0,50,0,1
125035,-67.8144948057488,4,1,0,50,0,1
125110,-66.1411969043274,4,1,0,50,0,1
125185,-64.5484865639098,4,1,0,50,0,1
125335,-61.5826494580111,4,1,0,50,0,1
125485,-58.8773502366281,4,1,0,50,0,1
125635,-56.3997660537704,4,1,0,50,0,1
125785,-54.1222773788365,4,1,0,50,0,1
125835,-53.4034271115315,4,1,0,50,0,1
125885,-52.7034498097142,4,1,0,50,0,1
125935,-52.0215577335248,4,1,0,50,0,1
126085,-50.0778460116251,4,1,0,50,0,0
127285,-50,4,1,0,50,0,1
127435,-47.0731780797156,4,1,0,50,0,1
127585,-44.4700394226899,4,1,0,50,0,1
127660,-43.273539399043,4,1,0,50,0,1
127735,-42.1397378992582,4,1,0,50,0,1
127810,-41.0638324956996,4,1,0,50,0,1
127885,-40.0414990095735,4,1,0,50,0,1
127935,-39.3877567097044,4,1,0,50,0,1
127985,-38.7550182904309,4,1,0,50,0,1
128035,-38.1422875150376,4,1,0,50,0,1
128085,-37.54864426865,4,1,0,50,0,1
128135,-36.9731829806523,4,1,0,50,0,1
128185,-36.4150942022072,4,1,0,50,0,1
128222,-36.0074636270606,4,1,0,50,0,1
128260,-35.6088580595309,4,1,0,50,0,1
128297,-35.2189810585276,4,1,0,50,0,1
128335,-34.8375490251409,4,1,0,50,0,1
128372,-34.464290514669,4,1,0,50,0,1
128410,-34.0989455924044,4,1,0,50,0,1
128447,-33.7412538452376,4,1,0,50,0,1
128485,300,3,1,0,50,1,0
128485,-33.3333333333333,4,1,0,50,0,0
128560,4000,3,1,0,5,1,8
134785,0.2,3,1,0,50,1,0
134785,-99999999999,4,1,0,50,0,0
135085,0.1,3,1,0,50,1,0
135085,-99999999999,4,1,0,50,0,0
135385,0.4,3,1,0,50,1,0
135385,-99999999999,4,1,0,50,0,0
135685,300,3,1,0,50,1,0
135685,-90.9090909090909,3,1,0,50,0,0
137035,-62.5,3,1,0,50,0,0
137485,-90.9090909090909,3,1,0,50,0,0
138385,-62.5,3,1,0,50,0,0
138685,-71.4285714285714,3,1,0,50,0,0
138985,-83.3333333333333,3,1,0,50,0,0
139285,-90.9090909090909,3,1,0,50,0,0
140635,-62.5,3,1,0,50,0,0
141085,-90.9090909090909,3,1,0,50,0,0
142285,-62.5,3,1,0,50,0,0
142435,-66.6666666666667,3,1,0,50,0,0
142735,-83.3333333333333,3,1,0,50,0,0
142885,-90.9090909090909,3,1,0,50,0,0
144235,-62.5,3,1,0,50,0,0
144535,-83.3333333333333,3,1,0,50,0,0
144685,-90.9090909090909,3,1,0,50,0,0
145585,-62.5,3,1,0,50,0,0
145885,-71.4285714285714,3,1,0,50,0,0
146035,-76.9230769230769,3,1,0,50,0,0
146335,-83.3333333333333,3,1,0,50,0,0
146485,-90.9090909090909,3,1,0,50,0,0
147835,-62.5,3,1,0,50,0,0
148285,-90.9090909090909,3,1,0,50,0,0
149485,-62.5,3,1,0,50,0,0
149635,-66.6666666666667,3,1,0,50,0,0
149935,-83.3333333333333,3,1,0,50,0,0
150085,-90.9090909090909,3,1,0,50,0,0
151435,-62.5,3,1,0,50,0,0
151885,-90.9090909090909,3,1,0,50,0,0
152785,-62.5,3,1,0,50,0,0
153085,-71.4285714285714,3,1,0,50,0,0
153235,-76.9230769230769,3,1,0,50,0,0
153535,-83.3333333333333,3,1,0,50,0,0
153685,-90.9090909090909,3,1,0,50,0,0
155035,-62.5,3,1,0,50,0,0
155485,-90.9090909090909,3,1,0,50,0,0
156385,-62.5,3,1,0,50,0,0
156685,-71.4285714285714,3,1,0,50,0,0
156985,-83.3333333333333,3,1,0,50,0,0
157285,-90.9090909090909,3,1,0,50,0,0
158635,-62.5,3,1,0,50,0,0
159085,-90.9090909090909,3,1,0,50,0,0
159985,-62.5,3,1,0,50,0,0
160285,-71.4285714285714,3,1,0,50,0,0
160435,-76.9230769230769,3,1,0,50,0,0
160735,-83.3333333333333,3,1,0,50,0,0
160885,-90.9090909090909,3,1,0,50,0,0
161785,-62.5,3,1,0,50,0,0
161860,-64.1592792603205,3,1,0,50,0,0
161935,-65.9091073863678,3,1,0,50,0,0
162010,-67.7570125120099,3,1,0,50,0,0
162085,-69.7115267312335,3,1,0,50,0,0
162160,-71.7822013160549,3,1,0,50,0,0
162235,-73.9795993856734,3,1,0,50,0,0
162310,-76.3157794321343,3,1,0,50,0,0
162385,-78.8043178461834,3,1,0,50,0,0
162460,-81.4606878866328,3,1,0,50,0,0
162535,-84.302318229449,3,1,0,50,0,0
162610,-87.3493660183014,3,1,0,50,0,0
162685,-90.6250226562557,3,1,0,50,0,0
164035,-62.3656021274154,3,1,0,50,0,0
164485,-90.6250226562557,3,1,0,50,0,0
165835,-62.3656021274154,3,1,0,50,0,0
166285,-90.6250226562557,3,1,0,50,0,0
167185,-62.3656021274154,3,1,0,50,0,0
167485,-66.5137736722521,3,1,0,50,0,0
167635,-71.2530852585917,3,1,0,50,0,0
167785,-76.7195929565276,3,1,0,50,0,0
167935,-83.0945749213925,3,1,0,50,0,0
168085,-90.6250226562557,3,1,0,50,0,0
169435,-62.3656021274154,3,1,0,50,0,0
169885,-90.6250226562557,3,1,0,50,0,0
171085,-62.3656021274154,3,1,0,50,0,0
171235,-66.5137736722521,3,1,0,50,0,0
171535,-83.0945749213925,3,1,0,50,0,0
171685,-90.6250226562557,3,1,0,50,0,0
171985,-62.5,3,1,0,50,0,0
172135,-67.7374145577187,3,1,0,50,0,0
172285,-73.9329442981804,3,1,0,50,0,0
172360,-77.4760172988452,3,1,0,50,0,0
172435,-81.3758375608081,3,1,0,50,0,0
172585,-90.4850450841737,3,1,0,50,0,0
172860,-62.3656021274154,3,1,0,50,0,0
173010,-66.5137736722521,3,1,0,50,0,0
173310,-83.0945749213925,3,1,0,50,0,0
173460,-90.6250226562557,3,1,0,50,0,0
173760,-62.5,3,1,0,50,0,0
173910,-67.7374145577187,3,1,0,50,0,0
174060,-73.9329442981804,3,1,0,50,0,0
174135,-77.4760172988452,3,1,0,50,0,0
174210,-81.3758375608081,3,1,0,50,0,0
174360,-90.4850450841737,3,1,0,50,0,0
174660,-62.3656021274154,3,1,0,50,0,0
174810,-66.5137736722521,3,1,0,50,0,0
175110,-83.0945749213925,3,1,0,50,0,0
175260,-90.6250226562557,3,1,0,50,0,0
175585,-62.3656021274154,3,1,0,50,0,1
175735,-66.5137736722521,3,1,0,50,0,1
175885,-71.2530852585917,3,1,0,50,0,1
176035,-76.7195929565276,3,1,0,50,0,1
176185,-83.0945749213925,3,1,0,50,0,1
176485,-62.5,3,1,0,50,0,1
176635,-64.5161290322581,3,1,0,50,0,1
176785,-66.6666666666667,3,1,0,50,0,1
176935,-68.9655172413793,3,1,0,50,0,1
177085,-71.4285714285714,3,1,0,50,0,1
177385,-62.5,3,1,0,50,0,1
178285,-62.5,3,1,0,50,0,1
178360,-62.0167345956633,3,1,0,50,0,1
178435,-61.5409231753886,3,1,0,50,0,1
178510,-61.0723200091853,3,1,0,50,0,1
178585,-60.610836005261,3,1,0,50,0,1
178660,-60.1562377807642,3,1,0,50,0,1
178735,-59.7084436695615,3,1,0,50,0,1
178810,-59.2672317994776,3,1,0,50,0,1
178885,-58.8325273277089,3,1,0,50,0,1
178960,-58.4041191257137,3,1,0,50,0,1
179035,-57.981938626118,3,1,0,50,0,1
179110,-57.5657847396559,3,1,0,50,0,1
179185,-57.1555946753848,3,1,0,50,0,1
179260,-56.7511767356496,3,1,0,50,0,1
179335,-56.3524734509409,3,1,0,50,0,1
179410,-55.9593019189004,3,1,0,50,0,1
179485,-55.571578694079,3,1,0,50,0,1
179560,-55.189221765746,3,1,0,50,0,1
179635,-54.8120604072755,3,1,0,50,0,1
179710,-54.4400487129556,3,1,0,50,0,1
179785,-54.0730234552554,3,1,0,50,0,1
179860,-53.7109427452093,3,1,0,50,0,1
179935,-53.353650403407,3,1,0,50,0,1
180010,-53.0011082531736,3,1,0,50,0,1
180085,-52.6531667457342,3,1,0,50,0,1
180160,-52.3097911374659,3,1,0,50,0,1
180235,-51.9708381233122,3,1,0,50,0,1
180310,-51.6362761363466,3,1,0,50,0,1
180385,-51.3059677562515,3,1,0,50,0,1
180460,-50.9798843572303,3,1,0,50,0,1
180535,-50.6578940702909,3,1,0,50,0,1
180685,-50.0259885010263,3,1,0,50,0,0
180760,4000,7,1,0,5,1,0
193885,300,3,1,0,5,1,0

[HitObjects]
227,159,85,5,0,0:0:0:0:
230,160,385,1,0,0:0:0:0:
230,160,535,1,8,0:0:0:0:
229,167,835,1,8,0:0:0:0:
242,161,985,1,0,0:0:0:0:
242,161,1285,1,0,0:0:0:0:
242,161,1435,1,8,0:0:0:0:
244,164,1735,1,8,0:0:0:0:
244,164,1885,1,8,0:0:0:0:
237,166,2185,1,0,0:0:0:0:
237,166,2335,1,8,0:0:0:0:
239,160,2635,1,8,0:0:0:0:
239,160,2785,1,0,0:0:0:0:
238,160,3085,1,0,0:0:0:0:
238,160,3235,1,8,0:0:0:0:
238,160,3535,1,8,0:0:0:0:
251,163,3685,1,0,0:0:0:0:
250,155,3985,1,0,0:0:0:0:
250,155,4135,1,8,0:0:0:0:
249,154,4435,1,8,0:0:0:0:
249,154,4585,1,0,0:0:0:0:
249,154,4735,1,8,0:0:0:0:
257,142,4885,1,0,0:0:0:0:
249,154,5035,1,8,0:0:0:0:
249,154,5335,1,8,0:0:0:0:
258,142,5485,1,8,0:0:0:0:
257,142,5785,1,0,0:0:0:0:
257,142,5935,1,8,0:0:0:0:
260,143,6235,1,8,0:0:0:0:
260,143,6385,1,0,0:0:0:0:
260,143,6535,1,0,0:0:0:0:
260,143,6685,1,0,0:0:0:0:
268,142,6835,1,8,0:0:0:0:
268,142,6985,1,8,0:0:0:0:
268,142,7135,1,8,0:0:0:0:
258,135,7285,1,0,0:0:0:0:
267,116,7435,1,8,0:0:0:0:
261,117,7510,1,0,0:0:0:0:
267,116,7585,1,8,0:0:0:0:
275,109,7735,1,0,0:0:0:0:
267,116,7810,1,0,0:0:0:0:
275,109,7885,1,8,0:0:0:0:
269,107,8035,1,8,0:0:0:0:
269,107,8185,1,0,0:0:0:0:
268,95,8335,1,8,0:0:0:0:
268,95,8410,1,0,0:0:0:0:
268,95,8485,1,8,0:0:0:0:
268,95,8560,1,0,0:0:0:0:
268,95,8635,1,8,0:0:0:0:
268,95,8710,1,8,0:0:0:0:
268,95,8785,1,0,0:0:0:0:
268,95,8860,1,0,0:0:0:0:
268,95,8935,1,8,0:0:0:0:
268,95,9010,1,0,0:0:0:0:
268,95,9085,1,8,0:0:0:0:
268,95,9235,1,8,0:0:0:0:
275,88,9385,1,0,0:0:0:0:
275,88,9460,1,0,0:0:0:0:
275,88,9535,1,0,0:0:0:0:
275,88,9685,1,8,0:0:0:0:
275,88,9760,1,8,0:0:0:0:
275,88,9835,1,0,0:0:0:0:
275,88,9885,1,0,0:0:0:0:
288,87,9935,1,0,0:0:0:0:
275,88,9985,1,8,0:0:0:0:
237,136,10135,1,0,0:0:0:0:
237,136,10210,1,0,0:0:0:0:
237,136,10285,1,0,0:0:0:0:
239,129,10360,1,0,0:0:0:0:
237,136,10435,1,0,0:0:0:0:
239,129,10510,1,0,0:0:0:0:
254,114,10585,1,8,0:0:0:0:
254,113,10735,1,8,0:0:0:0:
254,113,10885,1,0,0:0:0:0:
242,106,11035,1,8,0:0:0:0:
242,106,11110,1,0,0:0:0:0:
242,106,11185,1,8,0:0:0:0:
242,106,11260,1,8,0:0:0:0:
250,108,11335,1,0,0:0:0:0:
250,108,11485,1,8,0:0:0:0:
250,108,11635,1,0,0:0:0:0:
250,108,11710,1,8,0:0:0:0:
250,108,11785,1,0,0:0:0:0:
250,108,11860,1,0,0:0:0:0:
250,108,11935,1,0,0:0:0:0:
250,108,12010,1,0,0:0:0:0:
250,108,12085,1,8,0:0:0:0:
250,108,12160,1,8,0:0:0:0:
250,108,12235,1,8,0:0:0:0:
250,108,12310,1,0,0:0:0:0:
250,108,12385,1,8,0:0:0:0:
250,108,12535,1,0,0:0:0:0:
250,108,12685,1,0,0:0:0:0:
250,108,12760,1,0,0:0:0:0:
250,108,12835,1,8,0:0:0:0:
250,108,12910,1,0,0:0:0:0:
244,112,12985,1,8,0:0:0:0:
250,108,13060,1,8,0:0:0:0:
250,108,13135,1,0,0:0:0:0:
248,104,13210,1,0,0:0:0:0:
250,108,13285,1,8,0:0:0:0:
250,108,13360,1,0,0:0:0:0:
248,104,13435,1,0,0:0:0:0:
250,108,13585,1,8,0:0:0:0:
264,96,14485,1,0,0:0:0:0:
240,126,14635,1,8,0:0:0:0:
240,126,14710,1,0,0:0:0:0:
240,126,14785,1,8,0:0:0:0:
249,114,14935,1,0,0:0:0:0:
249,114,15085,1,8,0:0:0:0:
249,114,15160,1,0,0:0:0:0:
249,114,15235,1,8,0:0:0:0:
249,114,15310,1,8,0:0:0:0:
249,114,15385,1,0,0:0:0:0:
249,114,15535,1,8,0:0:0:0:
244,131,15685,1,0,0:0:0:0:
244,131,15835,1,8,0:0:0:0:
244,131,15910,1,0,0:0:0:0:
244,131,15985,1,8,0:0:0:0:
244,131,16135,1,0,0:0:0:0:
244,131,16285,1,0,0:0:0:0:
244,131,16360,1,0,0:0:0:0:
254,126,16435,1,8,0:0:0:0:
255,126,16510,1,0,0:0:0:0:
254,125,16585,1,8,0:0:0:0:
254,126,16660,1,0,0:0:0:0:
253,114,16735,1,0,0:0:0:0:
250,92,16885,1,8,0:0:0:0:
250,92,17035,1,8,0:0:0:0:
250,92,17185,1,0,0:0:0:0:
250,92,17260,1,8,0:0:0:0:
252,83,17335,1,0,0:0:0:0:
252,83,17410,1,0,0:0:0:0:
252,83,17485,1,8,0:0:0:0:
252,83,17635,1,8,0:0:0:0:
252,83,17785,1,4,0:0:0:0:
252,83,17935,1,12,0:0:0:0:
252,83,18085,1,4,0:0:0:0:
251,80,18535,1,8,0:0:0:0:
251,80,18685,1,8,0:0:0:0:
251,80,18760,1,0,0:0:0:0:
251,80,18835,1,0,0:0:0:0:
251,80,18910,1,8,0:0:0:0:
251,80,18985,1,0,0:0:0:0:
251,80,19135,1,8,0:0:0:0:
251,80,19285,1,0,0:0:0:0:
251,80,19435,1,8,0:0:0:0:
251,80,19585,1,8,0:0:0:0:
251,80,19660,1,0,0:0:0:0:
251,80,19735,1,8,0:0:0:0:
251,80,19810,1,8,0:0:0:0:
251,80,19885,1,0,0:0:0:0:
258,95,20785,1,8,0:0:0:0:
278,78,21010,1,8,0:0:0:0:
262,84,21085,1,0,0:0:0:0:
271,97,21385,1,0,0:0:0:0:
209,214,21685,2,4,L|283:190,12,70
245,94,22885,1,0,0:0:0:0:
261,108,23035,1,8,0:0:0:0:
261,109,23110,1,0,0:0:0:0:
261,108,23185,1,8,0:0:0:0:
261,109,23335,1,8,0:0:0:0:
168,213,23485,2,4,L|245:191,12,70
254,99,24535,1,0,0:0:0:0:
254,99,24685,1,8,0:0:0:0:
254,99,24835,1,0,0:0:0:0:
254,99,24910,1,0,0:0:0:0:
254,99,24985,1,8,0:0:0:0:
254,99,25135,1,0,0:0:0:0:
153,189,25285,2,4,L|228:177,12,70
243,136,26410,1,8,0:0:0:0:
256,111,26560,1,0,0:0:0:0:
256,111,26785,1,8,0:0:0:0:
256,111,27010,1,0,0:0:0:0:
250,223,27085,2,4,L|326:181,12,70
235,126,28885,1,12,0:0:0:0:
263,146,29035,1,12,0:0:0:0:
263,146,29185,1,12,0:0:0:0:
263,146,29335,1,12,0:0:0:0:
263,146,29485,1,12,0:0:0:0:
263,146,29635,1,12,0:0:0:0:
264,137,29785,1,12,0:0:0:0:
264,137,29935,1,12,0:0:0:0:
264,137,30085,1,12,0:0:0:0:
264,137,30235,1,12,0:0:0:0:
264,137,30385,1,12,0:0:0:0:
264,137,30535,1,12,0:0:0:0:
264,137,30685,1,4,0:0:0:0:
270,134,30985,1,12,0:0:0:0:
270,134,31135,1,12,0:0:0:0:
270,134,31285,1,12,0:0:0:0:
270,134,31435,1,12,0:0:0:0:
270,134,31585,1,12,0:0:0:0:
272,126,31735,1,12,0:0:0:0:
272,126,31885,1,12,0:0:0:0:
272,126,32035,1,12,0:0:0:0:
272,126,32185,1,12,0:0:0:0:
272,126,32335,1,12,0:0:0:0:
272,126,32485,1,4,0:0:0:0:
276,127,32785,1,12,0:0:0:0:
276,127,32935,1,12,0:0:0:0:
276,127,33085,1,12,0:0:0:0:
276,127,33235,1,12,0:0:0:0:
276,127,33385,1,12,0:0:0:0:
276,127,33535,1,12,0:0:0:0:
276,117,33685,1,12,0:0:0:0:
276,117,33835,1,12,0:0:0:0:
276,117,33985,1,12,0:0:0:0:
276,117,34135,1,12,0:0:0:0:
267,113,34285,1,4,0:0:0:0:
269,120,34585,1,4,0:0:0:0:
269,120,34735,1,4,0:0:0:0:
274,113,35035,1,4,0:0:0:0:
274,113,35185,1,4,0:0:0:0:
275,113,35485,1,4,0:0:0:0:
275,113,35635,1,4,0:0:0:0:
277,114,35935,1,4,0:0:0:0:
277,114,36085,1,4,0:0:0:0:
277,114,36385,1,4,0:0:0:0:
277,114,36535,1,4,0:0:0:0:
277,114,36835,1,4,0:0:0:0:
277,114,36985,1,4,0:0:0:0:
277,114,37285,1,4,0:0:0:0:
277,114,37435,1,4,0:0:0:0:
277,114,37735,1,4,0:0:0:0:
265,117,37885,1,0,0:0:0:0:
271,113,38185,1,0,0:0:0:0:
271,113,38335,1,8,0:0:0:0:
271,113,38485,1,0,0:0:0:0:
271,113,38635,1,0,0:0:0:0:
271,113,38785,1,8,0:0:0:0:
273,110,39085,1,0,0:0:0:0:
273,110,39235,1,8,0:0:0:0:
273,110,39385,1,0,0:0:0:0:
274,108,39535,1,8,0:0:0:0:
274,108,39685,1,0,0:0:0:0:
269,105,43585,1,8,0:0:0:0:
269,105,43735,1,8,0:0:0:0:
269,105,43885,1,0,0:0:0:0:
266,101,44185,1,0,0:0:0:0:
266,101,44335,1,8,0:0:0:0:
266,101,44485,1,0,0:0:0:0:
266,101,44635,1,8,0:0:0:0:
266,101,44710,1,8,0:0:0:0:
266,101,44785,1,0,0:0:0:0:
266,101,44935,1,8,0:0:0:0:
266,101,45085,1,0,0:0:0:0:
266,101,45235,1,8,0:0:0:0:
266,101,45310,1,0,0:0:0:0:
266,101,45385,1,8,0:0:0:0:
266,101,45460,1,8,0:0:0:0:
266,101,45535,1,8,0:0:0:0:
266,101,45685,1,0,0:0:0:0:
266,101,45835,1,8,0:0:0:0:
258,94,45910,1,8,0:0:0:0:
258,94,45985,1,0,0:0:0:0:
258,94,46060,1,0,0:0:0:0:
258,94,46135,1,8,0:0:0:0:
258,94,46210,1,0,0:0:0:0:
258,94,46285,1,8,0:0:0:0:
258,94,46435,1,0,0:0:0:0:
258,94,46585,1,8,0:0:0:0:
258,94,46660,1,0,0:0:0:0:
258,94,46735,1,8,0:0:0:0:
258,94,46885,1,0,0:0:0:0:
258,94,47035,1,0,0:0:0:0:
258,94,47110,1,0,0:0:0:0:
258,94,47185,1,8,0:0:0:0:
258,94,47335,1,8,0:0:0:0:
251,96,47485,1,0,0:0:0:0:
251,96,47560,1,8,0:0:0:0:
251,96,47635,1,0,0:0:0:0:
251,96,47785,1,8,0:0:0:0:
251,96,47860,1,8,0:0:0:0:
251,96,47935,1,0,0:0:0:0:
251,96,48010,1,0,0:0:0:0:
251,96,48085,1,8,0:0:0:0:
251,96,48235,1,0,0:0:0:0:
243,89,48310,1,8,0:0:0:0:
251,96,48385,1,0,0:0:0:0:
253,94,48535,1,8,0:0:0:0:
253,94,48685,1,4,0:0:0:0:
252,91,48985,1,4,0:0:0:0:
252,91,49285,1,0,0:0:0:0:
252,91,49360,1,0,0:0:0:0:
252,91,49435,1,8,0:0:0:0:
252,91,49585,1,0,0:0:0:0:
252,91,49735,1,8,0:0:0:0:
252,91,49885,1,0,0:0:0:0:
252,91,49960,1,8,0:0:0:0:
252,91,50035,1,0,0:0:0:0:
252,91,50110,1,0,0:0:0:0:
252,91,50185,1,8,0:0:0:0:
252,91,50335,1,8,0:0:0:0:
252,91,50485,1,0,0:0:0:0:
264,95,50635,1,8,0:0:0:0:
263,93,50710,1,8,0:0:0:0:
264,95,50785,1,0,0:0:0:0:
264,95,50860,1,0,0:0:0:0:
263,93,50935,1,8,0:0:0:0:
264,95,51085,1,0,0:0:0:0:
263,93,51160,1,8,0:0:0:0:
264,95,51235,1,8,0:0:0:0:
264,95,51310,1,0,0:0:0:0:
263,93,51385,1,8,0:0:0:0:
264,95,51460,1,0,0:0:0:0:
264,95,51535,1,8,0:0:0:0:
263,93,51610,1,8,0:0:0:0:
264,95,51685,1,0,0:0:0:0:
264,84,51760,1,0,0:0:0:0:
256,86,51835,1,8,0:0:0:0:
264,84,51985,1,0,0:0:0:0:
260,66,52135,1,8,0:0:0:0:
260,66,52210,1,0,0:0:0:0:
272,79,52285,1,0,0:0:0:0:
261,66,52360,1,8,0:0:0:0:
260,66,52510,1,0,0:0:0:0:
261,66,52585,1,8,0:0:0:0:
260,66,52735,1,0,0:0:0:0:
260,66,52885,1,0,0:0:0:0:
260,66,52960,1,8,0:0:0:0:
260,66,53035,1,0,0:0:0:0:
260,66,53110,1,0,0:0:0:0:
260,66,53185,1,8,0:0:0:0:
260,66,53260,1,8,0:0:0:0:
260,66,53335,1,8,0:0:0:0:
260,66,53410,1,8,0:0:0:0:
260,66,53485,1,0,0:0:0:0:
261,59,53635,1,0,0:0:0:0:
261,59,53785,1,8,0:0:0:0:
261,59,53935,1,8,0:0:0:0:
258,46,54085,1,0,0:0:0:0:
283,69,54385,1,8,0:0:0:0:
248,71,54460,1,0,0:0:0:0:
254,70,54610,1,8,0:0:0:0:
248,71,54685,1,0,0:0:0:0:
254,70,54760,1,0,0:0:0:0:
254,70,54835,1,8,0:0:0:0:
254,70,54985,1,0,0:0:0:0:
254,70,55060,1,8,0:0:0:0:
254,70,55135,1,0,0:0:0:0:
264,72,55210,1,8,0:0:0:0:
264,72,55285,1,0,0:0:0:0:
265,63,55435,1,8,0:0:0:0:
264,72,55510,1,8,0:0:0:0:
265,63,55585,1,0,0:0:0:0:
265,63,55660,1,0,0:0:0:0:
265,63,55735,1,8,0:0:0:0:
265,63,55885,1,0,0:0:0:0:
265,63,56035,1,8,0:0:0:0:
265,63,56110,1,0,0:0:0:0:
265,63,56185,1,8,0:0:0:0:
265,63,56335,1,8,0:0:0:0:
265,63,56410,1,8,0:0:0:0:
265,63,56485,1,0,0:0:0:0:
254,77,56635,1,8,0:0:0:0:
256,65,56710,1,0,0:0:0:0:
256,65,56785,1,0,0:0:0:0:
256,65,56935,1,8,0:0:0:0:
256,65,57085,1,0,0:0:0:0:
247,68,57235,1,8,0:0:0:0:
246,65,57310,1,8,0:0:0:0:
247,68,57385,1,0,0:0:0:0:
247,68,57460,1,0,0:0:0:0:
246,65,57535,1,8,0:0:0:0:
243,57,57685,1,0,0:0:0:0:
246,65,57760,1,8,0:0:0:0:
243,57,57835,1,0,0:0:0:0:
243,57,57910,1,8,0:0:0:0:
243,57,57985,1,0,0:0:0:0:
243,57,58060,1,0,0:0:0:0:
243,57,58135,1,8,0:0:0:0:
243,57,58210,1,0,0:0:0:0:
243,57,58285,1,8,0:0:0:0:
242,59,58585,1,0,0:0:0:0:
238,55,58885,1,0,0:0:0:0:
238,55,58960,1,0,0:0:0:0:
238,55,59110,1,0,0:0:0:0:
238,55,59185,1,8,0:0:0:0:
234,69,59335,1,0,0:0:0:0:
234,67,59410,1,8,0:0:0:0:
234,69,59485,1,0,0:0:0:0:
234,67,59635,1,8,0:0:0:0:
234,67,59785,1,0,0:0:0:0:
234,67,59935,1,8,0:0:0:0:
231,55,60085,1,0,0:0:0:0:
231,59,60160,1,8,0:0:0:0:
231,55,60310,1,8,0:0:0:0:
231,59,60385,1,0,0:0:0:0:
231,55,60535,1,8,0:0:0:0:
222,52,60685,1,0,0:0:0:0:
231,55,60760,1,0,0:0:0:0:
222,52,60835,1,8,0:0:0:0:
222,52,60910,1,0,0:0:0:0:
231,55,60985,1,8,0:0:0:0:
222,52,61060,1,0,0:0:0:0:
222,52,61135,1,8,0:0:0:0:
231,55,61210,1,8,0:0:0:0:
222,52,61285,1,0,0:0:0:0:
228,47,61360,1,8,0:0:0:0:
228,47,61585,1,8,0:0:0:0:
228,47,61660,1,0,0:0:0:0:
228,47,61810,1,0,0:0:0:0:
228,47,61960,1,8,0:0:0:0:
228,47,62035,1,0,0:0:0:0:
228,47,62110,1,8,0:0:0:0:
238,48,62185,1,0,0:0:0:0:
240,48,62260,1,0,0:0:0:0:
239,47,62335,1,8,0:0:0:0:
240,48,62485,1,0,0:0:0:0:
239,47,62560,1,8,0:0:0:0:
240,48,62635,1,8,0:0:0:0:
239,47,62785,1,0,0:0:0:0:
254,61,63085,1,0,0:0:0:0:
254,61,63160,1,0,0:0:0:0:
254,61,63235,1,0,0:0:0:0:
254,61,63310,1,0,0:0:0:0:
254,61,63385,1,8,0:0:0:0:
254,61,63460,1,8,0:0:0:0:
254,61,63535,1,0,0:0:0:0:
254,61,63610,1,0,0:0:0:0:
254,61,63685,1,8,0:0:0:0:
248,56,63835,1,0,0:0:0:0:
248,56,63985,1,8,0:0:0:0:
248,56,64135,1,0,0:0:0:0:
248,56,64285,1,8,0:0:0:0:
248,56,64435,1,0,0:0:0:0:
248,56,64585,1,8,0:0:0:0:
248,56,64735,1,0,0:0:0:0:
248,56,64885,1,8,0:0:0:0:
251,69,65035,1,8,0:0:0:0:
251,69,65185,1,0,0:0:0:0:
251,69,65335,1,8,0:0:0:0:
251,69,65485,1,8,0:0:0:0:
251,69,65635,1,0,0:0:0:0:
236,59,65785,1,8,0:0:0:0:
236,59,65935,1,8,0:0:0:0:
236,59,66085,1,0,0:0:0:0:
248,64,66235,1,8,0:0:0:0:
248,64,66385,1,0,0:0:0:0:
248,64,66535,1,0,0:0:0:0:
248,64,66685,1,8,0:0:0:0:
244,57,66835,1,0,0:0:0:0:
247,64,66985,1,8,0:0:0:0:
247,58,67285,1,0,0:0:0:0:
247,58,67360,1,0,0:0:0:0:
247,58,67435,1,0,0:0:0:0:
237,56,67510,1,0,0:0:0:0:
237,56,67585,1,8,0:0:0:0:
237,55,67885,1,8,0:0:0:0:
241,49,68485,1,0,0:0:0:0:
241,49,68635,1,8,0:0:0:0:
241,49,68710,1,8,0:0:0:0:
241,49,68785,1,0,0:0:0:0:
241,49,68935,1,8,0:0:0:0:
241,49,69010,1,8,0:0:0:0:
241,49,69085,1,0,0:0:0:0:
241,49,69235,1,0,0:0:0:0:
241,49,69385,1,8,0:0:0:0:
241,49,69460,1,8,0:0:0:0:
241,49,69535,1,0,0:0:0:0:
244,67,69610,1,0,0:0:0:0:
241,49,69685,1,0,0:0:0:0:
241,49,69835,1,8,0:0:0:0:
241,49,69910,1,8,0:0:0:0:
241,49,69985,1,0,0:0:0:0:
241,49,70135,1,8,0:0:0:0:
241,49,70210,1,8,0:0:0:0:
241,49,70285,1,0,0:0:0:0:
241,49,70435,1,0,0:0:0:0:
241,49,70585,1,8,0:0:0:0:
241,49,70660,1,8,0:0:0:0:
241,49,70735,1,0,0:0:0:0:
241,49,70885,1,0,0:0:0:0:
241,49,71035,1,8,0:0:0:0:
241,49,71110,1,8,0:0:0:0:
241,49,71185,1,8,0:0:0:0:
241,49,71335,1,0,0:0:0:0:
241,49,71485,1,8,0:0:0:0:
241,49,71560,1,0,0:0:0:0:
241,49,71635,1,8,0:0:0:0:
241,49,71785,1,0,0:0:0:0:
241,49,71935,1,8,0:0:0:0:
239,41,72085,1,0,0:0:0:0:
253,52,72235,1,0,0:0:0:0:
253,52,72310,1,0,0:0:0:0:
253,52,72385,1,8,0:0:0:0:
253,52,72535,1,8,0:0:0:0:
253,52,72685,1,4,0:0:0:0:
253,52,72985,1,4,0:0:0:0:
256,85,73285,1,0,0:0:0:0:
256,85,73435,1,0,0:0:0:0:
245,74,73585,1,8,0:0:0:0:
240,82,73735,1,8,0:0:0:0:
242,83,73810,1,8,0:0:0:0:
240,82,73885,1,0,0:0:0:0:
242,83,74035,1,8,0:0:0:0:
242,83,74185,1,0,0:0:0:0:
242,83,74260,1,0,0:0:0:0:
242,83,74335,1,8,0:0:0:0:
242,83,74410,1,8,0:0:0:0:
242,83,74485,1,0,0:0:0:0:
248,73,74635,1,0,0:0:0:0:
248,73,74785,1,8,0:0:0:0:
248,73,74935,1,8,0:0:0:0:
248,73,75010,1,8,0:0:0:0:
248,73,75085,1,0,0:0:0:0:
248,73,75235,1,8,0:0:0:0:
248,73,75385,1,0,0:0:0:0:
248,73,75535,1,8,0:0:0:0:
248,73,75685,1,8,0:0:0:0:
262,74,75760,1,8,0:0:0:0:
262,76,75835,1,0,0:0:0:0:
262,74,75985,1,8,0:0:0:0:
262,76,76060,1,8,0:0:0:0:
262,74,76210,1,0,0:0:0:0:
262,74,76360,1,8,0:0:0:0:
262,74,76435,1,0,0:0:0:0:
262,74,76510,1,8,0:0:0:0:
266,68,76585,1,0,0:0:0:0:
262,74,76660,1,0,0:0:0:0:
266,68,76735,1,8,0:0:0:0:
266,68,76885,1,0,0:0:0:0:
266,68,76960,1,0,0:0:0:0:
266,68,77035,1,0,0:0:0:0:
266,68,77110,1,0,0:0:0:0:
266,68,77185,1,8,0:0:0:0:
266,68,77260,1,8,0:0:0:0:
266,68,77335,1,8,0:0:0:0:
266,68,77410,1,8,0:0:0:0:
266,68,77485,1,0,0:0:0:0:
266,68,77635,1,8,0:0:0:0:
271,90,78085,1,8,0:0:0:0:
271,90,78160,1,8,0:0:0:0:
271,90,78235,1,0,0:0:0:0:
271,90,78310,1,0,0:0:0:0:
222,91,78385,1,8,0:0:0:0:
244,88,78460,1,8,0:0:0:0:
248,88,78535,1,0,0:0:0:0:
248,88,78610,1,0,0:0:0:0:
244,88,78685,1,8,0:0:0:0:
248,88,78760,1,8,0:0:0:0:
248,88,78835,1,0,0:0:0:0:
244,88,78910,1,0,0:0:0:0:
248,88,78985,1,8,0:0:0:0:
248,88,79060,1,8,0:0:0:0:
244,88,79135,1,0,0:0:0:0:
248,88,79210,1,0,0:0:0:0:
248,88,79285,1,8,0:0:0:0:
244,88,79360,1,8,0:0:0:0:
248,88,79435,1,0,0:0:0:0:
248,88,79510,1,0,0:0:0:0:
244,88,79585,1,8,0:0:0:0:
248,88,79660,1,8,0:0:0:0:
248,88,79735,1,0,0:0:0:0:
244,88,79810,1,0,0:0:0:0:
248,88,79885,1,8,0:0:0:0:
254,91,79960,1,8,0:0:0:0:
254,91,80035,1,0,0:0:0:0:
254,91,80110,1,0,0:0:0:0:
254,91,80185,1,8,0:0:0:0:
254,91,80260,1,8,0:0:0:0:
254,91,80335,1,0,0:0:0:0:
254,91,80410,1,0,0:0:0:0:
254,91,80485,1,8,0:0:0:0:
256,99,80635,1,0,0:0:0:0:
247,110,80710,1,8,0:0:0:0:
256,99,80785,1,0,0:0:0:0:
252,104,80935,1,8,0:0:0:0:
252,104,81085,1,0,0:0:0:0:
252,104,81160,1,0,0:0:0:0:
252,104,81235,1,8,0:0:0:0:
252,104,81385,1,0,0:0:0:0:
252,104,81460,1,8,0:0:0:0:
252,104,81535,1,8,0:0:0:0:
252,104,81685,1,0,0:0:0:0:
252,104,81760,1,0,0:0:0:0:
252,104,81835,1,8,0:0:0:0:
252,104,81910,1,0,0:0:0:0:
252,104,81985,1,8,0:0:0:0:
252,104,82060,1,8,0:0:0:0:
252,104,82135,1,0,0:0:0:0:
252,104,82210,1,8,0:0:0:0:
252,104,82285,1,0,0:0:0:0:
243,116,82435,1,8,0:0:0:0:
243,116,82585,1,0,0:0:0:0:
243,116,82735,1,8,0:0:0:0:
243,116,82885,1,0,0:0:0:0:
242,88,82960,1,0,0:0:0:0:
249,89,83035,1,8,0:0:0:0:
249,89,83110,1,0,0:0:0:0:
249,88,83185,1,8,0:0:0:0:
249,89,83335,1,0,0:0:0:0:
249,89,83410,1,0,0:0:0:0:
249,89,83485,1,8,0:0:0:0:
249,89,83560,1,0,0:0:0:0:
249,89,83635,1,8,0:0:0:0:
249,89,83785,1,0,0:0:0:0:
249,89,83860,1,0,0:0:0:0:
249,89,83935,1,8,0:0:0:0:
249,89,84010,1,8,0:0:0:0:
249,89,84085,1,0,0:0:0:0:
249,89,84160,1,0,0:0:0:0:
249,89,84235,1,8,0:0:0:0:
249,89,84310,1,0,0:0:0:0:
249,89,84385,1,8,0:0:0:0:
249,89,84535,1,0,0:0:0:0:
249,89,84610,1,0,0:0:0:0:
249,89,84685,1,8,0:0:0:0:
249,89,84760,1,0,0:0:0:0:
249,89,84835,1,8,0:0:0:0:
249,89,84985,1,0,0:0:0:0:
249,89,85060,1,0,0:0:0:0:
249,89,85210,1,8,0:0:0:0:
249,89,85285,1,0,0:0:0:0:
249,89,85360,1,0,0:0:0:0:
249,89,85435,1,8,0:0:0:0:
249,89,85510,1,0,0:0:0:0:
249,89,85660,1,0,0:0:0:0:
249,89,85810,1,8,0:0:0:0:
249,89,85960,1,0,0:0:0:0:
249,89,86035,1,0,0:0:0:0:
249,89,86110,1,8,0:0:0:0:
249,89,86185,1,8,0:0:0:0:
249,89,86260,1,0,0:0:0:0:
249,89,86335,1,8,0:0:0:0:
249,89,86485,1,0,0:0:0:0:
249,89,86560,1,0,0:0:0:0:
249,89,86635,1,0,0:0:0:0:
249,89,86710,1,0,0:0:0:0:
249,89,86785,1,0,0:0:0:0:
244,82,86860,1,0,0:0:0:0:
248,75,86935,1,8,0:0:0:0:
244,82,87085,1,8,0:0:0:0:
244,82,87160,1,8,0:0:0:0:
244,82,87235,1,0,0:0:0:0:
244,82,87310,1,0,0:0:0:0:
244,82,87385,1,8,0:0:0:0:
244,82,87535,1,0,0:0:0:0:
244,72,87685,1,8,0:0:0:0:
247,71,87760,1,8,0:0:0:0:
244,72,87835,1,0,0:0:0:0:
247,71,87985,1,8,0:0:0:0:
244,72,88060,1,0,0:0:0:0:
247,71,88135,1,0,0:0:0:0:
244,72,88285,1,8,0:0:0:0:
247,71,88360,1,8,0:0:0:0:
244,72,88435,1,0,0:0:0:0:
247,71,88585,1,8,0:0:0:0:
244,72,88660,1,0,0:0:0:0:
247,71,88735,1,0,0:0:0:0:
247,71,88810,1,0,0:0:0:0:
244,63,88885,1,8,0:0:0:0:
244,63,88960,1,8,0:0:0:0:
244,63,89035,1,0,0:0:0:0:
244,63,89185,1,8,0:0:0:0:
244,63,89260,1,0,0:0:0:0:
244,63,89335,1,0,0:0:0:0:
244,63,89485,1,8,0:0:0:0:
247,56,89560,1,8,0:0:0:0:
247,56,89635,1,0,0:0:0:0:
247,56,89785,1,0,0:0:0:0:
247,56,89935,1,0,0:0:0:0:
247,56,90085,1,4,0:0:0:0:
251,54,90385,1,4,0:0:0:0:
251,54,90685,1,4,0:0:0:0:
251,54,90985,1,4,0:0:0:0:
251,54,91285,1,4,0:0:0:0:
251,54,91585,1,4,0:0:0:0:
251,54,91885,1,4,0:0:0:0:
260,56,92485,1,0,0:0:0:0:
260,56,92635,1,0,0:0:0:0:
260,56,92710,1,0,0:0:0:0:
260,56,92785,1,8,0:0:0:0:
260,56,92935,1,8,0:0:0:0:
260,56,93010,1,0,0:0:0:0:
254,50,93085,1,0,0:0:0:0:
253,49,93235,1,0,0:0:0:0:
260,56,93310,1,0,0:0:0:0:
260,56,93385,1,8,0:0:0:0:
262,48,93535,1,8,0:0:0:0:
260,56,93610,1,8,0:0:0:0:
260,58,93685,1,0,0:0:0:0:
261,48,93835,1,0,0:0:0:0:
260,58,93910,1,0,0:0:0:0:
259,56,93985,1,8,0:0:0:0:
260,58,94135,1,8,0:0:0:0:
259,56,94210,1,0,0:0:0:0:
260,58,94285,1,0,0:0:0:0:
259,56,94435,1,0,0:0:0:0:
260,58,94510,1,0,0:0:0:0:
259,56,94585,1,8,0:0:0:0:
260,58,94735,1,8,0:0:0:0:
259,56,94810,1,8,0:0:0:0:
260,58,94885,1,0,0:0:0:0:
259,56,95035,1,8,0:0:0:0:
259,56,95185,1,0,0:0:0:0:
254,47,95260,1,8,0:0:0:0:
252,45,95410,1,8,0:0:0:0:
252,45,95560,1,0,0:0:0:0:
252,45,95635,1,8,0:0:0:0:
252,45,95710,1,0,0:0:0:0:
252,45,95785,1,8,0:0:0:0:
267,46,95860,1,8,0:0:0:0:
252,45,95935,1,0,0:0:0:0:
243,90,96085,1,0,0:0:0:0:
249,88,97285,1,0,0:0:0:0:
254,92,97360,1,8,0:0:0:0:
249,88,97435,1,0,0:0:0:0:
254,92,97585,1,0,0:0:0:0:
249,88,97660,1,8,0:0:0:0:
254,92,97735,1,0,0:0:0:0:
249,88,97885,1,8,0:0:0:0:
254,92,97960,1,0,0:0:0:0:
249,88,98035,1,8,0:0:0:0:
255,79,98185,1,8,0:0:0:0:
255,80,98260,1,0,0:0:0:0:
255,79,98335,1,8,0:0:0:0:
255,80,98485,1,0,0:0:0:0:
255,79,98560,1,0,0:0:0:0:
255,80,98635,1,0,0:0:0:0:
255,79,98785,1,0,0:0:0:0:
248,79,98860,1,0,0:0:0:0:
248,79,98935,1,0,0:0:0:0:
258,78,99085,1,8,0:0:0:0:
258,78,99160,1,8,0:0:0:0:
258,78,99235,1,8,0:0:0:0:
258,78,99385,1,8,0:0:0:0:
258,78,99460,1,8,0:0:0:0:
258,78,99535,1,8,0:0:0:0:
258,78,99685,1,0,0:0:0:0:
258,78,99835,1,0,0:0:0:0:
258,78,99910,1,0,0:0:0:0:
258,78,99985,1,8,0:0:0:0:
259,66,100135,1,8,0:0:0:0:
258,78,100210,1,0,0:0:0:0:
258,78,100285,1,0,0:0:0:0:
258,78,100360,1,8,0:0:0:0:
258,78,100435,1,8,0:0:0:0:
263,67,100510,1,8,0:0:0:0:
263,67,100585,1,0,0:0:0:0:
262,63,100660,1,0,0:0:0:0:
263,67,100735,1,8,0:0:0:0:
263,67,100810,1,0,0:0:0:0:
262,63,100885,1,8,0:0:0:0:
263,67,100960,1,8,0:0:0:0:
263,67,101035,1,0,0:0:0:0:
262,63,101110,1,8,0:0:0:0:
263,67,101185,1,0,0:0:0:0:
263,67,101260,1,8,0:0:0:0:
262,63,101335,1,8,0:0:0:0:
263,67,101485,1,0,0:0:0:0:
256,62,101785,1,4,0:0:0:0:
271,73,102085,1,0,0:0:0:0:
271,73,102160,1,0,0:0:0:0:
271,73,102235,1,0,0:0:0:0:
271,73,102310,1,0,0:0:0:0:
271,73,102385,1,8,0:0:0:0:
271,73,102535,1,8,0:0:0:0:
271,73,102685,1,0,0:0:0:0:
272,87,102760,1,0,0:0:0:0:
271,73,102835,1,0,0:0:0:0:
271,82,102910,1,0,0:0:0:0:
271,82,102985,1,8,0:0:0:0:
271,82,103060,1,8,0:0:0:0:
271,82,103135,1,8,0:0:0:0:
271,82,103285,1,0,0:0:0:0:
271,82,103360,1,0,0:0:0:0:
271,82,103435,1,0,0:0:0:0:
271,82,103510,1,0,0:0:0:0:
278,87,103585,1,8,0:0:0:0:
278,87,103735,1,8,0:0:0:0:
278,87,103885,1,0,0:0:0:0:
278,87,104035,1,0,0:0:0:0:
278,87,104185,1,0,0:0:0:0:
278,87,104335,1,0,0:0:0:0:
278,87,104485,1,8,0:0:0:0:
278,87,104635,1,0,0:0:0:0:
278,87,104710,1,0,0:0:0:0:
278,87,104785,1,8,0:0:0:0:
278,87,104860,1,0,0:0:0:0:
278,87,105010,1,0,0:0:0:0:
278,87,105160,1,8,0:0:0:0:
278,87,105235,1,0,0:0:0:0:
278,87,105310,1,8,0:0:0:0:
278,87,105385,1,0,0:0:0:0:
278,87,105460,1,0,0:0:0:0:
278,87,105535,1,8,0:0:0:0:
278,87,105610,1,8,0:0:0:0:
278,87,105685,1,0,0:0:0:0:
278,87,105760,1,0,0:0:0:0:
278,87,105835,1,8,0:0:0:0:
278,87,105910,1,0,0:0:0:0:
278,87,105985,1,8,0:0:0:0:
278,87,106060,1,8,0:0:0:0:
278,87,106135,1,8,0:0:0:0:
278,87,106210,1,8,0:0:0:0:
278,87,106285,1,0,0:0:0:0:
278,87,106360,1,0,0:0:0:0:
278,87,106435,1,8,0:0:0:0:
278,87,106510,1,8,0:0:0:0:
278,87,106585,1,0,0:0:0:0:
279,82,106885,1,4,0:0:0:0:
279,82,107185,1,4,0:0:0:0:
279,82,107485,1,4,0:0:0:0:
279,82,107785,1,4,0:0:0:0:
279,82,108085,1,4,0:0:0:0:
279,82,108235,1,4,0:0:0:0:
279,82,108385,1,4,0:0:0:0:
279,82,108535,1,4,0:0:0:0:
278,82,108685,1,4,0:0:0:0:
282,89,108835,1,4,0:0:0:0:
278,82,108985,1,4,0:0:0:0:
282,89,109135,1,4,0:0:0:0:
268,108,110485,1,12,0:0:0:0:
268,108,110635,1,12,0:0:0:0:
268,108,110785,1,12,0:0:0:0:
268,108,110935,1,12,0:0:0:0:
268,108,111085,1,12,0:0:0:0:
268,108,111235,1,12,0:0:0:0:
271,93,111385,1,0,0:0:0:0:
271,93,111535,1,0,0:0:0:0:
274,86,111685,1,4,0:0:0:0:
274,86,111835,1,4,0:0:0:0:
274,86,111985,1,4,0:0:0:0:
274,86,112135,1,4,0:0:0:0:
274,86,112285,1,4,0:0:0:0:
274,86,112435,1,4,0:0:0:0:
273,78,112585,1,4,0:0:0:0:
276,79,112885,1,4,0:0:0:0:
276,79,113185,1,4,0:0:0:0:
276,79,113485,1,4,0:0:0:0:
276,79,113785,1,4,0:0:0:0:
278,80,114085,1,8,0:0:0:0:
278,80,114160,1,0,0:0:0:0:
278,80,114235,1,8,0:0:0:0:
278,80,114310,1,0,0:0:0:0:
278,80,114385,1,8,0:0:0:0:
278,80,114460,1,0,0:0:0:0:
278,80,114535,1,8,0:0:0:0:
278,80,114610,1,8,0:0:0:0:
278,80,114685,1,0,0:0:0:0:
278,80,114835,1,0,0:0:0:0:
278,80,114985,1,0,0:0:0:0:
278,80,115135,1,0,0:0:0:0:
278,80,115285,1,8,0:0:0:0:
278,80,115360,1,8,0:0:0:0:
278,80,115435,1,8,0:0:0:0:
278,80,115510,1,8,0:0:0:0:
278,80,115585,1,0,0:0:0:0:
278,80,115735,1,0,0:0:0:0:
278,80,115885,1,8,0:0:0:0:
278,80,116035,1,8,0:0:0:0:
278,80,116185,1,8,0:0:0:0:
278,80,116335,1,8,0:0:0:0:
278,80,116485,1,12,0:0:0:0:
278,80,116635,1,12,0:0:0:0:
278,80,116785,1,12,0:0:0:0:
278,80,116935,1,12,0:0:0:0:
278,80,117085,1,0,0:0:0:0:
278,80,117235,1,8,0:0:0:0:
278,80,117385,1,0,0:0:0:0:
278,80,117535,1,8,0:0:0:0:
278,80,117685,1,0,0:0:0:0:
278,80,117760,1,8,0:0:0:0:
278,80,117835,1,0,0:0:0:0:
278,80,117910,1,8,0:0:0:0:
278,80,117985,1,0,0:0:0:0:
285,76,118060,1,0,0:0:0:0:
285,76,118135,1,8,0:0:0:0:
285,76,118210,1,0,0:0:0:0:
285,76,118285,1,8,0:0:0:0:
285,76,118360,1,0,0:0:0:0:
285,76,118435,1,8,0:0:0:0:
283,73,118885,1,4,0:0:0:0:
289,78,119035,1,4,0:0:0:0:
289,78,119185,1,4,0:0:0:0:
289,78,119335,1,4,0:0:0:0:
289,78,119485,1,4,0:0:0:0:
289,78,119635,1,4,0:0:0:0:
289,78,119785,1,4,0:0:0:0:
289,78,119935,1,4,0:0:0:0:
289,78,120085,1,4,0:0:0:0:
289,78,120235,1,4,0:0:0:0:
289,78,120385,1,4,0:0:0:0:
289,78,120460,1,4,0:0:0:0:
289,78,120535,1,4,0:0:0:0:
289,78,120685,1,4,0:0:0:0:
285,70,120835,1,8,0:0:0:0:
303,70,120872,1,8,0:0:0:0:
285,70,120910,1,8,0:0:0:0:
288,72,120985,1,4,0:0:0:0:
285,70,121135,1,8,0:0:0:0:
304,68,121172,1,8,0:0:0:0:
288,72,121210,1,8,0:0:0:0:
287,70,121285,1,4,0:0:0:0:
287,68,121585,1,4,0:0:0:0:
287,68,121885,1,4,0:0:0:0:
287,68,122185,1,4,0:0:0:0:
277,77,122485,1,8,0:0:0:0:
286,70,122560,1,0,0:0:0:0:
277,77,122635,1,8,0:0:0:0:
286,70,122710,1,0,0:0:0:0:
277,77,122785,1,8,0:0:0:0:
286,70,122860,1,0,0:0:0:0:
277,77,122935,1,8,0:0:0:0:
286,70,123010,1,0,0:0:0:0:
277,77,123085,1,8,0:0:0:0:
286,70,123160,1,0,0:0:0:0:
277,77,123235,1,8,0:0:0:0:
286,70,123310,1,0,0:0:0:0:
277,77,123385,1,8,0:0:0:0:
286,70,123460,1,0,0:0:0:0:
277,77,123535,1,8,0:0:0:0:
286,70,123610,1,8,0:0:0:0:
286,70,123685,1,4,0:0:0:0:
286,70,123985,1,4,0:0:0:0:
286,70,124285,1,4,0:0:0:0:
286,70,124585,1,4,0:0:0:0:
286,70,124885,1,8,0:0:0:0:
286,70,124960,1,8,0:0:0:0:
286,70,125035,1,8,0:0:0:0:
286,70,125110,1,8,0:0:0:0:
286,70,125185,1,0,0:0:0:0:
286,70,125335,1,0,0:0:0:0:
286,70,125485,1,8,0:0:0:0:
286,70,125635,1,8,0:0:0:0:
286,70,125785,1,8,0:0:0:0:
264,83,125835,1,8,0:0:0:0:
286,70,125885,1,0,0:0:0:0:
286,70,125935,1,0,0:0:0:0:
286,79,126085,1,4,0:0:0:0:
286,79,126385,1,4,0:0:0:0:
286,79,126685,1,4,0:0:0:0:
286,79,126985,1,4,0:0:0:0:
280,92,127285,1,4,0:0:0:0:
280,92,127435,1,4,0:0:0:0:
280,83,127585,1,0,0:0:0:0:
280,82,127660,1,0,0:0:0:0:
280,83,127735,1,0,0:0:0:0:
280,83,127810,1,0,0:0:0:0:
280,82,127885,1,0,0:0:0:0:
289,81,127935,1,0,0:0:0:0:
280,83,127985,1,0,0:0:0:0:
280,83,128035,1,0,0:0:0:0:
280,82,128085,1,0,0:0:0:0:
289,81,128135,1,0,0:0:0:0:
294,88,128185,1,8,0:0:0:0:
290,86,128222,1,8,0:0:0:0:
288,85,128260,1,8,0:0:0:0:
288,84,128297,1,8,0:0:0:0:
289,81,128335,1,8,0:0:0:0:
289,81,128372,1,8,0:0:0:0:
294,88,128410,1,8,0:0:0:0:
290,86,128447,1,8,0:0:0:0:
288,84,128485,1,0,0:0:0:0:
279,95,135685,5,0,0:0:0:0:
279,79,135985,1,0,0:0:0:0:
279,79,136060,1,0,0:0:0:0:
279,79,136135,1,8,0:0:0:0:
274,74,136435,1,8,0:0:0:0:
274,74,136510,1,8,0:0:0:0:
274,74,136585,1,0,0:0:0:0:
274,74,136735,1,0,0:0:0:0:
274,74,136885,1,0,0:0:0:0:
192,205,137035,2,4,L|263:187,4,56
272,70,137485,1,0,0:0:0:0:
270,61,137785,1,0,0:0:0:0:
270,61,137935,1,8,0:0:0:0:
294,77,138085,1,0,0:0:0:0:
294,77,138160,1,8,0:0:0:0:
284,81,138235,1,8,0:0:0:0:
275,64,138385,1,4,0:0:0:0:
275,64,138685,1,12,0:0:0:0:
275,64,138985,1,4,0:0:0:0:
275,64,139285,1,0,0:0:0:0:
270,55,139585,1,0,0:0:0:0:
270,55,139660,1,0,0:0:0:0:
270,55,139735,1,8,0:0:0:0:
284,53,139885,1,8,0:0:0:0:
274,57,140035,1,0,0:0:0:0:
274,57,140185,1,8,0:0:0:0:
274,57,140260,1,0,0:0:0:0:
274,57,140335,1,8,0:0:0:0:
274,57,140410,1,0,0:0:0:0:
274,57,140485,1,0,0:0:0:0:
215,171,140635,2,4,P|277:167|253:130,2,112
272,103,141085,1,0,0:0:0:0:
324,108,141385,1,0,0:0:0:0:
324,108,141535,1,8,0:0:0:0:
320,89,141685,1,0,0:0:0:0:
318,100,141760,1,8,0:0:0:0:
317,99,141835,1,0,0:0:0:0:
321,92,141985,1,8,0:0:0:0:
317,98,142285,1,4,0:0:0:0:
317,98,142435,1,12,0:0:0:0:
316,98,142735,1,12,0:0:0:0:
316,98,142885,1,0,0:0:0:0:
293,84,143185,1,0,0:0:0:0:
293,84,143260,1,0,0:0:0:0:
293,84,143335,1,8,0:0:0:0:
288,68,143635,1,8,0:0:0:0:
288,68,143710,1,8,0:0:0:0:
288,68,143785,1,0,0:0:0:0:
288,68,143860,1,0,0:0:0:0:
288,68,143935,1,8,0:0:0:0:
288,68,144010,1,8,0:0:0:0:
281,65,144085,1,0,0:0:0:0:
281,65,144235,1,12,0:0:0:0:
279,63,144535,1,12,0:0:0:0:
279,63,144685,1,0,0:0:0:0:
277,62,144985,1,0,0:0:0:0:
277,62,145135,1,8,0:0:0:0:
277,62,145285,1,0,0:0:0:0:
277,62,145360,1,8,0:0:0:0:
277,62,145435,1,0,0:0:0:0:
288,60,145585,1,12,0:0:0:0:
280,60,145885,1,4,0:0:0:0:
280,60,146035,1,12,0:0:0:0:
280,60,146335,1,12,0:0:0:0:
280,60,146485,1,0,0:0:0:0:
280,73,146785,1,0,0:0:0:0:
280,73,146860,1,0,0:0:0:0:
280,73,146935,1,8,0:0:0:0:
277,72,147235,1,8,0:0:0:0:
277,72,147310,1,8,0:0:0:0:
277,72,147385,1,0,0:0:0:0:
277,72,147535,1,0,0:0:0:0:
277,72,147685,1,0,0:0:0:0:
199,206,147835,2,4,L|264:187,4,56
277,72,148285,1,0,0:0:0:0:
256,91,148585,1,0,0:0:0:0:
266,86,148735,1,8,0:0:0:0:
256,83,148885,1,0,0:0:0:0:
256,83,148960,1,8,0:0:0:0:
256,83,149035,1,0,0:0:0:0:
256,83,149185,1,8,0:0:0:0:
255,81,149485,1,4,0:0:0:0:
255,81,149635,1,12,0:0:0:0:
255,81,149935,1,12,0:0:0:0:
255,81,150085,1,0,0:0:0:0:
252,87,150385,1,0,0:0:0:0:
252,87,150460,1,0,0:0:0:0:
262,80,150535,1,8,0:0:0:0:
262,80,150835,1,8,0:0:0:0:
262,80,150910,1,8,0:0:0:0:
262,80,150985,1,0,0:0:0:0:
261,80,151285,1,0,0:0:0:0:
222,139,151435,2,4,L|278:124,4,56
305,96,151885,1,0,0:0:0:0:
315,81,152185,1,0,0:0:0:0:
336,88,152335,1,8,0:0:0:0:
321,71,152485,1,0,0:0:0:0:
321,72,152560,1,8,0:0:0:0:
321,71,152635,1,0,0:0:0:0:
321,72,152785,1,12,0:0:0:0:
321,72,153085,1,4,0:0:0:0:
321,72,153235,1,12,0:0:0:0:
321,72,153535,1,12,0:0:0:0:
321,72,153685,1,0,0:0:0:0:
304,83,153985,1,0,0:0:0:0:
304,83,154060,1,0,0:0:0:0:
304,83,154135,1,8,0:0:0:0:
300,76,154435,1,8,0:0:0:0:
300,76,154510,1,0,0:0:0:0:
300,76,154585,1,0,0:0:0:0:
295,74,154885,1,0,0:0:0:0:
153,195,155035,2,4,L|220:184,4,56
299,149,155485,1,0,0:0:0:0:
295,151,155785,1,0,0:0:0:0:
295,151,155935,1,8,0:0:0:0:
295,151,156085,1,0,0:0:0:0:
295,151,156160,1,8,0:0:0:0:
295,151,156235,1,8,0:0:0:0:
295,151,156385,1,4,0:0:0:0:
290,151,156685,1,12,0:0:0:0:
290,151,156985,1,4,0:0:0:0:
290,151,157285,1,4,0:0:0:0:
294,119,157585,1,0,0:0:0:0:
294,119,157660,1,0,0:0:0:0:
294,119,157735,1,8,0:0:0:0:
293,123,158035,1,8,0:0:0:0:
293,123,158110,1,8,0:0:0:0:
293,123,158185,1,0,0:0:0:0:
293,123,158335,1,0,0:0:0:0:
293,123,158485,1,0,0:0:0:0:
206,205,158635,2,4,L|269:189,4,56
331,176,159085,1,0,0:0:0:0:
331,176,159385,1,0,0:0:0:0:
331,176,159535,1,8,0:0:0:0:
322,172,159685,1,0,0:0:0:0:
322,172,159760,1,8,0:0:0:0:
322,172,159835,1,0,0:0:0:0:
322,172,159985,1,12,0:0:0:0:
322,172,160285,1,4,0:0:0:0:
322,172,160435,1,12,0:0:0:0:
322,172,160735,1,12,0:0:0:0:
322,172,160885,1,0,0:0:0:0:
312,144,161185,1,0,0:0:0:0:
312,144,161260,1,0,0:0:0:0:
312,144,161335,1,8,0:0:0:0:
312,143,161635,1,8,0:0:0:0:
318,138,161785,1,0,0:0:0:0:
318,138,161860,1,8,0:0:0:0:
318,138,161935,1,0,0:0:0:0:
318,138,162010,1,8,0:0:0:0:
318,138,162085,1,0,0:0:0:0:
318,138,162160,1,8,0:0:0:0:
311,132,162235,1,0,0:0:0:0:
311,132,162310,1,8,0:0:0:0:
311,132,162385,1,0,0:0:0:0:
311,132,162460,1,8,0:0:0:0:
311,132,162535,1,0,0:0:0:0:
311,132,162610,1,8,0:0:0:0:
311,132,162685,1,0,0:0:0:0:
314,112,162985,1,0,0:0:0:0:
314,112,163135,1,8,0:0:0:0:
316,111,163435,1,8,0:0:0:0:
316,101,163585,1,0,0:0:0:0:
310,108,163885,1,8,0:0:0:0:
305,102,163960,1,0,0:0:0:0:
190,192,164035,2,4,L|253:178,4,56.1206813871235
278,136,164485,1,0,0:0:0:0:
282,120,164785,1,0,0:0:0:0:
282,120,164860,1,0,0:0:0:0:
282,120,164935,1,8,0:0:0:0:
283,119,165235,1,8,0:0:0:0:
283,119,165310,1,8,0:0:0:0:
283,119,165385,1,0,0:0:0:0:
283,119,165535,1,8,0:0:0:0:
283,119,165685,1,0,0:0:0:0:
238,144,165835,2,4,L|303:130,4,56.1206813871235
273,106,166285,1,0,0:0:0:0:
271,105,166585,1,0,0:0:0:0:
271,105,166735,1,8,0:0:0:0:
271,105,166885,1,0,0:0:0:0:
259,108,166960,1,8,0:0:0:0:
264,113,167035,1,0,0:0:0:0:
259,108,167185,1,12,0:0:0:0:
264,111,167485,1,4,0:0:0:0:
264,111,167635,1,12,0:0:0:0:
264,111,167785,1,4,0:0:0:0:
264,111,167935,1,12,0:0:0:0:
292,86,168085,1,0,0:0:0:0:
291,78,168385,1,0,0:0:0:0:
291,78,168460,1,0,0:0:0:0:
291,78,168535,1,8,0:0:0:0:
287,79,168835,1,8,0:0:0:0:
287,79,168910,1,8,0:0:0:0:
287,79,168985,1,0,0:0:0:0:
287,79,169135,1,0,0:0:0:0:
287,79,169285,1,0,0:0:0:0:
195,185,169435,2,4,L|263:159,4,56.1206813871235
299,138,169885,1,0,0:0:0:0:
299,135,170185,1,0,0:0:0:0:
299,135,170335,1,8,0:0:0:0:
291,121,170485,1,0,0:0:0:0:
292,126,170560,1,8,0:0:0:0:
291,121,170635,1,0,0:0:0:0:
298,132,170785,1,8,0:0:0:0:
295,135,171085,1,4,0:0:0:0:
295,135,171235,1,12,0:0:0:0:
296,135,171535,1,12,0:0:0:0:
296,135,171685,1,4,0:0:0:0:
283,116,171985,1,4,0:0:0:0:
283,116,172135,1,12,0:0:0:0:
283,116,172285,1,0,0:0:0:0:
283,116,172360,1,0,0:0:0:0:
283,116,172435,1,12,0:0:0:0:
283,116,172585,1,4,0:0:0:0:
279,110,172885,1,12,0:0:0:0:
279,110,173035,1,12,0:0:0:0:
279,110,173335,1,12,0:0:0:0:
272,106,173485,1,4,0:0:0:0:
288,119,173785,1,4,0:0:0:0:
288,119,173935,1,12,0:0:0:0:
281,107,174085,1,0,0:0:0:0:
281,107,174160,1,0,0:0:0:0:
286,114,174235,1,12,0:0:0:0:
281,107,174385,1,4,0:0:0:0:
280,107,174685,1,12,0:0:0:0:
280,107,174835,1,12,0:0:0:0:
279,107,175135,1,12,0:0:0:0:
279,107,175285,1,4,0:0:0:0:
279,107,175585,1,4,0:0:0:0:
279,107,175735,1,12,0:0:0:0:
279,107,175885,1,4,0:0:0:0:
279,107,176035,1,4,0:0:0:0:
279,107,176185,1,12,0:0:0:0:
278,107,176485,1,12,0:0:0:0:
278,107,176635,1,12,0:0:0:0:
278,107,176785,1,4,0:0:0:0:
278,107,176935,1,12,0:0:0:0:
278,107,177085,1,4,0:0:0:0:
278,107,177385,1,4,0:0:0:0:
278,107,177535,1,12,0:0:0:0:
278,107,177685,1,4,0:0:0:0:
278,107,177835,1,4,0:0:0:0:
278,107,177985,1,12,0:0:0:0:
275,101,178285,1,8,0:0:0:0:
275,101,178360,1,0,0:0:0:0:
275,101,178435,1,8,0:0:0:0:
275,101,178510,1,0,0:0:0:0:
275,101,178585,1,8,0:0:0:0:
275,101,178660,1,0,0:0:0:0:
275,101,178735,1,8,0:0:0:0:
275,101,178810,1,0,0:0:0:0:
275,101,178885,1,0,0:0:0:0:
275,101,178960,1,0,0:0:0:0:
275,101,179035,1,0,0:0:0:0:
275,101,179110,1,0,0:0:0:0:
275,101,179185,1,0,0:0:0:0:
275,101,179260,1,0,0:0:0:0:
274,93,179335,1,0,0:0:0:0:
275,101,179410,1,0,0:0:0:0:
274,93,179485,1,0,0:0:0:0:
274,93,179560,1,0,0:0:0:0:
274,93,179635,1,0,0:0:0:0:
274,93,179710,1,0,0:0:0:0:
274,93,179785,1,0,0:0:0:0:
274,93,179860,1,0,0:0:0:0:
274,93,179935,1,0,0:0:0:0:
274,93,180010,1,0,0:0:0:0:
274,93,180085,1,0,0:0:0:0:
274,93,180160,1,0,0:0:0:0:
274,93,180235,1,0,0:0:0:0:
274,93,180310,1,0,0:0:0:0:
274,93,180385,1,0,0:0:0:0:
274,93,180460,1,0,0:0:0:0:
274,93,180535,1,0,0:0:0:0:
272,92,180685,1,4,0:0:0:0:
