osu file format v14

[General]
AudioFilename: audio.mp3
AudioLeadIn: 0
PreviewTime: 30417
Countdown: 0
SampleSet: Normal
StackLeniency: 0.7
Mode: 1
LetterboxInBreaks: 0
WidescreenStoryboard: 1

[Editor]
DistanceSpacing: 1
BeatDivisor: 4
GridSize: 32
TimelineZoom: 2.2

[Metadata]
Title:Gaviscon
TitleUnicode:Gaviscon
Artist:Ruby My Dear
ArtistUnicode:Ruby My Dear
Creator:Izzeee
Version:Inner Oni
Source:
Tags:mpg mappers' guild mg osu!mbc mbc monthly beatmapping contest october featured artist fa brame breakcore electronic english
BeatmapID:4414522
BeatmapSetID:2101653

[Difficulty]
HPDrainRate:5.5
CircleSize:5
OverallDifficulty:7
ApproachRate:10
SliderMultiplier:0.928571444384906
SliderTickRate:1

[Events]
//Background and Video events
0,0,"mbs.png",0,0
//Break Periods
2,74300,75415
//Storyboard Layer 0 (Background)
//Storyboard Layer 1 (Fail)
//Storyboard Layer 2 (Pass)
//Storyboard Layer 3 (Foreground)
//Storyboard Layer 4 (Overlay)
//Storyboard Sound Samples

[TimingPoints]
-17,220.588235294118,6,1,0,5,1,0
-17,-125,6,1,0,5,0,0
6.7352941175559,-125,6,1,0,75,0,0
11894,-125,6,1,0,45,0,0
15417,-111.111111111111,6,1,0,45,0,0
15528,-113.636363636364,6,1,0,45,0,0
15638,-117.647058823529,6,1,0,45,0,0
15675,-119.047619047619,6,1,0,45,0,0
15748,-120.481927710843,6,1,0,45,0,0
15859,-125,6,1,0,45,0,0
26005,-111.111111111111,6,1,0,45,0,0
26116,-114.942528735632,6,1,0,45,0,0
26226,-117.647058823529,6,1,0,45,0,0
26263,-119.047619047619,6,1,0,45,0,0
26336,-121.951219512195,6,1,0,45,0,0
26447,-125,6,1,0,45,0,0
26667,-128.205128205128,6,1,0,45,0,0
26814,-129.87012987013,6,1,0,45,0,0
27035,-131.578947368421,6,1,0,45,0,0
27108,-133.333333333333,6,1,0,45,0,0
27182,-135.135135135135,6,1,0,45,0,0
27329,-136.986301369863,6,1,0,45,0,0
27476,-138.888888888889,6,1,0,45,0,0
27770,-142.857142857143,6,1,0,45,0,0
27917,-144.927536231884,6,1,0,45,0,0
27991,-147.058823529412,6,1,0,45,0,0
28138,-149.253731343284,6,1,0,45,0,0
28432,-153.846153846154,6,1,0,45,0,0
28579,-156.25,6,1,0,45,0,0
28653,-158.730158730159,6,1,0,45,0,0
28873,-161.290322580645,6,1,0,45,0,0
29094,-166.666666666667,6,1,0,45,0,0
29757,-181.818181818182,6,1,0,45,0,0
30419,-200,6,1,0,45,0,0
31080,-133.333333333333,6,1,0,45,0,0
31747,-83.3333333333333,6,1,0,75,0,0
32623,-79.3650793650796,6,1,0,75,0,0
32684,-80.0000000000001,6,1,0,75,0,0
32739,-80.6451612903224,6,1,0,75,0,0
32849,-81.30081300813,6,1,0,75,0,0
32959,-82.6446280991736,6,1,0,75,0,0
33070,-83.3333333333333,6,1,0,75,0,0
33732,-76.9230769230769,6,1,0,75,0,0
33842,-77.9205506796855,6,1,0,75,0,0
33897,-78.4290436234738,6,1,0,75,0,0
33952,-78.9442257783513,6,1,0,75,0,0
34062,-79.9951585250759,6,1,0,75,0,0
34173,-81.0843984954511,6,1,0,75,0,0
34283,-82.1934899489616,6,1,0,75,0,0
34393,-83.3333355208333,6,1,0,75,0,0
36378,-83.3649187172832,6,1,0,75,0,0
36433,-81.6629555101082,6,1,0,75,0,0
36488,-80.0291002488877,6,1,0,75,0,0
36543,-78.4593471279383,6,1,0,75,0,0
36598,-76.9499794256204,6,1,0,75,0,0
36655,-55.5555555555556,6,1,0,75,0,0
37041,-83.3333333333333,6,1,0,75,0,0
38584,-83.333336,6,1,0,75,0,0
38695,-84.29718,6,1,0,75,0,0
38805,-85.27459,6,1,0,75,0,0
38915,-86.27493,6,1,0,75,0,0
39026,-87.30844,6,1,0,75,0,0
39136,-88.35736,6,1,0,75,0,0
39191,-88.891335,6,1,0,75,0,0
39246,-89.43179,6,1,0,75,0,0
39357,-90.542816,6,1,0,75,0,0
39467,-91.671394,6,1,0,75,0,0
39522,-92.2463,6,1,0,75,0,0
39577,-92.82846,6,1,0,75,0,0
39687,-94.01512,6,1,0,75,0,0
39798,-95.2437,6,1,0,75,0,0
39908,-96.49332,6,1,0,75,0,0
40018,-97.77616,6,1,0,75,0,0
40129,-99.10573,6,1,0,75,0,0
40349,-101.85069,6,1,0,75,0,0
40459,-103.281,6,1,0,75,0,0
40570,-104.7656,6,1,0,75,0,0
40680,-106.279564,6,1,0,75,0,0
40790,-107.83791,6,1,0,75,0,0
40901,-109.45745,6,1,0,75,0,0
41010,-111.111115,6,1,0,75,0,0
41342,-121.228745,6,1,0,75,0,0
41562,-129.01341,6,1,0,75,0,0
41674,-50,6,1,0,75,0,0
42335,-83.3333333333333,6,1,0,75,0,0
42556,-83.3333333333333,6,1,0,75,0,0
44321,-74.0740740740741,6,1,0,75,0,0
44983,-83.3333333333333,6,1,0,75,0,0
45644,-74.0740740740741,6,1,0,75,0,0
46306,-83.3333333333333,6,1,0,75,0,0
46967,-74.07407,6,1,0,75,0,0
47077,-75.46739,6,1,0,75,0,0
47132,-76.1839,6,1,0,75,0,0
47187,-76.91415,6,1,0,75,0,0
47243,-77.67218,6,1,0,75,0,0
47298,-78.43137,6,1,0,75,0,0
47408,-79.99517,6,1,0,75,0,0
47518,-81.62259,6,1,0,75,0,0
47629,-83.333336,6,1,0,75,0,0
49614,-74.07407,6,1,0,75,0,0
49724,-75.46739,6,1,0,75,0,0
49779,-76.1839,6,1,0,75,0,0
49834,-76.91415,6,1,0,75,0,0
49945,-78.43137,6,1,0,75,0,0
50055,-79.99517,6,1,0,75,0,0
50165,-81.62259,6,1,0,75,0,0
50276,-83.333336,6,1,0,75,0,0
52041,-76.9230791952663,6,1,0,75,0,0
52923,-76.92308,6,1,0,75,0,0
53033,-78.43137,6,1,0,75,0,0
53143,-80,6,1,0,75,0,0
53254,-81.647804,6,1,0,75,0,0
53363,-83.333336,6,1,0,75,0,0
56343,-83.333336,6,1,0,75,0,0
57832,-66.6666683733334,6,1,0,75,0,0
58218,-83.3333360000001,6,1,0,75,0,0
67482,-71.42857,6,1,0,75,0,0
67592,-72.287186,6,1,0,75,0,0
67647,-72.72428,6,1,0,75,0,0
67702,-73.166695,6,1,0,75,0,0
67812,-74.067856,6,1,0,75,0,0
67923,-75.00001,6,1,0,75,0,0
68033,-75.94718,6,1,0,75,0,0
68143,-76.91861,6,1,0,75,0,0
68198,-77.4137,6,1,0,75,0,0
68254,-77.92438,6,1,0,75,0,0
68364,-78.94737,6,1,0,75,0,0
68474,-79.99759,6,1,0,75,0,0
68584,-81.07611,6,1,0,75,0,0
68640,-81.63644,6,1,0,75,0,0
68695,-82.194336,6,1,0,75,0,0
68750,-82.75992,6,1,0,75,0,0
68805,-83.333336,6,1,0,75,0,0
70130,-100,6,1,0,75,0,0
71233,-83.3333333333333,6,1,0,75,0,0
71453,-133.333333333333,6,1,0,75,0,0
71563,-76.9230769230769,6,1,0,75,0,0
71894,-100,6,1,0,75,0,0
72556,-83.3333333333333,6,1,0,75,0,0
72666,-76.9230769230769,6,1,0,75,0,0
72776,-71.42857,6,1,0,75,0,0
72831,-71.855316,6,1,0,75,0,0
72886,-72.287186,6,1,0,75,0,0
72941,-72.72428,6,1,0,75,0,0
72996,-73.166695,6,1,0,75,0,0
73106,-74.067856,6,1,0,75,0,0
73217,-75.00001,6,1,0,75,0,0
73327,-75.94718,6,1,0,75,0,0
73437,-76.91861,6,1,0,75,0,0
73492,-77.4137,6,1,0,75,0,0
73547,-77.9152,6,1,0,75,0,0
73602,-78.42324,6,1,0,75,0,0
73658,-78.94737,6,1,0,75,0,0
73768,-79.99759,6,1,0,75,0,0
73879,-81.08605,6,1,0,75,0,0
73989,-82.194336,6,1,0,75,0,0
74099,-83.333336,6,1,0,75,0,0
75424,-100,6,1,0,75,0,0
76085,-83.3333333333333,6,1,0,75,0,0
78069,-66.666664,6,1,0,75,0,0
78180,-69.15839,6,1,0,75,0,0
78290,-71.8436,6,1,0,75,0,0
78401,-74.773224,6,1,0,75,0,0
78456,-76.31518,6,1,0,75,0,0
78511,-77.92207,6,1,0,75,0,0
78621,-81.3478,6,1,0,75,0,0
78732,-85.124176,6,1,0,75,0,0
78842,-89.22911,6,1,0,75,0,0
78897,-91.4337,6,1,0,75,0,0
78952,-93.74999,6,1,0,75,0,0
79062,-98.75345,6,1,0,75,0,0
79173,-104.37458,6,1,0,75,0,0
79283,-110.614105,6,1,0,75,0,0
79393,-117.647064,6,1,0,75,0,0
84466,-105.26316,6,1,0,75,0,0
84522,-108.161255,6,1,0,75,0,0
84577,-111.16726,6,1,0,75,0,0
84632,-114.345116,6,1,0,75,0,0
84686,-117.647064,6,1,0,75,0,0
85018,-117.647064,6,1,0,75,0,0
85129,-115.36896,6,1,0,75,0,0
85239,-113.19678,6,1,0,75,0,0
85349,-111.10489,6,1,0,75,0,0
85459,-109.088905,6,1,0,75,0,0
85570,-107.127426,6,1,0,75,0,0
85680,-105.25198,6,1,0,75,0,0
85790,-103.44109,6,1,0,75,0,0
85901,-101.67581,6,1,0,75,0,0
86010,-100,6,1,0,75,0,0
101673,-100,6,1,0,75,0,0
101783,-97.56637,6,1,0,75,0,0
101893,-95.24838,6,1,0,75,0,0
102004,-93.01835,6,1,0,75,0,0
102059,-91.95163,6,1,0,75,0,0
102114,-90.90909,6,1,0,75,0,0
102224,-88.893364,6,1,0,75,0,0
102335,-86.94795,6,1,0,75,0,0
102445,-85.10228,6,1,0,75,0,0
102555,-83.333336,6,1,0,75,0,0
102997,-100.00000384,6,1,0,75,0,0
103218,-83.333336,6,1,0,75,0,0
103769,-83.333336,6,1,0,75,0,0
122078,-100,6,1,0,75,0,0
122409,-83.333336,6,1,0,75,0,0
131067,-66.6666666666667,6,1,0,75,0,0
132110,-80,6,1,0,75,0,0
132335,-80,6,1,0,45,0,0
133652,-200,6,1,0,45,0,0
133658,-200.00697,6,1,0,45,0,0
134982,-201.55783,6,1,0,45,0,0
136305,-203.13173,6,1,0,45,0,0
137629,-204.73163,6,1,0,45,0,0
138952,-206.35568,6,1,0,45,0,0
140276,-208.00697,6,1,0,45,0,0
141599,-209.68361,6,1,0,45,0,0
142923,-211.38881,6,1,0,45,0,0
144246,-213.12064,6,1,0,45,0,0
144908,-213.99791,6,1,0,45,0,0
145570,-214.88243,6,1,0,45,0,0
146893,-216.67223,6,1,0,45,0,0
147555,-217.57906,6,1,0,45,0,0
147996,-218.18735,6,1,0,45,0,0
148217,-218.49347,6,1,0,45,0,0
149540,-220.3442,6,1,0,45,0,0
150202,-221.28207,6,1,0,45,0,0
150864,-222.22797,6,1,0,45,0,0
152187,-224.14275,6,1,0,45,0,0
152849,-225.11331,6,1,0,45,0,0
153290,-225.76454,6,1,0,45,0,0
153511,-226.09233,6,1,0,45,0,0
154834,-228.07458,6,1,0,45,0,0
155496,-229.07959,6,1,0,45,0,0
156158,-230.09348,6,1,0,45,0,0
157261,-231.80286,6,1,0,45,0,0
157482,-232.14839,6,1,0,45,0,0
158805,-234.23877,6,1,0,45,0,0
159908,-236.01053,6,1,0,45,0,0
160129,-236.36874,6,1,0,45,0,0
161011,-237.80931,6,1,0,45,0,0
161452,-238.53618,6,1,0,45,0,0
162776,-240.74542,6,1,0,45,0,0
163437,-241.86372,6,1,0,45,0,0
164099,-242.99422,6,1,0,45,0,0
165423,-245.28717,6,1,0,45,0,0
165864,-246.06058,6,1,0,45,0,0
166305,-246.83885,6,1,0,45,0,0
166746,-247.62206,6,1,0,45,0,0
168070,-250.00365,6,1,0,45,0,0
168952,-251.61572,6,1,0,45,0,0
169393,-252.42963,6,1,0,45,0,0
169614,-252.83945,6,1,0,45,0,0
169834,-253.24878,6,1,0,45,0,0
170717,-254.90501,6,1,0,45,0,0
172040,-257.42752,6,1,0,45,0,0
173364,-260.0024,6,1,0,45,0,0
174246,-261.7465,6,1,0,45,0,0
174687,-262.62735,6,1,0,45,0,0
176011,-265.30786,6,1,0,45,0,0
176673,-266.66873,6,1,0,45,0,0
177334,-268.04156,6,1,0,45,0,0
178658,-270.83432,6,1,0,45,0,0
178879,-271.30618,6,1,0,45,0,0
179099,-271.77753,6,1,0,45,0,0
179652,-272.7273,6,1,0,45,0,0
179761,-273.20575,6,1,0,45,0,0
179982,-273.68588,6,1,0,45,0,0
181305,-276.59595,6,1,0,45,0,0
181967,-278.0754,6,1,0,45,0,0
182408,-279.06976,6,1,0,45,0,0
182629,-279.57077,6,1,0,45,0,0
183952,-282.60797,6,1,0,45,0,0
184614,-284.15265,6,1,0,45,0,0
185055,-285.19104,6,1,0,45,0,0
185276,-285.7143,6,1,0,45,0,0
185791,333.796940194715,4,1,0,45,1,8
185791,-181.818181818182,4,1,0,45,0,8
186458,285.130447179585,4,1,0,55,1,8
186458,-161.290322580645,4,1,0,55,0,8
187028,226.628895184136,4,1,0,63,1,8
187028,-161.290322580645,4,1,0,63,0,8
187481,189.615396770218,4,1,0,70,1,8
187481,-163.934426229508,4,1,0,70,0,8
187860,235.294117647059,4,1,0,76,1,8
187860,-119.047619047619,4,1,0,76,0,8
188095,201.342281879195,4,1,0,79,1,8
188095,-129.87012987013,4,1,0,79,0,8
188296,175.054704595186,4,1,0,82,1,8
188296,-142.857142857143,4,1,0,82,0,8
188471,212.765957446809,4,1,0,85,1,8
188471,-112.359550561798,4,1,0,85,0,8
188577,172.413793103448,4,1,0,87,1,8
188577,-135.135135135135,4,1,0,87,0,8
188663,147.058823529412,4,1,0,88,1,8
188663,-153.846153846154,4,1,0,88,0,8
188736,140.18691588785,4,1,0,89,1,8
188736,-158.730158730159,4,1,0,89,0,8
188806,220.588235294118,6,1,0,90,1,1
188806,-74.0740740740741,6,1,0,90,0,1
193438,-66.6666666666667,6,1,0,90,0,0
193658,-71.4285714285714,6,1,0,90,0,0
193879,-76.9230769230769,6,1,0,90,0,0
194100,-74.0740740740741,6,1,0,90,0,1
199449,-33.3333333333333,6,1,0,90,0,0
199504,-100,6,1,0,90,0,0
199532,-100.2148,6,1,0,90,0,0
199559,-100.422806,6,1,0,89,0,0
199587,-100.63945,6,1,0,89,0,0
199614,-100.84922,6,1,0,89,0,0
199642,-101.067696,6,1,0,89,0,0
199669,-101.27926,6,1,0,88,0,0
199697,-101.4996,6,1,0,88,0,0
199724,-101.71298,6,1,0,88,0,0
199752,-101.93523,6,1,0,88,0,0
199779,-102.150444,6,1,0,87,0,0
199807,-102.374596,6,1,0,87,0,0
199835,-102.59973,6,1,0,87,0,0
199863,-102.82587,6,1,0,86,0,0
199890,-103.044876,6,1,0,86,0,0
199918,-103.272964,6,1,0,86,0,0
199945,-103.49388,6,1,0,86,0,0
199973,-103.72397,6,1,0,85,0,0
200000,-103.946815,6,1,0,85,0,0
200028,-104.17894,6,1,0,85,0,0
200056,-104.412094,6,1,0,84,0,0
200084,-104.646286,6,1,0,84,0,0
200111,-104.87312,6,1,0,84,0,0
200139,-105.10939,6,1,0,84,0,0
200166,-105.33825,6,1,0,83,0,0
200194,-105.57663,6,1,0,83,0,0
200221,-105.80751,6,1,0,83,0,0
200249,-106.04802,6,1,0,83,0,0
200276,-106.280975,6,1,0,82,0,0
200304,-106.52365,6,1,0,82,0,0
200331,-106.758705,6,1,0,82,0,0
200359,-107.00356,6,1,0,81,0,0
200386,-107.240746,6,1,0,81,0,0
200414,-107.487816,6,1,0,81,0,0
200441,-107.72715,6,1,0,81,0,0
200469,-107.97647,6,1,0,80,0,0
200497,-108.22696,6,1,0,80,0,0
200525,-108.4786,6,1,0,80,0,0
200552,-108.722374,6,1,0,80,0,0
200580,-108.97633,6,1,0,79,0,0
200607,-109.22235,6,1,0,79,0,0
200635,-109.47865,6,1,0,79,0,0
200662,-109.726944,6,1,0,78,0,0
200690,-109.98563,6,1,0,78,0,0
200717,-110.23622,6,1,0,78,0,0
200745,-110.497314,6,1,0,78,0,0
200772,-110.750244,6,1,0,77,0,0
200800,-111.01379,6,1,0,77,0,0
200827,-111.26909,6,1,0,77,0,0
200855,-111.5351,6,1,0,76,0,0
200882,-111.79282,6,1,0,76,0,0
200910,-112.06135,6,1,0,76,0,0
200938,-112.33116,6,1,0,76,0,0
200966,-112.60228,6,1,0,75,0,0
200993,-112.86496,6,1,0,75,0,0
201021,-113.138664,6,1,0,75,0,0
201048,-113.403854,6,1,0,75,0,0
201076,-113.68018,6,1,0,74,0,0
201103,-113.94792,6,1,0,74,0,0
201131,-114.226906,6,1,0,74,0,0
201158,-114.49723,6,1,0,73,0,0
201186,-114.778915,6,1,0,73,0,0
201213,-115.051865,6,1,0,73,0,0
201241,-115.33629,6,1,0,73,0,0
201268,-115.6119,6,1,0,72,0,0
201296,-115.8991,6,1,0,72,0,0
201323,-116.17741,6,1,0,72,0,0
201351,-116.46744,6,1,0,72,0,0
201379,-116.75891,6,1,0,71,0,0
201407,-117.05186,6,1,0,71,0,0
201434,-117.335724,6,1,0,71,0,0
201462,-117.63158,6,1,0,70,0,0
201489,-117.918274,6,1,0,70,0,0
201517,-118.217064,6,1,0,70,0,0
201544,-118.50663,6,1,0,70,0,0
201572,-118.80842,6,1,0,69,0,0
201600,-119.11175,6,1,0,69,0,0
201628,-119.416626,6,1,0,69,0,0
201655,-119.712105,6,1,0,68,0,0
201683,-120.02007,6,1,0,68,0,0
201710,-120.31855,6,1,0,68,0,0
201738,-120.62964,6,1,0,68,0,0
201765,-120.93116,6,1,0,67,0,0
201793,-121.24544,6,1,0,67,0,0
201820,-121.55004,6,1,0,67,0,0
201848,-121.86756,6,1,0,67,0,0
201875,-122.1753,6,1,0,66,0,0
201903,-122.496086,6,1,0,66,0,0
201930,-122.807014,6,1,0,66,0,0
201958,-123.13114,6,1,0,65,0,0
201985,-123.445305,6,1,0,65,0,0
202013,-123.77281,6,1,0,65,0,0
202041,-124.10204,6,1,0,65,0,0
202069,-124.43305,6,1,0,64,0,0
202096,-124.75391,6,1,0,64,0,0
202124,-125.088394,6,1,0,64,0,0
202151,-125.41264,6,1,0,64,0,0
202179,-125.75067,6,1,0,63,0,0
202206,-126.07837,6,1,0,63,0,0
202234,-126.42001,6,1,0,63,0,0
202261,-126.75121,6,1,0,62,0,0
202289,-127.09651,6,1,0,62,0,0
202316,-127.43127,6,1,0,62,0,0
202344,-127.78029,6,1,0,62,0,0
202371,-128.11865,6,1,0,61,0,0
202399,-128.47147,6,1,0,61,0,0
202426,-128.8135,6,1,0,61,0,0
202454,-129.17017,6,1,0,60,0,0
202482,-129.52878,6,1,0,60,0,0
202510,-129.8894,6,1,0,60,0,0
202537,-130.23904,6,1,0,60,0,0
202565,-130.60365,6,1,0,59,0,0
202592,-130.95717,6,1,0,59,0,0
202620,-131.32579,6,1,0,59,0,0
202647,-131.68323,6,1,0,59,0,0
202675,-132.05595,6,1,0,58,0,0
202703,-132.43082,6,1,0,58,0,0
202731,-132.8078,6,1,0,58,0,0
202758,-133.17336,6,1,0,57,0,0
202786,-133.55458,6,1,0,57,0,0
202813,-133.92427,6,1,0,57,0,0
202841,-134.30983,6,1,0,57,0,0
202868,-134.68372,6,1,0,56,0,0
202896,-135.07365,6,1,0,56,0,0
202923,-135.45181,6,1,0,56,0,0
202951,-135.84622,6,1,0,55,0,0
202978,-136.22871,6,1,0,55,0,0
203006,-136.62769,6,1,0,55,0,0
203033,-137.0146,6,1,0,55,0,0
203061,-137.41818,6,1,0,54,0,0
203088,-137.8096,6,1,0,54,0,0
203116,-138.21786,6,1,0,54,0,0
203144,-138.62857,6,1,0,54,0,0
203172,-139.04173,6,1,0,53,0,0
203199,-139.44247,6,1,0,53,0,0
203227,-139.86049,6,1,0,53,0,0
203254,-140.26596,6,1,0,52,0,0
203282,-140.68895,6,1,0,52,0,0
203309,-141.09926,6,1,0,52,0,0
203337,-141.52728,6,1,0,52,0,0
203364,-141.9425,6,1,0,51,0,0
203392,-142.37566,6,1,0,51,0,0
203419,-142.79588,6,1,0,51,0,0
203447,-143.2343,6,1,0,51,0,0
203474,-143.65959,6,1,0,50,0,0
203502,-144.10333,6,1,0,50,0,0
203529,-144.53381,6,1,0,50,0,0
203557,-144.98297,6,1,0,49,0,0
203585,-145.43492,6,1,0,49,0,0
203613,-145.88972,6,1,0,49,0,0
203640,-146.33096,6,1,0,49,0,0
203668,-146.79137,6,1,0,48,0,0
203695,-147.2381,6,1,0,48,0,0
203723,-147.70425,6,1,0,48,0,0
203750,-148.15656,6,1,0,48,0,0
203778,-148.62856,6,1,0,47,0,0
203806,-149.10356,6,1,0,47,0,0
203834,-149.58162,6,1,0,47,0,0
203861,-150.04552,6,1,0,46,0,0
203889,-150.52963,6,1,0,46,0,0
203916,-150.99945,6,1,0,46,0,0
203944,-151.48975,6,1,0,46,0,0
203971,-151.96556,6,1,0,45,0,0
203999,-152.46219,6,1,0,45,0,0
204026,-152.94415,6,1,0,45,0,0
204054,-153.44719,6,1,0,44,0,0
204081,-153.93541,6,1,0,44,0,0
204109,-154.445,6,1,0,44,0,0
204136,-154.93959,6,1,0,44,0,0
204164,-155.45589,6,1,0,43,0,0
204191,-155.95699,6,1,0,43,0,0
204219,-156.48009,6,1,0,43,0,0
204247,-157.00668,6,1,0,43,0,0
204275,-157.53687,6,1,0,42,0,0
204302,-158.05148,6,1,0,42,0,0
204330,-158.58876,6,1,0,42,0,0
204357,-159.1103,6,1,0,41,0,0
204385,-159.65479,6,1,0,41,0,0
204412,-160.18338,6,1,0,41,0,0
204440,-160.73524,6,1,0,41,0,0
204467,-161.27104,6,1,0,40,0,0
204495,-161.83044,6,1,0,40,0,0
204522,-162.37357,6,1,0,40,0,0
204550,-162.94064,6,1,0,39,0,0
204577,-163.49126,6,1,0,39,0,0
204605,-164.0662,6,1,0,39,0,0
204632,-164.62445,6,1,0,39,0,0
204660,-165.20743,6,1,0,38,0,0
204688,-165.79451,6,1,0,38,0,0
204716,-166.3858,6,1,0,38,0,0
204743,-166.95996,6,1,0,38,0,0
204771,-167.55965,6,1,0,37,0,0
204798,-168.14195,6,1,0,37,0,0
204826,-168.75014,6,1,0,37,0,0
204853,-169.34077,6,1,0,36,0,0
204881,-169.95766,6,1,0,36,0,0
204908,-170.55681,6,1,0,36,0,0
204936,-171.18262,6,1,0,36,0,0
204963,-171.79047,6,1,0,35,0,0
204991,-172.42535,6,1,0,35,0,0
205018,-173.04205,6,1,0,35,0,0
205046,-173.68625,6,1,0,35,0,0
205073,-174.31201,6,1,0,34,0,0
205101,-174.96576,6,1,0,34,0,0
205129,-175.62439,6,1,0,34,0,0
205157,-176.288,6,1,0,33,0,0
205184,-176.9327,6,1,0,33,0,0
205212,-177.60628,6,1,0,33,0,0
205239,-178.26064,6,1,0,33,0,0
205267,-178.9444,6,1,0,32,0,0
205294,-179.60867,6,1,0,32,0,0
205322,-180.30281,6,1,0,32,0,0
205350,-181.00232,6,1,0,31,0,0
205378,-181.7073,6,1,0,31,0,0
205405,-182.3923,6,1,0,31,0,0
205433,-183.10817,6,1,0,31,0,0
205460,-183.8038,6,1,0,30,0,0
205488,-184.5308,6,1,0,30,0,0
205515,-185.23732,6,1,0,30,0,0
205543,-185.97572,6,1,0,30,0,0
205570,-186.69336,6,1,0,29,0,0
205598,-187.44344,6,1,0,29,0,0
205625,-188.17247,6,1,0,29,0,0
205653,-188.93451,6,1,0,28,0,0
205680,-189.6752,6,1,0,28,0,0
205708,-190.44952,6,1,0,28,0,0
205735,-191.20215,6,1,0,28,0,0
205763,-191.98898,6,1,0,27,0,0
205791,-192.7823,6,1,0,27,0,0
205819,-193.58224,6,1,0,27,0,0
205846,-194.3599,6,1,0,27,0,0
205874,-195.17299,6,1,0,26,0,0
205901,-195.96349,6,1,0,26,0,0
205929,-196.7901,6,1,0,26,0,0
205956,-197.59381,6,1,0,25,0,0
205984,-198.43423,6,1,0,25,0,0
206011,-199.25146,6,1,0,25,0,0
206039,-200.10606,6,1,0,25,0,0
206066,-200.93713,6,1,0,24,0,0
206094,-201.8063,6,1,0,24,0,0
206121,-202.6516,6,1,0,24,0,0
206149,-203.53569,6,1,0,23,0,0
206176,-204.39557,6,1,0,23,0,0
206204,-205.29498,6,1,0,23,0,0
206232,-206.20236,6,1,0,23,0,0
206260,-207.11777,6,1,0,22,0,0
206287,-208.00824,6,1,0,22,0,0
206315,-208.9398,6,1,0,22,0,0
206342,-209.84604,6,1,0,22,0,0
206370,-210.79419,6,1,0,21,0,0
206397,-211.71663,6,1,0,21,0,0
206425,-212.68176,6,1,0,21,0,0
206453,-213.65576,6,1,0,20,0,0
206481,-214.63873,6,1,0,20,0,0
206508,-215.5952,6,1,0,20,0,0
206536,-216.5961,6,1,0,20,0,0
206563,-217.57011,6,1,0,19,0,0
206591,-218.58952,6,1,0,19,0,0
206618,-219.58159,6,1,0,19,0,0
206646,-220.61998,6,1,0,19,0,0
206673,-221.63062,6,1,0,18,0,0
206701,-222.68848,6,1,0,18,0,0
206728,-223.7182,6,1,0,18,0,0
206756,-224.79617,6,1,0,17,0,0
206783,-225.8455,6,1,0,17,0,0
206811,-226.94414,6,1,0,17,0,0
206838,-228.01367,6,1,0,17,0,0
206866,-229.1335,6,1,0,16,0,0
206894,-230.26443,6,1,0,16,0,0
206922,-231.40654,6,1,0,16,0,0
206949,-232.51865,6,1,0,15,0,0
206977,-233.68332,6,1,0,15,0,0
207004,-234.8175,6,1,0,15,0,0
207032,-236.00537,6,1,0,15,0,0
207059,-237.16223,6,1,0,14,0,0
207087,-238.37398,6,1,0,14,0,0
207114,-239.55424,6,1,0,14,0,0
207142,-240.79065,6,1,0,14,0,0
207169,-241.99504,6,1,0,13,0,0
207197,-243.25682,6,1,0,13,0,0
207224,-244.48607,6,1,0,13,0,0
207252,-245.77402,6,1,0,12,0,0
207279,-247.02888,6,1,0,12,0,0
207307,-248.34386,6,1,0,12,0,0
207335,-249.67291,6,1,0,12,0,0
207363,-251.01624,6,1,0,11,0,0
207390,-252.32535,6,1,0,11,0,0
207418,-253.69748,6,1,0,11,0,0
207445,-255.03479,6,1,0,11,0,0
207473,-256.4366,6,1,0,10,0,0
207500,-257.80307,6,1,0,10,0,0
207528,-259.23553,6,1,0,10,0,0
207556,-260.68405,6,1,0,9,0,0
207584,-262.14886,6,1,0,9,0,0
207611,-263.57703,6,1,0,9,0,0
207639,-265.07455,6,1,0,9,0,0
207666,-266.53485,6,1,0,8,0,0
207694,-268.06635,6,1,0,8,0,0
207721,-269.55988,6,1,0,8,0,0
207749,-271.12637,6,1,0,7,0,0
207776,-272.65433,6,1,0,7,0,0
207804,-274.2571,6,1,0,7,0,0
207831,-275.82065,6,1,0,7,0,0
207859,-277.46103,6,1,0,6,0,0
207886,-279.0614,6,1,0,6,0,0
207914,-280.74063,6,1,0,6,0,0
207941,-282.37915,6,1,0,6,0,0
207969,-284.09872,6,1,0,5,0,0
207996,-285.77682,6,1,0,5,0,0

[Colours]
Combo1 : 255,192,0
Combo2 : 0,202,0
Combo3 : 18,124,255
Combo4 : 242,24,57

[HitObjects]
256,192,11894,5,0,1:0:0:0:
256,192,12556,1,8,1:1:0:0:
256,192,13218,1,0,1:0:0:0:
256,192,13880,1,8,1:1:0:0:
256,192,14321,1,8,1:1:0:0:
256,192,14541,1,0,1:0:0:0:
256,192,15203,1,8,1:1:0:0:
256,192,15423,1,0,1:0:0:0:
256,192,15534,1,0,1:0:0:0:
256,192,15644,1,8,1:1:0:0:
256,192,15699,1,8,1:1:0:0:
256,192,15754,1,0,1:0:0:0:
256,192,15865,1,0,1:0:0:0:
256,192,16526,1,8,1:1:0:0:
256,192,16747,1,0,1:0:0:0:
256,192,16968,1,0,1:0:0:0:
256,192,17188,1,8,1:1:0:0:
256,192,17850,1,8,1:1:0:0:
256,192,18291,1,8,1:1:0:0:
256,192,18512,1,0,1:0:0:0:
256,192,19174,1,8,1:1:0:0:
256,192,19835,1,0,1:0:0:0:
256,192,20277,1,0,1:0:0:0:
256,192,20497,1,8,1:1:0:0:
256,192,20718,1,8,1:1:0:0:
256,192,20938,1,8,1:1:0:0:
256,192,21159,1,0,1:0:0:0:
256,192,21600,1,0,1:0:0:0:
256,192,21821,1,8,1:1:0:0:
256,192,22262,1,8,1:1:0:0:
256,192,22482,1,0,1:0:0:0:
256,192,23144,1,8,1:1:0:0:
256,192,23806,1,8,1:1:0:0:
256,192,24468,1,0,0:0:0:0:
256,192,24909,1,8,1:1:0:0:
256,192,25129,1,0,1:0:0:0:
256,192,25350,1,0,1:0:0:0:
256,192,25791,1,8,1:1:0:0:
256,192,26011,1,0,1:0:0:0:
256,192,26122,1,0,1:0:0:0:
256,192,26232,1,8,1:1:0:0:
256,192,26288,1,8,1:1:0:0:
256,192,26343,1,0,1:0:0:0:
256,192,26453,1,0,1:0:0:0:
256,192,27115,1,0,0:0:0:0:
256,192,27556,1,8,1:1:0:0:
256,192,27776,1,0,1:0:0:0:
256,192,28218,1,0,1:0:0:0:
256,192,28438,1,8,1:1:0:0:
256,192,28659,1,8,1:1:0:0:
256,192,28879,1,8,1:1:0:0:
256,192,29100,1,0,1:0:0:0:
256,192,30424,8,0,31637,1:0:0:0:
256,192,31747,5,0,1:0:0:0:
256,192,31858,1,0,1:0:0:0:
256,192,31968,1,8,1:1:0:0:
256,192,32078,1,0,1:0:0:0:
256,192,32188,1,8,1:1:0:0:
256,192,32299,1,8,1:1:0:0:
256,192,32409,1,8,1:1:0:0:
256,192,32519,1,0,1:0:0:0:
256,192,32630,1,8,1:1:0:0:
256,192,32685,1,8,1:1:0:0:
256,192,32740,1,0,1:0:0:0:
256,192,32850,1,8,1:1:0:0:
256,192,32960,1,8,1:1:0:0:
256,192,33071,1,4,1:1:0:0:
256,192,33291,1,0,1:0:0:0:
256,192,33402,1,0,1:0:0:0:
256,192,33512,1,8,1:1:0:0:
256,192,33622,1,0,1:0:0:0:
256,192,33733,1,8,1:1:0:0:
256,192,33843,1,0,1:0:0:0:
256,192,33898,1,0,1:0:0:0:
256,192,33953,1,8,1:1:0:0:
256,192,34063,1,0,1:0:0:0:
256,192,34174,1,8,1:1:0:0:
256,192,34284,1,8,1:1:0:0:
256,192,34394,1,4,1:1:0:0:
256,192,34615,1,8,1:1:0:0:
256,192,34725,1,0,1:0:0:0:
256,192,34835,1,8,1:1:0:0:
256,192,34946,1,0,1:0:0:0:
256,192,35056,1,8,1:1:0:0:
256,192,35166,1,0,1:0:0:0:
256,192,35277,1,8,1:1:0:0:
256,192,35332,1,8,1:1:0:0:
256,192,35387,1,0,1:0:0:0:
256,192,35497,1,8,1:1:0:0:
256,192,35608,1,8,1:1:0:0:
256,192,35718,1,4,1:1:0:0:
256,192,35938,1,0,1:0:0:0:
256,192,36049,1,0,1:0:0:0:
256,192,36159,1,8,1:1:0:0:
256,192,36269,1,0,1:0:0:0:
256,192,36380,1,8,1:1:0:0:
256,192,36435,1,0,1:0:0:0:
256,192,36490,1,0,1:0:0:0:
256,192,36545,1,0,1:0:0:0:
256,192,36600,1,8,1:1:0:0:
256,192,36710,8,8,36931,1:1:0:0:
256,192,37041,5,12,1:1:0:0:
256,192,37262,1,8,1:1:0:0:
256,192,37372,1,8,1:1:0:0:
256,192,37427,1,8,1:1:0:0:
256,192,37483,1,0,1:0:0:0:
256,192,37593,1,0,1:0:0:0:
256,192,37703,1,8,1:1:0:0:
256,192,37813,1,0,1:0:0:0:
256,192,37924,1,8,1:1:0:0:
256,192,38034,1,8,1:1:0:0:
256,192,38144,1,0,1:0:0:0:
256,192,38255,1,0,1:0:0:0:
256,192,38365,1,12,1:1:0:0:
256,192,38585,1,8,1:1:0:0:
256,192,38696,1,0,1:0:0:0:
256,192,38806,1,8,1:1:0:0:
256,192,38916,1,0,1:0:0:0:
256,192,39027,1,8,1:1:0:0:
256,192,39137,1,0,1:0:0:0:
256,192,39192,1,0,1:0:0:0:
256,192,39247,1,8,1:1:0:0:
256,192,39358,1,8,1:1:0:0:
256,192,39468,1,8,1:1:0:0:
256,192,39523,1,0,1:0:0:0:
256,192,39578,1,0,1:0:0:0:
256,192,39688,1,8,1:1:0:0:
256,192,39799,1,0,1:0:0:0:
256,192,39909,1,0,1:0:0:0:
256,192,40019,1,0,1:0:0:0:
256,192,40130,1,8,1:1:0:0:
256,192,40350,1,8,1:1:0:0:
256,192,40460,1,8,1:1:0:0:
256,192,40571,1,0,1:0:0:0:
256,192,40681,1,0,1:0:0:0:
256,192,40791,1,8,1:1:0:0:
256,192,40902,1,0,1:0:0:0:
256,192,41012,1,12,1:1:0:0:
256,192,41343,1,0,1:0:0:0:
256,192,41563,1,0,1:0:0:0:
256,192,41674,2,0,L|314:196,10,46.4285722192453
256,192,42335,1,4,1:1:0:0:
256,192,42556,1,0,1:0:0:0:
256,192,42666,1,8,1:1:0:0:
256,192,42721,1,8,1:1:0:0:
256,192,42777,1,0,1:0:0:0:
256,192,42887,1,0,1:0:0:0:
256,192,42997,1,8,1:1:0:0:
256,192,43108,1,8,1:1:0:0:
256,192,43218,1,0,1:0:0:0:
256,192,43328,1,0,1:0:0:0:
256,192,43438,1,8,1:1:0:0:
256,192,43549,1,8,1:1:0:0:
256,192,43659,1,4,1:1:0:0:
256,192,43880,1,0,1:0:0:0:
256,192,43990,1,8,1:1:0:0:
256,192,44100,1,0,1:0:0:0:
256,192,44155,1,0,1:0:0:0:
256,192,44210,1,8,1:1:0:0:
256,192,44321,1,4,1:1:0:0:
256,192,44541,1,12,1:1:0:0:
256,192,44762,1,4,1:1:0:0:
256,192,44983,1,0,1:0:0:0:
256,192,45093,1,0,1:0:0:0:
256,192,45203,1,8,1:1:0:0:
256,192,45313,1,0,1:0:0:0:
256,192,45424,1,8,1:1:0:0:
256,192,45479,1,8,1:1:0:0:
256,192,45534,1,0,1:0:0:0:
256,192,45644,1,12,1:1:0:0:
256,192,45865,1,4,1:1:0:0:
256,192,46085,1,12,1:1:0:0:
256,192,46306,1,0,1:0:0:0:
256,192,46416,1,0,1:0:0:0:
256,192,46527,1,8,1:1:0:0:
256,192,46637,1,8,1:1:0:0:
256,192,46747,1,0,1:0:0:0:
256,192,46858,1,8,1:1:0:0:
256,192,46968,1,0,1:0:0:0:
256,192,47078,1,8,1:1:0:0:
256,192,47133,1,0,1:0:0:0:
256,192,47188,1,8,1:1:0:0:
256,192,47244,1,8,1:1:0:0:
256,192,47299,1,0,1:0:0:0:
256,192,47409,1,0,1:0:0:0:
256,192,47519,1,0,1:0:0:0:
256,192,47630,1,8,1:1:0:0:
256,192,47850,1,8,1:1:0:0:
256,192,47960,1,0,1:0:0:0:
256,192,48071,1,0,1:0:0:0:
256,192,48181,1,8,1:1:0:0:
256,192,48236,1,0,1:0:0:0:
256,192,48291,1,8,1:1:0:0:
256,192,48402,1,8,1:1:0:0:
256,192,48512,1,0,1:0:0:0:
256,192,48622,1,8,1:1:0:0:
256,192,48733,1,0,1:0:0:0:
256,192,48843,1,8,1:1:0:0:
256,192,48953,1,4,1:1:0:0:
256,192,49174,1,8,1:1:0:0:
256,192,49284,1,8,1:1:0:0:
256,192,49394,1,0,1:0:0:0:
256,192,49505,1,0,1:0:0:0:
256,192,49615,1,8,1:1:0:0:
256,192,49725,1,8,1:1:0:0:
256,192,49780,1,8,1:1:0:0:
256,192,49835,1,8,1:1:0:0:
256,192,49946,1,0,1:0:0:0:
256,192,50056,1,8,1:1:0:0:
256,192,50166,1,8,1:1:0:0:
256,192,50277,1,0,1:0:0:0:
256,192,50387,1,0,1:0:0:0:
256,192,50497,1,8,1:1:0:0:
256,192,50608,1,0,1:0:0:0:
256,192,50718,1,0,1:0:0:0:
256,192,50828,1,8,1:1:0:0:
256,192,50883,1,0,1:0:0:0:
256,192,50938,1,8,1:1:0:0:
256,192,51049,1,0,1:0:0:0:
256,192,51159,1,8,1:1:0:0:
256,192,51269,1,8,1:1:0:0:
256,192,51380,1,0,1:0:0:0:
256,192,51435,1,0,1:0:0:0:
256,192,51490,1,0,1:0:0:0:
256,192,51600,1,8,1:1:0:0:
256,192,51710,1,8,1:1:0:0:
256,192,51766,1,8,1:1:0:0:
256,192,51821,1,0,1:0:0:0:
256,192,51931,1,0,1:0:0:0:
256,192,52041,1,8,1:1:0:0:
256,192,52152,1,0,1:0:0:0:
256,192,52262,1,8,1:1:0:0:
256,192,52372,1,0,1:0:0:0:
256,192,52427,1,0,1:0:0:0:
256,192,52483,1,8,1:1:0:0:
256,192,52593,1,0,1:0:0:0:
256,192,52703,1,8,1:1:0:0:
256,192,52758,1,0,1:0:0:0:
256,192,52813,1,0,1:0:0:0:
256,192,52924,1,8,1:1:0:0:
256,192,53034,1,8,1:1:0:0:
256,192,53144,1,0,1:0:0:0:
256,192,53255,1,0,1:0:0:0:
256,192,53365,1,8,1:1:0:0:
256,192,53475,1,8,1:1:0:0:
256,192,53530,1,8,1:1:0:0:
256,192,53585,1,0,1:0:0:0:
256,192,53696,1,0,1:0:0:0:
256,192,53806,1,8,1:1:0:0:
256,192,53916,1,8,1:1:0:0:
256,192,54027,1,8,1:1:0:0:
256,192,54082,1,8,1:1:0:0:
256,192,54137,1,0,1:0:0:0:
256,192,54247,1,12,1:1:0:0:
256,192,54468,1,8,1:1:0:0:
256,192,54578,1,8,1:1:0:0:
256,192,54688,1,0,1:0:0:0:
256,192,54799,1,8,1:1:0:0:
256,192,54909,1,0,1:0:0:0:
256,192,55019,1,0,1:0:0:0:
256,192,55130,1,0,1:0:0:0:
256,192,55185,1,0,1:0:0:0:
256,192,55240,1,8,1:1:0:0:
256,192,55350,1,0,1:0:0:0:
256,192,55460,1,8,1:1:0:0:
256,192,55571,1,4,1:1:0:0:
256,192,55791,1,8,1:1:0:0:
256,192,55902,1,8,1:1:0:0:
256,192,56012,1,0,1:0:0:0:
256,192,56122,1,0,1:0:0:0:
256,192,56233,1,8,1:1:0:0:
256,192,56343,1,8,1:1:0:0:
256,192,56398,1,8,1:1:0:0:
256,192,56453,1,0,1:0:0:0:
256,192,56563,1,0,1:0:0:0:
256,192,56674,1,8,1:1:0:0:
256,192,56784,1,8,1:1:0:0:
256,192,56839,1,8,1:1:0:0:
256,192,56894,1,0,1:0:0:0:
256,192,57115,1,0,1:0:0:0:
256,192,57225,1,0,1:0:0:0:
256,192,57280,1,0,1:0:0:0:
256,192,57335,1,8,1:1:0:0:
256,192,57446,1,8,1:1:0:0:
256,192,57556,1,0,1:0:0:0:
256,192,57611,1,0,1:0:0:0:
256,192,57666,1,8,1:1:0:0:
256,192,57721,1,8,1:1:0:0:
256,192,57777,1,0,1:0:0:0:
256,192,57887,8,0,58107,1:0:0:0:
256,192,58218,5,4,1:1:0:0:
256,192,58328,1,8,1:1:0:0:
256,192,58438,1,0,1:0:0:0:
256,192,58549,1,8,1:1:0:0:
256,192,58659,1,8,1:1:0:0:
256,192,58769,1,0,1:0:0:0:
256,192,58824,1,8,1:1:0:0:
256,192,58880,1,8,1:1:0:0:
256,192,58990,1,8,1:1:0:0:
256,192,59100,1,0,1:0:0:0:
256,192,59210,1,0,1:0:0:0:
256,192,59321,1,8,1:1:0:0:
256,192,59431,1,8,1:1:0:0:
256,192,59541,1,4,1:1:0:0:
256,192,59762,1,0,1:0:0:0:
256,192,59872,1,8,1:1:0:0:
256,192,59927,1,8,1:1:0:0:
256,192,59983,1,0,1:0:0:0:
256,192,60093,1,0,1:0:0:0:
256,192,60203,1,8,1:1:0:0:
256,192,60313,1,0,1:0:0:0:
256,192,60424,1,8,1:1:0:0:
256,192,60534,1,8,1:1:0:0:
256,192,60644,1,0,1:0:0:0:
256,192,60755,1,8,1:1:0:0:
256,192,60865,1,4,1:1:0:0:
256,192,61085,1,8,1:1:0:0:
256,192,61141,1,8,1:1:0:0:
256,192,61196,1,0,1:0:0:0:
256,192,61306,1,8,1:1:0:0:
256,192,61416,1,8,1:1:0:0:
256,192,61527,1,0,1:0:0:0:
256,192,61637,1,8,1:1:0:0:
256,192,61747,1,8,1:1:0:0:
256,192,61858,1,0,1:0:0:0:
256,192,61968,1,8,1:1:0:0:
256,192,62078,1,8,1:1:0:0:
256,192,62133,1,8,1:1:0:0:
256,192,62188,1,4,1:1:0:0:
256,192,62409,1,8,1:1:0:0:
256,192,62519,1,0,1:0:0:0:
256,192,62630,1,8,1:1:0:0:
256,192,62740,1,8,1:1:0:0:
256,192,62850,1,0,1:0:0:0:
256,192,62960,1,8,1:1:0:0:
256,192,63071,1,0,1:0:0:0:
256,192,63181,1,0,1:0:0:0:
256,192,63291,1,8,1:1:0:0:
256,192,63402,1,8,1:1:0:0:
256,192,63512,1,0,1:0:0:0:
256,192,63622,1,0,1:0:0:0:
256,192,63733,1,8,1:1:0:0:
256,192,63843,1,0,1:0:0:0:
256,192,63898,1,0,1:0:0:0:
256,192,63953,1,8,1:1:0:0:
256,192,64063,1,0,1:0:0:0:
256,192,64119,1,0,1:0:0:0:
256,192,64174,1,12,1:1:0:0:
256,192,64284,8,0,64725,1:0:0:0:
256,192,64835,5,12,1:1:0:0:
256,192,65056,1,0,1:0:0:0:
256,192,65166,1,8,1:1:0:0:
256,192,65277,1,8,1:1:0:0:
256,192,65387,1,0,1:0:0:0:
256,192,65497,1,8,1:1:0:0:
256,192,65608,1,0,1:0:0:0:
256,192,65718,1,8,1:1:0:0:
256,192,65828,1,0,1:0:0:0:
256,192,65938,1,8,1:1:0:0:
256,192,66049,1,8,1:1:0:0:
256,192,66159,1,4,1:1:0:0:
256,192,66380,1,0,1:0:0:0:
256,192,66490,1,0,1:0:0:0:
256,192,66545,1,0,1:0:0:0:
256,192,66600,1,8,1:1:0:0:
256,192,66710,1,8,1:1:0:0:
256,192,66821,1,0,1:0:0:0:
256,192,66931,1,0,1:0:0:0:
256,192,67041,1,8,1:1:0:0:
256,192,67152,1,0,1:0:0:0:
256,192,67207,1,0,1:0:0:0:
256,192,67262,1,8,1:1:0:0:
256,192,67372,1,8,1:1:0:0:
256,192,67483,1,0,1:0:0:0:
256,192,67593,1,8,1:1:0:0:
256,192,67648,1,0,1:0:0:0:
256,192,67703,1,8,1:1:0:0:
256,192,67813,1,0,1:0:0:0:
256,192,67924,1,0,1:0:0:0:
256,192,68034,1,8,1:1:0:0:
256,192,68144,1,8,1:1:0:0:
256,192,68199,1,8,1:1:0:0:
256,192,68255,1,0,1:0:0:0:
256,192,68365,1,8,1:1:0:0:
256,192,68475,1,0,1:0:0:0:
256,192,68585,1,8,1:1:0:0:
256,192,68641,1,0,1:0:0:0:
256,192,68696,1,8,1:1:0:0:
256,192,68751,1,8,1:1:0:0:
256,192,68806,1,4,1:1:0:0:
256,192,70130,2,0,L|287:191,18,23.2142861096227
256,192,71233,2,4,L|288:192,4,27.8571424814147
256,192,71563,2,4,L|286:192,4,30.1785705610441
256,192,71894,2,0,L|279:192,10,23.2142861096227
256,192,72556,1,0,1:0:0:0:
256,192,72666,1,0,1:0:0:0:
256,192,72777,1,8,1:1:0:0:
256,192,72832,1,0,1:0:0:0:
256,192,72887,1,8,1:1:0:0:
256,192,72942,1,0,1:0:0:0:
256,192,72997,1,8,1:1:0:0:
256,192,73107,1,0,1:0:0:0:
256,192,73218,1,8,1:1:0:0:
256,192,73328,1,0,1:0:0:0:
256,192,73438,1,0,1:0:0:0:
256,192,73493,1,8,1:1:0:0:
256,192,73548,1,0,1:0:0:0:
256,192,73603,1,8,1:1:0:0:
256,192,73659,1,0,1:0:0:0:
256,192,73769,1,0,1:0:0:0:
256,192,73880,1,8,1:1:0:0:
256,192,73990,1,8,1:0:0:0:
256,192,74100,1,4,1:1:0:0:
256,192,75865,5,8,1:1:0:0:
256,192,75920,1,8,1:1:0:0:
256,192,75975,1,0,1:0:0:0:
256,192,76085,1,12,1:1:0:0:
256,192,76747,1,4,1:1:0:0:
256,192,77409,1,8,1:1:0:0:
256,192,77464,1,8,1:1:0:0:
256,192,77519,1,8,1:1:0:0:
256,192,77630,1,0,1:0:0:0:
256,192,77740,1,0,1:0:0:0:
256,192,77850,1,8,1:1:0:0:
256,192,77905,1,8,1:1:0:0:
256,192,77960,1,0,1:0:0:0:
256,192,78071,1,8,1:1:0:0:
256,192,78181,1,0,1:0:0:0:
256,192,78291,1,8,1:1:0:0:
256,192,78402,1,0,1:0:0:0:
256,192,78457,1,0,1:0:0:0:
256,192,78512,1,8,1:1:0:0:
256,192,78622,1,0,1:0:0:0:
256,192,78733,1,8,1:1:0:0:
256,192,78843,1,0,1:0:0:0:
256,192,78898,1,0,1:0:0:0:
256,192,78953,1,8,1:1:0:0:
256,192,79063,1,0,1:0:0:0:
256,192,79174,1,8,1:1:0:0:
256,192,79284,1,8,1:1:0:0:
256,192,79394,1,4,1:1:0:0:
256,192,79725,1,0,1:0:0:0:
256,192,79835,1,0,1:0:0:0:
256,192,79946,1,0,1:0:0:0:
256,192,80056,1,8,1:1:0:0:
256,192,80277,1,8,1:1:0:0:
256,192,80497,1,0,1:0:0:0:
256,192,80608,1,8,1:1:0:0:
256,192,80718,1,0,1:0:0:0:
256,192,81049,1,8,1:1:0:0:
256,192,81159,1,0,1:0:0:0:
256,192,81269,1,8,1:1:0:0:
256,192,81380,1,0,1:0:0:0:
256,192,81600,1,0,1:0:0:0:
256,192,81821,1,8,1:1:0:0:
256,192,81931,1,8,1:1:0:0:
256,192,82041,1,0,1:0:0:0:
256,192,82372,1,0,1:0:0:0:
256,192,82483,1,8,1:1:0:0:
256,192,82593,1,8,1:1:0:0:
256,192,82703,1,0,1:0:0:0:
256,192,82924,1,8,1:1:0:0:
256,192,83144,1,0,1:0:0:0:
256,192,83255,1,0,1:0:0:0:
256,192,83365,1,0,1:0:0:0:
256,192,83696,1,8,1:1:0:0:
256,192,83806,1,0,1:0:0:0:
256,192,83916,1,0,1:0:0:0:
256,192,84027,1,8,1:1:0:0:
256,192,84247,1,0,1:0:0:0:
256,192,84358,1,0,1:0:0:0:
256,192,84468,1,8,1:1:0:0:
256,192,84523,1,8,1:1:0:0:
256,192,84578,1,8,1:1:0:0:
256,192,84633,1,8,1:1:0:0:
256,192,84688,1,0,1:0:0:0:
256,192,85019,1,0,1:0:0:0:
256,192,85130,1,8,1:1:0:0:
256,192,85240,1,0,1:0:0:0:
256,192,85350,1,8,1:1:0:0:
256,192,85460,1,8,1:1:0:0:
256,192,85571,1,0,1:0:0:0:
256,192,85681,1,0,1:0:0:0:
256,192,85791,1,8,1:1:0:0:
256,192,85902,1,8,1:1:0:0:
256,192,86012,1,4,1:1:0:0:
256,192,86233,1,8,1:1:0:0:
256,192,86343,1,0,1:0:0:0:
256,192,86453,1,8,1:1:0:0:
256,192,86563,1,0,1:0:0:0:
256,192,86674,1,8,1:1:0:0:
256,192,86784,1,8,1:1:0:0:
256,192,86894,1,0,1:0:0:0:
256,192,87005,1,8,1:1:0:0:
256,192,87115,1,8,1:1:0:0:
256,192,87225,1,8,1:1:0:0:
256,192,87335,1,0,1:0:0:0:
256,192,87556,1,8,1:1:0:0:
256,192,87666,1,0,1:0:0:0:
256,192,87777,1,8,1:1:0:0:
256,192,87887,1,8,1:1:0:0:
256,192,87997,1,0,1:0:0:0:
256,192,88108,1,0,1:0:0:0:
256,192,88218,1,8,1:1:0:0:
256,192,88328,1,8,1:1:0:0:
256,192,88438,1,0,1:0:0:0:
256,192,88549,1,8,1:1:0:0:
256,192,88659,1,0,1:0:0:0:
256,192,88880,1,8,1:1:0:0:
256,192,88990,1,0,1:0:0:0:
256,192,89100,1,8,1:1:0:0:
256,192,89210,1,0,1:0:0:0:
256,192,89321,1,8,1:1:0:0:
256,192,89431,1,8,1:1:0:0:
256,192,89541,1,0,1:0:0:0:
256,192,89652,1,0,1:0:0:0:
256,192,89762,1,8,1:1:0:0:
256,192,89872,1,8,1:1:0:0:
256,192,89983,1,4,1:1:0:0:
256,192,90203,1,0,1:0:0:0:
256,192,90313,1,8,1:1:0:0:
256,192,90424,1,0,1:0:0:0:
256,192,90534,1,0,1:0:0:0:
256,192,90644,1,8,1:1:0:0:
256,192,90755,1,0,1:0:0:0:
256,192,90865,1,8,1:1:0:0:
256,192,91085,1,0,1:0:0:0:
256,192,91196,1,8,1:1:0:0:
256,192,91306,1,4,1:1:0:0:
256,192,91527,1,8,1:1:0:0:
256,192,91637,1,8,1:1:0:0:
256,192,91747,1,0,1:0:0:0:
256,192,91858,1,8,1:1:0:0:
256,192,91968,1,8,1:1:0:0:
256,192,92023,1,8,1:1:0:0:
256,192,92078,1,8,1:1:0:0:
256,192,92188,1,0,1:0:0:0:
256,192,92409,1,8,1:1:0:0:
256,192,92464,1,8,1:1:0:0:
256,192,92519,1,8,1:1:0:0:
256,192,92630,1,4,1:1:0:0:
256,192,92850,1,0,1:0:0:0:
256,192,92960,1,8,1:1:0:0:
256,192,93016,1,0,1:0:0:0:
256,192,93071,1,8,1:1:0:0:
256,192,93181,1,0,1:0:0:0:
256,192,93291,1,8,1:1:0:0:
256,192,93402,1,8,1:1:0:0:
256,192,93457,1,8,1:1:0:0:
256,192,93512,1,0,1:0:0:0:
256,192,93733,1,0,1:0:0:0:
256,192,93843,1,8,1:1:0:0:
256,192,93898,1,0,1:0:0:0:
256,192,93953,1,12,1:1:0:0:
256,192,94174,1,0,1:0:0:0:
256,192,94284,1,0,1:0:0:0:
256,192,94339,1,0,1:0:0:0:
256,192,94394,1,8,1:1:0:0:
256,192,94505,1,0,1:0:0:0:
256,192,94615,1,8,1:1:0:0:
256,192,94725,1,8,1:1:0:0:
256,192,94835,1,0,1:0:0:0:
256,192,94946,1,0,1:0:0:0:
256,192,95056,1,8,1:1:0:0:
256,192,95166,1,8,1:1:0:0:
256,192,95277,1,4,1:1:0:0:
256,192,95497,1,8,1:1:0:0:
256,192,95608,1,0,1:0:0:0:
256,192,95663,1,8,1:1:0:0:
256,192,95718,1,8,1:1:0:0:
256,192,95773,1,8,1:1:0:0:
256,192,95828,1,0,1:0:0:0:
256,192,95938,1,8,1:1:0:0:
256,192,96159,1,0,1:0:0:0:
256,192,96269,1,8,1:1:0:0:
256,192,96380,1,8,1:1:0:0:
256,192,96490,1,0,1:0:0:0:
256,192,96600,1,0,1:0:0:0:
256,192,96710,1,0,1:0:0:0:
256,192,96821,1,8,1:1:0:0:
256,192,96931,1,0,1:0:0:0:
256,192,97041,1,8,1:1:0:0:
256,192,97152,1,8,1:1:0:0:
256,192,97262,1,0,1:0:0:0:
256,192,97483,1,8,1:1:0:0:
256,192,97593,1,0,1:0:0:0:
256,192,97703,1,8,1:1:0:0:
256,192,97813,1,8,1:1:0:0:
256,192,97924,1,4,1:1:0:0:
256,192,98364,1,0,1:0:0:0:
256,192,98474,1,0,1:0:0:0:
256,192,98530,1,0,1:0:0:0:
256,192,98585,1,8,1:1:0:0:
256,192,98806,1,8,1:1:0:0:
256,192,98861,1,8,1:1:0:0:
256,192,98916,1,0,1:0:0:0:
256,192,99027,1,8,1:1:0:0:
256,192,99082,1,0,1:0:0:0:
256,192,99137,1,0,1:0:0:0:
256,192,99192,1,0,1:0:0:0:
256,192,99247,1,8,1:1:0:0:
256,192,99578,1,8,1:1:0:0:
256,192,99688,1,0,1:0:0:0:
256,192,99799,1,8,1:1:0:0:
256,192,99909,1,8,1:1:0:0:
256,192,100130,1,8,1:1:0:0:
256,192,100240,1,8,1:1:0:0:
256,192,100350,1,0,1:0:0:0:
256,192,100571,1,4,1:1:0:0:
256,192,101233,1,8,1:1:0:0:
256,192,101674,1,8,1:1:0:0:
256,192,101784,1,8,1:1:0:0:
256,192,101894,1,0,1:0:0:0:
256,192,102005,1,0,1:0:0:0:
256,192,102060,1,0,1:0:0:0:
256,192,102115,1,8,1:1:0:0:
256,192,102225,1,0,1:0:0:0:
256,192,102336,1,0,1:0:0:0:
256,192,102446,1,0,1:0:0:0:
256,192,102556,1,12,1:1:0:0:
256,192,102997,1,8,1:1:0:0:
256,192,103218,1,4,1:1:0:0:
256,192,103328,1,8,1:1:0:0:
256,192,103438,1,8,1:1:0:0:
256,192,103494,1,8,1:1:0:0:
256,192,103549,1,0,1:0:0:0:
256,192,103659,1,0,1:0:0:0:
256,192,103769,1,8,1:1:0:0:
256,192,103824,1,8,1:1:0:0:
256,192,103880,1,4,1:1:0:0:
256,192,104100,1,12,1:1:0:0:
256,192,104321,1,4,1:1:0:0:
256,192,104541,1,0,1:0:0:0:
256,192,104596,1,0,1:0:0:0:
256,192,104652,1,8,1:1:0:0:
256,192,104762,1,8,1:1:0:0:
256,192,104872,1,0,1:0:0:0:
256,192,104983,1,8,1:1:0:0:
256,192,105038,1,8,1:1:0:0:
256,192,105093,1,0,1:0:0:0:
256,192,105148,1,0,1:0:0:0:
256,192,105203,1,12,1:1:0:0:
256,192,105424,1,4,1:0:0:0:
256,192,105534,1,12,1:1:0:0:
256,192,105644,1,4,1:0:0:0:
256,192,105865,1,0,1:0:0:0:
256,192,106196,1,0,1:0:0:0:
256,192,106306,1,0,1:0:0:0:
256,192,106416,1,0,1:0:0:0:
256,192,106527,1,12,1:1:0:0:
256,192,106747,1,0,1:0:0:0:
256,192,106858,1,8,1:1:0:0:
256,192,106968,1,0,1:0:0:0:
256,192,107078,1,8,1:1:0:0:
256,192,107188,1,0,1:0:0:0:
256,192,107299,1,0,1:0:0:0:
256,192,107354,1,0,1:0:0:0:
256,192,107409,1,8,1:1:0:0:
256,192,107464,1,0,1:0:0:0:
256,192,107519,1,8,1:1:0:0:
256,192,107630,1,8,1:1:0:0:
256,192,107685,1,8,1:1:0:0:
256,192,107740,1,0,1:0:0:0:
256,192,107795,1,0,1:0:0:0:
256,192,107850,1,8,1:1:0:0:
256,192,108236,1,0,1:0:0:0:
256,192,108291,1,8,1:1:0:0:
256,192,108512,1,0,1:0:0:0:
256,192,108622,1,8,1:1:0:0:
256,192,108677,1,0,1:0:0:0:
256,192,108733,1,8,1:1:0:0:
256,192,108843,1,0,1:0:0:0:
256,192,108953,1,8,1:1:0:0:
256,192,109063,1,8,1:1:0:0:
256,192,109174,1,4,1:1:0:0:
256,192,109394,1,0,1:0:0:0:
256,192,109615,1,8,1:1:0:0:
256,192,109725,1,8,1:1:0:0:
256,192,109835,1,4,1:1:0:0:
256,192,109946,1,8,1:1:0:0:
256,192,110056,1,8,1:1:0:0:
256,192,110166,1,0,1:0:0:0:
256,192,110277,1,8,1:1:0:0:
256,192,110332,1,8,1:1:0:0:
256,192,110387,1,0,1:1:0:0:
256,192,110497,1,8,1:0:0:0:
256,192,110608,1,0,1:1:0:0:
256,192,110718,1,0,1:0:0:0:
256,192,110828,1,8,1:0:0:0:
256,192,110938,1,0,1:0:0:0:
256,192,111049,1,0,1:0:0:0:
256,192,111159,1,12,1:1:0:0:
256,192,111380,1,8,1:1:0:0:
256,192,111490,1,0,1:1:0:0:
256,192,111545,1,8,1:1:0:0:
256,192,111600,1,0,1:0:0:0:
256,192,111710,1,0,1:0:0:0:
256,192,111821,1,12,1:1:0:0:
256,192,111931,1,0,1:0:0:0:
256,192,112041,1,8,1:1:0:0:
256,192,112096,1,8,1:1:0:0:
256,192,112152,1,0,1:0:0:0:
256,192,112262,1,0,1:0:0:0:
256,192,112372,1,8,1:1:0:0:
256,192,112483,1,0,1:0:0:0:
256,192,112593,1,0,1:0:0:0:
256,192,112648,1,0,1:0:0:0:
256,192,112703,1,8,1:1:0:0:
256,192,112813,1,8,1:1:0:0:
256,192,112924,1,8,1:1:0:0:
256,192,112979,1,8,1:1:0:0:
256,192,113034,1,8,1:1:0:0:
256,192,113089,1,8,1:1:0:0:
256,192,113144,1,0,1:1:0:0:
256,192,113365,1,8,1:1:0:0:
256,192,113585,1,0,1:0:0:0:
256,192,113806,1,8,1:1:0:0:
256,192,114027,1,8,1:1:0:0:
256,192,114247,1,0,1:0:0:0:
256,192,114358,1,8,1:1:0:0:
256,192,114468,1,0,1:0:0:0:
256,192,114688,1,0,1:0:0:0:
256,192,114799,1,0,1:0:0:0:
256,192,114909,1,8,1:1:0:0:
256,192,114964,1,8,1:1:0:0:
256,192,115019,1,8,1:1:0:0:
256,192,115074,1,8,1:1:0:0:
256,192,115130,1,0,1:0:0:0:
256,192,115166,1,0,1:0:0:0:
256,192,115460,1,8,1:1:0:0:
256,192,115497,1,8,1:1:0:0:
256,192,115791,1,12,1:1:0:0:
256,192,115902,1,12,1:1:0:0:
256,192,116012,1,4,1:1:0:0:
256,192,116233,1,8,1:1:0:0:
256,192,116343,1,8,1:1:0:0:
256,192,116453,1,0,1:0:0:0:
256,192,116563,1,0,1:0:0:0:
256,192,116674,1,8,1:1:0:0:
256,192,116784,1,0,1:0:0:0:
256,192,116839,1,8,1:1:0:0:
256,192,116894,1,0,1:0:0:0:
256,192,117115,1,8,1:1:0:0:
256,192,117225,1,8,1:1:0:0:
256,192,117280,1,8,1:1:0:0:
256,192,117335,1,0,1:0:0:0:
256,192,117556,1,8,1:1:0:0:
256,192,117611,1,8,1:1:0:0:
256,192,117666,1,0,1:0:0:0:
256,192,117721,1,8,1:1:0:0:
256,192,117777,1,4,1:1:0:0:
256,192,117997,1,0,1:0:0:0:
256,192,118108,1,0,1:0:0:0:
256,192,118218,1,8,1:1:0:0:
256,192,118438,1,8,1:1:0:0:
256,192,118659,1,0,1:0:0:0:
256,192,118880,1,0,1:0:0:0:
256,192,119100,1,4,1:1:0:0:
256,192,119210,1,0,1:0:0:0:
256,192,119321,1,8,1:1:0:0:
256,192,119431,1,0,1:0:0:0:
256,192,119541,1,8,1:1:0:0:
256,192,119596,1,8,1:1:0:0:
256,192,119652,1,0,1:0:0:0:
256,192,119762,1,0,1:0:0:0:
256,192,119983,1,8,1:1:0:0:
256,192,120093,1,8,1:1:0:0:
256,192,120148,1,8,1:1:0:0:
256,192,120203,1,0,1:0:0:0:
256,192,120313,1,0,1:0:0:0:
256,192,120424,1,0,1:0:0:0:
256,192,120534,1,0,1:0:0:0:
256,192,120589,1,0,1:0:0:0:
256,192,120644,1,8,1:1:0:0:
256,192,120755,1,8,1:1:0:0:
256,192,120865,1,0,1:0:0:0:
256,192,120975,1,0,1:0:0:0:
256,192,121085,1,8,1:1:0:0:
256,192,121196,1,0,1:0:0:0:
256,192,121306,1,0,1:0:0:0:
256,192,121416,1,8,1:1:0:0:
256,192,121527,1,8,1:1:0:0:
256,192,121637,1,8,0:0:0:0:
256,192,121747,1,0,1:0:0:0:
256,192,122078,2,0,L|301:195,4,23.2142861096227
256,192,122409,2,0,L|301:192,8,27.8571424814147
256,192,123071,1,4,1:1:0:0:
256,192,124394,1,12,1:1:0:0:
256,192,125718,1,4,1:1:0:0:
256,192,126380,1,8,1:1:0:0:
256,192,126600,1,8,1:1:0:0:
256,192,126821,1,8,1:1:0:0:
256,192,127041,1,4,1:1:0:0:
256,192,127483,1,0,1:0:0:0:
256,192,127593,1,0,1:0:0:0:
256,192,127703,1,12,1:1:0:0:
256,192,128144,1,8,1:1:0:0:
256,192,128255,1,8,1:1:0:0:
256,192,128365,1,4,1:1:0:0:
256,192,128475,1,8,1:1:0:0:
256,192,128530,1,8,1:1:0:0:
256,192,128585,1,0,1:0:0:0:
256,192,128696,1,0,1:0:0:0:
256,192,128751,1,0,1:0:0:0:
256,192,128806,1,8,1:1:0:0:
256,192,128916,1,0,1:0:0:0:
256,192,129027,1,12,1:1:0:0:
256,192,129358,1,4,1:1:0:0:
256,192,129688,1,12,1:1:0:0:
256,192,130350,1,8,1:1:0:0:
256,192,130405,1,8,1:1:0:0:
256,192,130460,1,8,1:1:0:0:
256,192,130571,1,0,1:0:0:0:
256,192,130681,1,0,1:0:0:0:
256,192,130791,1,8,1:1:0:0:
256,192,130846,1,8,1:1:0:0:
256,192,130902,1,0,1:0:0:0:
256,192,130957,1,0,1:0:0:0:
256,192,131012,1,12,1:1:0:0:
256,192,131122,8,12,132004,1:1:0:0:
256,192,132115,5,8,0:0:0:0:
256,192,132335,5,4,1:1:0:0:
256,192,133659,1,0,1:0:0:0:
256,192,134983,1,8,1:1:0:0:
256,192,136306,1,0,1:0:0:0:
256,192,137630,1,0,1:0:0:0:
256,192,138953,1,8,1:1:0:0:
256,192,140277,1,0,1:0:0:0:
256,192,141600,1,0,1:0:0:0:
256,192,142924,1,0,1:0:0:0:
256,192,144247,1,8,1:1:0:0:
256,192,144909,1,8,1:1:0:0:
256,192,145571,1,0,1:0:0:0:
256,192,146894,1,8,1:1:0:0:
256,192,147556,1,8,1:1:0:0:
256,192,147997,1,8,1:1:0:0:
256,192,148218,1,0,1:0:0:0:
256,192,149541,1,0,1:0:0:0:
256,192,150203,1,8,1:1:0:0:
256,192,150865,1,8,1:1:0:0:
256,192,152188,1,0,1:0:0:0:
256,192,152850,1,0,1:0:0:0:
256,192,153291,1,0,1:0:0:0:
256,192,153512,1,8,1:1:0:0:
256,192,154835,1,0,1:0:0:0:
256,192,155497,1,8,1:1:0:0:
256,192,156159,1,8,1:1:0:0:
256,192,157262,1,8,1:1:0:0:
256,192,157483,1,8,1:1:0:0:
256,192,158806,1,0,1:0:0:0:
256,192,159909,1,0,1:0:0:0:
256,192,160130,1,8,1:1:0:0:
256,192,161012,1,8,1:1:0:0:
256,192,161453,1,0,1:0:0:0:
256,192,162777,1,8,1:1:0:0:
256,192,163438,1,8,1:1:0:0:
256,192,164100,1,0,1:0:0:0:
256,192,165424,1,0,1:0:0:0:
256,192,165865,1,0,1:0:0:0:
256,192,166306,1,8,1:1:0:0:
256,192,166747,1,0,1:0:0:0:
256,192,168071,1,0,1:0:0:0:
256,192,168953,1,8,1:1:0:0:
256,192,169394,1,0,1:0:0:0:
256,192,169615,1,0,1:0:0:0:
256,192,169835,1,8,1:1:0:0:
256,192,170718,1,8,1:1:0:0:
256,192,172041,1,0,1:0:0:0:
256,192,173365,1,8,1:1:0:0:
256,192,174247,1,8,1:1:0:0:
256,192,174688,1,0,1:0:0:0:
256,192,176012,1,8,1:1:0:0:
256,192,176674,1,0,1:0:0:0:
256,192,177335,1,8,1:1:0:0:
256,192,178659,1,0,1:0:0:0:
256,192,178880,1,0,1:0:0:0:
256,192,179100,1,0,1:0:0:0:
256,192,179652,1,8,1:1:0:0:
256,192,179817,1,0,1:0:0:0:
256,192,179983,1,8,1:1:0:0:
256,192,181306,1,0,1:0:0:0:
256,192,181968,1,8,1:1:0:0:
256,192,182409,1,8,1:1:0:0:
256,192,182630,1,0,1:0:0:0:
256,192,183953,1,8,1:1:0:0:
256,192,184615,1,8,1:1:0:0:
256,192,185056,1,8,1:1:0:0:
256,192,185277,1,0,1:0:0:0:
256,192,185791,1,0,1:0:0:0:
256,192,186458,1,8,1:1:0:0:
256,192,187028,1,0,1:0:0:0:
256,192,187481,1,8,1:1:0:0:
256,192,187860,1,0,1:0:0:0:
256,192,188095,1,8,1:1:0:0:
256,192,188296,1,0,1:0:0:0:
256,192,188471,1,8,1:1:0:0:
256,192,188577,1,0,1:0:0:0:
256,192,188663,1,8,1:1:0:0:
256,192,188736,1,0,1:0:0:0:
256,192,188806,1,8,1:1:0:0:
256,192,188861,1,8,1:1:0:0:
256,192,188916,1,0,1:0:0:0:
256,192,188971,1,0,1:0:0:0:
256,192,189026,1,8,1:1:0:0:
256,192,189136,1,8,1:1:0:0:
256,192,189247,1,0,1:0:0:0:
256,192,189302,1,0,1:0:0:0:
256,192,189357,1,8,1:1:0:0:
256,192,189412,1,8,1:1:0:0:
256,192,189467,1,0,1:0:0:0:
256,192,189578,1,0,1:0:0:0:
256,192,189633,1,0,1:0:0:0:
256,192,189688,1,8,1:1:0:0:
256,192,189743,1,0,1:0:0:0:
256,192,189798,1,8,1:1:0:0:
256,192,189853,1,8,1:1:0:0:
256,192,189908,1,0,1:0:0:0:
256,192,190019,1,8,1:1:0:0:
256,192,190074,1,8,1:1:0:0:
256,192,190129,1,0,1:0:0:0:
256,192,190239,1,0,1:0:0:0:
256,192,190350,1,8,1:1:0:0:
256,192,190405,1,0,1:0:0:0:
256,192,190460,1,8,1:1:0:0:
256,192,190570,1,0,1:0:0:0:
256,192,190681,1,0,1:0:0:0:
256,192,190736,1,0,1:0:0:0:
256,192,190791,1,8,1:1:0:0:
256,192,190846,1,0,1:0:0:0:
256,192,190901,1,0,1:0:0:0:
256,192,190956,1,0,1:0:0:0:
256,192,191011,1,8,1:1:0:0:
256,192,191122,1,0,1:0:0:0:
256,192,191177,1,0,1:0:0:0:
256,192,191232,1,8,1:1:0:0:
256,192,191287,1,0,1:0:0:0:
256,192,191342,1,8,1:1:0:0:
256,192,191453,1,0,1:0:0:0:
256,192,191508,1,0,1:0:0:0:
256,192,191563,1,8,1:1:0:0:
256,192,191673,1,8,1:1:0:0:
256,192,191783,1,8,1:1:0:0:
256,192,191839,1,8,1:1:0:0:
256,192,191894,1,0,1:0:0:0:
256,192,191949,1,0,1:0:0:0:
256,192,192004,1,8,1:1:0:0:
256,192,192114,1,0,1:0:0:0:
256,192,192169,1,8,1:1:0:0:
256,192,192225,1,0,1:0:0:0:
256,192,192280,1,0,1:0:0:0:
256,192,192335,1,8,1:1:0:0:
256,192,192445,1,8,1:1:0:0:
256,192,192500,1,8,1:1:0:0:
256,192,192556,1,0,1:0:0:0:
256,192,192611,1,0,1:0:0:0:
256,192,192666,1,8,1:1:0:0:
256,192,192776,1,8,1:1:0:0:
256,192,192886,1,8,1:1:0:0:
256,192,192942,1,8,1:1:0:0:
256,192,192997,1,0,1:0:0:0:
256,192,193107,1,0,1:0:0:0:
256,192,193162,1,0,1:0:0:0:
256,192,193217,1,8,1:1:0:0:
256,192,193272,1,0,1:0:0:0:
256,192,193328,1,0,1:0:0:0:
256,192,193383,1,0,1:0:0:0:
256,192,193438,1,12,1:1:0:0:
256,192,193658,1,12,1:1:0:0:
256,192,193879,1,4,1:1:0:0:
256,192,194100,1,8,1:1:0:0:
256,192,194155,1,0,1:0:0:0:
256,192,194210,1,8,1:1:0:0:
256,192,194265,1,0,1:0:0:0:
256,192,194320,1,8,1:1:0:0:
256,192,194431,1,0,1:0:0:0:
256,192,194541,1,8,1:1:0:0:
256,192,194651,1,0,1:0:0:0:
256,192,194706,1,0,1:0:0:0:
256,192,194761,1,8,1:1:0:0:
256,192,194872,1,8,1:1:0:0:
256,192,194927,1,8,1:1:0:0:
256,192,194982,1,0,1:0:0:0:
256,192,195037,1,0,1:0:0:0:
256,192,195092,1,8,1:1:0:0:
256,192,195203,1,8,1:1:0:0:
256,192,195258,1,8,1:1:0:0:
256,192,195313,1,0,1:0:0:0:
256,192,195368,1,8,1:1:0:0:
256,192,195423,1,0,1:0:0:0:
256,192,195533,1,0,1:0:0:0:
256,192,195644,1,8,1:1:0:0:
256,192,195754,1,8,1:1:0:0:
256,192,195864,1,0,1:0:0:0:
256,192,195919,1,8,1:1:0:0:
256,192,195975,1,8,1:1:0:0:
256,192,196030,1,8,1:1:0:0:
256,192,196085,1,0,1:0:0:0:
256,192,196195,1,8,1:1:0:0:
256,192,196250,1,8,1:1:0:0:
256,192,196306,1,0,1:0:0:0:
256,192,196361,1,8,1:1:0:0:
256,192,196416,1,0,1:0:0:0:
256,192,196471,1,0,1:0:0:0:
256,192,196526,1,8,1:1:0:0:
256,192,196636,1,0,1:0:0:0:
256,192,196747,1,8,1:1:0:0:
256,192,196857,1,0,1:1:0:0:
256,192,196912,1,0,1:0:0:0:
256,192,196967,1,8,1:1:0:0:
256,192,197078,1,8,1:1:0:0:
256,192,197133,1,8,1:1:0:0:
256,192,197188,1,0,1:0:0:0:
256,192,197243,1,0,0:0:0:0:
256,192,197298,1,8,1:1:0:0:
256,192,197408,1,0,1:0:0:0:
256,192,197464,1,0,1:0:0:0:
256,192,197519,1,8,1:1:0:0:
256,192,197629,1,8,1:1:0:0:
256,192,197684,1,8,1:1:0:0:
256,192,197739,1,8,1:1:0:0:
256,192,197794,1,8,1:1:0:0:
256,192,197850,1,0,1:0:0:0:
256,192,197960,1,0,1:0:0:0:
256,192,198070,1,8,1:1:0:0:
256,192,198125,1,0,1:0:0:0:
256,192,198181,1,8,1:1:0:0:
256,192,198236,1,0,1:0:0:0:
256,192,198291,1,8,0:0:0:0:
256,192,198401,1,0,1:1:0:0:
256,192,198456,1,0,0:0:0:0:
256,192,198511,1,8,1:1:0:0:
256,192,198567,1,8,1:1:0:0:
256,192,198622,1,0,1:0:0:0:
256,192,198677,1,8,1:0:0:0:
256,192,198732,1,0,1:0:0:0:
256,192,198842,1,0,1:1:0:0:
256,192,198953,1,8,1:1:0:0:
256,192,199008,1,8,1:1:0:0:
256,192,199063,1,8,1:1:0:0:
256,192,199118,1,8,1:1:0:0:
256,192,199173,1,0,1:0:0:0:
256,192,199228,1,0,1:0:0:0:
256,192,199283,1,0,1:0:0:0:
256,192,199339,1,0,1:0:0:0:
256,192,199394,1,12,1:1:0:0:
256,192,199449,8,0,207997,1:0:0:0:
