osu file format v14

[General]
AudioFilename: audio.mp3
AudioLeadIn: 0
PreviewTime: 30417
Countdown: 0
SampleSet: Normal
StackLeniency: 0.7
Mode: 1
LetterboxInBreaks: 0
WidescreenStoryboard: 1

[Editor]
DistanceSpacing: 1
BeatDivisor: 4
GridSize: 32
TimelineZoom: 2.2

[Metadata]
Title:Gaviscon
TitleUnicode:Gaviscon
Artist:Ruby My Dear
ArtistUnicode:Ruby My Dear
Creator:Izzeee
Version:Futsuu
Source:
Tags:mpg mappers' guild mg osu!mbc mbc monthly beatmapping contest october featured artist fa brame breakcore electronic english
BeatmapID:4414521
BeatmapSetID:2101653

[Difficulty]
HPDrainRate:7
CircleSize:5
OverallDifficulty:4
ApproachRate:10
SliderMultiplier:0.928571444384906
SliderTickRate:1

[Events]
//Background and Video events
0,0,"mbs.png",0,0
//Break Periods
2,74300,75415
//Storyboard Layer 0 (Background)
//Storyboard Layer 1 (Fail)
//Storyboard Layer 2 (Pass)
//Storyboard Layer 3 (Foreground)
//Storyboard Layer 4 (Overlay)
//Storyboard Sound Samples

[TimingPoints]
-17,220.588235294118,6,1,0,5,1,0
-17,-125,6,1,0,5,0,0
6.7352941175559,-125,6,1,0,75,0,0
11894,-125,6,1,0,45,0,0
31747,-83.3333333333333,6,1,0,75,0,0
122409,-83.333336,6,1,0,75,0,0
132110,-125,6,1,0,75,0,0
132335,-125,6,1,0,45,0,0
133652,-125,6,1,0,45,0,0
133658,-125,6,1,0,45,0,0
134982,-125,6,1,0,45,0,0
136305,-125,6,1,0,45,0,0
137629,-125,6,1,0,45,0,0
138952,-125,6,1,0,45,0,0
140276,-125,6,1,0,45,0,0
141599,-125,6,1,0,45,0,0
142923,-125,6,1,0,45,0,0
144246,-125,6,1,0,45,0,0
144908,-125,6,1,0,45,0,0
145570,-125,6,1,0,45,0,0
146893,-125,6,1,0,45,0,0
147555,-125,6,1,0,45,0,0
147996,-125,6,1,0,45,0,0
148217,-125,6,1,0,45,0,0
149540,-125,6,1,0,45,0,0
150202,-125,6,1,0,45,0,0
150864,-125,6,1,0,45,0,0
152187,-125,6,1,0,45,0,0
152849,-125,6,1,0,45,0,0
153290,-125,6,1,0,45,0,0
153511,-125,6,1,0,45,0,0
154834,-125,6,1,0,45,0,0
155496,-125,6,1,0,45,0,0
156158,-125,6,1,0,45,0,0
157261,-125,6,1,0,45,0,0
157482,-125,6,1,0,45,0,0
158805,-125,6,1,0,45,0,0
159908,-125,6,1,0,45,0,0
160129,-125,6,1,0,45,0,0
161011,-125,6,1,0,45,0,0
161452,-125,6,1,0,45,0,0
162776,-125,6,1,0,45,0,0
163437,-125,6,1,0,45,0,0
164099,-125,6,1,0,45,0,0
165423,-125,6,1,0,45,0,0
165864,-125,6,1,0,45,0,0
166305,-125,6,1,0,45,0,0
166746,-125,6,1,0,45,0,0
168070,-125,6,1,0,45,0,0
168952,-125,6,1,0,45,0,0
169393,-125,6,1,0,45,0,0
169614,-125,6,1,0,45,0,0
169834,-125,6,1,0,45,0,0
170717,-125,6,1,0,45,0,0
172040,-125,6,1,0,45,0,0
173364,-125,6,1,0,45,0,0
174246,-125,6,1,0,45,0,0
174687,-125,6,1,0,45,0,0
176011,-125,6,1,0,45,0,0
176673,-125,6,1,0,45,0,0
177334,-125,6,1,0,45,0,0
178658,-125,6,1,0,45,0,0
178879,-125,6,1,0,45,0,0
179099,-125,6,1,0,45,0,0
179540,-125,6,1,0,45,0,0
179982,-125,6,1,0,45,0,0
181305,-125,6,1,0,45,0,0
181967,-125,6,1,0,45,0,0
182408,-125,6,1,0,45,0,0
182629,-125,6,1,0,45,0,0
183952,-125,6,1,0,45,0,0
184614,-125,6,1,0,45,0,0
185055,-125,6,1,0,45,0,0
185275,-125,6,1,0,45,0,0
185791,333.796940194715,4,1,0,45,1,8
185791,-79.69884,4,1,0,52,0,8
186458,285.130447179585,4,1,0,55,1,8
186458,-89.235016,4,1,0,60,0,8
187028,226.628895184136,4,1,0,63,1,8
187028,-108.23808,4,1,0,67,0,8
187481,189.615396770218,4,1,0,70,1,8
187481,-125.77672,4,1,0,73,0,8
187860,235.294117647059,4,1,0,76,1,8
187860,-99.05936,4,1,0,78,0,8
188095,201.342281879195,4,1,0,79,1,8
188095,-114.15746,4,1,0,81,0,8
188296,175.054704595186,4,1,0,82,1,8
188296,-129.76048,4,1,0,83,0,8
188471,212.765957446809,4,1,0,85,1,8
188471,-105.682335,4,1,0,86,0,8
188577,172.413793103448,4,1,0,87,1,8
188663,147.058823529412,4,1,0,88,1,8
188663,-151.22522,4,1,0,88,0,8
188736,140.18691588785,4,1,0,89,1,8
188806,220.588235294118,6,1,0,90,1,1
188806,-83.3333333333333,6,1,0,90,0,1
193438,-83.3333333333333,6,1,0,90,0,0
193658,-83.3333333333333,6,1,0,90,0,0
193879,-83.3333333333333,6,1,0,90,0,0
194100,-83.3333333333333,6,1,0,90,0,1
199504,-83.3333333333333,6,1,0,90,0,0
199532,-100.2148,6,1,0,90,0,0
199559,-100.422806,6,1,0,89,0,0
199587,-100.63945,6,1,0,89,0,0
199614,-100.84922,6,1,0,89,0,0
199642,-101.067696,6,1,0,89,0,0
199669,-101.27926,6,1,0,88,0,0
199697,-101.4996,6,1,0,88,0,0
199724,-101.71298,6,1,0,88,0,0
199752,-101.93523,6,1,0,88,0,0
199779,-102.150444,6,1,0,87,0,0
199807,-102.374596,6,1,0,87,0,0
199835,-102.59973,6,1,0,87,0,0
199863,-102.82587,6,1,0,86,0,0
199890,-103.044876,6,1,0,86,0,0
199918,-103.272964,6,1,0,86,0,0
199945,-103.49388,6,1,0,86,0,0
199973,-103.72397,6,1,0,85,0,0
200000,-103.946815,6,1,0,85,0,0
200028,-104.17894,6,1,0,85,0,0
200056,-104.412094,6,1,0,84,0,0
200084,-104.646286,6,1,0,84,0,0
200111,-104.87312,6,1,0,84,0,0
200139,-105.10939,6,1,0,84,0,0
200166,-105.33825,6,1,0,83,0,0
200194,-105.57663,6,1,0,83,0,0
200221,-105.80751,6,1,0,83,0,0
200249,-106.04802,6,1,0,83,0,0
200276,-106.280975,6,1,0,82,0,0
200304,-106.52365,6,1,0,82,0,0
200331,-106.758705,6,1,0,82,0,0
200359,-107.00356,6,1,0,81,0,0
200386,-107.240746,6,1,0,81,0,0
200414,-107.487816,6,1,0,81,0,0
200441,-107.72715,6,1,0,81,0,0
200469,-107.97647,6,1,0,80,0,0
200497,-108.22696,6,1,0,80,0,0
200525,-108.4786,6,1,0,80,0,0
200552,-108.722374,6,1,0,80,0,0
200580,-108.97633,6,1,0,79,0,0
200607,-109.22235,6,1,0,79,0,0
200635,-109.47865,6,1,0,79,0,0
200662,-109.726944,6,1,0,78,0,0
200690,-109.98563,6,1,0,78,0,0
200717,-110.23622,6,1,0,78,0,0
200745,-110.497314,6,1,0,78,0,0
200772,-110.750244,6,1,0,77,0,0
200800,-111.01379,6,1,0,77,0,0
200827,-111.26909,6,1,0,77,0,0
200855,-111.5351,6,1,0,76,0,0
200882,-111.79282,6,1,0,76,0,0
200910,-112.06135,6,1,0,76,0,0
200938,-112.33116,6,1,0,76,0,0
200966,-112.60228,6,1,0,75,0,0
200993,-112.86496,6,1,0,75,0,0
201021,-113.138664,6,1,0,75,0,0
201048,-113.403854,6,1,0,75,0,0
201076,-113.68018,6,1,0,74,0,0
201103,-113.94792,6,1,0,74,0,0
201131,-114.226906,6,1,0,74,0,0
201158,-114.49723,6,1,0,73,0,0
201186,-114.778915,6,1,0,73,0,0
201213,-115.051865,6,1,0,73,0,0
201241,-115.33629,6,1,0,73,0,0
201268,-115.6119,6,1,0,72,0,0
201296,-115.8991,6,1,0,72,0,0
201323,-116.17741,6,1,0,72,0,0
201351,-116.46744,6,1,0,72,0,0
201379,-116.75891,6,1,0,71,0,0
201407,-117.05186,6,1,0,71,0,0
201434,-117.335724,6,1,0,71,0,0
201462,-117.63158,6,1,0,70,0,0
201489,-117.918274,6,1,0,70,0,0
201517,-118.217064,6,1,0,70,0,0
201544,-118.50663,6,1,0,70,0,0
201572,-118.80842,6,1,0,69,0,0
201600,-119.11175,6,1,0,69,0,0
201628,-119.416626,6,1,0,69,0,0
201655,-119.712105,6,1,0,68,0,0
201683,-120.02007,6,1,0,68,0,0
201710,-120.31855,6,1,0,68,0,0
201738,-120.62964,6,1,0,68,0,0
201765,-120.93116,6,1,0,67,0,0
201793,-121.24544,6,1,0,67,0,0
201820,-121.55004,6,1,0,67,0,0
201848,-121.86756,6,1,0,67,0,0
201875,-122.1753,6,1,0,66,0,0
201903,-122.496086,6,1,0,66,0,0
201930,-122.807014,6,1,0,66,0,0
201958,-123.13114,6,1,0,65,0,0
201985,-123.445305,6,1,0,65,0,0
202013,-123.77281,6,1,0,65,0,0
202041,-124.10204,6,1,0,65,0,0
202069,-124.43305,6,1,0,64,0,0
202096,-124.75391,6,1,0,64,0,0
202124,-125.088394,6,1,0,64,0,0
202151,-125.41264,6,1,0,64,0,0
202179,-125.75067,6,1,0,63,0,0
202206,-126.07837,6,1,0,63,0,0
202234,-126.42001,6,1,0,63,0,0
202261,-126.75121,6,1,0,62,0,0
202289,-127.09651,6,1,0,62,0,0
202316,-127.43127,6,1,0,62,0,0
202344,-127.78029,6,1,0,62,0,0
202371,-128.11865,6,1,0,61,0,0
202399,-128.47147,6,1,0,61,0,0
202426,-128.8135,6,1,0,61,0,0
202454,-129.17017,6,1,0,60,0,0
202482,-129.52878,6,1,0,60,0,0
202510,-129.8894,6,1,0,60,0,0
202537,-130.23904,6,1,0,60,0,0
202565,-130.60365,6,1,0,59,0,0
202592,-130.95717,6,1,0,59,0,0
202620,-131.32579,6,1,0,59,0,0
202647,-131.68323,6,1,0,59,0,0
202675,-132.05595,6,1,0,58,0,0
202703,-132.43082,6,1,0,58,0,0
202731,-132.8078,6,1,0,58,0,0
202758,-133.17336,6,1,0,57,0,0
202786,-133.55458,6,1,0,57,0,0
202813,-133.92427,6,1,0,57,0,0
202841,-134.30983,6,1,0,57,0,0
202868,-134.68372,6,1,0,56,0,0
202896,-135.07365,6,1,0,56,0,0
202923,-135.45181,6,1,0,56,0,0
202951,-135.84622,6,1,0,55,0,0
202978,-136.22871,6,1,0,55,0,0
203006,-136.62769,6,1,0,55,0,0
203033,-137.0146,6,1,0,55,0,0
203061,-137.41818,6,1,0,54,0,0
203088,-137.8096,6,1,0,54,0,0
203116,-138.21786,6,1,0,54,0,0
203144,-138.62857,6,1,0,54,0,0
203172,-139.04173,6,1,0,53,0,0
203199,-139.44247,6,1,0,53,0,0
203227,-139.86049,6,1,0,53,0,0
203254,-140.26596,6,1,0,52,0,0
203282,-140.68895,6,1,0,52,0,0
203309,-141.09926,6,1,0,52,0,0
203337,-141.52728,6,1,0,52,0,0
203364,-141.9425,6,1,0,51,0,0
203392,-142.37566,6,1,0,51,0,0
203419,-142.79588,6,1,0,51,0,0
203447,-143.2343,6,1,0,51,0,0
203474,-143.65959,6,1,0,50,0,0
203502,-144.10333,6,1,0,50,0,0
203529,-144.53381,6,1,0,50,0,0
203557,-144.98297,6,1,0,49,0,0
203585,-145.43492,6,1,0,49,0,0
203613,-145.88972,6,1,0,49,0,0
203640,-146.33096,6,1,0,49,0,0
203668,-146.79137,6,1,0,48,0,0
203695,-147.2381,6,1,0,48,0,0
203723,-147.70425,6,1,0,48,0,0
203750,-148.15656,6,1,0,48,0,0
203778,-148.62856,6,1,0,47,0,0
203806,-149.10356,6,1,0,47,0,0
203834,-149.58162,6,1,0,47,0,0
203861,-150.04552,6,1,0,46,0,0
203889,-150.52963,6,1,0,46,0,0
203916,-150.99945,6,1,0,46,0,0
203944,-151.48975,6,1,0,46,0,0
203971,-151.96556,6,1,0,45,0,0
203999,-152.46219,6,1,0,45,0,0
204026,-152.94415,6,1,0,45,0,0
204054,-153.44719,6,1,0,44,0,0
204081,-153.93541,6,1,0,44,0,0
204109,-154.445,6,1,0,44,0,0
204136,-154.93959,6,1,0,44,0,0
204164,-155.45589,6,1,0,43,0,0
204191,-155.95699,6,1,0,43,0,0
204219,-156.48009,6,1,0,43,0,0
204247,-157.00668,6,1,0,43,0,0
204275,-157.53687,6,1,0,42,0,0
204302,-158.05148,6,1,0,42,0,0
204330,-158.58876,6,1,0,42,0,0
204357,-159.1103,6,1,0,41,0,0
204385,-159.65479,6,1,0,41,0,0
204412,-160.18338,6,1,0,41,0,0
204440,-160.73524,6,1,0,41,0,0
204467,-161.27104,6,1,0,40,0,0
204495,-161.83044,6,1,0,40,0,0
204522,-162.37357,6,1,0,40,0,0
204550,-162.94064,6,1,0,39,0,0
204577,-163.49126,6,1,0,39,0,0
204605,-164.0662,6,1,0,39,0,0
204632,-164.62445,6,1,0,39,0,0
204660,-165.20743,6,1,0,38,0,0
204688,-165.79451,6,1,0,38,0,0
204716,-166.3858,6,1,0,38,0,0
204743,-166.95996,6,1,0,38,0,0
204771,-167.55965,6,1,0,37,0,0
204798,-168.14195,6,1,0,37,0,0
204826,-168.75014,6,1,0,37,0,0
204853,-169.34077,6,1,0,36,0,0
204881,-169.95766,6,1,0,36,0,0
204908,-170.55681,6,1,0,36,0,0
204936,-171.18262,6,1,0,36,0,0
204963,-171.79047,6,1,0,35,0,0
204991,-172.42535,6,1,0,35,0,0
205018,-173.04205,6,1,0,35,0,0
205046,-173.68625,6,1,0,35,0,0
205073,-174.31201,6,1,0,34,0,0
205101,-174.96576,6,1,0,34,0,0
205129,-175.62439,6,1,0,34,0,0
205157,-176.288,6,1,0,33,0,0
205184,-176.9327,6,1,0,33,0,0
205212,-177.60628,6,1,0,33,0,0
205239,-178.26064,6,1,0,33,0,0
205267,-178.9444,6,1,0,32,0,0
205294,-179.60867,6,1,0,32,0,0
205322,-180.30281,6,1,0,32,0,0
205350,-181.00232,6,1,0,31,0,0
205378,-181.7073,6,1,0,31,0,0
205405,-182.3923,6,1,0,31,0,0
205433,-183.10817,6,1,0,31,0,0
205460,-183.8038,6,1,0,30,0,0
205488,-184.5308,6,1,0,30,0,0
205515,-185.23732,6,1,0,30,0,0
205543,-185.97572,6,1,0,30,0,0
205570,-186.69336,6,1,0,29,0,0
205598,-187.44344,6,1,0,29,0,0
205625,-188.17247,6,1,0,29,0,0
205653,-188.93451,6,1,0,28,0,0
205680,-189.6752,6,1,0,28,0,0
205708,-190.44952,6,1,0,28,0,0
205735,-191.20215,6,1,0,28,0,0
205763,-191.98898,6,1,0,27,0,0
205791,-192.7823,6,1,0,27,0,0
205819,-193.58224,6,1,0,27,0,0
205846,-194.3599,6,1,0,27,0,0
205874,-195.17299,6,1,0,26,0,0
205901,-195.96349,6,1,0,26,0,0
205929,-196.7901,6,1,0,26,0,0
205956,-197.59381,6,1,0,25,0,0
205984,-198.43423,6,1,0,25,0,0
206011,-199.25146,6,1,0,25,0,0
206039,-200.10606,6,1,0,25,0,0
206066,-200.93713,6,1,0,24,0,0
206094,-201.8063,6,1,0,24,0,0
206121,-202.6516,6,1,0,24,0,0
206149,-203.53569,6,1,0,23,0,0
206176,-204.39557,6,1,0,23,0,0
206204,-205.29498,6,1,0,23,0,0
206232,-206.20236,6,1,0,23,0,0
206260,-207.11777,6,1,0,22,0,0
206287,-208.00824,6,1,0,22,0,0
206315,-208.9398,6,1,0,22,0,0
206342,-209.84604,6,1,0,22,0,0
206370,-210.79419,6,1,0,21,0,0
206397,-211.71663,6,1,0,21,0,0
206425,-212.68176,6,1,0,21,0,0
206453,-213.65576,6,1,0,20,0,0
206481,-214.63873,6,1,0,20,0,0
206508,-215.5952,6,1,0,20,0,0
206536,-216.5961,6,1,0,20,0,0
206563,-217.57011,6,1,0,19,0,0
206591,-218.58952,6,1,0,19,0,0
206618,-219.58159,6,1,0,19,0,0
206646,-220.61998,6,1,0,19,0,0
206673,-221.63062,6,1,0,18,0,0
206701,-222.68848,6,1,0,18,0,0
206728,-223.7182,6,1,0,18,0,0
206756,-224.79617,6,1,0,17,0,0
206783,-225.8455,6,1,0,17,0,0
206811,-226.94414,6,1,0,17,0,0
206838,-228.01367,6,1,0,17,0,0
206866,-229.1335,6,1,0,16,0,0
206894,-230.26443,6,1,0,16,0,0
206922,-231.40654,6,1,0,16,0,0
206949,-232.51865,6,1,0,15,0,0
206977,-233.68332,6,1,0,15,0,0
207004,-234.8175,6,1,0,15,0,0
207032,-236.00537,6,1,0,15,0,0
207059,-237.16223,6,1,0,14,0,0
207087,-238.37398,6,1,0,14,0,0
207114,-239.55424,6,1,0,14,0,0
207142,-240.79065,6,1,0,14,0,0
207169,-241.99504,6,1,0,13,0,0
207197,-243.25682,6,1,0,13,0,0
207224,-244.48607,6,1,0,13,0,0
207252,-245.77402,6,1,0,12,0,0
207279,-247.02888,6,1,0,12,0,0
207307,-248.34386,6,1,0,12,0,0
207335,-249.67291,6,1,0,12,0,0
207363,-251.01624,6,1,0,11,0,0
207390,-252.32535,6,1,0,11,0,0
207418,-253.69748,6,1,0,11,0,0
207445,-255.03479,6,1,0,11,0,0
207473,-256.4366,6,1,0,10,0,0
207500,-257.80307,6,1,0,10,0,0
207528,-259.23553,6,1,0,10,0,0
207556,-260.68405,6,1,0,9,0,0
207584,-262.14886,6,1,0,9,0,0
207611,-263.57703,6,1,0,9,0,0
207639,-265.07455,6,1,0,9,0,0
207666,-266.53485,6,1,0,8,0,0
207694,-268.06635,6,1,0,8,0,0
207721,-269.55988,6,1,0,8,0,0
207749,-271.12637,6,1,0,7,0,0
207776,-272.65433,6,1,0,7,0,0
207804,-274.2571,6,1,0,7,0,0
207831,-275.82065,6,1,0,7,0,0
207859,-277.46103,6,1,0,6,0,0
207886,-279.0614,6,1,0,6,0,0
207914,-280.74063,6,1,0,6,0,0
207941,-282.37915,6,1,0,6,0,0
207969,-284.09872,6,1,0,5,0,0
207996,-285.77682,6,1,0,5,0,0

[Colours]
Combo1 : 255,192,0
Combo2 : 0,202,0
Combo3 : 18,124,255
Combo4 : 242,24,57

[HitObjects]
256,192,11894,5,0,1:0:0:0:
256,192,12556,1,8,1:1:0:0:
256,192,13218,1,0,1:0:0:0:
256,192,14541,1,0,1:0:0:0:
256,192,15203,1,8,1:1:0:0:
256,192,15644,1,8,1:1:0:0:
256,192,15865,1,0,1:0:0:0:
256,192,17188,1,8,1:1:0:0:
256,192,17850,1,8,1:1:0:0:
256,192,18512,1,0,1:0:0:0:
256,192,19835,1,0,1:0:0:0:
256,192,20497,1,8,1:1:0:0:
256,192,20938,1,8,1:1:0:0:
256,192,21159,1,0,1:0:0:0:
256,192,22482,1,0,1:0:0:0:
256,192,23144,1,8,1:1:0:0:
256,192,23806,1,8,1:1:0:0:
256,192,24909,1,8,1:1:0:0:
256,192,25129,1,0,1:0:0:0:
256,192,25571,1,0,1:0:0:0:
256,192,26012,1,8,1:1:0:0:
256,192,26453,1,8,1:1:0:0:
256,192,27556,1,8,1:1:0:0:
256,192,27776,1,0,1:0:0:0:
256,192,28218,1,0,1:0:0:0:
256,192,28438,1,8,1:1:0:0:
256,192,28879,1,8,1:1:0:0:
256,192,29100,1,0,1:0:0:0:
256,192,30424,8,0,31637,1:0:0:0:
256,192,31747,5,0,1:0:0:0:
256,192,31968,1,8,1:1:0:0:
256,192,32188,1,8,1:1:0:0:
256,192,32409,1,0,1:1:0:0:
256,192,32630,1,8,1:1:0:0:
256,192,32850,1,8,1:1:0:0:
256,192,32960,1,8,1:1:0:0:
256,192,33071,1,0,1:1:0:0:
256,192,33512,1,8,1:1:0:0:
256,192,33733,1,8,1:1:0:0:
256,192,33953,1,0,1:1:0:0:
256,192,34174,1,8,1:0:0:0:
256,192,34394,1,0,1:1:0:0:
256,192,34835,1,0,1:1:0:0:
256,192,35056,1,8,1:1:0:0:
256,192,35277,1,0,1:1:0:0:
256,192,35497,1,8,1:1:0:0:
256,192,35608,1,8,1:1:0:0:
256,192,35718,1,0,1:1:0:0:
256,192,36159,1,0,1:1:0:0:
256,192,36380,1,8,1:1:0:0:
256,192,36600,1,8,1:1:0:0:
256,192,37041,1,12,1:1:0:0:
256,192,37262,1,0,1:1:0:0:
256,192,37483,1,0,1:0:0:0:
256,192,37593,1,0,1:0:0:0:
256,192,37703,1,8,1:1:0:0:
256,192,37924,1,0,1:1:0:0:
256,192,38144,1,0,1:0:0:0:
256,192,38255,1,0,0:0:0:0:
256,192,38365,1,8,1:1:0:0:
256,192,38806,1,8,1:1:0:0:
256,192,39027,1,8,1:1:0:0:
256,192,39247,1,0,1:1:0:0:
256,192,39468,1,8,1:1:0:0:
256,192,39578,1,0,0:0:0:0:
256,192,39688,1,8,1:1:0:0:
256,192,40130,1,0,1:1:0:0:
256,192,40350,1,8,1:1:0:0:
256,192,40571,1,0,1:0:0:0:
256,192,40791,1,8,1:1:0:0:
256,192,40902,1,8,0:0:0:0:
256,192,41012,1,0,1:1:0:0:
256,192,41343,1,0,1:0:0:0:
256,192,41674,1,12,1:1:0:0:
256,192,42335,1,4,1:1:0:0:
256,192,42556,1,8,1:0:0:0:
256,192,42777,1,0,1:0:0:0:
256,192,42997,1,8,1:1:0:0:
256,192,43218,1,8,1:0:0:0:
256,192,43438,1,8,1:1:0:0:
256,192,43549,1,8,0:0:0:0:
256,192,43659,1,0,1:1:0:0:
256,192,44100,1,8,1:0:0:0:
256,192,44321,1,0,1:1:0:0:
256,192,44541,1,8,1:1:0:0:
256,192,44762,1,0,1:1:0:0:
256,192,44983,1,8,1:0:0:0:
256,192,45424,1,0,1:1:0:0:
256,192,45644,1,0,1:1:0:0:
256,192,45865,1,0,1:1:0:0:
256,192,46085,1,8,1:1:0:0:
256,192,46306,1,0,1:0:0:0:
256,192,46747,1,0,1:0:0:0:
256,192,46968,1,0,1:0:0:0:
256,192,47078,1,0,0:0:0:0:
256,192,47188,1,8,1:1:0:0:
256,192,47409,1,8,1:0:0:0:
256,192,47519,1,0,0:0:0:0:
256,192,47630,1,0,1:1:0:0:
256,192,48071,1,0,1:0:0:0:
256,192,48291,1,8,1:1:0:0:
256,192,48512,1,0,1:0:0:0:
256,192,48733,1,8,1:0:0:0:
256,192,48953,1,0,1:1:0:0:
256,192,49394,1,0,1:0:0:0:
256,192,49615,1,8,1:1:0:0:
256,192,49835,1,8,0:0:0:0:
256,192,49946,1,8,0:0:0:0:
256,192,50056,1,8,1:1:0:0:
256,192,50277,1,0,1:0:0:0:
256,192,50718,1,0,1:0:0:0:
256,192,50938,1,8,1:1:0:0:
256,192,51159,1,8,1:1:0:0:
256,192,51380,1,0,1:0:0:0:
256,192,51490,1,0,0:0:0:0:
256,192,51600,1,0,1:1:0:0:
256,192,52041,1,8,1:1:0:0:
256,192,52262,1,0,1:1:0:0:
256,192,52483,1,8,1:1:0:0:
256,192,52593,1,8,0:0:0:0:
256,192,52703,1,8,0:0:0:0:
256,192,52924,1,0,1:1:0:0:
256,192,53365,1,8,1:1:0:0:
256,192,53585,1,8,1:0:0:0:
256,192,53806,1,0,1:1:0:0:
256,192,53916,1,0,0:0:0:0:
256,192,54027,1,8,1:1:0:0:
256,192,54247,1,0,1:1:0:0:
256,192,54688,1,0,1:0:0:0:
256,192,54799,1,0,0:0:0:0:
256,192,54909,1,8,1:0:0:0:
256,192,55130,1,8,1:0:0:0:
256,192,55350,1,0,1:0:0:0:
256,192,55571,1,0,1:1:0:0:
256,192,56012,1,0,1:0:0:0:
256,192,56233,1,8,1:1:0:0:
256,192,56453,1,0,1:0:0:0:
256,192,56674,1,8,1:1:0:0:
256,192,56784,1,8,0:0:0:0:
256,192,56894,1,0,1:0:0:0:
256,192,57335,1,8,1:1:0:0:
256,192,57556,1,0,1:0:0:0:
256,192,57666,1,8,1:1:0:0:
256,192,57777,1,0,1:0:0:0:
256,192,58218,1,0,1:1:0:0:
256,192,58438,1,0,1:0:0:0:
256,192,58659,1,8,1:1:0:0:
256,192,58880,1,8,1:1:0:0:
256,192,59100,1,0,1:0:0:0:
256,192,59210,1,0,0:0:0:0:
256,192,59321,1,8,1:1:0:0:
256,192,59541,1,0,1:1:0:0:
256,192,59983,1,8,1:0:0:0:
256,192,60203,1,0,1:1:0:0:
256,192,60424,1,8,1:1:0:0:
256,192,60644,1,8,0:0:0:0:
256,192,60755,1,8,0:0:0:0:
256,192,60865,1,0,1:1:0:0:
256,192,61306,1,8,1:1:0:0:
256,192,61527,1,0,1:0:0:0:
256,192,61637,1,8,1:1:0:0:
256,192,61747,1,8,1:1:0:0:
256,192,61968,1,8,1:1:0:0:
256,192,62078,1,8,0:0:0:0:
256,192,62188,1,0,1:1:0:0:
256,192,62630,1,8,0:0:0:0:
256,192,62850,1,0,0:0:0:0:
256,192,62960,1,0,0:0:0:0:
256,192,63071,1,0,1:0:0:0:
256,192,63291,1,8,1:1:0:0:
256,192,63512,1,0,1:0:0:0:
256,192,63953,1,0,1:1:0:0:
256,192,64174,1,12,1:1:0:0:
256,192,64835,1,8,1:1:0:0:
256,192,65277,1,0,1:1:0:0:
256,192,65497,1,8,1:1:0:0:
256,192,65718,1,8,1:1:0:0:
256,192,65938,1,8,1:1:0:0:
256,192,66049,1,8,1:1:0:0:
256,192,66159,1,0,1:1:0:0:
256,192,66600,1,0,1:0:0:0:
256,192,66821,1,8,1:1:0:0:
256,192,67041,1,0,1:1:0:0:
256,192,67483,1,8,1:0:0:0:
256,192,67703,1,0,1:1:0:0:
256,192,67924,1,0,1:0:0:0:
256,192,68144,1,8,1:1:0:0:
256,192,68365,1,8,1:1:0:0:
256,192,68585,1,8,1:1:0:0:
256,192,68696,1,8,1:1:0:0:
256,192,68806,1,4,1:1:0:0:
256,192,70130,2,0,L|293:190,16,27.8571424814147
256,192,71233,8,0,72335,0:0:0:0:
256,192,72556,5,0,1:0:0:0:
256,192,72777,1,8,1:1:0:0:
256,192,72887,1,8,0:0:0:0:
256,192,72997,1,0,0:0:0:0:
256,192,73218,1,8,0:0:0:0:
256,192,73438,1,0,1:0:0:0:
256,192,73659,1,8,0:0:0:0:
256,192,73880,1,0,1:1:0:0:
256,192,73990,1,0,1:0:0:0:
256,192,74100,1,8,1:1:0:0:
256,192,75865,5,0,1:1:0:0:
256,192,76085,1,12,1:1:0:0:
256,192,76747,1,4,1:1:0:0:
256,192,77409,1,8,1:1:0:0:
256,192,77630,1,0,1:0:0:0:
256,192,78071,1,8,1:1:0:0:
256,192,78291,1,8,1:1:0:0:
256,192,78402,1,8,0:0:0:0:
256,192,78512,1,0,1:1:0:0:
256,192,78733,1,8,1:1:0:0:
256,192,78843,1,0,1:0:0:0:
256,192,78953,1,0,1:1:0:0:
256,192,79174,1,8,1:1:0:0:
256,192,79394,1,4,1:1:0:0:
256,192,79835,1,0,1:0:0:0:
256,192,80056,1,8,1:1:0:0:
256,192,80277,1,8,1:1:0:0:
256,192,80497,1,0,1:0:0:0:
256,192,80718,1,0,1:0:0:0:
256,192,81159,1,0,1:0:0:0:
256,192,81380,1,0,1:0:0:0:
256,192,81600,1,0,1:0:0:0:
256,192,81821,1,8,1:1:0:0:
256,192,82041,1,0,1:0:0:0:
256,192,82483,1,8,1:1:0:0:
256,192,82703,1,0,1:0:0:0:
256,192,82924,1,8,1:1:0:0:
256,192,83144,1,0,1:0:0:0:
256,192,83365,1,0,1:0:0:0:
256,192,83806,1,0,1:0:0:0:
256,192,84027,1,8,1:1:0:0:
256,192,84247,1,0,1:0:0:0:
256,192,84468,1,8,1:1:0:0:
256,192,84578,1,8,1:1:0:0:
256,192,84688,1,0,1:0:0:0:
256,192,85130,1,8,1:1:0:0:
256,192,85350,1,8,1:1:0:0:
256,192,85571,1,0,1:0:0:0:
256,192,85791,1,8,1:1:0:0:
256,192,86012,1,0,1:1:0:0:
256,192,86453,1,0,1:1:0:0:
256,192,86674,1,8,1:1:0:0:
256,192,86894,1,0,1:0:0:0:
256,192,87115,1,8,1:1:0:0:
256,192,87335,1,0,1:0:0:0:
256,192,87777,1,8,1:1:0:0:
256,192,87997,1,8,1:0:0:0:
256,192,88218,1,0,1:1:0:0:
256,192,88438,1,8,1:0:0:0:
256,192,88659,1,0,1:0:0:0:
256,192,89100,1,0,1:1:0:0:
256,192,89321,1,8,1:1:0:0:
256,192,89541,1,0,1:0:0:0:
256,192,89762,1,8,1:1:0:0:
256,192,89983,1,0,1:1:0:0:
256,192,90424,1,0,1:0:0:0:
256,192,90644,1,8,1:1:0:0:
256,192,90865,1,8,1:1:0:0:
256,192,91085,1,0,1:0:0:0:
256,192,91196,1,0,0:0:0:0:
256,192,91306,1,0,1:1:0:0:
256,192,91747,1,0,1:0:0:0:
256,192,91968,1,8,1:1:0:0:
256,192,92188,1,0,1:0:0:0:
256,192,92409,1,8,1:1:0:0:
256,192,92630,1,0,1:1:0:0:
256,192,93071,1,0,1:1:0:0:
256,192,93291,1,8,1:1:0:0:
256,192,93512,1,0,1:0:0:0:
256,192,93733,1,0,1:0:0:0:
256,192,93843,1,8,1:1:0:0:
256,192,93953,1,8,1:1:0:0:
256,192,94394,1,8,1:1:0:0:
256,192,94615,1,8,1:1:0:0:
256,192,94725,1,0,0:0:0:0:
256,192,94835,1,0,1:0:0:0:
256,192,95056,1,8,1:1:0:0:
256,192,95277,1,0,1:1:0:0:
256,192,95718,1,0,1:1:0:0:
256,192,95938,1,8,1:1:0:0:
256,192,96159,1,0,1:0:0:0:
256,192,96269,1,0,0:0:0:0:
256,192,96380,1,8,1:1:0:0:
256,192,96600,1,0,1:0:0:0:
256,192,97041,1,8,1:1:0:0:
256,192,97262,1,0,1:0:0:0:
256,192,97372,1,0,0:0:0:0:
256,192,97483,1,8,1:1:0:0:
256,192,97703,1,8,1:1:0:0:
256,192,97924,1,0,1:1:0:0:
256,192,98364,1,0,1:0:0:0:
256,192,98585,1,8,1:1:0:0:
256,192,98806,1,8,1:1:0:0:
256,192,99247,1,0,1:1:0:0:
256,192,99688,1,0,1:0:0:0:
256,192,99909,1,8,1:1:0:0:
256,192,100130,1,8,1:1:0:0:
256,192,100240,1,8,1:1:0:0:
256,192,100350,1,0,1:0:0:0:
256,192,100571,1,4,1:1:0:0:
256,192,101233,1,8,1:1:0:0:
256,192,101674,1,8,1:1:0:0:
256,192,101894,1,0,1:0:0:0:
256,192,102115,1,0,1:1:0:0:
256,192,102336,1,0,1:0:0:0:
256,192,102446,1,0,1:0:0:0:
256,192,102556,1,12,1:1:0:0:
256,192,102997,1,8,1:1:0:0:
256,192,103218,1,4,1:1:0:0:
256,192,103659,1,8,1:0:0:0:
256,192,103880,1,0,1:1:0:0:
256,192,104100,1,12,1:1:0:0:
256,192,104321,1,0,1:1:0:0:
256,192,104541,1,0,1:0:0:0:
256,192,104983,1,0,1:1:0:0:
256,192,105203,1,8,1:1:0:0:
256,192,105424,1,0,1:0:0:0:
256,192,105644,1,0,1:0:0:0:
256,192,105865,1,0,1:0:0:0:
256,192,106306,1,0,1:0:0:0:
256,192,106527,1,8,1:1:0:0:
256,192,106747,1,8,1:0:0:0:
256,192,106968,1,8,1:0:0:0:
256,192,107188,1,0,1:0:0:0:
256,192,107630,1,8,1:1:0:0:
256,192,107740,1,0,1:0:0:0:
256,192,107850,1,0,1:1:0:0:
256,192,108512,1,0,1:0:0:0:
256,192,108733,1,8,1:1:0:0:
256,192,108843,1,8,0:0:0:0:
256,192,108953,1,8,1:1:0:0:
256,192,109174,1,8,1:1:0:0:
256,192,109615,1,8,1:1:0:0:
256,192,109835,1,0,1:1:0:0:
256,192,110166,1,0,1:0:0:0:
256,192,110497,1,8,1:0:0:0:
256,192,110718,1,8,1:0:0:0:
256,192,110938,1,8,1:0:0:0:
256,192,111049,1,0,0:0:0:0:
256,192,111159,1,0,1:1:0:0:
256,192,111600,1,0,1:0:0:0:
256,192,111821,1,8,1:1:0:0:
256,192,111931,1,8,0:0:0:0:
256,192,112041,1,8,1:1:0:0:
256,192,112262,1,8,1:0:0:0:
256,192,112483,1,0,1:1:0:0:
256,192,112924,1,8,1:1:0:0:
256,192,113144,1,0,1:1:0:0:
256,192,113365,1,8,1:1:0:0:
256,192,113585,1,0,1:0:0:0:
256,192,113806,1,8,1:1:0:0:
256,192,114247,1,0,1:0:0:0:
256,192,114468,1,8,1:0:0:0:
256,192,114688,1,0,0:0:0:0:
256,192,114909,1,8,1:0:0:0:
256,192,115130,1,0,1:0:0:0:
256,192,115460,1,8,1:1:0:0:
256,192,115791,1,8,1:1:0:0:
256,192,116012,1,0,1:1:0:0:
256,192,116233,1,8,1:1:0:0:
256,192,116453,1,0,1:0:0:0:
256,192,116894,1,0,1:0:0:0:
256,192,117115,1,8,1:1:0:0:
256,192,117335,1,0,1:0:0:0:
256,192,117556,1,8,1:1:0:0:
256,192,117997,1,0,1:0:0:0:
256,192,118218,1,8,1:1:0:0:
256,192,118438,1,8,1:1:0:0:
256,192,118880,1,0,1:0:0:0:
256,192,119100,1,0,1:1:0:0:
256,192,119541,1,8,1:1:0:0:
256,192,119762,1,0,1:0:0:0:
256,192,119983,1,8,1:1:0:0:
256,192,120203,1,0,1:0:0:0:
256,192,120424,1,0,1:0:0:0:
256,192,120865,1,0,1:0:0:0:
256,192,121085,1,8,1:1:0:0:
256,192,121196,1,0,1:0:0:0:
256,192,121306,1,0,1:0:0:0:
256,192,121527,1,8,1:1:0:0:
256,192,121747,1,0,1:0:0:0:
256,192,122409,1,8,0:0:0:0:
256,192,123071,1,4,1:1:0:0:
256,192,124394,1,12,1:1:0:0:
256,192,125718,1,4,1:1:0:0:
256,192,126380,1,8,1:1:0:0:
256,192,126600,1,8,1:1:0:0:
256,192,126821,1,8,1:1:0:0:
256,192,127041,1,4,1:1:0:0:
256,192,127483,1,0,1:0:0:0:
256,192,127703,1,8,1:1:0:0:
256,192,128144,1,8,1:1:0:0:
256,192,128365,1,0,1:1:0:0:
256,192,128585,1,0,1:0:0:0:
256,192,128806,1,8,1:1:0:0:
256,192,128916,1,0,1:0:0:0:
256,192,129027,1,8,1:1:0:0:
256,192,129358,1,0,1:1:0:0:
256,192,129688,1,12,1:1:0:0:
256,192,130350,1,8,1:1:0:0:
256,192,130571,1,0,1:0:0:0:
256,192,130791,1,8,1:1:0:0:
256,192,130902,1,0,1:0:0:0:
256,192,131012,1,8,1:1:0:0:
256,192,131122,8,12,132005,1:1:0:0:
256,192,132115,5,8,0:0:0:0:
256,192,132335,5,4,1:1:0:0:
256,192,133659,1,0,1:0:0:0:
256,192,134983,1,8,1:1:0:0:
256,192,136306,1,0,1:0:0:0:
256,192,137630,1,0,1:0:0:0:
256,192,138953,1,8,1:1:0:0:
256,192,140277,1,0,1:0:0:0:
256,192,141600,1,0,1:0:0:0:
256,192,142924,1,0,1:0:0:0:
256,192,144247,1,8,1:1:0:0:
256,192,144909,1,8,1:1:0:0:
256,192,145571,1,0,1:0:0:0:
256,192,146894,1,8,1:1:0:0:
256,192,147556,1,8,1:1:0:0:
256,192,147997,1,8,1:1:0:0:
256,192,148218,1,0,1:0:0:0:
256,192,149541,1,0,1:0:0:0:
256,192,150203,1,8,1:1:0:0:
256,192,150865,1,8,1:1:0:0:
256,192,152188,1,0,1:0:0:0:
256,192,152850,1,0,1:0:0:0:
256,192,153291,1,0,1:0:0:0:
256,192,153512,1,8,1:1:0:0:
256,192,154835,1,0,1:0:0:0:
256,192,155497,1,8,1:1:0:0:
256,192,156159,1,8,1:1:0:0:
256,192,157262,1,8,1:1:0:0:
256,192,157483,1,8,1:1:0:0:
256,192,158806,1,0,1:0:0:0:
256,192,159909,1,0,1:0:0:0:
256,192,160130,1,8,1:1:0:0:
256,192,161012,1,8,1:1:0:0:
256,192,161453,1,0,1:0:0:0:
256,192,162777,1,8,1:1:0:0:
256,192,163438,1,8,1:1:0:0:
256,192,164100,1,0,1:0:0:0:
256,192,165424,1,0,1:0:0:0:
256,192,165865,1,0,1:0:0:0:
256,192,166306,1,8,1:1:0:0:
256,192,166747,1,0,1:0:0:0:
256,192,168071,1,0,1:0:0:0:
256,192,168953,1,8,1:1:0:0:
256,192,169394,1,0,1:0:0:0:
256,192,169615,1,0,1:0:0:0:
256,192,169835,1,8,1:1:0:0:
256,192,170718,1,8,1:1:0:0:
256,192,172041,1,0,1:0:0:0:
256,192,173365,1,8,1:1:0:0:
256,192,174247,1,8,1:1:0:0:
256,192,174688,1,0,1:0:0:0:
256,192,176012,1,8,1:1:0:0:
256,192,176674,1,0,1:0:0:0:
256,192,177335,1,8,1:1:0:0:
256,192,178659,1,0,1:0:0:0:
256,192,178880,1,0,1:0:0:0:
256,192,179100,1,0,1:0:0:0:
256,192,179652,1,0,1:0:0:0:
256,192,179983,1,8,1:1:0:0:
256,192,181306,1,0,1:0:0:0:
256,192,181968,1,8,1:1:0:0:
256,192,182409,1,8,1:1:0:0:
256,192,182630,1,0,1:0:0:0:
256,192,183953,1,8,1:1:0:0:
256,192,184615,1,8,1:1:0:0:
256,192,185056,1,8,1:1:0:0:
256,192,185277,1,0,1:0:0:0:
256,192,185791,1,0,1:0:0:0:
256,192,186458,1,8,1:1:0:0:
256,192,187028,1,0,1:0:0:0:
256,192,187481,1,8,1:1:0:0:
256,192,187860,1,0,1:0:0:0:
256,192,188095,1,8,1:1:0:0:
256,192,188296,1,0,1:0:0:0:
256,192,188471,1,8,1:1:0:0:
256,192,188806,1,8,1:1:0:0:
256,192,189026,1,0,1:1:0:0:
256,192,189247,1,0,1:0:0:0:
256,192,189467,1,0,1:0:0:0:
256,192,189688,1,8,1:1:0:0:
256,192,189908,1,8,1:0:0:0:
256,192,190019,1,8,1:1:0:0:
256,192,190129,1,0,1:0:0:0:
256,192,190570,1,0,1:0:0:0:
256,192,190791,1,8,1:1:0:0:
256,192,191011,1,0,1:0:0:0:
256,192,191232,1,0,1:1:0:0:
256,192,191342,1,8,1:1:0:0:
256,192,191453,1,0,1:0:0:0:
256,192,191894,1,0,1:0:0:0:
256,192,192114,1,0,1:0:0:0:
256,192,192335,1,8,1:1:0:0:
256,192,192556,1,0,1:0:0:0:
256,192,192666,1,8,1:1:0:0:
256,192,192776,1,8,1:1:0:0:
256,192,193217,1,0,1:1:0:0:
256,192,193438,1,8,1:1:0:0:
256,192,193658,1,8,1:1:0:0:
256,192,193879,1,0,1:1:0:0:
256,192,194100,1,8,1:1:0:0:
256,192,194541,1,8,1:1:0:0:
256,192,194651,1,8,0:0:0:0:
256,192,194761,1,8,1:1:0:0:
256,192,194982,1,0,1:0:0:0:
256,192,195203,1,8,1:1:0:0:
256,192,195423,1,0,1:0:0:0:
256,192,195864,1,0,1:0:0:0:
256,192,196085,1,8,1:0:0:0:
256,192,196306,1,0,1:0:0:0:
256,192,196526,1,8,1:1:0:0:
256,192,196636,1,8,0:0:0:0:
256,192,196747,1,8,1:1:0:0:
256,192,197188,1,8,1:0:0:0:
256,192,197408,1,8,1:1:0:0:
256,192,197629,1,8,1:1:0:0:
256,192,197850,1,0,1:0:0:0:
256,192,197960,1,0,0:0:0:0:
256,192,198070,1,8,1:1:0:0:
256,192,198511,1,0,1:1:0:0:
256,192,198732,1,8,1:0:0:0:
256,192,198953,1,8,1:1:0:0:
256,192,199063,1,8,1:1:0:0:
256,192,199173,1,0,1:0:0:0:
256,192,199283,1,0,0:0:0:0:
256,192,199394,1,12,1:1:0:0:
256,192,199504,8,0,207997,1:0:0:0:
