osu file format v14

[General]
AudioFilename: audio.mp3
AudioLeadIn: 0
PreviewTime: 30417
Countdown: 0
SampleSet: Normal
StackLeniency: 0.7
Mode: 1
LetterboxInBreaks: 0
WidescreenStoryboard: 0

[Editor]
Bookmarks: 31740,103211,132328,185784
DistanceSpacing: 1
BeatDivisor: 4
GridSize: 32
TimelineZoom: 2.2

[Metadata]
Title:Gaviscon
TitleUnicode:Gaviscon
Artist:Ruby My Dear
ArtistUnicode:Ruby My Dear
Creator:Izzeee
Version:Corrosion
Source:
Tags:mpg mappers' guild mg osu!mbc mbc monthly beatmapping contest october featured artist fa brame breakcore electronic english
BeatmapID:4409046
BeatmapSetID:2101653

[Difficulty]
HPDrainRate:6
CircleSize:5
OverallDifficulty:8
ApproachRate:10
SliderMultiplier:1.3
SliderTickRate:1

[Events]
//Background and Video events
0,0,"mbs.png",0,0
//Break Periods
2,74300,75415
//Storyboard Layer 0 (Background)
//Storyboard Layer 1 (Fail)
//Storyboard Layer 2 (Pass)
//Storyboard Layer 3 (Foreground)
//Storyboard Layer 4 (Overlay)
//Storyboard Sound Samples

[TimingPoints]
-17,220.588235294118,6,1,0,45,1,0
-17,-125,6,1,0,45,0,0
7,-125,6,1,0,5,0,0
11894,-125,6,1,0,45,0,0
15417,-111.111111111111,6,1,0,45,0,0
15528,-113.636363636364,6,1,0,45,0,0
15638,-117.647058823529,6,1,0,45,0,0
15675,-119.047619047619,6,1,0,45,0,0
15712,-120.481927710843,6,1,0,45,0,0
15748,-121.18714,6,1,0,45,0,0
15859,-125,6,1,0,45,0,0
26005,-111.111111111111,6,1,0,45,0,0
26116,-114.942528735632,6,1,0,45,0,0
26226,-117.647058823529,6,1,0,45,0,0
26263,-119.047619047619,6,1,0,45,0,0
26300,-120.481927710843,6,1,0,45,0,0
26336,-121.951219512195,6,1,0,45,0,0
26447,-125,6,1,0,45,0,0
26667,-128.205128205128,6,1,0,45,0,0
26814,-129.87012987013,6,1,0,45,0,0
26888,-130.43263,6,1,0,45,0,0
27035,-131.578947368421,6,1,0,45,0,0
27108,-133.333333333333,6,1,0,45,0,0
27182,-135.135135135135,6,1,0,45,0,0
27255,-135.3272,6,1,0,45,0,0
27329,-136.986301369863,6,1,0,45,0,0
27403,-137.40656,6,1,0,45,0,0
27476,-138.888888888889,6,1,0,45,0,0
27550,-139.5361,6,1,0,45,0,0
27770,-142.857142857143,6,1,0,45,0,0
27917,-144.927536231884,6,1,0,45,0,0
27991,-147.058823529412,6,1,0,45,0,0
28138,-149.253731343284,6,1,0,45,0,0
28211,-149.98866,6,1,0,45,0,0
28432,-153.846153846154,6,1,0,45,0,0
28579,-156.25,6,1,0,45,0,0
28653,-158.730158730159,6,1,0,45,0,0
28873,-161.290322580645,6,1,0,45,0,0
29094,-166.666666666667,6,1,0,45,0,0
29757,-181.818181818182,6,1,0,45,0,0
30419,-200,6,1,0,45,0,0
31080,-133.333333333333,6,1,0,45,0,0
31742,-100,6,1,0,75,0,0
32624,-90.9090909090909,6,1,0,75,0,0
32660,-93.4579439252336,6,1,0,75,0,0
32697,-97.0873786407767,6,1,0,75,0,0
32734,-100,6,1,0,75,0,0
33727,-86.9565217391304,6,1,0,75,0,0
33782,-87.719298245614,6,1,0,75,0,0
33837,-89.2857142857143,6,1,0,75,0,0
33892,-90.0900900900901,6,1,0,75,0,0
33947,-91.743119266055,6,1,0,75,0,0
34057,-94.3396226415094,6,1,0,75,0,0
34168,-97.0873786407767,6,1,0,75,0,0
34278,-100,6,1,0,75,0,0
34388,-83.3333333333333,6,1,0,75,0,0
34499,-84.0336134453782,6,1,0,75,0,0
34554,-84.26588,6,1,0,75,0,0
34609,-84.7457627118644,6,1,0,75,0,0
34664,-84.89541,6,1,0,75,0,0
34719,-85.4700854700855,6,1,0,75,0,0
34774,-85.534424,6,1,0,75,0,0
34829,-86.2068965517241,6,1,0,75,0,0
34940,-86.51716,6,1,0,75,0,0
35050,-86.9565217391304,6,1,0,75,0,0
35160,-87.719298245614,6,1,0,75,0,0
35271,-88.4955752212389,6,1,0,75,0,0
35326,-89.2857142857143,6,1,0,75,0,0
35381,-89.24109,6,1,0,75,0,0
35491,-90.0900900900901,6,1,0,75,0,0
35602,-90.9090909090909,6,1,0,75,0,0
35712,-91.743119266055,6,1,0,75,0,0
35932,-92.5925925925926,6,1,0,75,0,0
36043,-93.4579439252336,6,1,0,75,0,0
36153,-94.3396226415094,6,1,0,75,0,0
36263,-95.2380952380952,6,1,0,75,0,0
36374,-83.3333333333333,6,1,0,75,0,0
36429,-86.2068965517241,6,1,0,75,0,0
36484,-88.4955752212389,6,1,0,75,0,0
36539,-91.743119266055,6,1,0,75,0,0
36594,-95.2380952380952,6,1,0,75,0,0
36650,-50,6,1,0,75,0,0
37035,-83.3333333333333,6,1,0,75,0,0
37146,-84.0336134453782,6,1,0,75,0,0
37201,-83.95272,6,1,0,75,0,0
37256,-84.15997,6,1,0,75,0,0
37311,-84.368256,6,1,0,75,0,0
37366,-84.7457627118644,6,1,0,75,0,0
37421,-84.78792,6,1,0,75,0,0
37477,-85.003174,6,1,0,75,0,0
37532,-85.4700854700855,6,1,0,75,0,0
37587,-85.4292,6,1,0,75,0,0
37642,-85.643814,6,1,0,75,0,0
37697,-86.2068965517241,6,1,0,75,0,0
37807,-86.29418,6,1,0,75,0,0
37918,-86.9565217391304,6,1,0,75,0,0
37973,-86.958534,6,1,0,75,0,0
38028,-87.180916,6,1,0,75,0,0
38138,-87.719298245614,6,1,0,75,0,0
38249,-88.08607,6,1,0,75,0,0
38359,-88.4955752212389,6,1,0,75,0,0
38579,-89.2857142857143,6,1,0,75,0,0
38690,-90.0900900900901,6,1,0,75,0,0
38800,-90.42681,6,1,0,75,0,0
38910,-90.9090909090909,6,1,0,75,0,0
39076,-92.5925925925926,6,1,0,75,0,0
39131,-93.4579439252336,6,1,0,75,0,0
39186,-95.2380952380952,6,1,0,75,0,0
39241,-97.0873786407767,6,1,0,75,0,0
39296,-98.0392156862745,6,1,0,75,0,0
39352,-100,6,1,0,75,0,0
39462,-103.092783505155,6,1,0,75,0,0
39517,-105.263157894737,6,1,0,75,0,0
39572,-107.52688172043,6,1,0,75,0,0
39627,-108.695652173913,6,1,0,75,0,0
39682,-111.111111111111,6,1,0,75,0,0
39793,-113.636363636364,6,1,0,75,0,0
39903,-114.942528735632,6,1,0,75,0,0
40013,-117.647058823529,6,1,0,75,0,0
40124,-120.481927710843,6,1,0,75,0,0
40234,-121.951219512195,6,1,0,75,0,0
40344,-125,6,1,0,75,0,0
40454,-128.205128205128,6,1,0,75,0,0
40565,-129.87012987013,6,1,0,75,0,0
40675,-133.333333333333,6,1,0,75,0,0
40785,-136.986301369863,6,1,0,75,0,0
40896,-138.888888888889,6,1,0,75,0,0
41006,-142.857142857143,6,1,0,75,0,0
41337,-166.666666666667,6,1,0,75,0,0
41557,-178.571428571429,6,1,0,75,0,0
41674,-40,6,1,0,75,0,0
42329,-83.3333333333333,6,1,0,75,0,0
42440,-84.0336134453782,6,1,0,75,0,0
42495,-84.7457627118644,6,1,0,75,0,0
42550,-85.003174,6,1,0,75,0,0
42605,-85.4700854700855,6,1,0,75,0,0
42660,-86.2068965517241,6,1,0,75,0,0
42715,-86.29419,6,1,0,75,0,0
42771,-86.9565217391304,6,1,0,75,0,0
42881,-87.719298245614,6,1,0,75,0,0
42991,-88.4955752212389,6,1,0,75,0,0
43102,-89.2857142857143,6,1,0,75,0,0
43212,-90.0900900900901,6,1,0,75,0,0
43322,-91.743119266055,6,1,0,75,0,0
43432,-92.5925925925926,6,1,0,75,0,0
43543,-93.4579439252336,6,1,0,75,0,0
43653,-94.3396226415094,6,1,0,75,0,0
43763,-95.2380952380952,6,1,0,75,0,0
43874,-96.1538461538461,6,1,0,75,0,0
43984,-98.0392156862745,6,1,0,75,0,0
44039,-98.27043,6,1,0,75,0,0
44094,-99.009900990099,6,1,0,75,0,0
44149,-99.416756,6,1,0,75,0,0
44204,-100,6,1,0,75,0,0
44315,-76.9230769230769,6,1,0,75,0,0
44978,-86.9565217391304,6,1,0,75,0,0
45307,-86.95651,6,1,0,75,0,0
45363,-85.4700854700855,6,1,0,75,0,0
45418,-83.3333333333333,6,1,0,75,0,0
45473,-81.9672131147541,6,1,0,75,0,0
45528,-80,6,1,0,75,0,0
45583,-78.740157480315,6,1,0,75,0,0
45638,-76.9230769230769,6,1,0,75,0,0
46301,-90.9090909090909,6,1,0,75,0,0
46962,-83.3333333333333,6,1,0,75,0,0
47072,-86.2068965517241,6,1,0,75,0,0
47127,-87.719298245614,6,1,0,75,0,0
47182,-89.2857142857143,6,1,0,75,0,0
47238,-90.9090909090909,6,1,0,75,0,0
47293,-92.5925925925926,6,1,0,75,0,0
47403,-96.1538461538461,6,1,0,75,0,0
47513,-100,6,1,0,75,0,0
47624,-83.3333333333333,6,1,0,75,0,0
47679,-84.7457627118644,6,1,0,75,0,0
47734,-86.2068965517241,6,1,0,75,0,0
47789,-86.9565217391304,6,1,0,75,0,0
47844,-88.4955752212389,6,1,0,75,0,0
47899,-90.0900900900901,6,1,0,75,0,0
47954,-90.9090909090909,6,1,0,75,0,0
48010,-92.5925925925926,6,1,0,75,0,0
48065,-94.3396226415094,6,1,0,75,0,0
48120,-95.2380952380952,6,1,0,75,0,0
48175,-97.0873786407767,6,1,0,75,0,0
48230,-98.0392156862745,6,1,0,75,0,0
48285,-100,6,1,0,75,0,0
49609,-83.3333333333333,6,1,0,75,0,0
49664,-84.7457627118644,6,1,0,75,0,0
49719,-86.2068965517241,6,1,0,75,0,0
49774,-87.719298245614,6,1,0,75,0,0
49829,-89.2857142857143,6,1,0,75,0,0
49940,-92.5925925925926,6,1,0,75,0,0
50050,-96.1538461538461,6,1,0,75,0,0
50160,-100,6,1,0,75,0,0
50271,-90.9090909090909,6,1,0,75,0,0
50326,-91.743119266055,6,1,0,75,0,0
50381,-91.777306,6,1,0,75,0,0
50436,-92.5925925925926,6,1,0,75,0,0
50491,-92.65382,6,1,0,75,0,0
50546,-93.4579439252336,6,1,0,75,0,0
50602,-93.546776,6,1,0,75,0,0
50657,-94.3396226415094,6,1,0,75,0,0
50712,-94.440186,6,1,0,75,0,0
50767,-95.2380952380952,6,1,0,75,0,0
50822,-95.34215,6,1,0,75,0,0
50877,-96.1538461538461,6,1,0,75,0,0
50932,-96.25269,6,1,0,75,0,0
51043,-97.0873786407767,6,1,0,75,0,0
51153,-98.0392156862745,6,1,0,75,0,0
51263,-99.009900990099,6,1,0,75,0,0
51374,-100,6,1,0,75,0,0
52035,-83.3333333333333,6,1,0,75,0,0
52146,-85.4700854700855,6,1,0,75,0,0
52256,-86.9565217391304,6,1,0,75,0,0
52329,-88.4955752212389,6,1,0,75,0,0
52403,-89.2857142857143,6,1,0,75,0,0
52477,-90.9090909090909,6,1,0,75,0,0
52587,-93.4579439252336,6,1,0,75,0,0
52697,-95.2380952380952,6,1,0,75,0,0
52807,-97.0873786407767,6,1,0,75,0,0
52918,-100,6,1,0,75,0,0
54242,-90.9090909090909,6,1,0,75,0,0
56227,-86.9565217391304,6,1,0,75,0,0
56282,-87.719298245614,6,1,0,75,0,0
56337,-88.4955752212389,6,1,0,75,0,0
56392,-90.0900900900901,6,1,0,75,0,0
56447,-90.9090909090909,6,1,0,75,0,0
56502,-91.743119266055,6,1,0,75,0,0
56557,-92.5925925925926,6,1,0,75,0,0
56613,-94.3396226415094,6,1,0,75,0,0
56668,-95.2380952380952,6,1,0,75,0,0
56723,-96.1538461538461,6,1,0,75,0,0
56778,-98.0392156862745,6,1,0,75,0,0
56833,-99.009900990099,6,1,0,75,0,0
56888,-100,6,1,0,75,0,0
57827,-66.6666666666667,6,1,0,75,0,0
58212,-90.9090909090909,6,1,0,75,0,0
58322,-91.743119266055,6,1,0,75,0,0
58377,-91.95163,6,1,0,75,0,0
58432,-92.5925925925926,6,1,0,75,0,0
58488,-92.66652,6,1,0,75,0,0
58543,-93.4579439252336,6,1,0,75,0,0
58598,-93.38604,6,1,0,75,0,0
58653,-93.75001,6,1,0,75,0,0
58763,-94.3396226415094,6,1,0,75,0,0
58818,-95.2380952380952,6,1,0,75,0,0
58874,-95.24152,6,1,0,75,0,0
58984,-96.1538461538461,6,1,0,75,0,0
59094,-97.0873786407767,6,1,0,75,0,0
59204,-97.55917,6,1,0,75,0,0
59315,-98.0392156862745,6,1,0,75,0,0
59425,-99.009900990099,6,1,0,75,0,0
59535,-86.9565217391304,6,1,0,75,0,0
59646,-90.9090909090909,6,1,0,75,0,0
59701,-91.28537,6,1,0,75,0,0
59756,-91.743119266055,6,1,0,75,0,0
59811,-92.04735,6,1,0,75,0,0
59866,-92.5925925925926,6,1,0,75,0,0
59921,-92.82216,6,1,0,75,0,0
59977,-93.4579439252336,6,1,0,75,0,0
60087,-94.3396226415094,6,1,0,75,0,0
60142,-94.41893,6,1,0,75,0,0
60197,-95.2380952380952,6,1,0,75,0,0
60307,-95.64738,6,1,0,75,0,0
60418,-96.1538461538461,6,1,0,75,0,0
60528,-97.0873786407767,6,1,0,75,0,0
60638,-98.0392156862745,6,1,0,75,0,0
60749,-99.009900990099,6,1,0,75,0,0
60859,-100,6,1,0,75,0,0
61024,-98.0392156862745,6,1,0,75,0,0
61079,-97.0873786407767,6,1,0,75,0,0
61135,-95.2380952380952,6,1,0,75,0,0
61190,-93.4579439252336,6,1,0,75,0,0
61245,-92.5925925925926,6,1,0,75,0,0
61300,-90.9090909090909,6,1,0,75,0,0
61411,-95.2380952380952,6,1,0,75,0,0
61521,-100,6,1,0,75,0,0
61576,-99.009900990099,6,1,0,75,0,0
61631,-97.0873786407767,6,1,0,75,0,0
61686,-96.1538461538461,6,1,0,75,0,0
61741,-95.2380952380952,6,1,0,75,0,0
61796,-93.4579439252336,6,1,0,75,0,0
61852,-92.5925925925926,6,1,0,75,0,0
61907,-90.9090909090909,6,1,0,75,0,0
61962,-90.0900900900901,6,1,0,75,0,0
62017,-89.2857142857143,6,1,0,75,0,0
62072,-87.719298245614,6,1,0,75,0,0
62127,-86.9565217391304,6,1,0,75,0,0
62183,-83.3333333333333,6,1,0,75,0,0
62403,-90.9090909090909,6,1,0,75,0,0
62513,-91.743119266055,6,1,0,75,0,0
62624,-92.5925925925926,6,1,0,75,0,0
62734,-93.4579439252336,6,1,0,75,0,0
62844,-94.3396226415094,6,1,0,75,0,0
62954,-96.1538461538461,6,1,0,75,0,0
63065,-97.0873786407767,6,1,0,75,0,0
63175,-98.0392156862745,6,1,0,75,0,0
63285,-99.009900990099,6,1,0,75,0,0
63396,-100,6,1,0,75,0,0
63507,-90.9090909090909,6,1,0,75,0,0
64224,-66.6666666666667,6,1,0,75,0,0
64830,-100,6,1,0,75,0,0
65491,-86.9565217391304,6,1,0,75,0,0
65546,-87.719298245614,6,1,0,75,0,0
65602,-89.2857142857143,6,1,0,75,0,0
65657,-90.9090909090909,6,1,0,75,0,0
65712,-91.743119266055,6,1,0,75,0,0
65822,-94.3396226415094,6,1,0,75,0,0
65932,-97.0873786407767,6,1,0,75,0,0
66043,-100,6,1,0,75,0,0
66154,-90.9090909090909,6,1,0,75,0,0
67034,-90.90909,6,1,0,75,0,0
67095,-89.72788,6,1,0,75,0,0
67151,-88.67021,6,1,0,75,0,0
67206,-87.65541,6,1,0,75,0,0
67261,-86.66358,6,1,0,75,0,0
67316,-85.69395,6,1,0,75,0,0
67371,-84.745766,6,1,0,75,0,0
67477,-83.3333333333333,6,1,0,75,0,0
67532,-84.0336134453782,6,1,0,75,0,0
67587,-84.7457627118644,6,1,0,75,0,0
67642,-85.10228,6,1,0,75,0,0
67697,-85.4700854700855,6,1,0,75,0,0
67752,-86.2068965517241,6,1,0,75,0,0
67807,-86.9565217391304,6,1,0,75,0,0
67863,-87.719298245614,6,1,0,75,0,0
67918,-88.4955752212389,6,1,0,75,0,0
67973,-88.8874,6,1,0,75,0,0
68028,-89.2857142857143,6,1,0,75,0,0
68083,-90.0900900900901,6,1,0,75,0,0
68138,-90.9090909090909,6,1,0,75,0,0
68193,-91.743119266055,6,1,0,75,0,0
68249,-92.5925925925926,6,1,0,75,0,0
68304,-93.4579439252336,6,1,0,75,0,0
68359,-93.75001,6,1,0,75,0,0
68414,-94.3396226415094,6,1,0,75,0,0
68469,-95.2380952380952,6,1,0,75,0,0
68524,-96.1538461538461,6,1,0,75,0,0
68579,-97.0873786407767,6,1,0,75,0,0
68635,-98.0392156862745,6,1,0,75,0,0
68690,-98.36431,6,1,0,75,0,0
68745,-99.009900990099,6,1,0,75,0,0
68800,-100,6,1,0,75,0,0
70125,-133.333333333333,6,1,0,75,0,0
71228,-90.9090909090909,6,1,0,75,0,0
71453,-133.333333333333,6,1,0,75,0,0
71558,-83.3333333333333,6,1,0,75,0,0
71889,-133.333333333333,6,1,0,75,0,0
72551,-100,6,1,0,75,0,0
72771,-76.9230769230769,6,1,0,75,0,0
72826,-78.125,6,1,0,75,0,0
72881,-78.740157480315,6,1,0,75,0,0
72936,-80,6,1,0,75,0,0
72991,-81.3008130081301,6,1,0,75,0,0
73046,-81.9672131147541,6,1,0,75,0,0
73101,-83.3333333333333,6,1,0,75,0,0
73156,-84.7457627118644,6,1,0,75,0,0
73212,-85.4700854700855,6,1,0,75,0,0
73267,-86.9565217391304,6,1,0,75,0,0
73322,-88.4955752212389,6,1,0,75,0,0
73432,-90.9090909090909,6,1,0,75,0,0
73487,-92.5925925925926,6,1,0,75,0,0
73542,-93.4579439252336,6,1,0,75,0,0
73597,-95.2380952380952,6,1,0,75,0,0
73653,-97.0873786407767,6,1,0,75,0,0
73708,-98.0392156862745,6,1,0,75,0,0
73763,-100,6,1,0,75,0,0
73818,-102.040816326531,6,1,0,75,0,0
73874,-103.092783505155,6,1,0,75,0,0
73929,-105.263157894737,6,1,0,75,0,0
73984,-107.52688172043,6,1,0,75,0,0
74094,-111.111111111111,6,1,0,75,0,0
75419,-133.333333333333,6,1,0,75,0,0
76080,-80,6,1,0,75,0,0
77458,-80.26716,6,1,0,75,0,0
77513,-80.6451612903226,6,1,0,75,0,0
77568,-80.80685,6,1,0,75,0,0
77624,-81.3008130081301,6,1,0,75,0,0
77679,-81.35886,6,1,0,75,0,0
77734,-81.9672131147541,6,1,0,75,0,0
77789,-81.913376,6,1,0,75,0,0
77844,-82.19349,6,1,0,75,0,0
77899,-82.6446280991736,6,1,0,75,0,0
77954,-82.75948,6,1,0,75,0,0
78010,-83.3333333333333,6,1,0,75,0,0
78065,-83.338585,6,1,0,75,0,0
78175,-84.7457627118644,6,1,0,75,0,0
78285,-85.4700854700855,6,1,0,75,0,0
78396,-86.9565217391304,6,1,0,75,0,0
78451,-87.719298245614,6,1,0,75,0,0
78506,-88.4955752212389,6,1,0,75,0,0
78616,-89.2857142857143,6,1,0,75,0,0
78727,-90.9090909090909,6,1,0,75,0,0
78837,-92.5925925925926,6,1,0,75,0,0
78892,-93.4579439252336,6,1,0,75,0,0
78947,-93.75001,6,1,0,75,0,0
79057,-95.2380952380952,6,1,0,75,0,0
79168,-97.0873786407767,6,1,0,75,0,0
79278,-98.0392156862745,6,1,0,75,0,0
79388,-100,6,1,0,75,0,0
79720,-125,6,1,0,75,0,0
84351,-125,6,1,0,75,0,0
84412,-119.47863,6,1,0,75,0,0
84467,-114.902504,6,1,0,75,0,0
84522,-110.66398,6,1,0,75,0,0
84577,-106.727036,6,1,0,75,0,0
84632,-103.060585,6,1,0,75,0,0
84688,-100,6,1,0,75,0,0
85019,-103.060585,6,1,0,75,0,0
85570,-103.060585,6,1,0,75,0,0
85680,-100.32218,6,1,0,75,0,0
85790,-97.725555,6,1,0,75,0,0
85901,-95.23809,6,1,0,75,0,0
86006,-90.9090909090909,6,1,0,75,0,0
86116,-91.743119266055,6,1,0,75,0,0
86227,-92.5925925925926,6,1,0,75,0,0
86337,-93.4579439252336,6,1,0,75,0,0
86447,-93.75001,6,1,0,75,0,0
86557,-94.3396226415094,6,1,0,75,0,0
86668,-95.2380952380952,6,1,0,75,0,0
86778,-96.1538461538461,6,1,0,75,0,0
86888,-97.0873786407767,6,1,0,75,0,0
86999,-98.0392156862745,6,1,0,75,0,0
87109,-98.3643,6,1,0,75,0,0
87219,-99.009900990099,6,1,0,75,0,0
87329,-100,6,1,0,75,0,0
87440,-101.010101010101,6,1,0,75,0,0
87550,-101.3295,6,1,0,75,0,0
87660,-102.040816326531,6,1,0,75,0,0
87771,-103.092783505155,6,1,0,75,0,0
87881,-103.378746,6,1,0,75,0,0
87991,-104.166666666667,6,1,0,75,0,0
88102,-105.263157894737,6,1,0,75,0,0
88212,-105.512596,6,1,0,75,0,0
88322,-106.382978723404,6,1,0,75,0,0
88432,-107.52688172043,6,1,0,75,0,0
88543,-107.73639,6,1,0,75,0,0
88653,-108.695652173913,6,1,0,75,0,0
88763,-109.26703,6,1,0,75,0,0
88874,-109.89010989011,6,1,0,75,0,0
88984,-111.111111111111,6,1,0,75,0,0
89094,-111.65369,6,1,0,75,0,0
89204,-112.359550561798,6,1,0,75,0,0
89315,-113.636363636364,6,1,0,75,0,0
89388,-113.86272,6,1,0,75,0,0
89462,-114.942528735632,6,1,0,75,0,0
89535,-115.00034,6,1,0,75,0,0
89646,-116.279069767442,6,1,0,75,0,0
89756,-116.754074,6,1,0,75,0,0
89866,-117.647058823529,6,1,0,75,0,0
89977,-100,6,1,0,75,0,0
90197,-101.010101010101,6,1,0,75,0,0
90307,-102.040816326531,6,1,0,75,0,0
90418,-102.40865,6,1,0,75,0,0
90528,-103.092783505155,6,1,0,75,0,0
90638,-104.166666666667,6,1,0,75,0,0
90749,-104.29414,6,1,0,75,0,0
90859,-105.263157894737,6,1,0,75,0,0
91079,-106.382978723404,6,1,0,75,0,0
91190,-106.9168,6,1,0,75,0,0
91300,-107.52688172043,6,1,0,75,0,0
91410,-108.695652173913,6,1,0,75,0,0
91521,-108.97362,6,1,0,75,0,0
91631,-109.89010989011,6,1,0,75,0,0
91741,-110.385025,6,1,0,75,0,0
91852,-111.111111111111,6,1,0,75,0,0
91962,-112.359550561798,6,1,0,75,0,0
92017,-112.4463,6,1,0,75,0,0
92072,-112.89851,6,1,0,75,0,0
92182,-113.636363636364,6,1,0,75,0,0
92403,-116.279069767442,6,1,0,75,0,0
92458,-116.17758,6,1,0,75,0,0
92513,-116.66037,6,1,0,75,0,0
92624,-117.647058823529,6,1,0,75,0,0
92849,-117.647064,6,1,0,75,0,0
92904,-114.2355,6,1,0,75,0,0
92959,-111.01623,6,1,0,75,0,0
93015,-107.91965,6,1,0,75,0,0
93070,-105.042015,6,1,0,75,0,0
93173,-99.95471,6,1,0,75,0,0
93290,-105.54847,6,1,0,75,0,0
93345,-108.40019,6,1,0,75,0,0
93401,-111.466576,6,1,0,75,0,0
93456,-114.65189,6,1,0,75,0,0
93505,-117.647064,6,1,0,75,0,0
93782,-114.942528735632,6,1,0,75,0,0
93837,-113.636363636364,6,1,0,75,0,0
93892,-111.111111111111,6,1,0,75,0,0
93947,-108.695652173913,6,1,0,75,0,0
94002,-107.52688172043,6,1,0,75,0,0
94056,-105.26316,6,1,0,75,0,0
94173,-101.854416,6,1,0,75,0,0
94283,-98.84502,6,1,0,75,0,0
94338,-97.40604,6,1,0,75,0,0
94393,-96.00835,6,1,0,75,0,0
94504,-93.30628,6,1,0,75,0,0
94607,-90.89663,6,1,0,75,0,0
94724,-92.378426,6,1,0,75,0,0
94834,-93.81632,6,1,0,75,0,0
94945,-95.31339,6,1,0,75,0,0
95055,-96.84487,6,1,0,75,0,0
95165,-98.42636,6,1,0,75,0,0
95271,-100,6,1,0,75,0,0
95492,-95.2380952380952,6,1,0,75,0,0
95547,-98.0392156862745,6,1,0,75,0,0
95603,-100,6,1,0,75,0,0
95708,-95.2380952380952,6,1,0,75,0,0
95763,-98.0392156862745,6,1,0,75,0,0
95822,-100,6,1,0,75,0,0
95932,-101.010101010101,6,1,0,75,0,0
96043,-101.08303,6,1,0,75,0,0
96153,-102.040816326531,6,1,0,75,0,0
96263,-102.164925,6,1,0,75,0,0
96374,-103.092783505155,6,1,0,75,0,0
96484,-103.2753,6,1,0,75,0,0
96594,-104.166666666667,6,1,0,75,0,0
96704,-104.4049,6,1,0,75,0,0
96815,-105.263157894737,6,1,0,75,0,0
96925,-105.56477,6,1,0,75,0,0
97035,-106.382978723404,6,1,0,75,0,0
97146,-106.75072,6,1,0,75,0,0
97256,-107.52688172043,6,1,0,75,0,0
97366,-107.95805,6,1,0,75,0,0
97477,-108.695652173913,6,1,0,75,0,0
97587,-109.19869,6,1,0,75,0,0
97697,-109.89010989011,6,1,0,75,0,0
97807,-110.46237,6,1,0,75,0,0
97918,-111.111111111111,6,1,0,75,0,0
98470,-109.89010989011,6,1,0,75,0,0
98525,-107.52688172043,6,1,0,75,0,0
98580,-105.263157894737,6,1,0,75,0,0
98800,-90.9090909090909,6,1,0,75,0,0
98855,-92.5925925925926,6,1,0,75,0,0
98910,-95.2380952380952,6,1,0,75,0,0
98965,-97.0873786407767,6,1,0,75,0,0
99021,-100,6,1,0,75,0,0
99076,-103.092783505155,6,1,0,75,0,0
99131,-105.263157894737,6,1,0,75,0,0
99186,-108.695652173913,6,1,0,75,0,0
99241,-111.111111111111,6,1,0,75,0,0
99573,-125,6,1,0,75,0,0
100566,-117.647058823529,6,1,0,75,0,0
101227,-133.333333333333,6,1,0,75,0,0
101668,-113.636363636364,6,1,0,75,0,0
101778,-109.89010989011,6,1,0,75,0,0
101888,-105.263157894737,6,1,0,75,0,0
101999,-101.010101010101,6,1,0,75,0,0
102054,-99.009900990099,6,1,0,75,0,0
102109,-97.0873786407767,6,1,0,75,0,0
102219,-93.4579439252336,6,1,0,75,0,0
102275,-91.743119266055,6,1,0,75,0,0
102330,-90.0900900900901,6,1,0,75,0,0
102440,-86.9565217391304,6,1,0,75,0,0
102550,-76.9230769230769,6,1,0,75,0,0
102992,-100,6,1,0,75,0,0
103212,-76.92308,6,1,0,75,0,0
103217,-77.011894,6,1,0,75,0,0
103327,-79.01907,6,1,0,75,0,0
103437,-81.13368,6,1,0,75,0,0
103493,-82.25429,6,1,0,75,0,0
103548,-83.38542,6,1,0,75,0,0
103603,-84.54811,6,1,0,75,0,0
103658,-85.743675,6,1,0,75,0,0
103713,-86.973526,6,1,0,75,0,0
103768,-88.23918,6,1,0,75,0,0
103823,-89.54221,6,1,0,75,0,0
103879,-90.90909,6,1,0,75,0,0
104540,-83.333336,6,1,0,75,0,0
104595,-84.50345,6,1,0,75,0,0
104651,-85.729095,6,1,0,75,0,0
104706,-86.96795,6,1,0,75,0,0
104761,-88.24314,6,1,0,75,0,0
104816,-89.55628,6,1,0,75,0,0
104871,-90.90909,6,1,0,75,0,0
104926,-92.303406,6,1,0,75,0,0
104982,-93.76771,6,1,0,75,0,0
105037,-95.2518,6,1,0,75,0,0
105092,-96.78362,6,1,0,75,0,0
105147,-98.365524,6,1,0,75,0,0
105202,-100,6,1,0,75,0,0
105865,-111.111111111111,6,1,0,75,0,0
107187,-111.111115,6,1,0,75,0,0
107243,-110.07649,6,1,0,75,0,0
107298,-109.078926,6,1,0,75,0,0
107353,-108.09929,6,1,0,75,0,0
107408,-107.137085,6,1,0,75,0,0
107463,-106.19186,6,1,0,75,0,0
107518,-105.26316,6,1,0,75,0,0
107573,-104.35057,6,1,0,75,0,0
107629,-103.4375,6,1,0,75,0,0
107684,-102.55616,6,1,0,75,0,0
107739,-101.68971,6,1,0,75,0,0
107794,-100.837776,6,1,0,75,0,0
107849,-100,6,1,0,75,0,0
108512,-90.9090909090909,6,1,0,75,0,0
109834,-90.90909,6,1,0,75,0,0
109945,-90.22043,6,1,0,75,0,0
110000,-89.88305,6,1,0,75,0,0
110055,-89.54819,6,1,0,75,0,0
110165,-88.885895,6,1,0,75,0,0
110276,-88.22743,6,1,0,75,0,0
110331,-87.90478,6,1,0,75,0,0
110386,-87.584465,6,1,0,75,0,0
110495,-86.95651,6,1,0,75,0,0
110607,-89.298706,6,1,0,75,0,0
110717,-91.74768,6,1,0,75,0,0
110827,-94.33479,6,1,0,75,0,0
110937,-97.072014,6,1,0,75,0,0
111048,-100,6,1,0,75,0,0
111159,-90.9090909090909,6,1,0,75,0,0
112482,-90.90909,6,1,0,75,0,0
112537,-90.226585,6,1,0,75,0,0
112592,-89.55427,6,1,0,75,0,0
112647,-88.89188,6,1,0,75,0,0
112702,-88.23922,6,1,0,75,0,0
112757,-87.59607,6,1,0,75,0,0
112812,-86.96225,6,1,0,75,0,0
112868,-86.32624,6,1,0,75,0,0
112923,-85.71059,6,1,0,75,0,0
112978,-85.10364,6,1,0,75,0,0
113033,-84.50524,6,1,0,75,0,0
113088,-83.9152,6,1,0,75,0,0
113142,-83.333336,6,1,0,75,0,0
113364,-86.97363,6,1,0,75,0,0
113584,-90.90909,6,1,0,75,0,0
113805,-95.23809,6,1,0,75,0,0
115791,-83.3333333333333,6,1,0,75,0,0
116232,-83.333336,6,1,0,75,0,0
116287,-85.10638,6,1,0,75,0,0
116342,-86.95652,6,1,0,75,0,0
116397,-88.888885,6,1,0,75,0,0
116452,-90.90909,6,1,0,75,0,0
117114,-80,6,1,0,75,0,0
117169,-80.80562,6,1,0,75,0,0
117224,-81.62762,6,1,0,75,0,0
117279,-82.46652,6,1,0,75,0,0
117334,-83.322845,6,1,0,75,0,0
117555,-86.950806,6,1,0,75,0,0
117610,-87.903336,6,1,0,75,0,0
117665,-88.876945,6,1,0,75,0,0
117720,-89.87238,6,1,0,75,0,0
117776,-90.90909,6,1,0,75,0,0
117997,-105.263157894737,6,1,0,75,0,0
119099,-90.90909,6,1,0,75,0,0
119209,-91.66477,6,1,0,75,0,0
119320,-92.44018,6,1,0,75,0,0
119375,-92.82926,6,1,0,75,0,0
119430,-93.22164,6,1,0,75,0,0
119485,-93.61735,6,1,0,75,0,0
119540,-94.01643,6,1,0,75,0,0
119595,-94.41893,6,1,0,75,0,0
119651,-94.8323,6,1,0,75,0,0
119761,-95.654915,6,1,0,75,0,0
119982,-97.35152,6,1,0,75,0,0
120037,-97.78315,6,1,0,75,0,0
120092,-98.21862,6,1,0,75,0,0
120147,-98.658,6,1,0,75,0,0
120202,-99.1013,6,1,0,75,0,0
120257,-99.54862,6,1,0,75,0,0
120312,-100,6,1,0,75,0,0
120423,-90.90909,6,1,0,75,0,0
120478,-92.12771,6,1,0,75,0,0
120533,-93.37945,6,1,0,75,0,0
120588,-94.66566,6,1,0,75,0,0
120643,-95.98781,6,1,0,75,0,0
120698,-97.347404,6,1,0,75,0,0
120754,-98.77188,6,1,0,75,0,0
120809,-100.21209,6,1,0,75,0,0
120864,-101.694916,6,1,0,75,0,0
120974,-104.79623,6,1,0,75,0,0
121084,-108.09265,6,1,0,75,0,0
121195,-111.63615,6,1,0,75,0,0
121305,-115.384605,6,1,0,75,0,0
121415,-119.393555,6,1,0,75,0,0
121526,-123.731575,6,1,0,75,0,0
121636,-128.35313,6,1,0,75,0,0
121746,-133.33333,6,1,0,75,0,0
122073,-153.846153846154,6,1,0,75,0,0
122404,-100,6,1,0,75,0,0
122845,-125,6,1,0,75,0,0
123066,-90.9090909090909,6,1,0,75,0,0
126375,-133.333333333333,6,1,0,75,0,0
127036,-100,6,1,0,75,0,0
128364,-90.90909,6,1,0,75,0,0
128419,-91.95163,6,1,0,75,0,0
128474,-93.01834,6,1,0,75,0,0
128529,-94.110115,6,1,0,75,0,0
128584,-95.227806,6,1,0,75,0,0
128640,-96.39344,6,1,0,75,0,0
128695,-97.56637,6,1,0,75,0,0
128750,-98.768196,6,1,0,75,0,0
128805,-100,6,1,0,75,0,0
128910,-101.522842639594,6,1,0,75,0,0
129021,-103.092783505155,6,1,0,75,0,0
129352,-111.111111111111,6,1,0,75,0,0
129682,-76.9230769230769,6,1,0,75,0,0
130344,-86.9565217391304,6,1,0,75,0,0
130399,-87.719298245614,6,1,0,75,0,0
130454,-88.4955752212389,6,1,0,75,0,0
130510,-90.0900900900901,6,1,0,75,0,0
130565,-90.9090909090909,6,1,0,75,0,0
130620,-91.743119266055,6,1,0,75,0,0
130675,-93.4579439252336,6,1,0,75,0,0
130730,-94.3396226415094,6,1,0,75,0,0
130785,-95.2380952380952,6,1,0,75,0,0
130840,-96.1538461538461,6,1,0,75,0,0
130896,-98.0392156862745,6,1,0,75,0,0
130951,-99.009900990099,6,1,0,75,0,0
131006,-100,6,1,0,75,0,0
131062,-66.6666666666667,6,1,0,75,0,0
132115,-80,6,1,0,75,0,0
132335,-80,6,1,0,45,0,0
133653,-200,6,1,0,45,0,0
134977,-204.081632653061,6,1,0,45,0,0
136300,-208.333333333333,6,1,0,45,0,0
137624,-212.765957446809,6,1,0,45,0,0
138947,-217.391304347826,6,1,0,45,0,0
140271,-219.73685,6,1,0,45,0,0
141594,-222.222222222222,6,1,0,45,0,0
142918,-227.272727272727,6,1,0,45,0,0
144241,-232.558139534884,6,1,0,45,0,0
144903,-238.095238095238,6,1,0,45,0,0
145565,-238.5514,6,1,0,45,0,0
146888,-243.90243902439,6,1,0,45,0,0
147550,-246.46404,6,1,0,45,0,0
147991,-250,6,1,0,45,0,0
148212,-249.22092,6,1,0,45,0,0
149535,-256.410256410256,6,1,0,45,0,0
150197,-257.87003,6,1,0,45,0,0
150859,-263.157894736842,6,1,0,45,0,0
152182,-270.27027027027,6,1,0,45,0,0
152844,-270.38293,6,1,0,45,0,0
153285,-272.5866,6,1,0,45,0,0
153506,-273.7045,6,1,0,45,0,0
154829,-277.777777777778,6,1,0,45,0,0
155491,-285.714285714286,6,1,0,45,0,0
156153,-287.84348,6,1,0,45,0,0
157256,-294.117647058824,6,1,0,45,0,0
157477,-295.47818,6,1,0,45,0,0
158800,-303.030303030303,6,1,0,45,0,0
159903,-312.5,6,1,0,45,0,0
160124,-312.0242,6,1,0,45,0,0
161006,-322.58064516129,6,1,0,45,0,0
161447,-321.00864,6,1,0,45,0,0
162771,-333.333333333333,6,1,0,45,0,0
163432,-335.50296,6,1,0,45,0,0
164094,-344.827586206897,6,1,0,45,0,0
165418,-357.142857142857,6,1,0,45,0,0
165859,-355.1072,6,1,0,45,0,0
166300,-358.918,6,1,0,45,0,0
166741,-362.8115,6,1,0,45,0,0
168065,-370.37037037037,6,1,0,45,0,0
168947,-384.615384615385,6,1,0,45,0,0
169388,-388.0801,6,1,0,45,0,0
170712,-402.0874,6,1,0,45,0,0
172035,-416.666666666667,6,1,0,45,0,0
173359,-434.782608695652,6,1,0,45,0,0
174241,-454.545454545455,6,1,0,45,0,0
174682,-450.88544,6,1,0,45,0,0
176006,-476.190476190476,6,1,0,45,0,0
176668,-487.80487804878,6,1,0,45,0,0
177329,-500,6,1,0,45,0,0
178653,-526.315789473684,6,1,0,45,0,0
178874,-517.15826,6,1,0,45,0,0
179094,-521.1786,6,1,0,45,0,0
179652,-529.4286,6,1,0,45,0,0
179756,-533.66205,6,1,0,45,0,0
179977,-537.9637,6,1,0,45,0,0
181300,-571.428571428571,6,1,0,45,0,0
181962,-588.235294117647,6,1,0,45,0,0
182403,-590.1862,6,1,0,45,0,0
182624,-595.45184,6,1,0,45,0,0
183947,-645.161290322581,6,1,0,45,0,0
184609,-666.666666666667,6,1,0,45,0,0
185050,-660.10266,6,1,0,45,0,0
185270,-666.6666,6,1,0,45,0,0
185791,333.796940194715,4,1,0,45,1,8
185791,-200,4,1,0,45,0,8
186458,285.130447179585,4,1,0,55,1,8
186458,-161.290322580645,4,1,0,55,0,8
187028,226.628895184136,4,1,0,63,1,8
187028,-160.84682,4,1,0,63,0,8
187481,189.615396770218,4,1,0,70,1,8
187481,-163.934426229508,4,1,0,70,0,8
187860,235.294117647059,4,1,0,76,1,8
187860,-119.047619047619,4,1,0,76,0,8
188095,201.342281879195,4,1,0,79,1,8
188095,-129.87012987013,4,1,0,79,0,8
188296,175.054704595186,4,1,0,82,1,8
188296,-142.857142857143,4,1,0,82,0,8
188471,212.765957446809,4,1,0,85,1,8
188471,-112.359550561798,4,1,0,85,0,8
188577,172.413793103448,4,1,0,87,1,8
188577,-135.135135135135,4,1,0,87,0,8
188663,147.058823529412,4,1,0,88,1,8
188663,-153.846153846154,4,1,0,88,0,8
188736,140.18691588785,4,1,0,89,1,8
188736,-158.730158730159,4,1,0,89,0,8
188806,220.588235294118,6,1,0,90,1,1
193438,-100,6,1,0,90,0,0
193658,-111.111111111111,6,1,0,90,0,0
193879,-125,6,1,0,90,0,0
194100,-100,6,1,0,90,0,1
196746,-99.98112,6,1,0,90,0,1
196801,-99.009900990099,6,1,0,90,0,1
196856,-98.0392156862745,6,1,0,90,0,1
196911,-97.0873786407767,6,1,0,90,0,1
196966,-96.1538461538461,6,1,0,90,0,1
197021,-95.2380952380952,6,1,0,90,0,1
197077,-94.3396226415094,6,1,0,90,0,1
197132,-93.4579439252336,6,1,0,90,0,1
197187,-92.5925925925926,6,1,0,90,0,1
197242,-91.743119266055,6,1,0,90,0,1
197297,-90.9090909090909,6,1,0,90,0,1
197352,-90.0900900900901,6,1,0,90,0,1
197407,-88.4955752212389,6,1,0,90,0,1
197463,-87.719298245614,6,1,0,90,0,1
197518,-86.9565217391304,6,1,0,90,0,1
197573,-86.2068965517241,6,1,0,90,0,1
197628,-85.4700854700855,6,1,0,90,0,1
197683,-84.7457627118644,6,1,0,90,0,1
197738,-84.0336134453782,6,1,0,90,0,1
197793,-83.3333333333333,6,1,0,90,0,1
197849,-82.6446280991736,6,1,0,90,0,1
197904,-81.9672131147541,6,1,0,90,0,1
197959,-81.3008130081301,6,1,0,90,0,1
198014,-80.6451612903226,6,1,0,90,0,1
198069,-80,6,1,0,90,0,1
198124,-79.3650793650794,6,1,0,90,0,1
198180,-78.740157480315,6,1,0,90,0,1
198235,-78.125,6,1,0,90,0,1
198290,-77.5193798449612,6,1,0,90,0,1
198345,-76.9230769230769,6,1,0,90,0,1
198400,-76.3358778625954,6,1,0,90,0,1
198455,-75.7575757575758,6,1,0,90,0,1
198510,-75.187969924812,6,1,0,90,0,1
198566,-74.6268656716418,6,1,0,90,0,1
198621,-74.0740740740741,6,1,0,90,0,1
198676,-73.5294117647059,6,1,0,90,0,1
198731,-72.463768115942,6,1,0,90,0,1
198786,-71.9424460431655,6,1,0,90,0,1
198841,-71.4285714285714,6,1,0,90,0,1
198896,-70.9219858156028,6,1,0,90,0,1
198952,-70.4225352112676,6,1,0,90,0,1
199007,-69.9300699300699,6,1,0,90,0,1
199062,-69.4444444444444,6,1,0,90,0,1
199117,-68.9655172413793,6,1,0,90,0,1
199172,-68.4931506849315,6,1,0,90,0,1
199227,-68.0272108843538,6,1,0,90,0,1
199282,-67.5675675675676,6,1,0,90,0,1
199338,-67.1140939597315,6,1,0,90,0,1
199393,-66.6666666666667,6,1,0,90,0,1
199449,-33.3333333333333,6,1,0,90,0,0
199503,-100,6,1,0,90,0,0
199531,-100.2148,6,1,0,90,0,0
199558,-100.422806,6,1,0,89,0,0
199586,-100.63945,6,1,0,89,0,0
199613,-100.84922,6,1,0,89,0,0
199641,-101.067696,6,1,0,89,0,0
199668,-101.27926,6,1,0,88,0,0
199696,-101.4996,6,1,0,88,0,0
199723,-101.71298,6,1,0,88,0,0
199751,-101.93523,6,1,0,88,0,0
199778,-102.150444,6,1,0,87,0,0
199806,-102.374596,6,1,0,87,0,0
199834,-102.59973,6,1,0,87,0,0
199862,-102.82587,6,1,0,86,0,0
199889,-103.044876,6,1,0,86,0,0
199917,-103.272964,6,1,0,86,0,0
199944,-103.49388,6,1,0,86,0,0
199972,-103.72397,6,1,0,85,0,0
199999,-103.946815,6,1,0,85,0,0
200027,-104.17894,6,1,0,85,0,0
200055,-104.412094,6,1,0,84,0,0
200083,-104.646286,6,1,0,84,0,0
200110,-104.87312,6,1,0,84,0,0
200138,-105.10939,6,1,0,84,0,0
200165,-105.33825,6,1,0,83,0,0
200193,-105.57663,6,1,0,83,0,0
200220,-105.80751,6,1,0,83,0,0
200248,-106.04802,6,1,0,83,0,0
200275,-106.280975,6,1,0,82,0,0
200303,-106.52365,6,1,0,82,0,0
200330,-106.758705,6,1,0,82,0,0
200358,-107.00356,6,1,0,81,0,0
200385,-107.240746,6,1,0,81,0,0
200413,-107.487816,6,1,0,81,0,0
200440,-107.72715,6,1,0,81,0,0
200468,-107.97647,6,1,0,80,0,0
200496,-108.22696,6,1,0,80,0,0
200524,-108.4786,6,1,0,80,0,0
200551,-108.722374,6,1,0,80,0,0
200579,-108.97633,6,1,0,79,0,0
200606,-109.22235,6,1,0,79,0,0
200634,-109.47865,6,1,0,79,0,0
200661,-109.726944,6,1,0,78,0,0
200689,-109.98563,6,1,0,78,0,0
200716,-110.23622,6,1,0,78,0,0
200744,-110.497314,6,1,0,78,0,0
200771,-110.750244,6,1,0,77,0,0
200799,-111.01379,6,1,0,77,0,0
200826,-111.26909,6,1,0,77,0,0
200854,-111.5351,6,1,0,76,0,0
200881,-111.79282,6,1,0,76,0,0
200909,-112.06135,6,1,0,76,0,0
200937,-112.33116,6,1,0,76,0,0
200965,-112.60228,6,1,0,75,0,0
200992,-112.86496,6,1,0,75,0,0
201020,-113.138664,6,1,0,75,0,0
201047,-113.403854,6,1,0,75,0,0
201075,-113.68018,6,1,0,74,0,0
201102,-113.94792,6,1,0,74,0,0
201130,-114.226906,6,1,0,74,0,0
201157,-114.49723,6,1,0,73,0,0
201185,-114.778915,6,1,0,73,0,0
201212,-115.051865,6,1,0,73,0,0
201240,-115.33629,6,1,0,73,0,0
201267,-115.6119,6,1,0,72,0,0
201295,-115.8991,6,1,0,72,0,0
201322,-116.17741,6,1,0,72,0,0
201350,-116.46744,6,1,0,72,0,0
201378,-116.75891,6,1,0,71,0,0
201406,-117.05186,6,1,0,71,0,0
201433,-117.335724,6,1,0,71,0,0
201461,-117.63158,6,1,0,70,0,0
201488,-117.918274,6,1,0,70,0,0
201516,-118.217064,6,1,0,70,0,0
201543,-118.50663,6,1,0,70,0,0
201571,-118.80842,6,1,0,69,0,0
201599,-119.11175,6,1,0,69,0,0
201627,-119.416626,6,1,0,69,0,0
201654,-119.712105,6,1,0,68,0,0
201682,-120.02007,6,1,0,68,0,0
201709,-120.31855,6,1,0,68,0,0
201737,-120.62964,6,1,0,68,0,0
201764,-120.93116,6,1,0,67,0,0
201792,-121.24544,6,1,0,67,0,0
201819,-121.55004,6,1,0,67,0,0
201847,-121.86756,6,1,0,67,0,0
201874,-122.1753,6,1,0,66,0,0
201902,-122.496086,6,1,0,66,0,0
201929,-122.807014,6,1,0,66,0,0
201957,-123.13114,6,1,0,65,0,0
201984,-123.445305,6,1,0,65,0,0
202012,-123.77281,6,1,0,65,0,0
202040,-124.10204,6,1,0,65,0,0
202068,-124.43305,6,1,0,64,0,0
202095,-124.75391,6,1,0,64,0,0
202123,-125.088394,6,1,0,64,0,0
202150,-125.41264,6,1,0,64,0,0
202178,-125.75067,6,1,0,63,0,0
202205,-126.07837,6,1,0,63,0,0
202233,-126.42001,6,1,0,63,0,0
202260,-126.75121,6,1,0,62,0,0
202288,-127.09651,6,1,0,62,0,0
202315,-127.43127,6,1,0,62,0,0
202343,-127.78029,6,1,0,62,0,0
202370,-128.11865,6,1,0,61,0,0
202398,-128.47147,6,1,0,61,0,0
202425,-128.8135,6,1,0,61,0,0
202453,-129.17017,6,1,0,60,0,0
202481,-129.52878,6,1,0,60,0,0
202509,-129.8894,6,1,0,60,0,0
202536,-130.23904,6,1,0,60,0,0
202564,-130.60365,6,1,0,59,0,0
202591,-130.95717,6,1,0,59,0,0
202619,-131.32579,6,1,0,59,0,0
202646,-131.68323,6,1,0,59,0,0
202674,-132.05595,6,1,0,58,0,0
202702,-132.43082,6,1,0,58,0,0
202730,-132.8078,6,1,0,58,0,0
202757,-133.17336,6,1,0,57,0,0
202785,-133.55458,6,1,0,57,0,0
202812,-133.92427,6,1,0,57,0,0
202840,-134.30983,6,1,0,57,0,0
202867,-134.68372,6,1,0,56,0,0
202895,-135.07365,6,1,0,56,0,0
202922,-135.45181,6,1,0,56,0,0
202950,-135.84622,6,1,0,55,0,0
202977,-136.22871,6,1,0,55,0,0
203005,-136.62769,6,1,0,55,0,0
203032,-137.0146,6,1,0,55,0,0
203060,-137.41818,6,1,0,54,0,0
203087,-137.8096,6,1,0,54,0,0
203115,-138.21786,6,1,0,54,0,0
203143,-138.62857,6,1,0,54,0,0
203171,-139.04173,6,1,0,53,0,0
203198,-139.44247,6,1,0,53,0,0
203226,-139.86049,6,1,0,53,0,0
203253,-140.26596,6,1,0,52,0,0
203281,-140.68895,6,1,0,52,0,0
203308,-141.09926,6,1,0,52,0,0
203336,-141.52728,6,1,0,52,0,0
203363,-141.9425,6,1,0,51,0,0
203391,-142.37566,6,1,0,51,0,0
203418,-142.79588,6,1,0,51,0,0
203446,-143.2343,6,1,0,51,0,0
203473,-143.65959,6,1,0,50,0,0
203501,-144.10333,6,1,0,50,0,0
203528,-144.53381,6,1,0,50,0,0
203556,-144.98297,6,1,0,49,0,0
203584,-145.43492,6,1,0,49,0,0
203612,-145.88972,6,1,0,49,0,0
203639,-146.33096,6,1,0,49,0,0
203667,-146.79137,6,1,0,48,0,0
203694,-147.2381,6,1,0,48,0,0
203722,-147.70425,6,1,0,48,0,0
203749,-148.15656,6,1,0,48,0,0
203777,-148.62856,6,1,0,47,0,0
203805,-149.10356,6,1,0,47,0,0
203833,-149.58162,6,1,0,47,0,0
203860,-150.04552,6,1,0,46,0,0
203888,-150.52963,6,1,0,46,0,0
203915,-150.99945,6,1,0,46,0,0
203943,-151.48975,6,1,0,46,0,0
203970,-151.96556,6,1,0,45,0,0
203998,-152.46219,6,1,0,45,0,0
204025,-152.94415,6,1,0,45,0,0
204053,-153.44719,6,1,0,44,0,0
204080,-153.93541,6,1,0,44,0,0
204108,-154.445,6,1,0,44,0,0
204135,-154.93959,6,1,0,44,0,0
204163,-155.45589,6,1,0,43,0,0
204190,-155.95699,6,1,0,43,0,0
204218,-156.48009,6,1,0,43,0,0
204246,-157.00668,6,1,0,43,0,0
204274,-157.53687,6,1,0,42,0,0
204301,-158.05148,6,1,0,42,0,0
204329,-158.58876,6,1,0,42,0,0
204356,-159.1103,6,1,0,41,0,0
204384,-159.65479,6,1,0,41,0,0
204411,-160.18338,6,1,0,41,0,0
204439,-160.73524,6,1,0,41,0,0
204466,-161.27104,6,1,0,40,0,0
204494,-161.83044,6,1,0,40,0,0
204521,-162.37357,6,1,0,40,0,0
204549,-162.94064,6,1,0,39,0,0
204576,-163.49126,6,1,0,39,0,0
204604,-164.0662,6,1,0,39,0,0
204631,-164.62445,6,1,0,39,0,0
204659,-165.20743,6,1,0,38,0,0
204687,-165.79451,6,1,0,38,0,0
204715,-166.3858,6,1,0,38,0,0
204742,-166.95996,6,1,0,38,0,0
204770,-167.55965,6,1,0,37,0,0
204797,-168.14195,6,1,0,37,0,0
204825,-168.75014,6,1,0,37,0,0
204852,-169.34077,6,1,0,36,0,0
204880,-169.95766,6,1,0,36,0,0
204907,-170.55681,6,1,0,36,0,0
204935,-171.18262,6,1,0,36,0,0
204962,-171.79047,6,1,0,35,0,0
204990,-172.42535,6,1,0,35,0,0
205017,-173.04205,6,1,0,35,0,0
205045,-173.68625,6,1,0,35,0,0
205072,-174.31201,6,1,0,34,0,0
205100,-174.96576,6,1,0,34,0,0
205128,-175.62439,6,1,0,34,0,0
205156,-176.288,6,1,0,33,0,0
205183,-176.9327,6,1,0,33,0,0
205211,-177.60628,6,1,0,33,0,0
205238,-178.26064,6,1,0,33,0,0
205266,-178.9444,6,1,0,32,0,0
205293,-179.60867,6,1,0,32,0,0
205321,-180.30281,6,1,0,32,0,0
205349,-181.00232,6,1,0,31,0,0
205377,-181.7073,6,1,0,31,0,0
205404,-182.3923,6,1,0,31,0,0
205432,-183.10817,6,1,0,31,0,0
205459,-183.8038,6,1,0,30,0,0
205487,-184.5308,6,1,0,30,0,0
205514,-185.23732,6,1,0,30,0,0
205542,-185.97572,6,1,0,30,0,0
205569,-186.69336,6,1,0,29,0,0
205597,-187.44344,6,1,0,29,0,0
205624,-188.17247,6,1,0,29,0,0
205652,-188.93451,6,1,0,28,0,0
205679,-189.6752,6,1,0,28,0,0
205707,-190.44952,6,1,0,28,0,0
205734,-191.20215,6,1,0,28,0,0
205762,-191.98898,6,1,0,27,0,0
205790,-192.7823,6,1,0,27,0,0
205818,-193.58224,6,1,0,27,0,0
205845,-194.3599,6,1,0,27,0,0
205873,-195.17299,6,1,0,26,0,0
205900,-195.96349,6,1,0,26,0,0
205928,-196.7901,6,1,0,26,0,0
205955,-197.59381,6,1,0,25,0,0
205983,-198.43423,6,1,0,25,0,0
206010,-199.25146,6,1,0,25,0,0
206038,-200.10606,6,1,0,25,0,0
206065,-200.93713,6,1,0,24,0,0
206093,-201.8063,6,1,0,24,0,0
206120,-202.6516,6,1,0,24,0,0
206148,-203.53569,6,1,0,23,0,0
206175,-204.39557,6,1,0,23,0,0
206203,-205.29498,6,1,0,23,0,0
206231,-206.20236,6,1,0,23,0,0
206259,-207.11777,6,1,0,22,0,0
206286,-208.00824,6,1,0,22,0,0
206314,-208.9398,6,1,0,22,0,0
206341,-209.84604,6,1,0,22,0,0
206369,-210.79419,6,1,0,21,0,0
206396,-211.71663,6,1,0,21,0,0
206424,-212.68176,6,1,0,21,0,0
206452,-213.65576,6,1,0,20,0,0
206480,-214.63873,6,1,0,20,0,0
206507,-215.5952,6,1,0,20,0,0
206535,-216.5961,6,1,0,20,0,0
206562,-217.57011,6,1,0,19,0,0
206590,-218.58952,6,1,0,19,0,0
206617,-219.58159,6,1,0,19,0,0
206645,-220.61998,6,1,0,19,0,0
206672,-221.63062,6,1,0,18,0,0
206700,-222.68848,6,1,0,18,0,0
206727,-223.7182,6,1,0,18,0,0
206755,-224.79617,6,1,0,17,0,0
206782,-225.8455,6,1,0,17,0,0
206810,-226.94414,6,1,0,17,0,0
206837,-228.01367,6,1,0,17,0,0
206865,-229.1335,6,1,0,16,0,0
206893,-230.26443,6,1,0,16,0,0
206921,-231.40654,6,1,0,16,0,0
206948,-232.51865,6,1,0,15,0,0
206976,-233.68332,6,1,0,15,0,0
207003,-234.8175,6,1,0,15,0,0
207031,-236.00537,6,1,0,15,0,0
207058,-237.16223,6,1,0,14,0,0
207086,-238.37398,6,1,0,14,0,0
207113,-239.55424,6,1,0,14,0,0
207141,-240.79065,6,1,0,14,0,0
207168,-241.99504,6,1,0,13,0,0
207196,-243.25682,6,1,0,13,0,0
207223,-244.48607,6,1,0,13,0,0
207251,-245.77402,6,1,0,12,0,0
207278,-247.02888,6,1,0,12,0,0
207306,-248.34386,6,1,0,12,0,0
207334,-249.67291,6,1,0,12,0,0
207362,-251.01624,6,1,0,11,0,0
207389,-252.32535,6,1,0,11,0,0
207417,-253.69748,6,1,0,11,0,0
207444,-255.03479,6,1,0,11,0,0
207472,-256.4366,6,1,0,10,0,0
207499,-257.80307,6,1,0,10,0,0
207527,-259.23553,6,1,0,10,0,0
207555,-260.68405,6,1,0,9,0,0
207583,-262.14886,6,1,0,9,0,0
207610,-263.57703,6,1,0,9,0,0
207638,-265.07455,6,1,0,9,0,0
207665,-266.53485,6,1,0,8,0,0
207693,-268.06635,6,1,0,8,0,0
207720,-269.55988,6,1,0,8,0,0
207748,-271.12637,6,1,0,7,0,0
207775,-272.65433,6,1,0,7,0,0
207803,-274.2571,6,1,0,7,0,0
207830,-275.82065,6,1,0,7,0,0
207858,-277.46103,6,1,0,6,0,0
207885,-279.0614,6,1,0,6,0,0
207913,-280.74063,6,1,0,6,0,0
207940,-282.37915,6,1,0,6,0,0
207968,-284.09872,6,1,0,5,0,0
207995,-285.77682,6,1,0,5,0,0

[Colours]
Combo1 : 255,192,0
Combo2 : 0,202,0
Combo3 : 18,124,255
Combo4 : 242,24,57

[HitObjects]
256,192,11894,5,0,1:0:0:0:
256,192,12335,1,0,0:0:0:0:
256,192,12556,1,8,1:1:0:0:
256,192,12997,1,8,0:0:0:0:
256,192,13218,1,0,1:0:0:0:
256,192,13880,1,8,1:1:0:0:
256,192,14321,1,8,1:1:0:0:
256,192,14541,1,0,1:0:0:0:
256,192,14983,1,0,0:0:0:0:
256,192,15203,1,8,1:1:0:0:
256,192,15423,1,0,1:0:0:0:
256,192,15534,1,0,1:0:0:0:
256,192,15644,1,8,1:1:0:0:
256,192,15681,1,8,1:1:0:0:
256,192,15718,1,0,1:0:0:0:
256,192,15754,1,0,1:0:0:0:
256,192,15865,1,0,1:0:0:0:
256,192,16306,1,0,0:0:0:0:
256,192,16526,1,8,1:1:0:0:
256,192,16747,1,0,1:0:0:0:
256,192,16968,1,0,1:1:0:0:
256,192,17188,1,8,1:0:0:0:
256,192,17850,1,8,1:1:0:0:
256,192,18291,1,8,1:1:0:0:
256,192,18512,1,0,1:0:0:0:
256,192,19174,1,8,1:1:0:0:
256,192,19615,1,8,0:0:0:0:
256,192,19835,1,0,1:0:0:0:
256,192,20277,1,0,1:0:0:0:
256,192,20497,1,8,1:1:0:0:
256,192,20718,1,8,1:1:0:0:
256,192,20938,1,8,1:1:0:0:
256,192,21159,1,0,1:0:0:0:
256,192,21600,1,0,1:0:0:0:
256,192,21821,1,8,1:1:0:0:
256,192,22262,1,8,1:1:0:0:
256,192,22482,1,0,1:0:0:0:
256,192,22924,1,0,0:0:0:0:
256,192,23144,1,8,1:1:0:0:
256,192,23585,1,0,0:0:0:0:
256,192,23806,1,8,1:1:0:0:
256,192,24247,1,8,0:0:0:0:
256,192,24468,1,0,0:0:0:0:
256,192,24909,1,8,1:1:0:0:
256,192,25129,1,0,1:0:0:0:
256,192,25350,1,0,1:0:0:0:
256,192,25570,1,8,1:1:0:0:
256,192,25791,1,8,1:1:0:0:
256,192,26011,1,0,1:0:0:0:
256,192,26122,1,0,1:0:0:0:
256,192,26232,1,8,1:1:0:0:
256,192,26269,1,8,1:1:0:0:
256,192,26306,1,0,1:0:0:0:
256,192,26342,1,0,1:0:0:0:
256,192,26453,1,0,1:0:0:0:
256,192,27115,1,0,0:0:0:0:
256,192,27556,1,0,1:0:0:0:
256,192,27776,1,8,1:1:0:0:
256,192,28218,1,0,1:0:0:0:
256,192,28438,1,8,1:1:0:0:
256,192,28659,1,8,1:1:0:0:
256,192,28879,1,8,1:1:0:0:
256,192,29100,1,0,1:0:0:0:
256,192,30424,8,0,31692,1:0:0:0:
256,192,31747,5,4,1:1:0:0:
256,192,31858,1,0,1:0:0:0:
256,192,31968,1,8,1:1:0:0:
256,192,32078,1,0,1:0:0:0:
256,192,32188,1,8,1:1:0:0:
256,192,32299,1,8,1:1:0:0:
256,192,32409,1,8,1:1:0:0:
256,192,32519,1,0,1:0:0:0:
256,192,32630,1,8,1:1:0:0:
256,192,32666,1,8,1:1:0:0:
256,192,32703,1,8,1:1:0:0:
256,192,32740,1,0,1:0:0:0:
256,192,32850,1,8,1:1:0:0:
256,192,32960,1,8,1:1:0:0:
256,192,33071,1,4,1:1:0:0:
256,192,33291,1,0,1:0:0:0:
256,192,33402,1,0,1:0:0:0:
256,192,33512,1,8,1:1:0:0:
256,192,33622,1,0,1:0:0:0:
256,192,33733,1,8,1:1:0:0:
256,192,33788,1,8,1:1:0:0:
256,192,33843,1,0,1:0:0:0:
256,192,33898,1,8,1:1:0:0:
256,192,33953,1,0,1:0:0:0:
256,192,34063,1,0,1:0:0:0:
256,192,34174,1,8,1:1:0:0:
256,192,34284,1,8,1:1:0:0:
256,192,34394,1,4,1:1:0:0:
256,192,34505,1,0,1:0:0:0:
256,192,34560,1,0,1:0:0:0:
256,192,34615,1,8,1:1:0:0:
256,192,34670,1,0,1:0:0:0:
256,192,34725,1,8,1:1:0:0:
256,192,34780,1,8,1:1:0:0:
256,192,34835,1,0,1:0:0:0:
256,192,34946,1,0,1:0:0:0:
256,192,35056,1,8,1:1:0:0:
256,192,35166,1,0,1:0:0:0:
256,192,35277,1,8,1:1:0:0:
256,192,35332,1,8,1:1:0:0:
256,192,35387,1,0,1:0:0:0:
256,192,35497,1,8,1:1:0:0:
256,192,35608,1,8,1:1:0:0:
256,192,35718,1,4,1:1:0:0:
256,192,35938,1,0,1:0:0:0:
256,192,36049,1,0,1:0:0:0:
256,192,36159,1,8,1:1:0:0:
256,192,36269,1,0,1:0:0:0:
256,192,36380,1,8,1:1:0:0:
256,192,36435,1,0,1:0:0:0:
256,192,36490,1,0,1:0:0:0:
256,192,36545,1,0,1:0:0:0:
256,192,36600,1,8,1:1:0:0:
256,192,36710,8,8,36986,1:1:0:0:
256,192,37041,5,12,1:1:0:0:
256,192,37152,1,0,1:0:0:0:
256,192,37207,1,0,1:0:0:0:
256,192,37262,1,8,1:1:0:0:
256,192,37317,1,0,1:0:0:0:
256,192,37372,1,8,1:1:0:0:
256,192,37427,1,8,1:1:0:0:
256,192,37483,1,0,1:0:0:0:
256,192,37538,1,0,1:0:0:0:
256,192,37593,1,8,1:1:0:0:
256,192,37648,1,0,1:0:0:0:
256,192,37703,1,8,1:1:0:0:
256,192,37813,1,0,1:0:0:0:
256,192,37924,1,8,1:1:0:0:
256,192,37979,1,8,1:1:0:0:
256,192,38034,1,8,1:1:0:0:
256,192,38144,1,0,1:0:0:0:
256,192,38255,1,0,1:0:0:0:
256,192,38365,1,12,1:1:0:0:
256,192,38585,1,8,1:1:0:0:
256,192,38696,1,0,1:0:0:0:
256,192,38806,1,8,1:1:0:0:
256,192,38916,1,0,1:0:0:0:
256,192,39027,1,8,1:1:0:0:
256,192,39082,1,8,1:1:0:0:
256,192,39137,1,0,1:0:0:0:
256,192,39192,1,0,1:0:0:0:
256,192,39247,1,8,1:1:0:0:
256,192,39302,1,0,1:0:0:0:
256,192,39358,1,8,1:1:0:0:
256,192,39468,1,8,1:1:0:0:
256,192,39523,1,0,1:0:0:0:
256,192,39578,1,0,1:0:0:0:
256,192,39633,1,0,1:0:0:0:
256,192,39688,1,12,1:1:0:0:
256,192,39799,1,0,1:0:0:0:
256,192,39909,1,0,1:0:0:0:
256,192,40019,1,0,1:0:0:0:
256,192,40130,1,8,1:1:0:0:
256,192,40240,1,0,1:0:0:0:
256,192,40350,1,8,1:1:0:0:
256,192,40460,1,8,1:1:0:0:
256,192,40571,1,0,1:0:0:0:
256,192,40681,1,0,1:0:0:0:
256,192,40791,1,8,1:1:0:0:
256,192,40902,1,0,1:0:0:0:
256,192,41012,1,12,1:1:0:0:
256,192,41343,1,0,1:0:0:0:
256,192,41563,1,0,1:0:0:0:
256,192,41674,2,0,L|354:192,10,81.25
256,192,42335,1,4,1:1:0:0:
256,192,42446,1,0,1:0:0:0:
256,192,42501,1,8,1:1:0:0:
256,192,42556,1,0,1:0:0:0:
256,192,42611,1,0,1:0:0:0:
256,192,42666,1,8,1:1:0:0:
256,192,42721,1,8,1:1:0:0:
256,192,42777,1,0,1:0:0:0:
256,192,42887,1,0,1:0:0:0:
256,192,42997,1,8,1:1:0:0:
256,192,43108,1,8,1:1:0:0:
256,192,43218,1,0,1:0:0:0:
256,192,43328,1,0,1:0:0:0:
256,192,43438,1,8,1:1:0:0:
256,192,43549,1,8,1:1:0:0:
256,192,43659,1,4,1:1:0:0:
256,192,43769,1,8,1:1:0:0:
256,192,43880,1,0,1:0:0:0:
256,192,43990,1,8,1:1:0:0:
256,192,44045,1,8,1:1:0:0:
256,192,44100,1,0,1:0:0:0:
256,192,44155,1,0,1:0:0:0:
256,192,44210,1,8,1:1:0:0:
256,192,44321,1,4,1:1:0:0:
256,192,44541,1,12,1:1:0:0:
256,192,44762,1,4,1:1:0:0:
256,192,44983,1,0,1:0:0:0:
256,192,45093,1,0,1:0:0:0:
256,192,45203,1,8,1:1:0:0:
256,192,45313,1,0,1:0:0:0:
256,192,45369,1,0,1:0:0:0:
256,192,45424,1,8,1:1:0:0:
256,192,45479,1,8,1:1:0:0:
256,192,45534,1,0,1:0:0:0:
256,192,45589,1,0,1:0:0:0:
256,192,45644,1,12,1:1:0:0:
256,192,45865,1,4,1:1:0:0:
256,192,46085,1,12,1:1:0:0:
256,192,46306,1,0,1:0:0:0:
256,192,46416,1,0,1:0:0:0:
256,192,46527,1,8,1:1:0:0:
256,192,46637,1,8,1:1:0:0:
256,192,46747,1,0,1:0:0:0:
256,192,46858,1,8,1:1:0:0:
256,192,46968,1,0,1:0:0:0:
256,192,47078,1,8,1:1:0:0:
256,192,47133,1,0,1:0:0:0:
256,192,47188,1,8,1:1:0:0:
256,192,47244,1,8,1:1:0:0:
256,192,47299,1,0,1:0:0:0:
256,192,47409,1,0,1:0:0:0:
256,192,47519,1,0,1:0:0:0:
256,192,47630,1,8,1:1:0:0:
256,192,47685,1,0,1:0:0:0:
256,192,47740,1,0,1:0:0:0:
256,192,47795,1,0,1:0:0:0:
256,192,47850,1,8,1:1:0:0:
256,192,47905,1,8,1:1:0:0:
256,192,47960,1,0,1:0:0:0:
256,192,48016,1,8,1:1:0:0:
256,192,48071,1,0,1:0:0:0:
256,192,48126,1,0,1:0:0:0:
256,192,48181,1,8,1:1:0:0:
256,192,48236,1,0,1:0:0:0:
256,192,48291,1,8,1:1:0:0:
256,192,48402,1,8,1:1:0:0:
256,192,48512,1,0,1:0:0:0:
256,192,48622,1,8,1:1:0:0:
256,192,48733,1,0,1:0:0:0:
256,192,48843,1,8,1:1:0:0:
256,192,48953,1,4,1:1:0:0:
256,192,49063,1,0,1:0:0:0:
256,192,49119,1,8,1:1:0:0:
256,192,49174,1,8,1:1:0:0:
256,192,49284,1,0,1:0:0:0:
256,192,49339,1,0,1:0:0:0:
256,192,49394,1,8,1:1:0:0:
256,192,49505,1,0,1:0:0:0:
256,192,49615,1,8,1:1:0:0:
256,192,49670,1,0,1:0:0:0:
256,192,49725,1,8,1:1:0:0:
256,192,49780,1,8,1:1:0:0:
256,192,49835,1,8,1:1:0:0:
256,192,49946,1,8,1:1:0:0:
256,192,50056,1,8,1:1:0:0:
256,192,50166,1,8,1:1:0:0:
256,192,50277,1,0,1:0:0:0:
256,192,50332,1,0,1:0:0:0:
256,192,50387,1,8,1:1:0:0:
256,192,50442,1,0,1:0:0:0:
256,192,50497,1,8,1:1:0:0:
256,192,50552,1,8,1:1:0:0:
256,192,50608,1,0,1:0:0:0:
256,192,50663,1,8,1:1:0:0:
256,192,50718,1,0,1:0:0:0:
256,192,50773,1,0,1:0:0:0:
256,192,50828,1,8,1:1:0:0:
256,192,50883,1,0,1:0:0:0:
256,192,50938,1,8,1:1:0:0:
256,192,51049,1,0,1:0:0:0:
256,192,51159,1,8,1:1:0:0:
256,192,51269,1,8,1:1:0:0:
256,192,51380,1,0,1:0:0:0:
256,192,51435,1,0,1:0:0:0:
256,192,51490,1,8,1:1:0:0:
256,192,51545,1,0,1:0:0:0:
256,192,51600,1,8,1:1:0:0:
256,192,51655,1,8,1:1:0:0:
256,192,51710,1,8,1:1:0:0:
256,192,51766,1,8,1:1:0:0:
256,192,51821,1,0,1:0:0:0:
256,192,51876,1,8,0:0:0:0:
256,192,51931,1,0,1:0:0:0:
256,192,52041,1,8,1:1:0:0:
256,192,52152,1,4,1:1:0:0:
256,192,52262,1,8,1:1:0:0:
256,192,52335,1,0,1:0:0:0:
256,192,52409,1,0,1:0:0:0:
256,192,52483,1,8,1:1:0:0:
256,192,52593,1,4,1:1:0:0:
256,192,52703,1,8,1:1:0:0:
256,192,52813,1,0,1:0:0:0:
256,192,52924,1,8,1:1:0:0:
256,192,53034,1,0,1:0:0:0:
256,192,53144,1,8,1:1:0:0:
256,192,53199,1,0,1:0:0:0:
256,192,53255,1,8,1:1:0:0:
256,192,53310,1,8,1:1:0:0:
256,192,53365,1,0,1:0:0:0:
256,192,53420,1,0,1:0:0:0:
256,192,53475,1,8,1:1:0:0:
256,192,53530,1,0,1:0:0:0:
256,192,53585,1,8,1:1:0:0:
256,192,53696,1,0,1:0:0:0:
256,192,53806,1,8,1:1:0:0:
256,192,53916,1,8,1:1:0:0:
256,192,53971,1,0,1:0:0:0:
256,192,54027,1,8,1:1:0:0:
256,192,54063,1,8,1:1:0:0:
256,192,54100,1,0,1:0:0:0:
256,192,54137,1,0,1:0:0:0:
256,192,54247,1,4,1:1:0:0:
256,192,54468,1,8,1:1:0:0:
256,192,54578,1,8,1:1:0:0:
256,192,54688,1,0,1:0:0:0:
256,192,54799,1,8,1:1:0:0:
256,192,54909,1,0,1:0:0:0:
256,192,54964,1,0,1:0:0:0:
256,192,55019,1,0,1:0:0:0:
256,192,55130,1,0,1:0:0:0:
256,192,55185,1,0,1:0:0:0:
256,192,55240,1,8,1:1:0:0:
256,192,55295,1,8,1:1:0:0:
256,192,55350,1,0,1:0:0:0:
256,192,55460,1,8,1:1:0:0:
256,192,55571,1,4,1:1:0:0:
256,192,55681,1,0,1:0:0:0:
256,192,55736,1,0,1:0:0:0:
256,192,55791,1,8,1:1:0:0:
256,192,55846,1,0,1:0:0:0:
256,192,55902,1,8,1:1:0:0:
256,192,55957,1,8,1:1:0:0:
256,192,56012,1,0,1:0:0:0:
256,192,56122,1,0,1:0:0:0:
256,192,56233,1,8,1:1:0:0:
256,192,56288,1,8,1:1:0:0:
256,192,56343,1,8,1:1:0:0:
256,192,56398,1,8,1:1:0:0:
256,192,56453,1,0,1:0:0:0:
256,192,56508,1,0,1:0:0:0:
256,192,56563,1,0,1:0:0:0:
256,192,56619,1,0,1:0:0:0:
256,192,56674,1,8,1:1:0:0:
256,192,56729,1,0,1:0:0:0:
256,192,56784,1,8,1:1:0:0:
256,192,56839,1,8,1:1:0:0:
256,192,56894,1,0,1:0:0:0:
256,192,57115,1,0,1:0:0:0:
256,192,57225,1,0,1:0:0:0:
256,192,57280,1,0,1:0:0:0:
256,192,57335,1,8,1:1:0:0:
256,192,57391,1,8,1:1:0:0:
256,192,57446,1,8,1:1:0:0:
256,192,57501,1,8,1:1:0:0:
256,192,57556,1,0,1:0:0:0:
256,192,57611,1,0,1:0:0:0:
256,192,57666,1,8,1:1:0:0:
256,192,57721,1,8,1:1:0:0:
256,192,57777,1,4,1:1:0:0:
256,192,57887,8,0,58163,1:0:0:0:
256,192,58218,5,4,1:1:0:0:
256,192,58328,1,0,1:0:0:0:
256,192,58383,1,8,1:1:0:0:
256,192,58438,1,0,1:0:0:0:
256,192,58494,1,0,1:0:0:0:
256,192,58549,1,8,1:1:0:0:
256,192,58604,1,0,1:0:0:0:
256,192,58659,1,8,1:1:0:0:
256,192,58769,1,0,1:0:0:0:
256,192,58824,1,8,1:1:0:0:
256,192,58880,1,8,1:1:0:0:
256,192,58990,1,8,1:1:0:0:
256,192,59100,1,0,1:0:0:0:
256,192,59210,1,0,1:0:0:0:
256,192,59321,1,8,1:1:0:0:
256,192,59431,1,8,1:1:0:0:
256,192,59541,1,4,1:1:0:0:
256,192,59652,1,8,1:1:0:0:
256,192,59707,1,8,1:1:0:0:
256,192,59762,1,0,1:0:0:0:
256,192,59817,1,8,1:1:0:0:
256,192,59872,1,8,1:1:0:0:
256,192,59927,1,8,1:1:0:0:
256,192,59983,1,0,1:0:0:0:
256,192,60093,1,0,1:0:0:0:
256,192,60148,1,8,1:1:0:0:
256,192,60203,1,0,1:0:0:0:
256,192,60313,1,0,1:0:0:0:
256,192,60424,1,8,1:1:0:0:
256,192,60534,1,8,1:1:0:0:
256,192,60644,1,0,1:0:0:0:
256,192,60755,1,8,1:1:0:0:
256,192,60865,1,4,1:1:0:0:
256,192,60975,1,0,1:0:0:0:
256,192,61030,1,0,1:0:0:0:
256,192,61085,1,8,1:1:0:0:
256,192,61141,1,8,1:1:0:0:
256,192,61196,1,0,1:0:0:0:
256,192,61251,1,0,1:0:0:0:
256,192,61306,1,8,1:1:0:0:
256,192,61416,1,8,1:1:0:0:
256,192,61527,1,8,1:1:0:0:
256,192,61582,1,0,1:0:0:0:
256,192,61637,1,8,1:1:0:0:
256,192,61692,1,0,1:0:0:0:
256,192,61747,1,8,1:1:0:0:
256,192,61802,1,0,1:0:0:0:
256,192,61858,1,0,1:0:0:0:
256,192,61913,1,0,1:0:0:0:
256,192,61968,1,8,1:1:0:0:
256,192,62023,1,8,1:1:0:0:
256,192,62078,1,8,1:1:0:0:
256,192,62133,1,8,1:1:0:0:
256,192,62188,1,4,1:1:0:0:
256,192,62409,1,8,1:1:0:0:
256,192,62519,1,0,1:0:0:0:
256,192,62630,1,8,1:1:0:0:
256,192,62740,1,8,1:1:0:0:
256,192,62850,1,0,1:0:0:0:
256,192,62960,1,8,1:1:0:0:
256,192,63071,1,0,1:0:0:0:
256,192,63181,1,0,1:0:0:0:
256,192,63291,1,8,1:1:0:0:
256,192,63402,1,8,1:1:0:0:
256,192,63512,1,4,1:1:0:0:
256,192,63622,1,0,1:0:0:0:
256,192,63733,1,8,1:1:0:0:
256,192,63788,1,8,1:1:0:0:
256,192,63843,1,0,1:0:0:0:
256,192,63898,1,0,1:0:0:0:
256,192,63953,1,8,1:1:0:0:
256,192,64008,1,8,1:1:0:0:
256,192,64063,1,0,1:0:0:0:
256,192,64119,1,0,1:0:0:0:
256,192,64174,1,12,1:1:0:0:
256,192,64229,8,0,64780,1:0:0:0:
256,192,64835,5,12,1:1:0:0:
256,192,64946,1,8,1:1:0:0:
256,192,65056,1,0,1:0:0:0:
256,192,65166,1,8,1:1:0:0:
256,192,65277,1,8,1:1:0:0:
256,192,65387,1,0,1:0:0:0:
256,192,65497,1,8,1:1:0:0:
256,192,65552,1,0,1:0:0:0:
256,192,65608,1,8,1:1:0:0:
256,192,65663,1,8,1:1:0:0:
256,192,65718,1,0,1:0:0:0:
256,192,65828,1,0,1:0:0:0:
256,192,65938,1,8,1:1:0:0:
256,192,66049,1,8,1:1:0:0:
256,192,66159,1,4,1:1:0:0:
256,192,66269,1,8,1:1:0:0:
256,192,66380,1,0,1:0:0:0:
256,192,66435,1,0,1:0:0:0:
256,192,66490,1,8,1:1:0:0:
256,192,66545,1,0,1:0:0:0:
256,192,66600,1,8,1:1:0:0:
256,192,66710,1,8,1:1:0:0:
256,192,66821,1,0,1:0:0:0:
256,192,66931,1,0,1:0:0:0:
256,192,67041,1,8,1:1:0:0:
256,192,67096,1,0,0:0:0:0:
256,192,67152,1,0,1:0:0:0:
256,192,67207,1,0,1:0:0:0:
256,192,67262,1,8,1:1:0:0:
256,192,67317,1,0,1:0:0:0:
256,192,67372,1,8,1:1:0:0:
256,192,67483,1,0,1:0:0:0:
256,192,67538,1,0,1:0:0:0:
256,192,67593,1,8,1:1:0:0:
256,192,67648,1,0,1:0:0:0:
256,192,67703,1,8,1:1:0:0:
256,192,67758,1,8,1:1:0:0:
256,192,67813,1,0,1:0:0:0:
256,192,67869,1,8,1:1:0:0:
256,192,67924,1,0,1:0:0:0:
256,192,67979,1,0,1:0:0:0:
256,192,68034,1,8,1:1:0:0:
256,192,68089,1,8,1:1:0:0:
256,192,68144,1,8,1:1:0:0:
256,192,68199,1,8,1:1:0:0:
256,192,68255,1,0,1:0:0:0:
256,192,68310,1,0,1:0:0:0:
256,192,68365,1,8,1:1:0:0:
256,192,68420,1,0,1:0:0:0:
256,192,68475,1,8,1:1:0:0:
256,192,68530,1,8,1:1:0:0:
256,192,68585,1,8,1:1:0:0:
256,192,68641,1,8,1:1:0:0:
256,192,68696,1,0,1:0:0:0:
256,192,68751,1,0,1:0:0:0:
256,192,68806,1,12,1:1:0:0:
256,192,70130,2,0,L|257:193,1,438.463999999999,0|0,0:0|0:0,0:0:0:0:
256,192,71233,2,4,L|257:193,1,142.618666666666,0|4,0:0|0:0,0:0:0:0:
256,192,71563,2,4,L|257:193,1,155.584,0|4,0:0|0:0,0:0:0:0:
256,192,71894,2,0,L|257:193,1,243.542,0|0,0:0|0:0,0:0:0:0:
256,192,72556,1,0,1:0:0:0:
256,192,72666,1,0,1:0:0:0:
256,192,72777,1,8,1:1:0:0:
256,192,72832,1,0,1:0:0:0:
256,192,72887,1,8,1:1:0:0:
256,192,72942,1,0,1:0:0:0:
256,192,72997,1,8,1:1:0:0:
256,192,73052,1,0,1:0:0:0:
256,192,73107,1,8,1:1:0:0:
256,192,73162,1,0,1:0:0:0:
256,192,73218,1,8,1:1:0:0:
256,192,73273,1,0,1:0:0:0:
256,192,73328,1,8,1:1:0:0:
256,192,73438,1,0,1:0:0:0:
256,192,73493,1,8,1:1:0:0:
256,192,73548,1,0,1:0:0:0:
256,192,73603,1,8,1:1:0:0:
256,192,73659,1,0,1:0:0:0:
256,192,73714,1,8,1:1:0:0:
256,192,73769,1,0,1:0:0:0:
256,192,73824,1,8,1:1:0:0:
256,192,73880,1,0,1:0:0:0:
256,192,73935,1,8,1:1:0:0:
256,192,73990,1,0,1:0:0:0:
256,192,74100,1,4,1:1:0:0:
256,192,75865,5,8,1:1:0:0:
256,192,75920,1,8,1:1:0:0:
256,192,75975,1,0,1:0:0:0:
256,192,76085,1,12,1:1:0:0:
256,192,76747,1,4,1:1:0:0:
256,192,77409,1,8,1:1:0:0:
256,192,77464,1,8,1:1:0:0:
256,192,77519,1,8,1:1:0:0:
256,192,77574,1,8,1:1:0:0:
256,192,77630,1,0,1:0:0:0:
256,192,77685,1,0,1:0:0:0:
256,192,77740,1,0,1:0:0:0:
256,192,77795,1,0,1:0:0:0:
256,192,77850,1,8,1:1:0:0:
256,192,77905,1,8,1:1:0:0:
256,192,77960,1,0,1:0:0:0:
256,192,78016,1,0,1:0:0:0:
256,192,78071,1,12,1:1:0:0:
256,192,78181,1,0,1:0:0:0:
256,192,78291,1,12,1:1:0:0:
256,192,78402,1,0,1:0:0:0:
256,192,78457,1,0,1:0:0:0:
256,192,78512,1,12,1:1:0:0:
256,192,78622,1,0,1:0:0:0:
256,192,78733,1,12,1:1:0:0:
256,192,78843,1,0,1:0:0:0:
256,192,78898,1,0,1:0:0:0:
256,192,78953,1,12,1:1:0:0:
256,192,79063,1,0,1:0:0:0:
256,192,79174,1,12,1:1:0:0:
256,192,79284,1,8,1:1:0:0:
256,192,79394,1,4,1:1:0:0:
256,192,79725,1,0,1:0:0:0:
256,192,79835,1,0,1:0:0:0:
256,192,79946,1,0,1:0:0:0:
256,192,80056,1,8,1:1:0:0:
256,192,80277,1,8,1:1:0:0:
256,192,80497,1,0,1:0:0:0:
256,192,80608,1,8,1:1:0:0:
256,192,80718,1,0,1:0:0:0:
256,192,81049,1,8,1:1:0:0:
256,192,81159,1,0,1:0:0:0:
256,192,81269,1,8,1:1:0:0:
256,192,81380,1,0,1:0:0:0:
256,192,81600,1,0,1:0:0:0:
256,192,81821,1,8,1:1:0:0:
256,192,81931,1,8,1:1:0:0:
256,192,82041,1,0,1:0:0:0:
256,192,82372,1,0,1:0:0:0:
256,192,82483,1,8,1:1:0:0:
256,192,82593,1,8,1:1:0:0:
256,192,82703,1,0,1:0:0:0:
256,192,82924,1,8,1:1:0:0:
256,192,83144,1,0,1:0:0:0:
256,192,83255,1,0,1:0:0:0:
256,192,83365,1,0,1:0:0:0:
256,192,83696,1,8,1:1:0:0:
256,192,83806,1,0,1:0:0:0:
256,192,83916,1,0,1:0:0:0:
256,192,84027,1,8,1:1:0:0:
256,192,84247,1,8,1:1:0:0:
256,192,84358,1,0,1:0:0:0:
256,192,84413,1,0,1:0:0:0:
256,192,84468,1,8,1:1:0:0:
256,192,84523,1,0,1:0:0:0:
256,192,84578,1,8,1:1:0:0:
256,192,84633,1,8,1:1:0:0:
256,192,84688,1,0,1:0:0:0:
256,192,85019,1,0,1:0:0:0:
256,192,85130,1,8,1:1:0:0:
256,192,85240,1,0,1:0:0:0:
256,192,85350,1,8,1:1:0:0:
256,192,85460,1,8,1:1:0:0:
256,192,85571,1,0,1:0:0:0:
256,192,85681,1,0,1:0:0:0:
256,192,85791,1,8,1:1:0:0:
256,192,85902,1,8,1:1:0:0:
256,192,86012,1,4,1:1:0:0:
256,192,86122,1,0,1:0:0:0:
256,192,86233,1,8,1:1:0:0:
256,192,86343,1,0,1:0:0:0:
256,192,86453,1,8,1:1:0:0:
256,192,86563,1,0,1:0:0:0:
256,192,86674,1,8,1:1:0:0:
256,192,86784,1,8,1:1:0:0:
256,192,86894,1,0,1:0:0:0:
256,192,87005,1,8,1:1:0:0:
256,192,87115,1,8,1:1:0:0:
256,192,87225,1,8,1:1:0:0:
256,192,87335,1,0,1:0:0:0:
256,192,87446,1,0,1:0:0:0:
256,192,87556,1,8,1:1:0:0:
256,192,87666,1,0,1:0:0:0:
256,192,87777,1,8,1:1:0:0:
256,192,87887,1,8,1:1:0:0:
256,192,87997,1,0,1:0:0:0:
256,192,88108,1,0,1:0:0:0:
256,192,88218,1,8,1:1:0:0:
256,192,88328,1,8,1:1:0:0:
256,192,88438,1,0,1:0:0:0:
256,192,88549,1,8,1:1:0:0:
256,192,88659,1,0,1:0:0:0:
256,192,88769,1,8,1:1:0:0:
256,192,88880,1,8,1:1:0:0:
256,192,88990,1,0,1:0:0:0:
256,192,89100,1,8,1:1:0:0:
256,192,89210,1,0,1:0:0:0:
256,192,89321,1,8,1:1:0:0:
256,192,89394,1,8,1:1:0:0:
256,192,89468,1,8,1:1:0:0:
256,192,89541,1,0,1:0:0:0:
256,192,89652,1,0,1:0:0:0:
256,192,89762,1,8,1:1:0:0:
256,192,89872,1,8,1:1:0:0:
256,192,89983,1,4,1:1:0:0:
256,192,90203,1,0,1:0:0:0:
256,192,90313,1,8,1:1:0:0:
256,192,90424,1,0,1:0:0:0:
256,192,90534,1,0,1:0:0:0:
256,192,90644,1,8,1:1:0:0:
256,192,90755,1,0,1:0:0:0:
256,192,90865,1,8,1:1:0:0:
256,192,91085,1,0,1:0:0:0:
256,192,91196,1,8,1:1:0:0:
256,192,91306,1,4,1:1:0:0:
256,192,91416,1,0,1:0:0:0:
256,192,91527,1,8,1:1:0:0:
256,192,91637,1,8,1:1:0:0:
256,192,91747,1,0,1:0:0:0:
256,192,91858,1,8,1:1:0:0:
256,192,91968,1,8,1:1:0:0:
256,192,92023,1,8,1:1:0:0:
256,192,92078,1,8,1:1:0:0:
256,192,92188,1,0,1:0:0:0:
256,192,92409,1,8,1:1:0:0:
256,192,92464,1,8,1:1:0:0:
256,192,92519,1,8,1:1:0:0:
256,192,92630,1,4,1:1:0:0:
256,192,92850,1,0,1:0:0:0:
256,192,92905,1,0,1:0:0:0:
256,192,92960,1,8,1:1:0:0:
256,192,93016,1,0,1:0:0:0:
256,192,93071,1,8,1:1:0:0:
256,192,93181,1,0,1:0:0:0:
256,192,93291,1,8,1:1:0:0:
256,192,93346,1,0,1:0:0:0:
256,192,93402,1,8,1:1:0:0:
256,192,93457,1,8,1:1:0:0:
256,192,93512,1,0,1:0:0:0:
256,192,93733,1,0,1:0:0:0:
256,192,93788,1,0,1:0:0:0:
256,192,93843,1,8,1:1:0:0:
256,192,93898,1,0,1:0:0:0:
256,192,93953,1,12,1:1:0:0:
256,192,94174,1,0,1:0:0:0:
256,192,94284,1,0,1:0:0:0:
256,192,94339,1,0,1:0:0:0:
256,192,94394,1,8,1:1:0:0:
256,192,94505,1,0,1:0:0:0:
256,192,94615,1,8,1:1:0:0:
256,192,94725,1,8,1:1:0:0:
256,192,94835,1,0,1:0:0:0:
256,192,94946,1,0,1:0:0:0:
256,192,95056,1,8,1:1:0:0:
256,192,95166,1,8,1:1:0:0:
256,192,95277,1,4,1:1:0:0:
256,192,95387,1,0,1:0:0:0:
256,192,95497,1,8,1:1:0:0:
256,192,95552,1,8,1:1:0:0:
256,192,95608,1,0,1:0:0:0:
256,192,95718,1,8,1:1:0:0:
256,192,95773,1,8,1:1:0:0:
256,192,95828,1,0,1:0:0:0:
256,192,95938,1,8,1:1:0:0:
256,192,96049,1,0,1:0:0:0:
256,192,96159,1,0,1:0:0:0:
256,192,96269,1,8,1:1:0:0:
256,192,96380,1,8,1:1:0:0:
256,192,96490,1,0,1:0:0:0:
256,192,96600,1,0,1:0:0:0:
256,192,96710,1,0,1:0:0:0:
256,192,96821,1,8,1:1:0:0:
256,192,96931,1,0,1:0:0:0:
256,192,97041,1,8,1:1:0:0:
256,192,97152,1,8,1:1:0:0:
256,192,97262,1,0,1:0:0:0:
256,192,97372,1,8,1:1:0:0:
256,192,97483,1,8,1:1:0:0:
256,192,97593,1,0,1:0:0:0:
256,192,97703,1,8,1:1:0:0:
256,192,97813,1,8,1:1:0:0:
256,192,97924,1,4,1:1:0:0:
256,192,98364,1,0,1:0:0:0:
256,192,98474,1,0,1:0:0:0:
256,192,98530,1,0,1:0:0:0:
256,192,98585,1,8,1:1:0:0:
256,192,98806,1,8,1:1:0:0:
256,192,98861,1,8,1:1:0:0:
256,192,98916,1,0,1:0:0:0:
256,192,98971,1,0,1:0:0:0:
256,192,99027,1,8,1:1:0:0:
256,192,99082,1,0,1:0:0:0:
256,192,99137,1,0,1:0:0:0:
256,192,99192,1,0,1:0:0:0:
256,192,99247,1,8,1:1:0:0:
256,192,99578,1,8,1:1:0:0:
256,192,99688,1,0,1:0:0:0:
256,192,99799,1,8,1:1:0:0:
256,192,99909,1,8,1:1:0:0:
256,192,100130,1,8,1:1:0:0:
256,192,100240,1,8,1:1:0:0:
256,192,100350,1,0,1:0:0:0:
256,192,100571,1,4,1:1:0:0:
256,192,101233,1,8,1:1:0:0:
256,192,101674,1,8,1:1:0:0:
256,192,101784,1,8,1:1:0:0:
256,192,101894,1,0,1:0:0:0:
256,192,102005,1,0,1:0:0:0:
256,192,102060,1,0,1:0:0:0:
256,192,102115,1,8,1:1:0:0:
256,192,102225,1,0,1:0:0:0:
256,192,102281,1,8,1:1:0:0:
256,192,102336,1,0,1:0:0:0:
256,192,102446,1,0,1:0:0:0:
256,192,102556,1,12,1:1:0:0:
256,192,102997,1,8,1:1:0:0:
256,192,103218,1,4,1:1:0:0:
256,192,103328,1,8,1:1:0:0:
256,192,103438,1,8,1:1:0:0:
256,192,103494,1,8,1:1:0:0:
256,192,103549,1,0,1:0:0:0:
256,192,103604,1,0,1:0:0:0:
256,192,103659,1,8,1:1:0:0:
256,192,103714,1,0,1:0:0:0:
256,192,103769,1,8,1:1:0:0:
256,192,103824,1,8,1:1:0:0:
256,192,103880,1,0,1:0:0:0:
256,192,103916,1,0,1:0:0:0:
256,192,104100,1,8,1:1:0:0:
256,192,104137,1,8,1:1:0:0:
256,192,104321,1,0,1:0:0:0:
256,192,104358,1,0,1:0:0:0:
256,192,104541,1,0,1:0:0:0:
256,192,104596,1,0,1:0:0:0:
256,192,104652,1,8,1:1:0:0:
256,192,104707,1,0,1:0:0:0:
256,192,104762,1,8,1:1:0:0:
256,192,104817,1,0,1:0:0:0:
256,192,104872,1,0,1:0:0:0:
256,192,104927,1,0,1:0:0:0:
256,192,104983,1,8,1:1:0:0:
256,192,105038,1,8,1:1:0:0:
256,192,105093,1,0,1:0:0:0:
256,192,105148,1,0,1:0:0:0:
256,192,105203,1,12,1:1:0:0:
256,192,105424,1,4,1:1:0:0:
256,192,105534,1,12,1:1:0:0:
256,192,105644,1,4,1:1:0:0:
256,192,105865,1,0,1:0:0:0:
256,192,106196,1,0,1:0:0:0:
256,192,106306,1,0,1:0:0:0:
256,192,106416,1,0,1:0:0:0:
256,192,106527,1,12,1:1:0:0:
256,192,106747,1,0,1:0:0:0:
256,192,106858,1,8,1:1:0:0:
256,192,106968,1,0,1:0:0:0:
256,192,107078,1,8,1:1:0:0:
256,192,107188,1,0,1:0:0:0:
256,192,107244,1,0,1:0:0:0:
256,192,107299,1,0,1:0:0:0:
256,192,107354,1,0,1:0:0:0:
256,192,107409,1,8,1:1:0:0:
256,192,107464,1,0,1:0:0:0:
256,192,107519,1,8,1:1:0:0:
256,192,107574,1,8,1:1:0:0:
256,192,107630,1,0,1:0:0:0:
256,192,107685,1,0,1:0:0:0:
256,192,107740,1,8,1:1:0:0:
256,192,107795,1,0,1:0:0:0:
256,192,107850,1,8,1:1:0:0:
256,192,108236,1,0,1:0:0:0:
256,192,108291,1,8,1:1:0:0:
256,192,108512,1,0,1:0:0:0:
256,192,108567,1,0,1:0:0:0:
256,192,108622,1,8,1:1:0:0:
256,192,108677,1,0,1:0:0:0:
256,192,108733,1,8,1:1:0:0:
256,192,108843,1,0,1:0:0:0:
256,192,108953,1,8,1:1:0:0:
256,192,109063,1,8,1:1:0:0:
256,192,109174,1,4,1:1:0:0:
256,192,109394,1,0,1:0:0:0:
256,192,109615,1,8,1:1:0:0:
256,192,109670,1,8,1:1:0:0:
256,192,109725,1,8,1:1:0:0:
256,192,109780,1,8,1:1:0:0:
256,192,109835,1,4,1:1:0:0:
256,192,109946,1,8,1:1:0:0:
256,192,110001,1,8,1:1:0:0:
256,192,110056,1,8,1:1:0:0:
256,192,110166,1,0,1:0:0:0:
256,192,110277,1,8,1:1:0:0:
256,192,110332,1,8,1:1:0:0:
256,192,110387,1,0,1:0:0:0:
256,192,110497,1,8,1:1:0:0:
256,192,110608,1,0,1:1:0:0:
256,192,110718,1,0,1:0:0:0:
256,192,110828,1,0,1:0:0:0:
256,192,110938,1,0,1:0:0:0:
256,192,111049,1,0,1:0:0:0:
256,192,111159,1,12,1:1:0:0:
256,192,111269,1,0,1:0:0:0:
256,192,111380,1,8,1:1:0:0:
256,192,111435,1,0,1:0:0:0:
256,192,111490,1,8,1:1:0:0:
256,192,111545,1,8,1:1:0:0:
256,192,111600,1,0,1:0:0:0:
256,192,111655,1,8,1:1:0:0:
256,192,111710,1,0,1:0:0:0:
256,192,111821,1,12,1:1:0:0:
256,192,111931,1,0,1:0:0:0:
256,192,112041,1,8,1:1:0:0:
256,192,112096,1,8,1:1:0:0:
256,192,112152,1,0,1:0:0:0:
256,192,112262,1,0,1:0:0:0:
256,192,112372,1,8,1:1:0:0:
256,192,112483,1,0,1:0:0:0:
256,192,112538,1,0,1:0:0:0:
256,192,112593,1,0,1:0:0:0:
256,192,112648,1,0,1:0:0:0:
256,192,112703,1,8,1:1:0:0:
256,192,112758,1,0,1:0:0:0:
256,192,112813,1,8,1:1:0:0:
256,192,112869,1,0,1:0:0:0:
256,192,112924,1,8,1:1:0:0:
256,192,112979,1,8,1:1:0:0:
256,192,113034,1,8,1:1:0:0:
256,192,113089,1,8,1:1:0:0:
256,192,113144,1,0,1:1:0:0:
256,192,113365,1,8,1:1:0:0:
256,192,113585,1,0,1:0:0:0:
256,192,113806,1,8,1:1:0:0:
256,192,113843,1,8,1:1:0:0:
256,192,114027,1,8,1:1:0:0:
256,192,114063,1,8,1:1:0:0:
256,192,114247,1,0,1:0:0:0:
256,192,114358,1,8,1:1:0:0:
256,192,114468,1,0,1:0:0:0:
256,192,114688,1,0,1:0:0:0:
256,192,114744,1,0,1:0:0:0:
256,192,114799,1,0,1:0:0:0:
256,192,114854,1,0,1:0:0:0:
256,192,114909,1,8,1:1:0:0:
256,192,114964,1,8,1:1:0:0:
256,192,115019,1,8,1:1:0:0:
256,192,115074,1,8,1:1:0:0:
256,192,115130,1,0,1:0:0:0:
256,192,115166,1,0,1:0:0:0:
256,192,115203,1,0,1:0:0:0:
256,192,115240,1,0,1:0:0:0:
256,192,115460,1,8,1:1:0:0:
256,192,115497,1,8,1:1:0:0:
256,192,115534,1,8,1:1:0:0:
256,192,115571,1,8,1:1:0:0:
256,192,115791,1,12,1:1:0:0:
256,192,115902,1,12,1:1:0:0:
256,192,116012,1,4,1:1:0:0:
256,192,116233,1,8,1:1:0:0:
256,192,116288,1,8,1:1:0:0:
256,192,116343,1,8,1:1:0:0:
256,192,116398,1,8,1:1:0:0:
256,192,116453,1,0,1:0:0:0:
256,192,116563,1,8,1:1:0:0:
256,192,116619,1,0,1:0:0:0:
256,192,116674,1,8,1:1:0:0:
256,192,116729,1,8,1:1:0:0:
256,192,116784,1,0,1:0:0:0:
256,192,116839,1,8,1:1:0:0:
256,192,116894,1,0,1:0:0:0:
256,192,117115,1,8,1:1:0:0:
256,192,117170,1,8,1:1:0:0:
256,192,117225,1,8,1:1:0:0:
256,192,117280,1,8,1:1:0:0:
256,192,117335,1,0,1:0:0:0:
256,192,117556,1,8,1:1:0:0:
256,192,117611,1,8,1:1:0:0:
256,192,117666,1,0,1:0:0:0:
256,192,117721,1,8,1:1:0:0:
256,192,117777,1,4,1:1:0:0:
256,192,117997,1,0,1:0:0:0:
256,192,118034,1,0,1:0:0:0:
256,192,118071,1,8,1:1:0:0:
256,192,118108,1,0,1:0:0:0:
256,192,118218,1,8,1:1:0:0:
256,192,118438,1,8,1:1:0:0:
256,192,118475,1,8,1:1:0:0:
256,192,118659,1,8,1:1:0:0:
256,192,118696,1,8,0:0:0:0:
256,192,118733,1,0,0:0:0:0:
256,192,118769,1,0,0:0:0:0:
256,192,118880,1,0,1:0:0:0:
256,192,118916,1,0,0:0:0:0:
256,192,119100,1,4,1:1:0:0:
256,192,119210,1,0,1:0:0:0:
256,192,119321,1,8,1:1:0:0:
256,192,119376,1,0,1:0:0:0:
256,192,119431,1,8,1:1:0:0:
256,192,119486,1,0,1:0:0:0:
256,192,119541,1,8,1:1:0:0:
256,192,119596,1,8,1:1:0:0:
256,192,119652,1,0,1:0:0:0:
256,192,119762,1,0,1:0:0:0:
256,192,119983,1,8,1:1:0:0:
256,192,120038,1,8,1:1:0:0:
256,192,120093,1,8,1:1:0:0:
256,192,120148,1,8,1:1:0:0:
256,192,120203,1,0,1:0:0:0:
256,192,120258,1,8,1:1:0:0:
256,192,120313,1,0,1:0:0:0:
256,192,120424,1,0,1:0:0:0:
256,192,120479,1,8,1:1:0:0:
256,192,120534,1,0,1:0:0:0:
256,192,120589,1,0,1:0:0:0:
256,192,120644,1,8,1:1:0:0:
256,192,120699,1,8,1:1:0:0:
256,192,120755,1,0,1:0:0:0:
256,192,120810,1,0,1:0:0:0:
256,192,120865,1,8,1:1:0:0:
256,192,120975,1,0,1:0:0:0:
256,192,121085,1,8,1:1:0:0:
256,192,121196,1,0,1:0:0:0:
256,192,121306,1,0,1:0:0:0:
256,192,121416,1,8,1:1:0:0:
256,192,121527,1,8,1:1:0:0:
256,192,121637,1,0,1:0:0:0:
256,192,121747,1,0,1:0:0:0:
256,192,122078,2,0,L|257:193,1,84.2746666666665,0|0,0:0|0:0,0:0:0:0:
256,192,122409,2,0,L|257:193,1,259.896,0|0,0:0|0:0,0:0:0:0:
256,192,123071,1,4,1:1:0:0:
256,192,124394,1,12,1:1:0:0:
256,192,125718,1,4,1:1:0:0:
256,192,126380,1,8,1:1:0:0:
256,192,126600,1,8,1:1:0:0:
256,192,126821,1,8,1:1:0:0:
256,192,127041,1,4,1:1:0:0:
256,192,127483,1,0,1:0:0:0:
256,192,127593,1,0,1:0:0:0:
256,192,127703,1,12,1:1:0:0:
256,192,127924,1,8,1:1:0:0:
256,192,128144,1,8,1:1:0:0:
256,192,128255,1,8,1:1:0:0:
256,192,128365,1,0,1:1:0:0:
256,192,128420,1,0,0:0:0:0:
256,192,128475,1,8,1:1:0:0:
256,192,128530,1,8,1:1:0:0:
256,192,128585,1,0,0:0:0:0:
256,192,128641,1,8,1:1:0:0:
256,192,128696,1,0,1:0:0:0:
256,192,128751,1,0,1:0:0:0:
256,192,128806,1,8,1:1:0:0:
256,192,128916,1,0,1:0:0:0:
256,192,129027,1,12,1:1:0:0:
256,192,129358,1,4,1:1:0:0:
256,192,129688,1,12,1:1:0:0:
256,192,130350,1,8,1:1:0:0:
256,192,130405,1,8,1:1:0:0:
256,192,130460,1,8,1:1:0:0:
256,192,130516,1,8,1:1:0:0:
256,192,130571,1,0,1:0:0:0:
256,192,130626,1,0,1:0:0:0:
256,192,130681,1,0,1:0:0:0:
256,192,130736,1,0,1:0:0:0:
256,192,130791,1,8,1:1:0:0:
256,192,130846,1,8,1:1:0:0:
256,192,130902,1,0,1:0:0:0:
256,192,130957,1,0,1:0:0:0:
256,192,131012,1,12,1:1:0:0:
256,192,131122,8,12,132004,1:1:0:0:
256,192,132115,5,8,0:0:0:0:
256,192,132335,5,4,1:1:0:0:
256,192,133659,1,0,1:0:0:0:
256,192,134983,1,8,1:1:0:0:
256,192,136306,1,0,1:0:0:0:
256,192,137630,1,0,1:0:0:0:
256,192,138953,1,8,1:1:0:0:
256,192,140277,1,0,1:0:0:0:
256,192,141600,1,0,1:0:0:0:
256,192,142924,1,0,1:0:0:0:
256,192,144247,1,8,1:1:0:0:
256,192,144909,1,8,1:1:0:0:
256,192,145571,1,0,1:0:0:0:
256,192,146894,1,8,1:1:0:0:
256,192,147556,1,8,1:1:0:0:
256,192,147997,1,8,1:1:0:0:
256,192,148218,1,0,1:0:0:0:
256,192,149541,1,0,1:0:0:0:
256,192,150203,1,8,1:1:0:0:
256,192,150865,1,8,1:1:0:0:
256,192,152188,1,0,1:0:0:0:
256,192,152850,1,0,1:0:0:0:
256,192,153291,1,0,1:0:0:0:
256,192,153512,1,8,1:1:0:0:
256,192,154835,1,0,1:0:0:0:
256,192,155497,1,8,1:1:0:0:
256,192,156159,1,8,1:1:0:0:
256,192,157262,1,8,1:1:0:0:
256,192,157483,1,8,1:1:0:0:
256,192,158806,1,0,1:0:0:0:
256,192,159909,1,0,1:0:0:0:
256,192,160130,1,8,1:1:0:0:
256,192,161012,1,8,1:1:0:0:
256,192,161453,1,0,1:0:0:0:
256,192,162777,1,8,1:1:0:0:
256,192,163438,1,8,1:1:0:0:
256,192,164100,1,0,1:0:0:0:
256,192,165424,1,0,1:0:0:0:
256,192,165865,1,0,1:0:0:0:
256,192,166306,1,8,1:1:0:0:
256,192,166747,1,0,1:0:0:0:
256,192,168071,1,0,1:0:0:0:
256,192,168953,1,8,1:1:0:0:
256,192,169394,1,0,1:0:0:0:
256,192,169615,1,0,1:0:0:0:
256,192,169835,1,8,1:1:0:0:
256,192,170718,1,8,1:1:0:0:
256,192,172041,1,0,1:0:0:0:
256,192,173365,1,8,1:1:0:0:
256,192,174247,1,8,1:1:0:0:
256,192,174688,1,0,1:0:0:0:
256,192,176012,1,8,1:1:0:0:
256,192,176674,1,0,1:0:0:0:
256,192,177335,1,8,1:1:0:0:
256,192,178659,1,0,1:0:0:0:
256,192,178880,1,0,1:0:0:0:
256,192,179100,1,0,1:0:0:0:
256,192,179652,1,8,1:1:0:0:
256,192,179817,1,0,1:0:0:0:
256,192,179983,1,8,1:1:0:0:
256,192,181306,1,0,1:0:0:0:
256,192,181968,1,8,1:1:0:0:
256,192,182409,1,8,1:1:0:0:
256,192,182630,1,0,1:0:0:0:
256,192,183953,1,8,1:1:0:0:
256,192,184615,1,8,1:1:0:0:
256,192,185056,1,8,1:1:0:0:
256,192,185277,1,0,1:0:0:0:
256,192,185791,1,0,1:0:0:0:
256,192,186458,1,8,1:1:0:0:
256,192,187028,1,0,1:0:0:0:
256,192,187481,1,8,1:1:0:0:
256,192,187860,1,0,1:0:0:0:
256,192,188095,1,8,1:1:0:0:
256,192,188296,1,0,1:0:0:0:
256,192,188471,1,8,1:1:0:0:
256,192,188577,1,0,1:0:0:0:
256,192,188663,1,8,1:1:0:0:
256,192,188736,1,0,1:0:0:0:
256,192,188806,1,8,1:1:0:0:
256,192,188861,1,8,1:1:0:0:
256,192,188916,1,0,1:0:0:0:
256,192,188971,1,0,1:0:0:0:
256,192,189026,1,8,1:1:0:0:
256,192,189081,1,0,1:0:0:0:
256,192,189136,1,8,1:1:0:0:
256,192,189192,1,8,1:1:0:0:
256,192,189247,1,0,1:0:0:0:
256,192,189302,1,0,1:0:0:0:
256,192,189357,1,8,1:1:0:0:
256,192,189412,1,8,1:1:0:0:
256,192,189467,1,0,1:0:0:0:
256,192,189522,1,0,1:0:0:0:
256,192,189578,1,0,1:0:0:0:
256,192,189633,1,0,1:0:0:0:
256,192,189688,1,8,1:1:0:0:
256,192,189743,1,0,1:0:0:0:
256,192,189798,1,8,1:1:0:0:
256,192,189853,1,8,1:1:0:0:
256,192,189908,1,0,1:0:0:0:
256,192,189964,1,8,1:1:0:0:
256,192,190019,1,8,1:1:0:0:
256,192,190074,1,8,1:1:0:0:
256,192,190129,1,0,1:0:0:0:
256,192,190184,1,0,1:0:0:0:
256,192,190239,1,0,1:0:0:0:
256,192,190294,1,0,1:0:0:0:
256,192,190350,1,8,1:1:0:0:
256,192,190405,1,8,1:1:0:0:
256,192,190460,1,8,1:1:0:0:
256,192,190515,1,8,1:1:0:0:
256,192,190570,1,0,1:0:0:0:
256,192,190625,1,8,1:1:0:0:
256,192,190681,1,0,1:0:0:0:
256,192,190736,1,0,1:0:0:0:
256,192,190791,1,8,1:1:0:0:
256,192,190846,1,0,1:0:0:0:
256,192,190901,1,0,1:0:0:0:
256,192,190956,1,0,1:0:0:0:
256,192,191011,1,8,1:1:0:0:
256,192,191067,1,8,1:1:0:0:
256,192,191122,1,0,1:0:0:0:
256,192,191177,1,0,1:0:0:0:
256,192,191232,1,8,1:1:0:0:
256,192,191287,1,0,1:0:0:0:
256,192,191342,1,8,1:1:0:0:
256,192,191397,1,8,1:1:0:0:
256,192,191453,1,0,1:0:0:0:
256,192,191508,1,0,1:0:0:0:
256,192,191563,1,8,1:1:0:0:
256,192,191618,1,0,1:0:0:0:
256,192,191673,1,8,1:1:0:0:
256,192,191728,1,8,1:1:0:0:
256,192,191783,1,8,1:1:0:0:
256,192,191839,1,8,1:1:0:0:
256,192,191894,1,0,1:0:0:0:
256,192,191949,1,0,1:0:0:0:
256,192,192004,1,8,1:1:0:0:
256,192,192059,1,8,1:1:0:0:
256,192,192114,1,0,1:0:0:0:
256,192,192169,1,8,1:1:0:0:
256,192,192225,1,0,1:0:0:0:
256,192,192280,1,0,1:0:0:0:
256,192,192335,1,8,1:1:0:0:
256,192,192390,1,0,1:0:0:0:
256,192,192445,1,8,1:1:0:0:
256,192,192500,1,8,1:1:0:0:
256,192,192556,1,0,1:0:0:0:
256,192,192611,1,0,1:0:0:0:
256,192,192666,1,8,1:1:0:0:
256,192,192721,1,0,1:0:0:0:
256,192,192776,1,8,1:1:0:0:
256,192,192831,1,8,1:1:0:0:
256,192,192886,1,8,1:1:0:0:
256,192,192942,1,8,1:1:0:0:
256,192,192997,1,0,1:0:0:0:
256,192,193052,1,8,1:1:0:0:
256,192,193107,1,0,1:0:0:0:
256,192,193162,1,0,1:0:0:0:
256,192,193217,1,8,1:1:0:0:
256,192,193272,1,0,1:0:0:0:
256,192,193328,1,0,1:0:0:0:
256,192,193383,1,0,1:0:0:0:
256,192,193438,1,12,1:1:0:0:
256,192,193658,1,12,1:1:0:0:
256,192,193879,1,4,1:1:0:0:
256,192,194100,1,8,1:1:0:0:
256,192,194155,1,0,1:0:0:0:
256,192,194210,1,8,1:1:0:0:
256,192,194265,1,0,1:0:0:0:
256,192,194320,1,8,1:1:0:0:
256,192,194375,1,8,1:1:0:0:
256,192,194431,1,0,1:0:0:0:
256,192,194486,1,0,1:0:0:0:
256,192,194541,1,8,1:1:0:0:
256,192,194596,1,0,1:0:0:0:
256,192,194651,1,0,1:0:0:0:
256,192,194706,1,0,1:0:0:0:
256,192,194761,1,8,1:1:0:0:
256,192,194817,1,8,1:1:0:0:
256,192,194872,1,8,1:1:0:0:
256,192,194927,1,8,1:1:0:0:
256,192,194982,1,0,1:0:0:0:
256,192,195037,1,0,1:0:0:0:
256,192,195092,1,8,1:1:0:0:
256,192,195147,1,0,1:0:0:0:
256,192,195203,1,8,1:1:0:0:
256,192,195258,1,8,1:1:0:0:
256,192,195313,1,0,1:0:0:0:
256,192,195368,1,8,1:1:0:0:
256,192,195423,1,0,1:0:0:0:
256,192,195478,1,0,1:0:0:0:
256,192,195533,1,0,1:0:0:0:
256,192,195589,1,0,1:0:0:0:
256,192,195644,1,8,1:1:0:0:
256,192,195699,1,8,1:1:0:0:
256,192,195754,1,8,1:1:0:0:
256,192,195809,1,8,1:1:0:0:
256,192,195864,1,0,1:0:0:0:
256,192,195919,1,8,1:1:0:0:
256,192,195975,1,8,1:1:0:0:
256,192,196030,1,8,1:1:0:0:
256,192,196085,1,0,1:0:0:0:
256,192,196140,1,0,1:0:0:0:
256,192,196195,1,8,1:1:0:0:
256,192,196250,1,8,1:1:0:0:
256,192,196306,1,0,1:0:0:0:
256,192,196361,1,8,1:1:0:0:
256,192,196416,1,0,1:0:0:0:
256,192,196471,1,0,1:0:0:0:
256,192,196526,1,8,1:1:0:0:
256,192,196581,1,8,1:1:0:0:
256,192,196636,1,0,1:0:0:0:
256,192,196692,1,0,1:0:0:0:
256,192,196747,1,8,1:1:0:0:
256,192,196802,1,0,1:0:0:0:
256,192,196857,1,8,1:1:0:0:
256,192,196912,1,0,1:0:0:0:
256,192,196967,1,8,1:1:0:0:
256,192,197022,1,0,1:0:0:0:
256,192,197078,1,8,1:1:0:0:
256,192,197133,1,8,1:1:0:0:
256,192,197188,1,0,1:0:0:0:
256,192,197243,1,0,1:0:0:0:
256,192,197298,1,8,1:1:0:0:
256,192,197353,1,0,1:0:0:0:
256,192,197408,1,0,1:0:0:0:
256,192,197464,1,0,1:0:0:0:
256,192,197519,1,8,1:1:0:0:
256,192,197574,1,0,1:0:0:0:
256,192,197629,1,8,1:1:0:0:
256,192,197684,1,8,1:1:0:0:
256,192,197739,1,8,1:1:0:0:
256,192,197794,1,8,1:1:0:0:
256,192,197850,1,0,1:0:0:0:
256,192,197905,1,8,1:1:0:0:
256,192,197960,1,0,1:0:0:0:
256,192,198015,1,0,1:0:0:0:
256,192,198070,1,8,1:1:0:0:
256,192,198125,1,0,1:0:0:0:
256,192,198181,1,8,1:1:0:0:
256,192,198236,1,8,1:1:0:0:
256,192,198291,1,0,1:0:0:0:
256,192,198346,1,0,1:0:0:0:
256,192,198401,1,8,1:1:0:0:
256,192,198456,1,0,1:0:0:0:
256,192,198511,1,8,1:1:0:0:
256,192,198567,1,8,1:1:0:0:
256,192,198622,1,8,1:1:0:0:
256,192,198677,1,8,1:1:0:0:
256,192,198732,1,0,1:0:0:0:
256,192,198787,1,0,1:0:0:0:
256,192,198842,1,8,1:1:0:0:
256,192,198897,1,0,1:0:0:0:
256,192,198953,1,8,1:1:0:0:
256,192,199008,1,8,1:1:0:0:
256,192,199063,1,8,1:1:0:0:
256,192,199118,1,8,1:1:0:0:
256,192,199173,1,0,1:0:0:0:
256,192,199228,1,0,1:0:0:0:
256,192,199283,1,0,1:0:0:0:
256,192,199339,1,0,1:0:0:0:
256,192,199394,1,12,1:1:0:0:
256,192,199449,12,0,207997,0:0:0:0:
