osu file format v14

[General]
AudioFilename: audio.mp3
AudioLeadIn: 0
PreviewTime: 115350
Countdown: 0
SampleSet: Normal
StackLeniency: 0.7
Mode: 1
LetterboxInBreaks: 0
WidescreenStoryboard: 0

[Editor]
Bookmarks: 33640,46731,59822,89277,115458,134277,136731,160458,189913,206277,225913,250458,270095,279095,288913
DistanceSpacing: 0.7
BeatDivisor: 4
GridSize: 32
TimelineZoom: 2.899999

[Metadata]
Title:Croque Monsieur A Disneyland
TitleUnicode:Croque Monsieur À Disneyland
Artist:Ruby My Dear
ArtistUnicode:Ruby My Dear
Creator:Gamelan4
Version:Cychlo's Death Waltz
Source:
Tags:breakcore Igorrr Brame edm french electronic julien chastagnol glitch instrumental Cychloryn _MMMMMM_MMMMMM_ anpu un-plugged PRSPCT
BeatmapID:2262189
BeatmapSetID:1039985

[Difficulty]
HPDrainRate:5
CircleSize:2
OverallDifficulty:6.5
ApproachRate:10
SliderMultiplier:1.4
SliderTickRate:1

[Events]
//Background and Video events
0,0,"croquebg.jpg",0,60
//Break Periods
2,136823,155264
//Storyboard Layer 0 (Background)
//Storyboard Layer 1 (Fail)
//Storyboard Layer 2 (Pass)
//Storyboard Layer 3 (Foreground)
//Storyboard Layer 4 (Overlay)
//Storyboard Sound Samples

[TimingPoints]
-13,272.727272727273,3,1,0,20,1,0
4487,-100,3,1,0,25,0,0
4896,-100,3,1,0,30,0,0
5305,-100,3,1,0,35,0,0
5714,-100,3,1,0,40,0,0
6123,-100,3,1,0,45,0,0
6532,-100,3,1,0,50,0,0
7350,-100,3,1,0,55,0,0
32782,-101.010101010101,3,1,0,55,0,0
32850,-102.040816326531,3,1,0,55,0,0
32918,-103.092783505155,3,1,0,55,0,0
32987,-104.166666666667,3,1,0,55,0,0
33259,-109.89010989011,3,1,0,50,0,0
33532,-116.279069767442,3,1,0,45,0,0
44577,-113.636363636364,3,1,0,45,0,0
44714,-112.359550561798,3,1,0,45,0,0
44987,-107.52688172043,3,1,0,50,0,0
45396,-100.250626566416,3,1,0,55,0,0
45805,-93.8967136150235,3,1,0,60,0,0
46214,-88.3002207505519,3,1,0,65,0,0
46350,-86.5800865800866,3,1,0,65,0,0
46487,-84.9256900212314,3,1,0,65,0,0
46623,-81.9672131147541,3,1,0,65,0,0
47168,-111.111111111111,3,1,0,50,0,0
48123,-104.166666666667,3,1,0,60,0,0
48191,-102.040816326531,3,1,0,60,0,0
48259,-100,3,1,0,65,0,0
49896,-111.111111111111,3,1,0,50,0,0
54805,-97.0873786407767,3,1,0,75,0,0
55532,-96.1538461538461,3,1,0,75,0,0
55623,-92.5925925925926,3,1,0,75,0,0
56305,-108.695652173913,3,1,0,50,0,0
56373,-109.89010989011,3,1,0,50,0,0
56441,-111.111111111111,3,1,0,50,0,0
59214,-105.263157894737,3,1,0,50,0,0
59441,-100,3,1,0,50,0,0
59714,-95.2380952380952,3,1,0,50,0,0
59850,-86.9565217391304,3,1,0,50,0,0
60532,-86.9565217391304,3,1,0,50,0,0
61350,-83.3333333333333,3,1,0,50,0,0
62168,-111.111111111111,3,1,0,55,0,0
67759,-100,3,1,0,70,0,0
69805,-101.010101010101,3,1,0,70,0,0
70077,-105.263157894737,3,1,0,55,0,0
70350,-111.111111111111,3,1,0,55,0,0
75123,-109.89010989011,3,1,0,55,0,0
75259,-105.263157894737,3,1,0,60,0,0
76896,-108.695652173913,3,1,0,60,0,0
77032,-111.111111111111,3,1,0,50,0,0
78805,-111.111111111111,3,1,0,50,0,0
78873,-108.864747526321,3,1,0,50,0,0
78941,-106.707300806814,3,1,0,50,0,0
79009,-104.633813044488,3,1,0,50,0,0
79077,-102.639266088192,3,1,0,50,0,0
79146,-100.719438952437,3,1,0,50,0,0
79214,-98.8700146031012,3,1,0,50,0,0
79282,-97.0873786407767,3,1,0,50,0,0
79350,-90.9090909090909,3,1,0,65,0,0
80168,-100,3,1,0,65,0,0
89305,-95.2380952380952,3,1,0,65,0,0
90805,-86.9565217391304,3,1,0,85,0,1
93987,-86.2068965517241,3,1,0,85,0,1
94077,-83.3333333333333,3,1,0,80,0,0
94350,-100,3,1,0,65,0,0
106350,-111.111111111111,3,1,0,65,0,0
107987,-111.111111111111,3,1,0,70,0,0
108123,-109.339447595243,3,1,0,70,0,0
108259,-107.623279776402,3,1,0,70,0,0
108396,-105.960264900662,3,1,0,70,0,0
108532,-104.347862381865,3,1,0,70,0,0
108668,-102.783690695095,3,1,0,70,0,0
108805,-101.26582278481,3,1,0,70,0,0
108941,-99.7921329869881,3,1,0,70,0,0
109077,-98.3606234883202,3,1,0,70,0,0
109214,-96.969696969697,3,1,0,70,0,0
109350,-95.6175603561945,3,1,0,70,0,0
109487,-94.3025243842752,3,1,0,70,0,0
109623,-93.0232558139535,3,1,0,75,0,0
109714,-92.1895195266621,3,1,0,75,0,0
109805,-91.3705954804449,3,1,0,75,0,0
109896,-90.5660103951667,3,1,0,75,0,0
109987,-89.7755521420896,3,1,0,75,0,0
110077,-88.9987727069244,3,1,0,75,0,0
110168,-88.2353200692118,3,1,0,75,0,0
110259,-87.4847776486891,3,1,0,75,0,0
110350,-86.7469712294995,3,1,0,75,0,0
110441,-86.0215053763441,3,1,0,75,0,0
110532,-85.3080730441845,3,1,0,75,0,0
110623,-84.6063772902946,3,1,0,75,0,0
110714,-83.91606044306,3,1,0,75,0,0
110805,-83.2369865214348,3,1,0,75,0,0
110896,-82.5688149145702,3,1,0,75,0,0
110987,-81.9112851634908,3,1,0,75,0,0
111077,-81.264079001687,3,1,0,75,0,0
111168,-80.6270852179915,3,1,0,75,0,0
111259,-78.7401574803149,3,1,0,75,0,0
111532,-90.9090909090909,3,1,0,65,0,0
112623,-100,3,1,0,65,0,0
113441,-111.111111111111,3,1,0,65,0,0
114532,-100,3,1,0,65,0,0
115350,-95.2380952380952,3,1,0,75,0,1
134168,-90.9090909090909,3,1,0,80,0,0
136077,-93.4579439252336,3,1,0,75,0,0
136350,-96.1538461538461,3,1,0,70,0,0
136623,-99.009900990099,3,1,0,65,0,0
136759,-105.263157894737,3,1,0,20,0,0
137987,-111.111111111111,3,1,0,20,0,0
155714,-108.695652173913,3,1,0,35,0,0
156259,-106.382978723404,3,1,0,35,0,0
157077,-104.166666666667,3,1,0,35,0,0
157759,-95.2380952380952,3,1,0,45,0,0
157896,-100,3,1,0,45,0,0
160350,-100,3,1,0,60,0,0
188987,-83.3333333333333,3,1,0,60,0,0
189805,-90.9090909090909,3,1,0,85,0,0
190623,-90.9090909090909,3,1,0,75,0,0
190759,-91.743119266055,3,1,0,75,0,0
190827,-92.5925925925926,3,1,0,75,0,0
190896,-93.4579439252336,3,1,0,75,0,0
190964,-94.3396226415094,3,1,0,75,0,0
191032,-95.2380952380952,3,1,0,75,0,0
202896,-86.9565217391304,3,1,0,90,0,1
206168,-86.9565217391304,3,1,0,90,0,0
206714,-111.111111111111,3,1,0,50,0,0
208487,-105.263157894737,3,1,0,50,0,0
208555,-100,3,1,0,65,0,0
208623,-90.9090909090909,3,1,0,80,0,0
208759,-80,3,1,0,85,0,0
209441,-90.9090909090909,3,1,0,80,0,1
224577,-91.743119266055,3,1,0,75,0,1
224714,-92.5925925925926,3,1,0,70,0,1
224850,-93.4579439252336,3,1,0,65,0,1
224918,-94.3396226415094,3,1,0,65,0,1
224987,-95.2380952380952,3,1,0,60,0,0
225805,-111.111111111111,3,1,0,40,0,0
230714,-105.263157894737,3,1,0,50,0,0
250077,-103.092783505155,3,1,0,50,0,0
250146,-101.010101010101,3,1,0,50,0,0
250350,-90.9090909090909,3,1,0,80,0,1
268350,-90.9090909090909,3,1,0,75,0,1
269168,-86.9565217391304,3,1,0,65,0,1
269237,-84.0336134453781,3,1,0,65,0,1
269987,-117.647058823529,3,1,0,50,0,0
270805,-133.333333333333,3,1,0,40,0,0
278305,-125,3,1,0,50,0,0
278987,-86.9565217391304,3,1,0,100,0,1
288623,-86.2068965517241,3,1,0,100,0,1
288714,-84.7457627118644,3,1,0,100,0,1
288805,-80,3,1,0,100,0,0

[HitObjects]
256,192,4077,12,0,7214,0:0:0:0:
256,192,7350,5,4,0:0:0:0:
256,192,7487,1,0,0:0:0:0:
256,192,7555,1,0,0:0:0:0:
256,192,7623,1,8,0:0:0:0:
256,192,7691,1,8,0:0:0:0:
256,192,7759,1,0,0:0:0:0:
256,192,7896,1,0,0:0:0:0:
256,192,8032,1,0,0:0:0:0:
256,192,8100,1,0,0:0:0:0:
256,192,8168,1,8,0:0:0:0:
256,192,8305,1,0,0:0:0:0:
256,192,8373,1,0,0:0:0:0:
256,192,8441,1,8,0:0:0:0:
256,192,8509,1,0,0:0:0:0:
256,192,8577,1,0,0:0:0:0:
256,192,8714,1,8,0:0:0:0:
256,192,8850,1,8,0:0:0:0:
256,192,8918,1,8,0:0:0:0:
256,192,8987,1,0,0:0:0:0:
256,192,9123,1,0,0:0:0:0:
256,192,9259,1,8,0:0:0:0:
256,192,9327,1,8,0:0:0:0:
256,192,9396,1,0,0:0:0:0:
256,192,9464,1,8,0:0:0:0:
256,192,9532,1,0,0:0:0:0:
256,192,9600,1,0,0:0:0:0:
256,192,9668,1,0,0:0:0:0:
256,192,9737,1,0,0:0:0:0:
256,192,9805,1,8,0:0:0:0:
256,192,10623,5,4,0:0:0:0:
256,192,10759,1,0,0:0:0:0:
256,192,10827,1,0,0:0:0:0:
256,192,10896,1,8,0:0:0:0:
256,192,10964,1,8,0:0:0:0:
256,192,11032,1,0,0:0:0:0:
256,192,11168,1,0,0:0:0:0:
256,192,11305,1,0,0:0:0:0:
256,192,11373,1,0,0:0:0:0:
256,192,11441,1,8,0:0:0:0:
256,192,11577,1,8,0:0:0:0:
256,192,11646,1,0,0:0:0:0:
256,192,11714,1,8,0:0:0:0:
256,192,11782,1,8,0:0:0:0:
256,192,11850,1,0,0:0:0:0:
256,192,11987,1,8,0:0:0:0:
256,192,12123,1,8,0:0:0:0:
256,192,12191,1,8,0:0:0:0:
256,192,12259,1,0,0:0:0:0:
256,192,13077,5,0,0:0:0:0:
256,192,13350,5,8,0:0:0:0:
256,192,13623,1,0,0:0:0:0:
256,192,13896,1,4,0:0:0:0:
256,192,14441,1,8,0:0:0:0:
256,192,14577,1,0,0:0:0:0:
256,192,14646,1,0,0:0:0:0:
256,192,14714,1,8,0:0:0:0:
256,192,14850,1,0,0:0:0:0:
256,192,14918,1,0,0:0:0:0:
256,192,14987,1,8,0:0:0:0:
256,192,15055,1,0,0:0:0:0:
256,192,15123,1,8,0:0:0:0:
256,192,15191,1,8,0:0:0:0:
256,192,15259,1,0,0:0:0:0:
256,192,15396,1,0,0:0:0:0:
256,192,15464,1,0,0:0:0:0:
256,192,15532,1,8,0:0:0:0:
256,192,15668,1,0,0:0:0:0:
256,192,15737,1,8,0:0:0:0:
256,192,15805,1,8,0:0:0:0:
256,192,15873,1,8,0:0:0:0:
256,192,15941,1,0,0:0:0:0:
256,192,16077,1,0,0:0:0:0:
256,192,16146,1,0,0:0:0:0:
256,192,16214,1,0,0:0:0:0:
256,192,16282,1,0,0:0:0:0:
256,192,16350,1,8,0:0:0:0:
256,192,17168,5,4,0:0:0:0:
256,192,17577,1,0,0:0:0:0:
256,192,17646,1,8,0:0:0:0:
256,192,17714,1,0,0:0:0:0:
256,192,17850,1,8,0:0:0:0:
256,192,17987,1,0,0:0:0:0:
256,192,18123,1,0,0:0:0:0:
256,192,18191,1,0,0:0:0:0:
256,192,18259,1,8,0:0:0:0:
256,192,18327,1,0,0:0:0:0:
256,192,18396,1,8,0:0:0:0:
256,192,18532,1,0,0:0:0:0:
256,192,18668,1,0,0:0:0:0:
256,192,18805,1,8,0:0:0:0:
256,192,19691,5,0,0:0:0:0:
256,192,20441,5,4,0:0:0:0:
256,192,20577,1,0,0:0:0:0:
256,192,20646,1,0,0:0:0:0:
256,192,20714,1,8,0:0:0:0:
256,192,20782,1,8,0:0:0:0:
256,192,20850,1,0,0:0:0:0:
256,192,20918,1,8,0:0:0:0:
256,192,20987,1,0,0:0:0:0:
256,192,21123,1,0,0:0:0:0:
256,192,21259,1,8,0:0:0:0:
256,192,21396,1,8,0:0:0:0:
256,192,21464,1,8,0:0:0:0:
256,192,21532,1,0,0:0:0:0:
256,192,21600,1,8,0:0:0:0:
256,192,21668,1,0,0:0:0:0:
256,192,21805,1,0,0:0:0:0:
256,192,21873,1,8,0:0:0:0:
256,192,22009,1,0,0:0:0:0:
256,192,22077,1,0,0:0:0:0:
256,192,22282,1,8,0:0:0:0:
256,192,22350,1,0,0:0:0:0:
256,192,22418,1,0,0:0:0:0:
256,192,22487,1,8,0:0:0:0:
256,192,22623,1,0,0:0:0:0:
256,192,22759,1,0,0:0:0:0:
256,192,22827,1,0,0:0:0:0:
256,192,22896,1,8,0:0:0:0:
256,192,23714,5,4,0:0:0:0:
256,192,23850,1,0,0:0:0:0:
256,192,23918,1,0,0:0:0:0:
256,192,23987,1,8,0:0:0:0:
256,192,24055,1,0,0:0:0:0:
256,192,24123,1,8,0:0:0:0:
256,192,24259,1,0,0:0:0:0:
256,192,24396,1,0,0:0:0:0:
256,192,24464,1,0,0:0:0:0:
256,192,24532,1,8,0:0:0:0:
256,192,24668,1,8,0:0:0:0:
256,192,24805,1,0,0:0:0:0:
256,192,24941,1,0,0:0:0:0:
256,192,25077,1,8,0:0:0:0:
256,192,25214,1,8,0:0:0:0:
256,192,25350,1,0,0:0:0:0:
256,192,26168,5,0,0:0:0:0:
256,192,26987,5,4,0:0:0:0:
256,192,27123,1,0,0:0:0:0:
256,192,27191,1,8,0:0:0:0:
256,192,27259,1,8,0:0:0:0:
256,192,27396,1,8,0:0:0:0:
256,192,27464,1,0,0:0:0:0:
256,192,27532,1,8,0:0:0:0:
256,192,27600,1,0,0:0:0:0:
256,192,27668,1,0,0:0:0:0:
256,192,27737,1,0,0:0:0:0:
256,192,27805,1,8,0:0:0:0:
256,192,27941,1,8,0:0:0:0:
256,192,28009,1,0,0:0:0:0:
256,192,28077,1,8,0:0:0:0:
256,192,28214,1,8,0:0:0:0:
256,192,28350,1,0,0:0:0:0:
256,192,28396,1,0,0:0:0:0:
256,192,28441,1,0,0:0:0:0:
256,192,28487,1,8,0:0:0:0:
256,192,28623,1,0,0:0:0:0:
256,192,29441,5,0,0:0:0:0:
256,192,29714,1,8,0:0:0:0:
256,192,29850,1,8,0:0:0:0:
256,192,29987,1,0,0:0:0:0:
256,192,30259,1,4,0:0:0:0:
256,192,30396,1,8,0:0:0:0:
256,192,30464,1,8,0:0:0:0:
256,192,30532,1,0,0:0:0:0:
256,192,30600,1,0,0:0:0:0:
256,192,30668,1,8,0:0:0:0:
256,192,30805,1,0,0:0:0:0:
256,192,30873,1,8,0:0:0:0:
256,192,30941,1,0,0:0:0:0:
256,192,31009,1,0,0:0:0:0:
256,192,31077,1,8,0:0:0:0:
256,192,31396,1,0,0:0:0:0:
256,192,31896,1,8,0:0:0:0:
256,192,32168,1,0,0:0:0:0:
256,192,32509,1,0,0:0:0:0:
256,192,32782,1,8,0:0:0:0:
256,192,32850,1,8,0:0:0:0:
256,192,32918,1,8,0:0:0:0:
256,192,32987,1,0,0:0:0:0:
256,192,33259,1,8,0:0:0:0:
256,192,33532,5,0,0:0:0:0:
256,192,33941,1,0,0:0:0:0:
256,192,34077,1,8,0:0:0:0:
256,192,34350,1,8,0:0:0:0:
256,192,34759,1,8,0:0:0:0:
256,192,35168,1,0,0:0:0:0:
256,192,35577,1,0,0:0:0:0:
256,192,35987,1,8,0:0:0:0:
256,192,36396,1,0,0:0:0:0:
256,192,36532,1,8,0:0:0:0:
256,192,36668,1,8,0:0:0:0:
256,192,36805,1,0,0:0:0:0:
256,192,37214,1,0,0:0:0:0:
256,192,37350,1,8,0:0:0:0:
256,192,37623,1,8,0:0:0:0:
256,192,38032,1,0,0:0:0:0:
256,192,38441,1,8,0:0:0:0:
256,192,38850,1,8,0:0:0:0:
256,192,39259,1,0,0:0:0:0:
256,192,39668,1,8,0:0:0:0:
256,192,39805,1,8,0:0:0:0:
256,192,39941,1,0,0:0:0:0:
256,192,40077,1,8,0:0:0:0:
256,192,40487,1,0,0:0:0:0:
256,192,40623,1,8,0:0:0:0:
256,192,40896,1,8,0:0:0:0:
256,192,41305,1,0,0:0:0:0:
256,192,41714,1,0,0:0:0:0:
256,192,42123,1,8,0:0:0:0:
256,192,42532,1,0,0:0:0:0:
256,192,42941,1,0,0:0:0:0:
256,192,43077,1,8,0:0:0:0:
256,192,43214,1,8,0:0:0:0:
256,192,43350,1,0,0:0:0:0:
256,192,43759,1,0,0:0:0:0:
256,192,44168,1,8,0:0:0:0:
256,192,44577,1,0,0:0:0:0:
256,192,44714,1,8,0:0:0:0:
256,192,44987,1,0,0:0:0:0:
256,192,45396,1,8,0:0:0:0:
256,192,45805,1,0,0:0:0:0:
256,192,46214,1,8,0:0:0:0:
256,192,46350,1,8,0:0:0:0:
256,192,46487,1,8,0:0:0:0:
256,192,46623,5,4,0:0:0:0:
256,192,47168,1,0,0:0:0:0:
256,192,47441,1,8,0:0:0:0:
256,192,47850,1,8,0:0:0:0:
256,192,48123,1,0,0:0:0:0:
256,192,48191,1,0,0:0:0:0:
256,192,48259,1,12,0:0:0:0:
256,192,48396,1,0,0:0:0:0:
256,192,48464,1,0,0:0:0:0:
256,192,48532,1,8,0:0:0:0:
256,192,48600,1,8,0:0:0:0:
256,192,48668,1,8,0:0:0:0:
256,192,48737,1,0,0:0:0:0:
256,192,48805,1,8,0:0:0:0:
256,192,48941,1,0,0:0:0:0:
256,192,49077,1,8,0:0:0:0:
256,192,49896,5,4,0:0:0:0:
256,192,50441,1,8,0:0:0:0:
256,192,50577,1,8,0:0:0:0:
256,192,50646,1,8,0:0:0:0:
256,192,50714,1,0,0:0:0:0:
256,192,51123,1,0,0:0:0:0:
256,192,51396,1,0,0:0:0:0:
256,192,51532,1,8,0:0:0:0:
256,192,52214,1,0,0:0:0:0:
256,192,52282,1,0,0:0:0:0:
256,192,52350,1,8,0:0:0:0:
256,192,52555,1,8,0:0:0:0:
256,192,52623,1,0,0:0:0:0:
256,192,52896,1,0,0:0:0:0:
256,192,53032,1,0,0:0:0:0:
256,192,53168,1,8,0:0:0:0:
256,192,53441,1,0,0:0:0:0:
256,192,53509,1,8,0:0:0:0:
256,192,53577,1,8,0:0:0:0:
256,192,53646,1,0,0:0:0:0:
256,192,53714,1,8,0:0:0:0:
256,192,53987,1,8,0:0:0:0:
256,192,54396,1,0,0:0:0:0:
256,192,54805,1,8,0:0:0:0:
256,192,54896,1,0,0:0:0:0:
256,192,54987,1,0,0:0:0:0:
256,192,55077,1,8,0:0:0:0:
256,192,55168,1,0,0:0:0:0:
256,192,55259,1,0,0:0:0:0:
256,192,55350,1,8,0:0:0:0:
256,192,55441,1,0,0:0:0:0:
256,192,55532,1,0,0:0:0:0:
256,192,55623,1,12,0:0:0:0:
256,192,56305,1,8,0:0:0:0:
256,192,56373,1,8,0:0:0:0:
256,192,56441,1,4,0:0:0:0:
256,192,56646,1,0,0:0:0:0:
256,192,56714,1,8,0:0:0:0:
256,192,56782,1,0,0:0:0:0:
256,192,56850,1,8,0:0:0:0:
256,192,57259,1,8,0:0:0:0:
256,192,57532,1,8,0:0:0:0:
256,192,57668,1,0,0:0:0:0:
256,192,57805,1,0,0:0:0:0:
256,192,57941,1,8,0:0:0:0:
256,192,58077,1,0,0:0:0:0:
256,192,58487,1,0,0:0:0:0:
256,192,58896,1,0,0:0:0:0:
256,192,59214,1,0,0:0:0:0:
256,192,59441,1,0,0:0:0:0:
256,192,59714,1,0,0:0:0:0:
256,192,59850,12,0,62032,0:0:0:0:
256,192,62168,5,4,0:0:0:0:
256,192,62577,1,0,0:0:0:0:
256,192,62714,1,8,0:0:0:0:
256,192,62987,1,8,0:0:0:0:
256,192,63259,1,0,0:0:0:0:
256,192,63396,1,0,0:0:0:0:
256,192,63532,1,8,0:0:0:0:
256,192,63668,1,8,0:0:0:0:
256,192,63737,1,8,0:0:0:0:
256,192,63805,1,0,0:0:0:0:
256,192,64214,1,0,0:0:0:0:
256,192,64282,1,0,0:0:0:0:
256,192,64350,1,8,0:0:0:0:
256,192,64418,1,8,0:0:0:0:
256,192,64487,1,0,0:0:0:0:
256,192,64555,1,8,0:0:0:0:
256,192,64623,1,0,0:0:0:0:
256,192,65441,1,0,0:0:0:0:
256,192,65714,1,0,0:0:0:0:
256,192,65850,1,0,0:0:0:0:
256,192,65918,1,0,0:0:0:0:
256,192,65987,1,8,0:0:0:0:
256,192,66055,1,8,0:0:0:0:
256,192,66123,1,0,0:0:0:0:
256,192,66259,1,8,0:0:0:0:
256,192,66532,1,8,0:0:0:0:
256,192,66668,1,0,0:0:0:0:
256,192,66805,1,0,0:0:0:0:
256,192,66941,1,8,0:0:0:0:
256,192,67077,1,0,0:0:0:0:
256,192,67759,1,0,0:0:0:0:
256,192,67827,1,0,0:0:0:0:
256,192,67896,1,8,0:0:0:0:
256,192,68100,1,8,0:0:0:0:
256,192,68168,1,0,0:0:0:0:
256,192,68305,1,8,0:0:0:0:
256,192,68441,1,0,0:0:0:0:
256,192,68509,1,0,0:0:0:0:
256,192,68577,1,8,0:0:0:0:
256,192,68714,1,0,0:0:0:0:
256,192,68759,1,0,0:0:0:0:
256,192,68805,1,0,0:0:0:0:
256,192,68850,1,8,0:0:0:0:
256,192,68987,1,0,0:0:0:0:
256,192,69123,1,8,0:0:0:0:
256,192,69191,1,8,0:0:0:0:
256,192,69259,1,0,0:0:0:0:
256,192,69396,1,8,0:0:0:0:
256,192,69532,1,0,0:0:0:0:
256,192,69577,1,8,0:0:0:0:
256,192,69623,1,8,0:0:0:0:
256,192,69668,1,0,0:0:0:0:
256,192,69805,1,8,0:0:0:0:
256,192,70077,1,0,0:0:0:0:
256,192,70350,5,4,0:0:0:0:
256,192,70623,1,8,0:0:0:0:
256,192,70759,1,0,0:0:0:0:
256,192,70827,1,0,0:0:0:0:
256,192,70896,1,8,0:0:0:0:
256,192,71032,1,0,0:0:0:0:
256,192,71168,1,8,0:0:0:0:
256,192,71441,1,0,0:0:0:0:
256,192,71577,1,8,0:0:0:0:
256,192,71714,1,8,0:0:0:0:
256,192,71850,1,0,0:0:0:0:
256,192,71987,1,8,0:0:0:0:
256,192,72123,1,0,0:0:0:0:
256,192,72191,1,0,0:0:0:0:
256,192,72259,1,8,0:0:0:0:
256,192,72327,1,0,0:0:0:0:
256,192,72396,1,8,0:0:0:0:
256,192,72532,1,0,0:0:0:0:
256,192,72600,1,0,0:0:0:0:
256,192,72668,1,8,0:0:0:0:
256,192,72737,1,8,0:0:0:0:
256,192,72805,1,0,0:0:0:0:
256,192,72941,1,8,0:0:0:0:
256,192,73077,1,0,0:0:0:0:
256,192,73214,1,0,0:0:0:0:
256,192,73282,1,0,0:0:0:0:
256,192,73350,1,8,0:0:0:0:
256,192,73623,1,0,0:0:0:0:
256,192,73759,1,8,0:0:0:0:
256,192,73896,1,0,0:0:0:0:
256,192,74032,1,8,0:0:0:0:
256,192,74100,1,0,0:0:0:0:
256,192,74168,1,0,0:0:0:0:
256,192,74237,1,8,0:0:0:0:
256,192,74305,1,0,0:0:0:0:
256,192,74441,1,8,0:0:0:0:
256,192,74577,1,0,0:0:0:0:
256,192,74646,1,8,0:0:0:0:
256,192,74714,1,0,0:0:0:0:
256,192,74782,1,8,0:0:0:0:
256,192,74850,1,0,0:0:0:0:
256,192,74918,1,0,0:0:0:0:
256,192,74987,1,8,0:0:0:0:
256,192,75123,1,0,0:0:0:0:
256,192,75259,1,12,0:0:0:0:
256,192,76077,1,4,0:0:0:0:
256,192,76623,1,12,0:0:0:0:
256,192,76896,1,4,0:0:0:0:
256,192,77032,1,8,0:0:0:0:
256,192,77100,1,0,0:0:0:0:
256,192,77168,1,8,0:0:0:0:
256,192,77237,1,8,0:0:0:0:
256,192,77305,1,0,0:0:0:0:
256,192,77373,1,8,0:0:0:0:
256,192,77441,1,0,0:0:0:0:
256,192,77577,1,0,0:0:0:0:
256,192,77714,1,8,0:0:0:0:
256,192,77850,1,8,0:0:0:0:
256,192,77918,1,0,0:0:0:0:
256,192,77987,1,8,0:0:0:0:
256,192,78055,1,8,0:0:0:0:
256,192,78123,1,0,0:0:0:0:
256,192,78259,1,8,0:0:0:0:
256,192,78327,1,0,0:0:0:0:
256,192,78396,1,8,0:0:0:0:
256,192,78464,1,0,0:0:0:0:
256,192,78532,1,8,0:0:0:0:
256,192,78668,1,0,0:0:0:0:
256,192,78805,1,8,0:0:0:0:
256,192,78873,1,8,0:0:0:0:
256,192,78941,1,0,0:0:0:0:
256,192,79009,1,0,0:0:0:0:
256,192,79077,1,8,0:0:0:0:
256,192,79146,1,0,0:0:0:0:
256,192,79214,1,0,0:0:0:0:
256,192,79282,1,0,0:0:0:0:
256,192,79350,1,12,0:0:0:0:
256,192,80168,1,4,0:0:0:0:
256,192,80305,1,8,0:0:0:0:
256,192,80373,1,0,0:0:0:0:
256,192,80441,1,8,0:0:0:0:
256,192,80509,1,8,0:0:0:0:
256,192,80577,1,0,0:0:0:0:
256,192,80646,1,8,0:0:0:0:
256,192,80714,1,0,0:0:0:0:
256,192,80782,1,0,0:0:0:0:
256,192,80850,1,0,0:0:0:0:
256,192,80918,1,0,0:0:0:0:
256,192,80987,1,8,0:0:0:0:
256,192,81123,1,0,0:0:0:0:
256,192,81191,1,0,0:0:0:0:
256,192,81259,1,8,0:0:0:0:
256,192,81327,1,8,0:0:0:0:
256,192,81396,1,0,0:0:0:0:
256,192,81464,1,8,0:0:0:0:
256,192,81532,1,0,0:0:0:0:
256,192,81600,1,8,0:0:0:0:
256,192,81668,1,0,0:0:0:0:
256,192,81737,1,0,0:0:0:0:
256,192,81805,1,12,0:0:0:0:
256,192,82487,1,8,0:0:0:0:
256,192,82555,1,8,0:0:0:0:
256,192,82623,1,0,0:0:0:0:
256,192,82759,1,0,0:0:0:0:
256,192,82896,1,8,0:0:0:0:
256,192,83032,1,0,0:0:0:0:
256,192,83168,1,8,0:0:0:0:
256,192,83214,1,0,0:0:0:0:
256,192,83259,1,0,0:0:0:0:
256,192,83305,1,8,0:0:0:0:
256,192,83441,5,4,0:0:0:0:
256,192,83577,1,0,0:0:0:0:
256,192,83714,1,8,0:0:0:0:
256,192,83782,1,0,0:0:0:0:
256,192,83850,1,8,0:0:0:0:
256,192,83918,1,8,0:0:0:0:
256,192,83987,1,0,0:0:0:0:
256,192,84123,1,0,0:0:0:0:
256,192,84259,1,8,0:0:0:0:
256,192,84396,1,8,0:0:0:0:
256,192,84464,1,8,0:0:0:0:
256,192,84532,1,8,0:0:0:0:
256,192,84668,1,0,0:0:0:0:
256,192,84805,1,8,0:0:0:0:
256,192,84941,1,8,0:0:0:0:
256,192,85077,1,4,0:0:0:0:
256,192,85214,1,8,0:0:0:0:
256,192,85282,1,8,0:0:0:0:
256,192,85350,1,4,0:0:0:0:
256,192,85487,1,8,0:0:0:0:
256,192,85555,1,8,0:0:0:0:
256,192,85623,1,4,0:0:0:0:
256,192,85759,1,8,0:0:0:0:
256,192,85827,1,0,0:0:0:0:
256,192,85896,1,12,0:0:0:0:
256,192,86032,1,0,0:0:0:0:
256,192,86168,1,0,0:0:0:0:
256,192,86237,1,0,0:0:0:0:
256,192,86305,1,8,0:0:0:0:
256,192,86373,1,0,0:0:0:0:
256,192,86441,1,8,0:0:0:0:
256,192,86577,1,8,0:0:0:0:
256,192,86623,1,8,0:0:0:0:
256,192,86668,1,8,0:0:0:0:
256,192,86714,1,0,0:0:0:0:
256,192,86850,1,8,0:0:0:0:
256,192,86987,1,8,0:0:0:0:
256,192,87055,1,8,0:0:0:0:
256,192,87123,1,0,0:0:0:0:
256,192,87532,1,8,0:0:0:0:
256,192,87668,1,0,0:0:0:0:
256,192,87737,1,0,0:0:0:0:
256,192,87805,1,8,0:0:0:0:
256,192,87873,1,0,0:0:0:0:
256,192,87941,1,8,0:0:0:0:
256,192,88009,1,8,0:0:0:0:
256,192,88077,1,0,0:0:0:0:
256,192,88146,1,8,0:0:0:0:
256,192,88214,1,0,0:0:0:0:
256,192,88282,1,0,0:0:0:0:
256,192,88350,1,8,0:0:0:0:
256,192,89168,1,4,0:0:0:0:
256,192,89305,12,0,90668,0:0:0:0:
256,192,90805,5,8,0:0:0:0:
256,192,90896,1,0,0:0:0:0:
256,192,90987,1,8,0:0:0:0:
256,192,91077,1,8,0:0:0:0:
256,192,91168,1,0,0:0:0:0:
256,192,91259,1,0,0:0:0:0:
256,192,91350,1,8,0:0:0:0:
256,192,91441,1,0,0:0:0:0:
256,192,91532,1,0,0:0:0:0:
256,192,91623,1,8,0:0:0:0:
256,192,91714,1,0,0:0:0:0:
256,192,91805,1,8,0:0:0:0:
256,192,91896,1,8,0:0:0:0:
256,192,91987,1,0,0:0:0:0:
256,192,92077,1,0,0:0:0:0:
256,192,92168,1,8,0:0:0:0:
256,192,92259,1,0,0:0:0:0:
256,192,92350,1,0,0:0:0:0:
256,192,92441,1,8,0:0:0:0:
256,192,92532,1,0,0:0:0:0:
256,192,92623,1,8,0:0:0:0:
256,192,92714,1,0,0:0:0:0:
256,192,92805,1,8,0:0:0:0:
256,192,92896,1,0,0:0:0:0:
256,192,92987,1,8,0:0:0:0:
256,192,93077,1,0,0:0:0:0:
256,192,93168,1,8,0:0:0:0:
256,192,93259,1,0,0:0:0:0:
256,192,93350,1,8,0:0:0:0:
256,192,93441,1,0,0:0:0:0:
256,192,93532,1,8,0:0:0:0:
256,192,93623,1,0,0:0:0:0:
256,192,93714,1,8,0:0:0:0:
256,192,93805,1,8,0:0:0:0:
256,192,93896,1,8,0:0:0:0:
256,192,93987,1,0,0:0:0:0:
256,192,94077,1,12,0:0:0:0:
256,192,94350,1,0,0:0:0:0:
256,192,94418,1,8,0:0:0:0:
256,192,94487,1,0,0:0:0:0:
256,192,94555,1,8,0:0:0:0:
256,192,94623,1,0,0:0:0:0:
256,192,94691,1,0,0:0:0:0:
256,192,94759,1,8,0:0:0:0:
256,192,94827,1,0,0:0:0:0:
256,192,94896,1,8,0:0:0:0:
256,192,95032,1,0,0:0:0:0:
256,192,95100,1,0,0:0:0:0:
256,192,95168,1,8,0:0:0:0:
256,192,95237,1,8,0:0:0:0:
256,192,95305,1,0,0:0:0:0:
256,192,95373,1,0,0:0:0:0:
256,192,95441,1,8,0:0:0:0:
256,192,95577,1,8,0:0:0:0:
256,192,95646,1,0,0:0:0:0:
256,192,95714,1,8,0:0:0:0:
256,192,95850,1,8,0:0:0:0:
256,192,95918,1,0,0:0:0:0:
256,192,95987,1,8,0:0:0:0:
256,192,96055,1,8,0:0:0:0:
256,192,96123,1,0,0:0:0:0:
256,192,96191,1,0,0:0:0:0:
256,192,96259,1,8,0:0:0:0:
256,192,96327,1,0,0:0:0:0:
256,192,96396,1,0,0:0:0:0:
256,192,96464,1,0,0:0:0:0:
256,192,96532,1,8,0:0:0:0:
256,192,96668,1,0,0:0:0:0:
256,192,96737,1,8,0:0:0:0:
256,192,96805,1,0,0:0:0:0:
256,192,96873,1,0,0:0:0:0:
256,192,96941,1,8,0:0:0:0:
256,192,97077,1,0,0:0:0:0:
256,192,97146,1,8,0:0:0:0:
256,192,97214,1,0,0:0:0:0:
256,192,97282,1,8,0:0:0:0:
256,192,97350,1,0,0:0:0:0:
256,192,97487,1,8,0:0:0:0:
256,192,97555,1,0,0:0:0:0:
256,192,97623,1,8,0:0:0:0:
256,192,97668,1,8,0:0:0:0:
256,192,97714,1,8,0:0:0:0:
256,192,97759,1,0,0:0:0:0:
256,192,97896,1,8,0:0:0:0:
256,192,97964,1,8,0:0:0:0:
256,192,98032,1,0,0:0:0:0:
256,192,98168,1,8,0:0:0:0:
256,192,98237,1,8,0:0:0:0:
256,192,98305,1,8,0:0:0:0:
256,192,98373,1,8,0:0:0:0:
256,192,98441,1,8,0:0:0:0:
256,192,98509,1,8,0:0:0:0:
256,192,98577,1,8,0:0:0:0:
256,192,98646,1,8,0:0:0:0:
256,192,98714,1,0,0:0:0:0:
256,192,98850,1,0,0:0:0:0:
256,192,98918,1,8,0:0:0:0:
256,192,98987,1,0,0:0:0:0:
256,192,99123,1,0,0:0:0:0:
256,192,99191,1,0,0:0:0:0:
256,192,99259,1,8,0:0:0:0:
256,192,99327,1,8,0:0:0:0:
256,192,99396,1,0,0:0:0:0:
256,192,99532,1,8,0:0:0:0:
256,192,99577,1,8,0:0:0:0:
256,192,99623,1,8,0:0:0:0:
256,192,99668,1,0,0:0:0:0:
256,192,99737,1,0,0:0:0:0:
256,192,99805,1,8,0:0:0:0:
256,192,99941,1,0,0:0:0:0:
256,192,100009,1,8,0:0:0:0:
256,192,100077,1,8,0:0:0:0:
256,192,100146,1,8,0:0:0:0:
256,192,100214,1,0,0:0:0:0:
256,192,100350,1,8,0:0:0:0:
256,192,100487,1,8,0:0:0:0:
256,192,100555,1,8,0:0:0:0:
256,192,100623,1,0,0:0:0:0:
256,192,100759,1,8,0:0:0:0:
256,192,100827,1,0,0:0:0:0:
256,192,100896,1,8,0:0:0:0:
256,192,100964,1,0,0:0:0:0:
256,192,101032,1,8,0:0:0:0:
256,192,101168,1,0,0:0:0:0:
256,192,101237,1,0,0:0:0:0:
256,192,101305,1,8,0:0:0:0:
256,192,101373,1,8,0:0:0:0:
256,192,101441,1,0,0:0:0:0:
256,192,101577,1,8,0:0:0:0:
256,192,101646,1,8,0:0:0:0:
256,192,101714,1,0,0:0:0:0:
256,192,101850,1,8,0:0:0:0:
256,192,101987,1,8,0:0:0:0:
256,192,102055,1,8,0:0:0:0:
256,192,102123,1,0,0:0:0:0:
256,192,102191,1,8,0:0:0:0:
256,192,102259,1,0,0:0:0:0:
256,192,102396,1,8,0:0:0:0:
256,192,102441,1,0,0:0:0:0:
256,192,102487,1,0,0:0:0:0:
256,192,102532,1,8,0:0:0:0:
256,192,102600,1,8,0:0:0:0:
256,192,102668,1,0,0:0:0:0:
256,192,102737,1,0,0:0:0:0:
256,192,102805,1,8,0:0:0:0:
256,192,103077,1,0,0:0:0:0:
256,192,103623,1,8,0:0:0:0:
256,192,103896,5,4,0:0:0:0:
256,192,104032,1,8,0:0:0:0:
256,192,104100,1,0,0:0:0:0:
256,192,104168,1,8,0:0:0:0:
256,192,104237,1,8,0:0:0:0:
256,192,104305,1,0,0:0:0:0:
256,192,104441,1,8,0:0:0:0:
256,192,104577,1,0,0:0:0:0:
256,192,104646,1,0,0:0:0:0:
256,192,104714,1,12,0:0:0:0:
256,192,105259,1,4,0:0:0:0:
256,192,105532,1,12,0:0:0:0:
256,192,106350,1,4,0:0:0:0:
256,192,106759,1,0,0:0:0:0:
256,192,107168,1,8,0:0:0:0:
256,192,107577,1,0,0:0:0:0:
256,192,107987,1,8,0:0:0:0:
256,192,108123,1,8,0:0:0:0:
256,192,108259,1,0,0:0:0:0:
256,192,108396,1,8,0:0:0:0:
256,192,108532,1,0,0:0:0:0:
256,192,108668,1,0,0:0:0:0:
256,192,108805,1,8,0:0:0:0:
256,192,108941,1,8,0:0:0:0:
256,192,109077,1,0,0:0:0:0:
256,192,109214,1,8,0:0:0:0:
256,192,109350,1,0,0:0:0:0:
256,192,109487,1,0,0:0:0:0:
256,192,109623,1,8,0:0:0:0:
256,192,109714,1,8,0:0:0:0:
256,192,109805,1,0,0:0:0:0:
256,192,109896,1,8,0:0:0:0:
256,192,109987,1,8,0:0:0:0:
256,192,110077,1,0,0:0:0:0:
256,192,110168,1,8,0:0:0:0:
256,192,110259,1,0,0:0:0:0:
256,192,110350,1,0,0:0:0:0:
256,192,110441,1,8,0:0:0:0:
256,192,110532,1,8,0:0:0:0:
256,192,110623,1,0,0:0:0:0:
256,192,110714,1,8,0:0:0:0:
256,192,110805,1,8,0:0:0:0:
256,192,110896,1,0,0:0:0:0:
256,192,110987,1,8,0:0:0:0:
256,192,111077,1,0,0:0:0:0:
256,192,111168,1,0,0:0:0:0:
256,192,111259,1,12,0:0:0:0:
256,192,113714,12,0,115077,0:0:0:0:
256,192,115350,5,4,0:0:0:0:
256,192,115487,1,0,0:0:0:0:
256,192,115623,1,8,0:0:0:0:
256,192,115691,1,8,0:0:0:0:
256,192,115759,1,0,0:0:0:0:
256,192,115896,1,8,0:0:0:0:
256,192,115964,1,0,0:0:0:0:
256,192,116032,1,0,0:0:0:0:
256,192,116100,1,8,0:0:0:0:
256,192,116168,1,0,0:0:0:0:
256,192,116305,1,0,0:0:0:0:
256,192,116441,1,8,0:0:0:0:
256,192,116509,1,0,0:0:0:0:
256,192,116577,1,8,0:0:0:0:
256,192,116714,1,0,0:0:0:0:
256,192,116782,1,0,0:0:0:0:
256,192,116850,1,8,0:0:0:0:
256,192,116987,1,0,0:0:0:0:
256,192,117123,1,0,0:0:0:0:
256,192,117191,1,8,0:0:0:0:
256,192,117259,1,0,0:0:0:0:
256,192,117327,1,0,0:0:0:0:
256,192,117396,1,8,0:0:0:0:
256,192,117532,1,0,0:0:0:0:
256,192,117600,1,0,0:0:0:0:
256,192,117668,1,8,0:0:0:0:
256,192,117737,1,8,0:0:0:0:
256,192,117805,1,0,0:0:0:0:
256,192,117941,1,0,0:0:0:0:
256,192,118009,1,8,0:0:0:0:
256,192,118077,1,0,0:0:0:0:
256,192,118146,1,0,0:0:0:0:
256,192,118214,1,8,0:0:0:0:
256,192,118282,1,0,0:0:0:0:
256,192,118350,1,8,0:0:0:0:
256,192,118418,1,8,0:0:0:0:
256,192,118487,1,0,0:0:0:0:
256,192,118623,1,8,0:0:0:0:
256,192,118759,1,0,0:0:0:0:
256,192,118827,1,0,0:0:0:0:
256,192,118896,1,8,0:0:0:0:
256,192,118964,1,0,0:0:0:0:
256,192,119032,1,8,0:0:0:0:
256,192,119168,1,0,0:0:0:0:
256,192,119237,1,0,0:0:0:0:
256,192,119305,1,8,0:0:0:0:
256,192,119373,1,8,0:0:0:0:
256,192,119441,1,0,0:0:0:0:
256,192,119577,1,0,0:0:0:0:
256,192,119646,1,0,0:0:0:0:
256,192,119714,1,8,0:0:0:0:
256,192,119782,1,0,0:0:0:0:
256,192,119850,1,8,0:0:0:0:
256,192,119918,1,8,0:0:0:0:
256,192,119987,1,0,0:0:0:0:
256,192,120123,1,8,0:0:0:0:
256,192,120259,1,0,0:0:0:0:
256,192,120396,1,8,0:0:0:0:
256,192,120464,1,8,0:0:0:0:
256,192,120532,1,0,0:0:0:0:
256,192,120600,1,0,0:0:0:0:
256,192,120668,1,8,0:0:0:0:
256,192,120805,1,0,0:0:0:0:
256,192,120873,1,0,0:0:0:0:
256,192,120941,1,8,0:0:0:0:
256,192,121077,1,8,0:0:0:0:
256,192,121214,1,0,0:0:0:0:
256,192,121282,1,8,0:0:0:0:
256,192,121350,1,0,0:0:0:0:
256,192,121418,1,0,0:0:0:0:
256,192,121487,1,8,0:0:0:0:
256,192,121623,1,0,0:0:0:0:
256,192,121691,1,8,0:0:0:0:
256,192,121759,1,0,0:0:0:0:
256,192,121896,1,8,0:0:0:0:
256,192,122032,1,0,0:0:0:0:
256,192,122100,1,0,0:0:0:0:
256,192,122168,1,8,0:0:0:0:
256,192,122237,1,8,0:0:0:0:
256,192,122305,1,0,0:0:0:0:
256,192,122441,1,8,0:0:0:0:
256,192,122509,1,0,0:0:0:0:
256,192,122577,1,8,0:0:0:0:
256,192,122646,1,8,0:0:0:0:
256,192,122714,1,0,0:0:0:0:
256,192,122850,1,0,0:0:0:0:
256,192,122918,1,0,0:0:0:0:
256,192,122987,1,8,0:0:0:0:
256,192,123123,1,0,0:0:0:0:
256,192,123191,1,0,0:0:0:0:
256,192,123259,1,8,0:0:0:0:
256,192,123396,1,8,0:0:0:0:
256,192,123464,1,8,0:0:0:0:
256,192,123532,1,0,0:0:0:0:
256,192,123668,1,0,0:0:0:0:
256,192,123805,1,8,0:0:0:0:
256,192,123873,1,0,0:0:0:0:
256,192,123941,1,8,0:0:0:0:
256,192,124077,1,0,0:0:0:0:
256,192,124214,1,8,0:0:0:0:
256,192,124282,1,8,0:0:0:0:
256,192,124350,1,0,0:0:0:0:
256,192,124487,1,0,0:0:0:0:
256,192,124555,1,0,0:0:0:0:
256,192,124623,1,8,0:0:0:0:
256,192,124691,1,0,0:0:0:0:
256,192,124759,1,8,0:0:0:0:
256,192,124896,1,8,0:0:0:0:
256,192,124964,1,8,0:0:0:0:
256,192,125032,1,0,0:0:0:0:
256,192,125100,1,0,0:0:0:0:
256,192,125168,5,12,0:0:0:0:
256,192,125441,1,0,0:0:0:0:
256,192,125509,1,0,0:0:0:0:
256,192,125577,1,8,0:0:0:0:
256,192,125714,1,8,0:0:0:0:
256,192,125782,1,0,0:0:0:0:
256,192,125850,1,0,0:0:0:0:
256,192,125918,1,8,0:0:0:0:
256,192,125987,1,0,0:0:0:0:
256,192,126123,1,0,0:0:0:0:
256,192,126191,1,8,0:0:0:0:
256,192,126259,1,8,0:0:0:0:
256,192,126327,1,0,0:0:0:0:
256,192,126396,1,8,0:0:0:0:
256,192,126532,1,0,0:0:0:0:
256,192,126600,1,0,0:0:0:0:
256,192,126668,1,8,0:0:0:0:
256,192,126805,1,0,0:0:0:0:
256,192,126941,1,0,0:0:0:0:
256,192,127009,1,8,0:0:0:0:
256,192,127077,1,0,0:0:0:0:
256,192,127146,1,0,0:0:0:0:
256,192,127214,1,8,0:0:0:0:
256,192,127350,1,0,0:0:0:0:
256,192,127418,1,0,0:0:0:0:
256,192,127487,1,8,0:0:0:0:
256,192,127623,1,0,0:0:0:0:
256,192,127759,1,8,0:0:0:0:
256,192,127827,1,8,0:0:0:0:
256,192,127896,1,0,0:0:0:0:
256,192,127964,1,0,0:0:0:0:
256,192,128032,1,8,0:0:0:0:
256,192,128100,1,0,0:0:0:0:
256,192,128168,1,8,0:0:0:0:
256,192,128237,1,8,0:0:0:0:
256,192,128305,1,0,0:0:0:0:
256,192,128441,1,8,0:0:0:0:
256,192,128577,1,0,0:0:0:0:
256,192,128646,1,8,0:0:0:0:
256,192,128714,1,0,0:0:0:0:
256,192,128850,1,8,0:0:0:0:
256,192,128987,1,0,0:0:0:0:
256,192,129055,1,0,0:0:0:0:
256,192,129123,1,8,0:0:0:0:
256,192,129191,1,8,0:0:0:0:
256,192,129259,1,0,0:0:0:0:
256,192,129396,1,0,0:0:0:0:
256,192,129464,1,0,0:0:0:0:
256,192,129532,1,8,0:0:0:0:
256,192,129600,1,0,0:0:0:0:
256,192,129668,1,8,0:0:0:0:
256,192,129737,1,0,0:0:0:0:
256,192,129805,1,8,0:0:0:0:
256,192,129873,1,8,0:0:0:0:
256,192,129941,1,0,0:0:0:0:
256,192,130077,1,8,0:0:0:0:
256,192,130214,1,0,0:0:0:0:
256,192,130282,1,0,0:0:0:0:
256,192,130350,1,8,0:0:0:0:
256,192,130418,1,0,0:0:0:0:
256,192,130487,1,8,0:0:0:0:
256,192,130623,1,0,0:0:0:0:
256,192,130691,1,0,0:0:0:0:
256,192,130759,1,8,0:0:0:0:
256,192,130896,1,8,0:0:0:0:
256,192,131032,1,0,0:0:0:0:
256,192,131100,1,8,0:0:0:0:
256,192,131168,1,0,0:0:0:0:
256,192,131237,1,0,0:0:0:0:
256,192,131305,1,8,0:0:0:0:
256,192,131441,1,8,0:0:0:0:
256,192,131509,1,8,0:0:0:0:
256,192,131577,1,0,0:0:0:0:
256,192,131714,1,0,0:0:0:0:
256,192,131850,1,8,0:0:0:0:
256,192,131918,5,0,0:0:0:0:
256,192,131987,1,0,0:0:0:0:
256,192,132055,1,0,0:0:0:0:
256,192,132123,1,8,0:0:0:0:
256,192,132259,1,0,0:0:0:0:
256,192,132327,1,8,0:0:0:0:
256,192,132396,1,0,0:0:0:0:
256,192,132464,1,0,0:0:0:0:
256,192,132532,1,8,0:0:0:0:
256,192,132668,1,0,0:0:0:0:
256,192,132737,1,8,0:0:0:0:
256,192,132805,1,0,0:0:0:0:
256,192,132873,1,0,0:0:0:0:
256,192,132941,1,8,0:0:0:0:
256,192,133009,1,0,0:0:0:0:
256,192,133077,1,8,0:0:0:0:
256,192,133146,1,8,0:0:0:0:
256,192,133214,1,0,0:0:0:0:
256,192,133350,1,8,0:0:0:0:
256,192,133487,1,0,0:0:0:0:
256,192,133555,1,0,0:0:0:0:
256,192,133623,1,8,0:0:0:0:
256,192,133691,1,0,0:0:0:0:
256,192,133759,1,8,0:0:0:0:
256,192,133896,1,0,0:0:0:0:
256,192,133964,1,0,0:0:0:0:
256,192,134032,1,8,0:0:0:0:
256,192,134168,1,8,0:0:0:0:
256,192,134259,1,8,0:0:0:0:
256,192,134350,1,0,0:0:0:0:
256,192,134441,1,8,0:0:0:0:
256,192,134532,1,8,0:0:0:0:
256,192,134623,1,0,0:0:0:0:
256,192,134714,1,8,0:0:0:0:
256,192,134805,1,8,0:0:0:0:
256,192,134896,1,8,0:0:0:0:
256,192,134987,1,0,0:0:0:0:
256,192,135077,1,0,0:0:0:0:
256,192,135168,1,0,0:0:0:0:
256,192,135259,1,8,0:0:0:0:
256,192,135350,1,8,0:0:0:0:
256,192,135441,1,0,0:0:0:0:
256,192,135532,1,8,0:0:0:0:
256,192,135623,1,0,0:0:0:0:
256,192,135714,1,0,0:0:0:0:
256,192,135805,1,12,0:0:0:0:
256,192,136077,1,4,0:0:0:0:
256,192,136350,1,0,0:0:0:0:
256,192,136623,1,12,0:0:0:0:
256,192,155714,12,0,157487,0:0:0:0:
256,192,157759,12,0,159668,0:0:0:0:
256,192,160350,5,4,0:0:0:0:
256,192,160487,1,0,0:0:0:0:
256,192,160555,1,0,0:0:0:0:
256,192,160623,1,8,0:0:0:0:
256,192,160691,1,8,0:0:0:0:
256,192,160759,1,0,0:0:0:0:
256,192,160827,1,8,0:0:0:0:
256,192,160896,1,0,0:0:0:0:
256,192,161032,1,8,0:0:0:0:
256,192,161100,1,8,0:0:0:0:
256,192,161168,1,0,0:0:0:0:
256,192,161305,1,0,0:0:0:0:
256,192,161373,1,0,0:0:0:0:
256,192,161441,1,8,0:0:0:0:
256,192,161509,1,8,0:0:0:0:
256,192,161577,1,0,0:0:0:0:
256,192,161714,1,8,0:0:0:0:
256,192,161850,1,0,0:0:0:0:
256,192,161918,1,8,0:0:0:0:
256,192,161987,1,0,0:0:0:0:
256,192,162123,1,0,0:0:0:0:
256,192,162191,1,0,0:0:0:0:
256,192,162259,1,8,0:0:0:0:
256,192,162327,1,0,0:0:0:0:
256,192,162396,1,0,0:0:0:0:
256,192,162464,1,0,0:0:0:0:
256,192,162532,1,8,0:0:0:0:
256,192,162600,1,8,0:0:0:0:
256,192,162668,1,0,0:0:0:0:
256,192,162737,1,0,0:0:0:0:
256,192,162805,1,8,0:0:0:0:
256,192,162941,1,8,0:0:0:0:
256,192,163009,1,0,0:0:0:0:
256,192,163077,1,8,0:0:0:0:
256,192,163214,1,8,0:0:0:0:
256,192,163623,1,4,0:0:0:0:
256,192,163759,1,0,0:0:0:0:
256,192,163827,1,0,0:0:0:0:
256,192,163896,1,8,0:0:0:0:
256,192,163964,1,8,0:0:0:0:
256,192,164032,1,0,0:0:0:0:
256,192,164100,1,0,0:0:0:0:
256,192,164168,1,8,0:0:0:0:
256,192,164305,1,8,0:0:0:0:
256,192,164441,1,0,0:0:0:0:
256,192,164577,1,8,0:0:0:0:
256,192,164646,1,0,0:0:0:0:
256,192,164714,1,8,0:0:0:0:
256,192,164782,1,8,0:0:0:0:
256,192,164850,1,0,0:0:0:0:
256,192,164918,1,0,0:0:0:0:
256,192,164987,1,8,0:0:0:0:
256,192,165123,1,8,0:0:0:0:
256,192,165259,1,0,0:0:0:0:
256,192,165805,1,8,0:0:0:0:
256,192,165873,1,8,0:0:0:0:
256,192,165941,1,8,0:0:0:0:
256,192,166077,1,0,0:0:0:0:
256,192,166350,1,8,0:0:0:0:
256,192,166487,1,0,0:0:0:0:
256,192,166623,1,8,0:0:0:0:
256,192,166759,1,0,0:0:0:0:
256,192,166896,1,4,0:0:0:0:
256,192,167441,1,8,0:0:0:0:
256,192,167509,1,8,0:0:0:0:
256,192,167577,1,0,0:0:0:0:
256,192,167646,1,0,0:0:0:0:
256,192,167714,1,8,0:0:0:0:
256,192,167850,1,0,0:0:0:0:
256,192,167918,1,0,0:0:0:0:
256,192,167987,1,8,0:0:0:0:
256,192,168055,1,0,0:0:0:0:
256,192,168123,1,8,0:0:0:0:
256,192,168259,1,0,0:0:0:0:
256,192,168327,1,8,0:0:0:0:
256,192,168396,1,0,0:0:0:0:
256,192,168464,1,0,0:0:0:0:
256,192,168532,1,8,0:0:0:0:
256,192,168668,1,8,0:0:0:0:
256,192,168737,1,0,0:0:0:0:
256,192,168805,1,8,0:0:0:0:
256,192,168873,1,8,0:0:0:0:
256,192,168941,1,0,0:0:0:0:
256,192,169009,1,0,0:0:0:0:
256,192,169077,1,8,0:0:0:0:
256,192,169146,1,8,0:0:0:0:
256,192,169214,1,8,0:0:0:0:
256,192,169282,1,8,0:0:0:0:
256,192,169350,1,0,0:0:0:0:
256,192,169896,1,8,0:0:0:0:
256,192,170168,1,4,0:0:0:0:
256,192,170305,1,8,0:0:0:0:
256,192,170373,1,0,0:0:0:0:
256,192,170441,1,8,0:0:0:0:
256,192,170509,1,8,0:0:0:0:
256,192,170577,1,0,0:0:0:0:
256,192,170646,1,8,0:0:0:0:
256,192,170714,1,8,0:0:0:0:
256,192,170782,1,8,0:0:0:0:
256,192,170850,1,0,0:0:0:0:
256,192,170918,1,8,0:0:0:0:
256,192,170987,1,0,0:0:0:0:
256,192,171123,1,8,0:0:0:0:
256,192,171191,1,0,0:0:0:0:
256,192,171259,1,8,0:0:0:0:
256,192,171327,1,8,0:0:0:0:
256,192,171396,1,0,0:0:0:0:
256,192,171532,1,8,0:0:0:0:
256,192,171600,1,8,0:0:0:0:
256,192,171668,1,0,0:0:0:0:
256,192,171737,1,8,0:0:0:0:
256,192,171805,1,0,0:0:0:0:
256,192,172623,1,8,0:0:0:0:
256,192,173441,12,0,174123,0:0:0:0:
256,192,174259,5,4,0:0:0:0:
256,192,175077,1,12,0:0:0:0:
256,192,175214,1,8,0:0:0:0:
256,192,175282,1,0,0:0:0:0:
256,192,175350,1,8,0:0:0:0:
256,192,175418,1,8,0:0:0:0:
256,192,175487,1,0,0:0:0:0:
256,192,175623,1,8,0:0:0:0:
256,192,175691,1,8,0:0:0:0:
256,192,175759,1,0,0:0:0:0:
256,192,175896,1,0,0:0:0:0:
256,192,176032,1,0,0:0:0:0:
256,192,176100,1,0,0:0:0:0:
256,192,176168,1,8,0:0:0:0:
256,192,176305,1,0,0:0:0:0:
256,192,176373,1,0,0:0:0:0:
256,192,176441,1,8,0:0:0:0:
256,192,176509,1,8,0:0:0:0:
256,192,176577,1,0,0:0:0:0:
256,192,176646,1,8,0:0:0:0:
256,192,176714,1,0,0:0:0:0:
256,192,176850,1,8,0:0:0:0:
256,192,176918,1,0,0:0:0:0:
256,192,176987,1,8,0:0:0:0:
256,192,177055,1,8,0:0:0:0:
256,192,177123,1,0,0:0:0:0:
256,192,177191,1,0,0:0:0:0:
256,192,177259,1,8,0:0:0:0:
256,192,177327,1,8,0:0:0:0:
256,192,177396,1,0,0:0:0:0:
256,192,177464,1,8,0:0:0:0:
256,192,177532,1,0,0:0:0:0:
256,192,177668,1,0,0:0:0:0:
256,192,177737,1,8,0:0:0:0:
256,192,177805,1,0,0:0:0:0:
256,192,177873,1,8,0:0:0:0:
256,192,177941,1,0,0:0:0:0:
256,192,178009,1,0,0:0:0:0:
256,192,178077,1,8,0:0:0:0:
256,192,178214,1,8,0:0:0:0:
256,192,178350,1,0,0:0:0:0:
256,192,178487,1,8,0:0:0:0:
256,192,178555,1,0,0:0:0:0:
256,192,178623,1,8,0:0:0:0:
256,192,178691,1,8,0:0:0:0:
256,192,178759,1,0,0:0:0:0:
256,192,178896,1,8,0:0:0:0:
256,192,178941,1,8,0:0:0:0:
256,192,178987,1,8,0:0:0:0:
256,192,179032,1,0,0:0:0:0:
256,192,179100,1,0,0:0:0:0:
256,192,179168,1,8,0:0:0:0:
256,192,179850,1,8,0:0:0:0:
256,192,179918,1,8,0:0:0:0:
256,192,179987,1,0,0:0:0:0:
256,192,180123,1,0,0:0:0:0:
256,192,180259,1,8,0:0:0:0:
256,192,180396,1,8,0:0:0:0:
256,192,180532,1,0,0:0:0:0:
256,192,180805,1,4,0:0:0:0:
256,192,180941,1,8,0:0:0:0:
256,192,181009,1,0,0:0:0:0:
256,192,181077,1,8,0:0:0:0:
256,192,181123,1,8,0:0:0:0:
256,192,181168,1,8,0:0:0:0:
256,192,181214,1,0,0:0:0:0:
256,192,181350,1,8,0:0:0:0:
256,192,181487,1,8,0:0:0:0:
256,192,181555,1,8,0:0:0:0:
256,192,181623,1,0,0:0:0:0:
256,192,181759,1,0,0:0:0:0:
256,192,181827,1,8,0:0:0:0:
256,192,181896,1,0,0:0:0:0:
256,192,181964,1,8,0:0:0:0:
256,192,182032,1,0,0:0:0:0:
256,192,182168,1,8,0:0:0:0:
256,192,182237,1,8,0:0:0:0:
256,192,182305,1,0,0:0:0:0:
256,192,182373,1,8,0:0:0:0:
256,192,182441,1,0,0:0:0:0:
256,192,182577,1,8,0:0:0:0:
256,192,182646,1,0,0:0:0:0:
256,192,182714,1,8,0:0:0:0:
256,192,182782,1,8,0:0:0:0:
256,192,182850,1,8,0:0:0:0:
256,192,182918,1,8,0:0:0:0:
256,192,182987,1,0,0:0:0:0:
256,192,183055,1,0,0:0:0:0:
256,192,183123,1,0,0:0:0:0:
256,192,183191,1,0,0:0:0:0:
256,192,183259,1,8,0:0:0:0:
256,192,184077,5,4,0:0:0:0:
256,192,184214,1,0,0:0:0:0:
256,192,184282,1,0,0:0:0:0:
256,192,184350,1,8,0:0:0:0:
256,192,184418,1,8,0:0:0:0:
256,192,184487,1,0,0:0:0:0:
256,192,184555,1,0,0:0:0:0:
256,192,184623,1,8,0:0:0:0:
256,192,184691,1,8,0:0:0:0:
256,192,184759,1,0,0:0:0:0:
256,192,184827,1,8,0:0:0:0:
256,192,184896,1,0,0:0:0:0:
256,192,185032,1,0,0:0:0:0:
256,192,185100,1,0,0:0:0:0:
256,192,185168,1,8,0:0:0:0:
256,192,185237,1,8,0:0:0:0:
256,192,185305,1,8,0:0:0:0:
256,192,185373,1,8,0:0:0:0:
256,192,185441,1,0,0:0:0:0:
256,192,185577,1,0,0:0:0:0:
256,192,185714,1,8,0:0:0:0:
256,192,185850,1,0,0:0:0:0:
256,192,185918,1,0,0:0:0:0:
256,192,185987,1,8,0:0:0:0:
256,192,186123,1,0,0:0:0:0:
256,192,186259,1,8,0:0:0:0:
256,192,186305,1,8,0:0:0:0:
256,192,186350,1,8,0:0:0:0:
256,192,186396,1,0,0:0:0:0:
256,192,186464,1,0,0:0:0:0:
256,192,186532,1,8,0:0:0:0:
256,192,187350,1,8,0:0:0:0:
256,192,187487,1,0,0:0:0:0:
256,192,187555,1,0,0:0:0:0:
256,192,187623,1,8,0:0:0:0:
256,192,187668,1,8,0:0:0:0:
256,192,187714,1,8,0:0:0:0:
256,192,187759,1,0,0:0:0:0:
256,192,187896,1,0,0:0:0:0:
256,192,187964,1,0,0:0:0:0:
256,192,188032,1,8,0:0:0:0:
256,192,188168,1,8,0:0:0:0:
256,192,188237,1,8,0:0:0:0:
256,192,188305,1,8,0:0:0:0:
256,192,188373,1,8,0:0:0:0:
256,192,188441,1,0,0:0:0:0:
256,192,188714,1,8,0:0:0:0:
256,192,188987,12,0,189668,0:0:0:0:
256,192,189805,5,12,0:0:0:0:
256,192,189941,1,0,0:0:0:0:
256,192,190077,1,12,0:0:0:0:
256,192,190214,1,0,0:0:0:0:
256,192,190350,1,12,0:0:0:0:
256,192,190487,1,0,0:0:0:0:
256,192,190623,1,4,0:0:0:0:
256,192,190759,1,8,0:0:0:0:
256,192,190827,1,0,0:0:0:0:
256,192,190896,1,8,0:0:0:0:
256,192,190964,1,8,0:0:0:0:
256,192,191032,1,0,0:0:0:0:
256,192,191168,1,8,0:0:0:0:
256,192,191237,1,8,0:0:0:0:
256,192,191305,1,8,0:0:0:0:
256,192,191373,1,8,0:0:0:0:
256,192,191441,1,0,0:0:0:0:
256,192,191577,1,8,0:0:0:0:
256,192,191646,1,0,0:0:0:0:
256,192,191714,1,8,0:0:0:0:
256,192,191782,1,0,0:0:0:0:
256,192,191850,1,8,0:0:0:0:
256,192,191918,1,8,0:0:0:0:
256,192,191987,1,0,0:0:0:0:
256,192,192032,1,0,0:0:0:0:
256,192,192077,1,0,0:0:0:0:
256,192,192123,1,8,0:0:0:0:
256,192,192191,1,8,0:0:0:0:
256,192,192259,1,0,0:0:0:0:
256,192,192396,1,0,0:0:0:0:
256,192,192532,1,8,0:0:0:0:
256,192,192600,1,8,0:0:0:0:
256,192,192668,1,0,0:0:0:0:
256,192,192737,1,0,0:0:0:0:
256,192,192805,1,8,0:0:0:0:
256,192,193077,1,4,0:0:0:0:
256,192,193214,1,8,0:0:0:0:
256,192,193350,1,8,0:0:0:0:
256,192,193418,1,8,0:0:0:0:
256,192,193487,1,0,0:0:0:0:
256,192,193623,1,8,0:0:0:0:
256,192,193691,1,8,0:0:0:0:
256,192,193759,1,0,0:0:0:0:
256,192,193805,1,0,0:0:0:0:
256,192,193850,1,0,0:0:0:0:
256,192,193896,1,8,0:0:0:0:
256,192,194032,1,0,0:0:0:0:
256,192,194100,1,0,0:0:0:0:
256,192,194168,1,8,0:0:0:0:
256,192,194214,1,0,0:0:0:0:
256,192,194259,1,0,0:0:0:0:
256,192,194305,1,8,0:0:0:0:
256,192,194441,1,8,0:0:0:0:
256,192,194577,1,0,0:0:0:0:
256,192,194646,1,0,0:0:0:0:
256,192,194714,1,8,0:0:0:0:
256,192,194850,1,0,0:0:0:0:
256,192,194918,1,8,0:0:0:0:
256,192,194987,1,0,0:0:0:0:
256,192,195055,1,8,0:0:0:0:
256,192,195123,1,0,0:0:0:0:
256,192,195191,1,8,0:0:0:0:
256,192,195259,1,0,0:0:0:0:
256,192,195327,1,8,0:0:0:0:
256,192,195396,1,0,0:0:0:0:
256,192,195464,1,8,0:0:0:0:
256,192,195532,1,0,0:0:0:0:
256,192,195805,1,8,0:0:0:0:
256,192,195873,1,8,0:0:0:0:
256,192,195941,1,0,0:0:0:0:
256,192,196009,1,0,0:0:0:0:
256,192,196077,1,8,0:0:0:0:
256,192,196146,1,8,0:0:0:0:
256,192,196214,1,8,0:0:0:0:
256,192,196282,1,8,0:0:0:0:
256,192,196350,1,4,0:0:0:0:
256,192,196623,1,0,0:0:0:0:
256,192,196759,1,8,0:0:0:0:
256,192,196827,1,0,0:0:0:0:
256,192,196896,1,8,0:0:0:0:
256,192,196964,1,8,0:0:0:0:
256,192,197032,1,0,0:0:0:0:
256,192,197100,1,0,0:0:0:0:
256,192,197168,1,8,0:0:0:0:
256,192,197305,1,0,0:0:0:0:
256,192,197373,1,0,0:0:0:0:
256,192,197441,1,8,0:0:0:0:
256,192,197509,1,8,0:0:0:0:
256,192,197577,1,0,0:0:0:0:
256,192,197646,1,0,0:0:0:0:
256,192,197714,1,8,0:0:0:0:
256,192,197782,1,0,0:0:0:0:
256,192,197850,1,8,0:0:0:0:
256,192,197918,1,0,0:0:0:0:
256,192,197987,1,8,0:0:0:0:
256,192,198032,1,8,0:0:0:0:
256,192,198077,1,8,0:0:0:0:
256,192,198123,1,8,0:0:0:0:
256,192,198259,1,8,0:0:0:0:
256,192,198305,1,0,0:0:0:0:
256,192,198350,1,0,0:0:0:0:
256,192,198396,1,8,0:0:0:0:
256,192,198464,1,0,0:0:0:0:
256,192,198532,1,8,0:0:0:0:
256,192,198668,1,0,0:0:0:0:
256,192,198737,1,0,0:0:0:0:
256,192,198805,1,8,0:0:0:0:
256,192,198873,1,0,0:0:0:0:
256,192,198941,1,8,0:0:0:0:
256,192,199009,1,8,0:0:0:0:
256,192,199077,1,0,0:0:0:0:
256,192,199214,1,0,0:0:0:0:
256,192,199350,1,8,0:0:0:0:
256,192,199418,1,8,0:0:0:0:
256,192,199487,1,0,0:0:0:0:
224,192,199623,1,4,0:0:0:0:
224,192,199759,1,8,0:0:0:0:
224,192,199793,1,8,0:0:0:0:
224,192,199896,1,8,0:0:0:0:
224,192,199930,1,8,0:0:0:0:
224,192,200032,1,8,0:0:0:0:
224,192,200066,1,8,0:0:0:0:
224,192,200168,1,0,0:0:0:0:
224,192,200237,1,8,0:0:0:0:
224,192,200305,1,0,0:0:0:0:
224,192,200373,1,0,0:0:0:0:
224,192,200441,1,8,0:0:0:0:
224,192,200577,1,8,0:0:0:0:
224,192,200714,1,8,0:0:0:0:
224,192,200782,1,8,0:0:0:0:
224,192,200850,1,0,0:0:0:0:
224,192,200918,1,0,0:0:0:0:
224,192,200987,1,8,0:0:0:0:
224,192,201021,1,8,0:0:0:0:
224,192,201123,1,8,0:0:0:0:
224,192,201157,1,8,0:0:0:0:
224,192,201259,1,0,0:0:0:0:
224,192,201396,1,0,0:0:0:0:
224,192,201464,1,8,0:0:0:0:
224,192,201532,1,0,0:0:0:0:
224,192,201600,1,8,0:0:0:0:
224,192,201668,1,0,0:0:0:0:
224,192,201737,1,0,0:0:0:0:
224,192,201805,1,8,0:0:0:0:
224,192,201873,1,8,0:0:0:0:
224,192,201941,1,0,0:0:0:0:
224,192,202009,1,0,0:0:0:0:
224,192,202077,1,8,0:0:0:0:
256,192,202896,5,0,0:0:0:0:
256,192,202964,1,8,0:0:0:0:
256,192,203032,1,0,0:0:0:0:
256,192,203100,1,8,0:0:0:0:
256,192,203168,1,0,0:0:0:0:
256,192,203237,1,8,0:0:0:0:
256,192,203305,1,0,0:0:0:0:
256,192,203373,1,8,0:0:0:0:
256,192,203441,1,0,0:0:0:0:
256,192,203509,1,8,0:0:0:0:
256,192,203577,1,0,0:0:0:0:
256,192,203646,1,0,0:0:0:0:
256,192,203714,1,8,0:0:0:0:
256,192,203782,1,0,0:0:0:0:
256,192,203850,1,8,0:0:0:0:
256,192,203918,1,0,0:0:0:0:
256,192,203987,1,8,0:0:0:0:
256,192,204055,1,0,0:0:0:0:
256,192,204123,1,8,0:0:0:0:
256,192,204191,1,0,0:0:0:0:
256,192,204259,1,8,0:0:0:0:
256,192,204327,1,0,0:0:0:0:
256,192,204396,1,8,0:0:0:0:
256,192,204464,1,0,0:0:0:0:
256,192,204532,1,8,0:0:0:0:
256,192,204600,1,8,0:0:0:0:
256,192,204668,1,0,0:0:0:0:
256,192,204737,1,0,0:0:0:0:
256,192,204805,1,8,0:0:0:0:
256,192,204873,1,8,0:0:0:0:
256,192,204941,1,0,0:0:0:0:
256,192,205009,1,0,0:0:0:0:
256,192,205077,1,8,0:0:0:0:
256,192,205146,1,8,0:0:0:0:
256,192,205214,1,0,0:0:0:0:
256,192,205282,1,0,0:0:0:0:
256,192,205350,1,8,0:0:0:0:
256,192,205418,1,0,0:0:0:0:
256,192,205487,1,8,0:0:0:0:
256,192,205555,1,0,0:0:0:0:
256,192,205623,1,8,0:0:0:0:
256,192,205691,1,0,0:0:0:0:
256,192,205759,1,8,0:0:0:0:
256,192,205827,1,0,0:0:0:0:
256,192,205896,1,8,0:0:0:0:
256,192,205964,1,8,0:0:0:0:
256,192,206032,1,0,0:0:0:0:
256,192,206100,1,0,0:0:0:0:
256,192,206168,1,8,0:0:0:0:
256,192,206714,1,8,0:0:0:0:
256,192,206987,1,0,0:0:0:0:
256,192,207396,1,8,0:0:0:0:
256,192,207805,1,0,0:0:0:0:
256,192,208487,1,0,0:0:0:0:
256,192,208555,1,0,0:0:0:0:
256,192,208623,1,12,0:0:0:0:
256,192,208759,12,0,209305,0:0:0:0:
256,192,209441,5,8,0:0:0:0:
256,192,209577,1,0,0:0:0:0:
256,192,209646,1,8,0:0:0:0:
256,192,209714,1,0,0:0:0:0:
256,192,209782,1,0,0:0:0:0:
256,192,209850,1,8,0:0:0:0:
256,192,209987,1,0,0:0:0:0:
256,192,210055,1,0,0:0:0:0:
256,192,210123,1,8,0:0:0:0:
256,192,210191,1,8,0:0:0:0:
256,192,210259,1,0,0:0:0:0:
256,192,210396,1,0,0:0:0:0:
256,192,210464,1,0,0:0:0:0:
256,192,210532,1,8,0:0:0:0:
256,192,210600,1,0,0:0:0:0:
256,192,210668,1,8,0:0:0:0:
256,192,210737,1,8,0:0:0:0:
256,192,210805,1,0,0:0:0:0:
256,192,210941,1,8,0:0:0:0:
256,192,211009,1,8,0:0:0:0:
256,192,211077,1,0,0:0:0:0:
256,192,211214,1,0,0:0:0:0:
256,192,211282,1,8,0:0:0:0:
256,192,211350,1,8,0:0:0:0:
256,192,211418,1,0,0:0:0:0:
256,192,211487,1,8,0:0:0:0:
256,192,211623,1,0,0:0:0:0:
256,192,211691,1,0,0:0:0:0:
256,192,211759,1,8,0:0:0:0:
256,192,211896,1,8,0:0:0:0:
256,192,212032,1,0,0:0:0:0:
256,192,212100,1,8,0:0:0:0:
256,192,212168,1,0,0:0:0:0:
256,192,212237,1,0,0:0:0:0:
256,192,212305,1,8,0:0:0:0:
256,192,212441,1,0,0:0:0:0:
256,192,212509,1,8,0:0:0:0:
256,192,212577,1,0,0:0:0:0:
256,192,212714,1,8,0:0:0:0:
256,192,212850,1,0,0:0:0:0:
256,192,212918,1,0,0:0:0:0:
256,192,212987,1,8,0:0:0:0:
256,192,213055,1,0,0:0:0:0:
256,192,213123,1,8,0:0:0:0:
256,192,213259,1,0,0:0:0:0:
256,192,213327,1,0,0:0:0:0:
256,192,213396,1,8,0:0:0:0:
256,192,213532,1,8,0:0:0:0:
256,192,213668,1,8,0:0:0:0:
256,192,213737,1,8,0:0:0:0:
256,192,213805,1,0,0:0:0:0:
256,192,213941,1,8,0:0:0:0:
256,192,214009,1,0,0:0:0:0:
256,192,214077,1,0,0:0:0:0:
256,192,214214,1,0,0:0:0:0:
256,192,214282,1,8,0:0:0:0:
256,192,214350,1,0,0:0:0:0:
256,192,214487,1,0,0:0:0:0:
256,192,214555,1,0,0:0:0:0:
256,192,214623,1,8,0:0:0:0:
256,192,214691,1,0,0:0:0:0:
256,192,214759,1,8,0:0:0:0:
256,192,214896,1,0,0:0:0:0:
256,192,214964,1,8,0:0:0:0:
256,192,215032,1,0,0:0:0:0:
256,192,215168,1,8,0:0:0:0:
256,192,215305,1,8,0:0:0:0:
256,192,215373,1,8,0:0:0:0:
256,192,215441,1,0,0:0:0:0:
256,192,215509,1,8,0:0:0:0:
256,192,215577,1,0,0:0:0:0:
256,192,215646,1,0,0:0:0:0:
256,192,215714,1,8,0:0:0:0:
256,192,215850,1,8,0:0:0:0:
256,192,215918,1,8,0:0:0:0:
256,192,215987,1,4,0:0:0:0:
256,192,216123,1,0,0:0:0:0:
256,192,216191,1,0,0:0:0:0:
256,192,216259,1,8,0:0:0:0:
256,192,216327,1,0,0:0:0:0:
256,192,216396,1,8,0:0:0:0:
256,192,216532,1,8,0:0:0:0:
256,192,216600,1,0,0:0:0:0:
256,192,216668,1,8,0:0:0:0:
256,192,216737,1,8,0:0:0:0:
256,192,216805,1,0,0:0:0:0:
256,192,216941,1,0,0:0:0:0:
256,192,217009,1,8,0:0:0:0:
256,192,217077,1,0,0:0:0:0:
256,192,217146,1,0,0:0:0:0:
256,192,217214,1,8,0:0:0:0:
256,192,217350,1,0,0:0:0:0:
256,192,217418,1,0,0:0:0:0:
256,192,217487,1,8,0:0:0:0:
256,192,217623,1,8,0:0:0:0:
256,192,217759,1,8,0:0:0:0:
256,192,217827,1,8,0:0:0:0:
256,192,217896,1,0,0:0:0:0:
256,192,217964,1,0,0:0:0:0:
256,192,218032,1,8,0:0:0:0:
256,192,218168,1,0,0:0:0:0:
256,192,218237,1,0,0:0:0:0:
256,192,218305,1,8,0:0:0:0:
256,192,218441,1,0,0:0:0:0:
256,192,218577,1,8,0:0:0:0:
256,192,218646,1,8,0:0:0:0:
256,192,218714,1,0,0:0:0:0:
256,192,218782,1,0,0:0:0:0:
256,192,218850,1,8,0:0:0:0:
256,192,218918,1,0,0:0:0:0:
256,192,218987,1,8,0:0:0:0:
256,192,219055,1,8,0:0:0:0:
256,192,219123,1,0,0:0:0:0:
256,192,219259,1,8,0:0:0:0:
256,192,219396,1,0,0:0:0:0:
256,192,219464,1,8,0:0:0:0:
256,192,219532,1,0,0:0:0:0:
256,192,219600,1,0,0:0:0:0:
256,192,219668,1,8,0:0:0:0:
256,192,219805,1,0,0:0:0:0:
256,192,219873,1,0,0:0:0:0:
256,192,219941,1,8,0:0:0:0:
256,192,220009,1,8,0:0:0:0:
256,192,220077,1,0,0:0:0:0:
256,192,220214,1,0,0:0:0:0:
256,192,220282,1,0,0:0:0:0:
256,192,220350,1,8,0:0:0:0:
256,192,220418,1,0,0:0:0:0:
256,192,220487,1,8,0:0:0:0:
256,192,220555,1,8,0:0:0:0:
256,192,220623,1,0,0:0:0:0:
256,192,220759,1,0,0:0:0:0:
256,192,220896,1,8,0:0:0:0:
256,192,221032,1,0,0:0:0:0:
256,192,221100,1,0,0:0:0:0:
256,192,221168,1,8,0:0:0:0:
256,192,221237,1,0,0:0:0:0:
256,192,221305,1,8,0:0:0:0:
256,192,221441,1,0,0:0:0:0:
256,192,221509,1,0,0:0:0:0:
256,192,221577,1,8,0:0:0:0:
256,192,221714,1,8,0:0:0:0:
256,192,221987,1,0,0:0:0:0:
256,192,222055,1,0,0:0:0:0:
256,192,222123,1,8,0:0:0:0:
256,192,222259,1,8,0:0:0:0:
256,192,222327,1,8,0:0:0:0:
256,192,222396,1,0,0:0:0:0:
256,192,222532,1,0,0:0:0:0:
256,192,222668,1,8,0:0:0:0:
256,192,222805,1,0,0:0:0:0:
256,192,222873,1,0,0:0:0:0:
256,192,222941,1,8,0:0:0:0:
256,192,223077,1,8,0:0:0:0:
256,192,223146,1,8,0:0:0:0:
256,192,223214,1,0,0:0:0:0:
256,192,223282,1,8,0:0:0:0:
256,192,223350,1,0,0:0:0:0:
256,192,223487,1,0,0:0:0:0:
256,192,223555,1,0,0:0:0:0:
256,192,223623,1,8,0:0:0:0:
256,192,223691,1,0,0:0:0:0:
256,192,223759,1,8,0:0:0:0:
256,192,223827,1,8,0:0:0:0:
256,192,223896,1,0,0:0:0:0:
256,192,224032,1,8,0:0:0:0:
256,192,224168,1,0,0:0:0:0:
256,192,224305,1,8,0:0:0:0:
256,192,224373,1,0,0:0:0:0:
256,192,224441,1,8,0:0:0:0:
256,192,224577,1,8,0:0:0:0:
256,192,224714,1,0,0:0:0:0:
256,192,224850,1,0,0:0:0:0:
256,192,224918,1,0,0:0:0:0:
256,192,224987,1,8,0:0:0:0:
256,192,227441,12,8,229896,0:0:0:0:
256,192,230714,5,0,0:0:0:0:
256,192,230782,1,8,0:0:0:0:
256,192,230850,1,0,0:0:0:0:
256,192,230918,1,0,0:0:0:0:
256,192,230987,1,8,0:0:0:0:
256,192,231123,1,0,0:0:0:0:
256,192,231259,1,8,0:0:0:0:
256,192,231327,1,8,0:0:0:0:
256,192,231396,1,0,0:0:0:0:
256,192,231532,1,8,0:0:0:0:
256,192,231668,1,0,0:0:0:0:
256,192,231737,1,0,0:0:0:0:
256,192,231805,1,8,0:0:0:0:
256,192,231873,1,8,0:0:0:0:
256,192,231941,1,0,0:0:0:0:
256,192,232077,1,8,0:0:0:0:
256,192,232146,1,8,0:0:0:0:
256,192,232214,1,0,0:0:0:0:
256,192,232350,1,8,0:0:0:0:
256,192,232487,1,0,0:0:0:0:
256,192,232555,1,0,0:0:0:0:
256,192,232623,1,8,0:0:0:0:
256,192,232691,1,8,0:0:0:0:
256,192,232759,1,0,0:0:0:0:
256,192,232896,1,8,0:0:0:0:
256,192,232964,1,8,0:0:0:0:
256,192,233032,1,0,0:0:0:0:
256,192,233100,1,0,0:0:0:0:
256,192,233168,1,8,0:0:0:0:
256,192,233305,1,0,0:0:0:0:
256,192,233373,1,8,0:0:0:0:
256,192,233441,1,0,0:0:0:0:
256,192,233577,1,8,0:0:0:0:
256,192,233714,1,0,0:0:0:0:
256,192,233782,1,0,0:0:0:0:
256,192,233850,1,8,0:0:0:0:
256,192,233987,1,0,0:0:0:0:
256,192,234123,1,8,0:0:0:0:
256,192,234191,1,0,0:0:0:0:
256,192,234259,1,8,0:0:0:0:
256,192,234327,1,8,0:0:0:0:
256,192,234396,1,0,0:0:0:0:
256,192,234532,1,0,0:0:0:0:
256,192,234600,1,0,0:0:0:0:
256,192,234668,1,8,0:0:0:0:
256,192,234805,1,8,0:0:0:0:
256,192,234873,1,0,0:0:0:0:
256,192,234941,1,8,0:0:0:0:
256,192,235009,1,0,0:0:0:0:
256,192,235077,1,8,0:0:0:0:
256,192,235214,1,0,0:0:0:0:
256,192,235282,1,8,0:0:0:0:
256,192,235350,1,0,0:0:0:0:
256,192,235487,1,8,0:0:0:0:
256,192,235623,1,0,0:0:0:0:
256,192,235759,1,0,0:0:0:0:
256,192,235827,1,0,0:0:0:0:
256,192,235896,1,8,0:0:0:0:
256,192,235964,1,8,0:0:0:0:
256,192,236032,1,0,0:0:0:0:
256,192,236168,1,8,0:0:0:0:
256,192,236305,1,0,0:0:0:0:
256,192,236441,1,8,0:0:0:0:
256,192,236577,1,0,0:0:0:0:
256,192,236646,1,0,0:0:0:0:
256,192,236714,1,0,0:0:0:0:
256,192,236782,1,0,0:0:0:0:
256,192,236850,1,8,0:0:0:0:
256,192,236987,1,0,0:0:0:0:
256,192,237055,1,0,0:0:0:0:
256,192,237123,1,8,0:0:0:0:
256,192,237191,1,0,0:0:0:0:
256,192,237259,1,0,0:0:0:0:
256,192,237396,1,0,0:0:0:0:
256,192,237464,1,0,0:0:0:0:
256,192,237532,1,8,0:0:0:0:
256,192,237668,1,8,0:0:0:0:
256,192,237805,1,0,0:0:0:0:
256,192,237873,1,0,0:0:0:0:
256,192,237941,1,8,0:0:0:0:
256,192,238077,1,8,0:0:0:0:
256,192,238214,1,0,0:0:0:0:
256,192,238282,1,0,0:0:0:0:
256,192,238350,1,8,0:0:0:0:
256,192,238418,1,8,0:0:0:0:
256,192,238487,1,0,0:0:0:0:
256,192,238623,1,8,0:0:0:0:
256,192,238759,1,0,0:0:0:0:
256,192,238896,1,8,0:0:0:0:
256,192,238964,1,0,0:0:0:0:
256,192,239032,1,8,0:0:0:0:
256,192,239100,1,8,0:0:0:0:
256,192,239168,1,0,0:0:0:0:
256,192,239305,1,8,0:0:0:0:
256,192,239441,1,8,0:0:0:0:
256,192,239577,1,0,0:0:0:0:
256,192,239714,1,8,0:0:0:0:
256,192,239850,1,0,0:0:0:0:
256,192,239918,1,0,0:0:0:0:
256,192,239987,1,8,0:0:0:0:
256,192,240055,1,8,0:0:0:0:
256,192,240123,1,0,0:0:0:0:
256,192,240191,1,0,0:0:0:0:
256,192,240259,1,8,0:0:0:0:
256,192,240396,1,0,0:0:0:0:
256,192,240532,1,0,0:0:0:0:
256,192,240600,1,8,0:0:0:0:
256,192,240668,1,0,0:0:0:0:
256,192,240737,1,0,0:0:0:0:
256,192,240805,1,8,0:0:0:0:
256,192,240941,1,0,0:0:0:0:
256,192,241077,1,8,0:0:0:0:
256,192,241146,1,0,0:0:0:0:
256,192,241214,1,8,0:0:0:0:
256,192,241350,1,0,0:0:0:0:
256,192,241487,1,8,0:0:0:0:
256,192,241555,1,8,0:0:0:0:
256,192,241623,1,0,0:0:0:0:
256,192,241691,1,8,0:0:0:0:
256,192,241759,1,0,0:0:0:0:
256,192,241896,1,0,0:0:0:0:
256,192,241964,1,8,0:0:0:0:
256,192,242032,1,8,0:0:0:0:
256,192,242100,1,8,0:0:0:0:
256,192,242168,1,0,0:0:0:0:
256,192,242305,1,8,0:0:0:0:
256,192,242441,1,0,0:0:0:0:
256,192,242509,1,8,0:0:0:0:
256,192,242577,1,0,0:0:0:0:
256,192,242646,1,0,0:0:0:0:
256,192,242714,1,8,0:0:0:0:
256,192,242850,1,0,0:0:0:0:
256,192,242987,1,8,0:0:0:0:
256,192,243123,1,8,0:0:0:0:
256,192,243191,1,8,0:0:0:0:
256,192,243259,1,0,0:0:0:0:
256,192,243396,1,8,0:0:0:0:
256,192,243532,1,0,0:0:0:0:
256,192,243600,1,0,0:0:0:0:
256,192,243668,1,8,0:0:0:0:
256,192,243805,1,0,0:0:0:0:
256,192,243873,1,8,0:0:0:0:
256,192,243941,1,0,0:0:0:0:
256,192,244009,1,0,0:0:0:0:
256,192,244077,1,8,0:0:0:0:
256,192,244214,1,0,0:0:0:0:
256,192,244350,1,8,0:0:0:0:
256,192,244418,1,8,0:0:0:0:
256,192,244487,1,0,0:0:0:0:
256,192,244623,1,8,0:0:0:0:
256,192,244691,1,0,0:0:0:0:
256,192,244759,1,8,0:0:0:0:
256,192,244896,1,0,0:0:0:0:
256,192,244964,1,8,0:0:0:0:
256,192,245032,1,0,0:0:0:0:
256,192,245100,1,8,0:0:0:0:
256,192,245168,1,0,0:0:0:0:
256,192,245305,1,8,0:0:0:0:
256,192,245373,1,8,0:0:0:0:
256,192,245441,1,0,0:0:0:0:
256,192,245577,1,8,0:0:0:0:
256,192,245714,1,0,0:0:0:0:
256,192,245782,1,0,0:0:0:0:
256,192,245850,1,8,0:0:0:0:
256,192,245918,1,8,0:0:0:0:
256,192,245987,1,0,0:0:0:0:
256,192,246123,1,0,0:0:0:0:
256,192,246259,1,8,0:0:0:0:
256,192,246396,1,0,0:0:0:0:
256,192,246464,1,8,0:0:0:0:
256,192,246532,1,0,0:0:0:0:
256,192,246600,1,0,0:0:0:0:
256,192,246668,1,8,0:0:0:0:
256,192,246805,1,0,0:0:0:0:
256,192,246873,1,0,0:0:0:0:
256,192,246941,1,8,0:0:0:0:
256,192,247009,1,0,0:0:0:0:
256,192,247077,1,0,0:0:0:0:
256,192,247214,1,0,0:0:0:0:
256,192,247282,1,0,0:0:0:0:
256,192,247350,1,8,0:0:0:0:
256,192,247487,1,8,0:0:0:0:
256,192,247623,1,0,0:0:0:0:
256,192,247691,1,8,0:0:0:0:
256,192,247759,1,8,0:0:0:0:
256,192,247896,1,8,0:0:0:0:
256,192,248032,1,0,0:0:0:0:
256,192,248100,1,0,0:0:0:0:
256,192,248168,1,8,0:0:0:0:
256,192,248237,1,8,0:0:0:0:
256,192,248305,1,0,0:0:0:0:
256,192,248441,1,8,0:0:0:0:
256,192,248577,1,0,0:0:0:0:
256,192,248646,1,0,0:0:0:0:
256,192,248714,1,8,0:0:0:0:
256,192,248850,1,8,0:0:0:0:
256,192,248918,1,8,0:0:0:0:
256,192,248987,1,0,0:0:0:0:
256,192,249055,1,8,0:0:0:0:
256,192,249123,1,8,0:0:0:0:
256,192,249259,1,8,0:0:0:0:
256,192,249396,1,0,0:0:0:0:
256,192,249532,1,8,0:0:0:0:
256,192,249668,1,0,0:0:0:0:
256,192,249737,1,0,0:0:0:0:
256,192,249805,1,8,0:0:0:0:
256,192,249873,1,8,0:0:0:0:
256,192,249941,1,0,0:0:0:0:
256,192,250077,1,0,0:0:0:0:
256,192,250146,1,8,0:0:0:0:
256,192,250350,5,4,0:0:0:0:
256,192,250623,1,8,0:0:0:0:
256,192,250691,1,8,0:0:0:0:
256,192,250759,1,0,0:0:0:0:
256,192,250827,1,0,0:0:0:0:
256,192,250896,1,8,0:0:0:0:
256,192,251032,1,0,0:0:0:0:
256,192,251100,1,0,0:0:0:0:
256,192,251168,1,8,0:0:0:0:
256,192,251305,1,0,0:0:0:0:
256,192,251373,1,0,0:0:0:0:
256,192,251441,1,8,0:0:0:0:
256,192,251487,1,8,0:0:0:0:
256,192,251532,1,8,0:0:0:0:
256,192,251577,1,0,0:0:0:0:
256,192,251714,1,0,0:0:0:0:
256,192,251782,1,8,0:0:0:0:
256,192,251850,1,8,0:0:0:0:
256,192,251918,1,8,0:0:0:0:
256,192,251987,1,0,0:0:0:0:
256,192,252123,1,8,0:0:0:0:
256,192,252191,1,0,0:0:0:0:
256,192,252259,1,8,0:0:0:0:
256,192,252327,1,8,0:0:0:0:
256,192,252396,1,0,0:0:0:0:
256,192,252464,1,8,0:0:0:0:
256,192,252532,1,0,0:0:0:0:
256,192,252600,1,8,0:0:0:0:
256,192,252668,1,0,0:0:0:0:
256,192,252737,1,0,0:0:0:0:
256,192,252805,1,8,0:0:0:0:
256,192,252941,1,8,0:0:0:0:
256,192,253009,1,8,0:0:0:0:
256,192,253077,1,0,0:0:0:0:
256,192,253146,1,8,0:0:0:0:
256,192,253214,1,0,0:0:0:0:
256,192,253282,1,0,0:0:0:0:
256,192,253350,1,8,0:0:0:0:
256,192,253418,1,8,0:0:0:0:
256,192,253487,1,0,0:0:0:0:
256,192,253555,1,8,0:0:0:0:
256,192,253623,1,0,0:0:0:0:
256,192,253657,1,0,0:0:0:0:
256,192,253759,1,0,0:0:0:0:
256,192,253793,1,0,0:0:0:0:
256,192,253896,1,8,0:0:0:0:
256,192,253964,1,8,0:0:0:0:
256,192,254032,1,0,0:0:0:0:
256,192,254100,1,8,0:0:0:0:
256,192,254168,1,0,0:0:0:0:
256,192,254214,1,0,0:0:0:0:
256,192,254259,1,0,0:0:0:0:
256,192,254305,1,8,0:0:0:0:
256,192,254441,1,8,0:0:0:0:
256,192,254577,1,0,0:0:0:0:
256,192,254646,1,0,0:0:0:0:
256,192,254714,1,8,0:0:0:0:
256,192,254782,1,8,0:0:0:0:
256,192,254850,1,0,0:0:0:0:
256,192,254918,1,0,0:0:0:0:
256,192,254987,1,8,0:0:0:0:
256,192,255123,1,0,0:0:0:0:
256,192,255259,1,8,0:0:0:0:
256,192,255327,1,8,0:0:0:0:
256,192,255396,1,8,0:0:0:0:
256,192,255464,1,8,0:0:0:0:
256,192,255532,1,0,0:0:0:0:
256,192,255668,1,8,0:0:0:0:
256,192,255737,1,8,0:0:0:0:
256,192,255805,1,0,0:0:0:0:
256,192,255941,1,0,0:0:0:0:
256,192,256009,1,0,0:0:0:0:
256,192,256077,1,8,0:0:0:0:
256,192,256146,1,8,0:0:0:0:
256,192,256214,1,8,0:0:0:0:
256,192,256282,1,8,0:0:0:0:
256,192,256350,1,0,0:0:0:0:
256,192,256487,1,0,0:0:0:0:
256,192,256623,1,8,0:0:0:0:
256,192,256691,1,0,0:0:0:0:
256,192,256759,1,8,0:0:0:0:
256,192,256827,1,8,0:0:0:0:
256,192,256896,1,0,0:0:0:0:
256,192,257032,1,8,0:0:0:0:
256,192,257100,1,8,0:0:0:0:
256,192,257168,1,0,0:0:0:0:
256,192,257237,1,0,0:0:0:0:
256,192,257305,1,8,0:0:0:0:
256,192,257350,1,8,0:0:0:0:
256,192,257396,1,8,0:0:0:0:
256,192,257441,1,0,0:0:0:0:
256,192,257577,1,8,0:0:0:0:
256,192,257646,1,8,0:0:0:0:
256,192,257714,1,0,0:0:0:0:
256,192,257850,1,0,0:0:0:0:
256,192,257918,1,0,0:0:0:0:
256,192,257987,1,8,0:0:0:0:
256,192,258055,1,8,0:0:0:0:
256,192,258123,1,0,0:0:0:0:
256,192,258191,1,8,0:0:0:0:
256,192,258259,1,0,0:0:0:0:
256,192,258305,1,0,0:0:0:0:
256,192,258350,1,0,0:0:0:0:
256,192,258396,1,8,0:0:0:0:
256,192,258532,1,0,0:0:0:0:
256,192,258600,1,0,0:0:0:0:
256,192,258668,1,8,0:0:0:0:
256,192,258737,1,8,0:0:0:0:
256,192,258805,1,0,0:0:0:0:
256,192,258873,1,8,0:0:0:0:
256,192,258941,1,0,0:0:0:0:
256,192,259077,1,8,0:0:0:0:
256,192,259146,1,8,0:0:0:0:
256,192,259214,1,8,0:0:0:0:
256,192,259282,1,8,0:0:0:0:
256,192,259350,1,0,0:0:0:0:
256,192,259487,1,8,0:0:0:0:
256,192,259555,1,0,0:0:0:0:
256,192,259623,1,8,0:0:0:0:
256,192,259896,1,0,0:0:0:0:
256,192,260168,5,0,0:0:0:0:
256,192,260305,1,0,0:0:0:0:
256,192,260441,1,8,0:0:0:0:
256,192,260577,1,0,0:0:0:0:
256,192,260714,1,8,0:0:0:0:
256,192,260782,1,8,0:0:0:0:
256,192,260850,1,0,0:0:0:0:
256,192,260987,1,8,0:0:0:0:
256,192,261123,1,0,0:0:0:0:
256,192,261259,1,8,0:0:0:0:
256,192,261327,1,0,0:0:0:0:
256,192,261396,1,0,0:0:0:0:
256,192,261532,1,8,0:0:0:0:
256,192,261668,1,8,0:0:0:0:
256,192,261805,1,0,0:0:0:0:
256,192,262077,1,8,0:0:0:0:
256,192,262146,1,8,0:0:0:0:
256,192,262214,1,0,0:0:0:0:
256,192,262282,1,8,0:0:0:0:
256,192,262350,1,0,0:0:0:0:
256,192,262418,1,0,0:0:0:0:
256,192,262487,1,0,0:0:0:0:
256,192,262555,1,0,0:0:0:0:
256,192,262623,1,8,0:0:0:0:
256,192,262896,1,0,0:0:0:0:
256,192,262964,1,0,0:0:0:0:
256,192,263032,1,8,0:0:0:0:
256,192,263100,1,8,0:0:0:0:
256,192,263168,1,0,0:0:0:0:
256,192,263237,1,8,0:0:0:0:
256,192,263305,1,8,0:0:0:0:
256,192,263373,1,8,0:0:0:0:
256,192,263441,1,0,0:0:0:0:
256,192,263577,1,8,0:0:0:0:
256,192,263646,1,8,0:0:0:0:
256,192,263714,1,0,0:0:0:0:
256,192,263782,1,8,0:0:0:0:
256,192,263850,1,0,0:0:0:0:
256,192,263918,1,8,0:0:0:0:
256,192,263987,1,0,0:0:0:0:
256,192,264032,1,0,0:0:0:0:
256,192,264077,1,0,0:0:0:0:
256,192,264123,1,8,0:0:0:0:
256,192,264259,1,8,0:0:0:0:
256,192,264396,1,0,0:0:0:0:
256,192,264464,1,0,0:0:0:0:
256,192,264532,1,8,0:0:0:0:
256,192,264577,1,8,0:0:0:0:
256,192,264623,1,8,0:0:0:0:
256,192,264668,1,8,0:0:0:0:
256,192,264805,1,0,0:0:0:0:
256,192,265077,1,8,0:0:0:0:
256,192,265146,1,8,0:0:0:0:
256,192,265214,1,0,0:0:0:0:
256,192,265282,1,8,0:0:0:0:
256,192,265350,1,0,0:0:0:0:
256,192,265418,1,0,0:0:0:0:
256,192,265487,1,8,0:0:0:0:
256,192,265623,1,0,0:0:0:0:
256,192,265759,1,0,0:0:0:0:
256,192,265827,1,0,0:0:0:0:
256,192,265896,1,8,0:0:0:0:
256,192,266032,1,0,0:0:0:0:
256,192,266100,1,8,0:0:0:0:
256,192,266168,1,0,0:0:0:0:
256,192,266237,1,8,0:0:0:0:
256,192,266305,1,0,0:0:0:0:
256,192,266373,1,0,0:0:0:0:
256,192,266441,1,8,0:0:0:0:
256,192,266487,1,0,0:0:0:0:
256,192,266532,1,0,0:0:0:0:
256,192,266577,1,8,0:0:0:0:
256,192,266714,1,0,0:0:0:0:
256,192,267123,1,8,0:0:0:0:
256,192,267396,1,0,0:0:0:0:
256,192,267532,1,8,0:0:0:0:
256,192,267805,1,8,0:0:0:0:
256,192,267873,5,8,0:0:0:0:
256,192,267941,1,0,0:0:0:0:
256,192,268009,1,0,0:0:0:0:
256,192,268077,1,8,0:0:0:0:
256,192,268123,1,8,0:0:0:0:
256,192,268168,1,8,0:0:0:0:
256,192,268214,1,0,0:0:0:0:
256,192,268350,1,0,0:0:0:0:
256,192,268759,1,0,0:0:0:0:
256,192,269168,1,12,0:0:0:0:
256,192,269305,12,0,269850,0:0:0:0:
256,192,269987,5,4,0:0:0:0:
256,192,271623,1,8,0:0:0:0:
256,192,274896,1,0,0:0:0:0:
256,192,276532,1,8,0:0:0:0:
256,192,278168,5,0,0:0:0:0:
256,192,278305,12,0,278850,0:0:0:0:
256,192,278987,5,8,0:0:0:0:
256,192,279055,1,0,0:0:0:0:
256,192,279123,1,8,0:0:0:0:
256,192,279191,1,0,0:0:0:0:
256,192,279259,1,8,0:0:0:0:
256,192,279327,1,0,0:0:0:0:
256,192,279396,1,8,0:0:0:0:
256,192,279464,1,0,0:0:0:0:
256,192,279532,1,8,0:0:0:0:
256,192,279600,1,0,0:0:0:0:
256,192,279668,1,8,0:0:0:0:
256,192,279737,1,0,0:0:0:0:
256,192,279805,1,8,0:0:0:0:
256,192,279896,1,0,0:0:0:0:
256,192,279987,1,8,0:0:0:0:
256,192,280077,1,8,0:0:0:0:
256,192,280168,1,0,0:0:0:0:
256,192,280259,1,8,0:0:0:0:
256,192,280350,1,8,0:0:0:0:
256,192,280441,1,0,0:0:0:0:
256,192,280532,1,0,0:0:0:0:
256,192,280623,1,8,0:0:0:0:
256,192,280691,1,0,0:0:0:0:
256,192,280759,1,8,0:0:0:0:
256,192,280827,1,0,0:0:0:0:
256,192,280896,1,8,0:0:0:0:
256,192,280964,1,0,0:0:0:0:
256,192,281032,1,8,0:0:0:0:
256,192,281100,1,0,0:0:0:0:
256,192,281168,1,8,0:0:0:0:
256,192,281237,1,0,0:0:0:0:
256,192,281305,1,8,0:0:0:0:
256,192,281373,1,0,0:0:0:0:
256,192,281441,1,8,0:0:0:0:
256,192,281532,1,0,0:0:0:0:
256,192,281623,1,8,0:0:0:0:
256,192,281714,1,8,0:0:0:0:
256,192,281805,1,0,0:0:0:0:
256,192,281896,1,8,0:0:0:0:
256,192,281987,1,8,0:0:0:0:
256,192,282077,1,0,0:0:0:0:
256,192,282168,1,0,0:0:0:0:
256,192,282259,1,8,0:0:0:0:
256,192,282350,1,8,0:0:0:0:
256,192,282441,1,0,0:0:0:0:
256,192,282532,1,8,0:0:0:0:
256,192,282623,1,0,0:0:0:0:
256,192,282714,1,0,0:0:0:0:
256,192,282805,1,8,0:0:0:0:
256,192,282896,1,0,0:0:0:0:
256,192,282987,1,0,0:0:0:0:
256,192,283077,1,8,0:0:0:0:
256,192,283168,1,8,0:0:0:0:
256,192,283259,1,0,0:0:0:0:
256,192,283350,1,8,0:0:0:0:
256,192,283441,1,0,0:0:0:0:
256,192,283532,1,0,0:0:0:0:
256,192,283623,1,8,0:0:0:0:
256,192,283714,1,0,0:0:0:0:
256,192,283805,1,0,0:0:0:0:
256,192,283896,1,8,0:0:0:0:
256,192,283987,1,0,0:0:0:0:
256,192,284077,1,8,0:0:0:0:
256,192,284168,1,8,0:0:0:0:
256,192,284259,1,0,0:0:0:0:
256,192,284350,1,8,0:0:0:0:
256,192,284441,1,8,0:0:0:0:
256,192,284532,1,0,0:0:0:0:
256,192,284623,1,0,0:0:0:0:
256,192,284714,1,8,0:0:0:0:
256,192,284805,1,0,0:0:0:0:
256,192,284896,1,8,0:0:0:0:
256,192,284987,1,8,0:0:0:0:
256,192,285077,1,0,0:0:0:0:
256,192,285168,1,8,0:0:0:0:
256,192,285259,1,8,0:0:0:0:
256,192,285350,1,0,0:0:0:0:
256,192,285441,1,0,0:0:0:0:
256,192,285532,1,8,0:0:0:0:
256,192,285623,1,0,0:0:0:0:
256,192,285714,1,0,0:0:0:0:
256,192,285805,1,8,0:0:0:0:
256,192,285896,1,0,0:0:0:0:
256,192,285987,1,0,0:0:0:0:
256,192,286077,1,8,0:0:0:0:
256,192,286168,1,0,0:0:0:0:
256,192,286259,1,0,0:0:0:0:
256,192,286350,1,8,0:0:0:0:
256,192,286441,1,0,0:0:0:0:
256,192,286532,1,8,0:0:0:0:
256,192,286623,1,8,0:0:0:0:
256,192,286714,1,0,0:0:0:0:
256,192,286805,1,8,0:0:0:0:
256,192,286896,1,8,0:0:0:0:
256,192,286987,1,0,0:0:0:0:
256,192,287077,1,0,0:0:0:0:
256,192,287168,1,8,0:0:0:0:
256,192,287259,1,0,0:0:0:0:
256,192,287350,1,8,0:0:0:0:
256,192,287441,1,8,0:0:0:0:
256,192,287532,1,0,0:0:0:0:
256,192,287623,1,8,0:0:0:0:
256,192,287714,1,8,0:0:0:0:
256,192,287805,1,0,0:0:0:0:
256,192,287896,1,0,0:0:0:0:
256,192,287987,1,8,0:0:0:0:
256,192,288077,1,0,0:0:0:0:
256,192,288168,1,8,0:0:0:0:
256,192,288259,1,8,0:0:0:0:
256,192,288350,1,0,0:0:0:0:
256,192,288441,1,8,0:0:0:0:
256,192,288532,1,8,0:0:0:0:
256,192,288623,1,0,0:0:0:0:
256,192,288714,1,0,0:0:0:0:
256,192,288805,1,12,0:0:0:0:
