osu file format v14

[General]
AudioFilename: audio.mp3
AudioLeadIn: 0
PreviewTime: 149537
Countdown: 0
SampleSet: Normal
StackLeniency: 0.7
Mode: 3
LetterboxInBreaks: 0
SpecialStyle: 0
WidescreenStoryboard: 0

[Editor]
Bookmarks: 30006,52506,137506,150006,189381,196256
DistanceSpacing: 1
BeatDivisor: 4
GridSize: 32
TimelineZoom: 2.1

[Metadata]
Title:Anemone
TitleUnicode:Anémone
Artist:Ruby My Dear
ArtistUnicode:Ruby My Dear
Creator:Astelea
Version:Mental Starvation
Source:Brame
Tags:featured artist Julian Chastagnol Igorrr breakcore drill & bass idm jungle France instrumental electronic tech hybrid PRSPCT Recordings
BeatmapID:4436759
BeatmapSetID:2113129

[Difficulty]
HPDrainRate:8
CircleSize:4
OverallDifficulty:8
ApproachRate:5
SliderMultiplier:1.4
SliderTickRate:1

[Events]
//Background and Video events
0,0,"RubyMyDear.jpg",0,0
//Break Periods
//Storyboard Layer 0 (Background)
//Storyboard Layer 1 (Fail)
//Storyboard Layer 2 (Pass)
//Storyboard Layer 3 (Foreground)
//Storyboard Layer 4 (Overlay)
//Storyboard Sound Samples

[TimingPoints]
10006,312.5,4,1,1,100,1,0

[HitObjects]
448,192,9224,5,0,0:0:0:0:
320,192,9302,1,0,0:0:0:0:
64,192,9381,128,0,9537:0:0:0:0:
192,192,9459,128,0,9615:0:0:0:0:
320,192,9537,128,0,10006:0:0:0:0:
192,192,10006,5,0,0:0:0:0:
64,192,10006,128,0,10318:0:0:0:0:
448,192,10006,1,0,0:0:0:0:
320,192,10318,1,0,0:0:0:0:
320,192,10631,128,0,10943:0:0:0:0:
192,192,10943,1,0,0:0:0:0:
192,192,11256,128,0,11568:0:0:0:0:
448,192,11568,1,0,0:0:0:0:
448,192,11881,128,0,12193:0:0:0:0:
192,192,12193,1,0,0:0:0:0:
192,192,12506,128,0,12818:0:0:0:0:
64,192,12818,1,0,0:0:0:0:
64,192,13131,128,0,13443:0:0:0:0:
320,192,13443,1,0,0:0:0:0:
320,192,13756,128,0,14068:0:0:0:0:
448,192,14068,1,0,0:0:0:0:
448,192,14381,128,0,14693:0:0:0:0:
192,192,14693,1,0,0:0:0:0:
192,192,15006,128,0,15318:0:0:0:0:
448,192,15318,1,0,0:0:0:0:
448,192,15631,128,0,15943:0:0:0:0:
64,192,15943,1,0,0:0:0:0:
64,192,16256,128,0,16568:0:0:0:0:
192,192,16568,1,0,0:0:0:0:
192,192,16881,128,0,17193:0:0:0:0:
448,192,17193,1,0,0:0:0:0:
448,192,17506,128,0,17818:0:0:0:0:
64,192,17818,1,0,0:0:0:0:
64,192,18131,128,0,18443:0:0:0:0:
320,192,18443,1,0,0:0:0:0:
320,192,18756,128,0,19068:0:0:0:0:
192,192,19068,1,0,0:0:0:0:
192,192,19381,128,0,19693:0:0:0:0:
448,192,19693,1,0,0:0:0:0:
448,192,20006,128,0,20318:0:0:0:0:
64,192,20318,1,0,0:0:0:0:
64,192,20631,128,0,20943:0:0:0:0:
320,192,20943,1,0,0:0:0:0:
320,192,21256,128,0,21568:0:0:0:0:
448,192,21568,1,0,0:0:0:0:
448,192,21881,128,0,22193:0:0:0:0:
192,192,22193,1,0,0:0:0:0:
192,192,22506,128,0,22818:0:0:0:0:
64,192,22818,1,0,0:0:0:0:
64,192,23131,128,0,23443:0:0:0:0:
448,192,23443,1,0,0:0:0:0:
448,192,23756,128,0,24068:0:0:0:0:
192,192,24068,1,0,0:0:0:0:
192,192,24381,128,0,24693:0:0:0:0:
448,192,24693,1,0,0:0:0:0:
448,192,25006,128,0,25318:0:0:0:0:
192,192,25318,1,0,0:0:0:0:
192,192,25631,128,0,25943:0:0:0:0:
64,192,25943,1,0,0:0:0:0:
64,192,26256,128,0,26568:0:0:0:0:
320,192,26568,1,0,0:0:0:0:
320,192,26881,128,0,27193:0:0:0:0:
448,192,27193,1,0,0:0:0:0:
448,192,27506,128,0,27818:0:0:0:0:
192,192,27818,1,0,0:0:0:0:
192,192,28131,128,0,28443:0:0:0:0:
320,192,28443,1,0,0:0:0:0:
320,192,28756,128,0,29068:0:0:0:0:
192,192,29068,1,0,0:0:0:0:
192,192,29381,128,0,29693:0:0:0:0:
448,192,29381,128,0,29459:0:0:0:0:
320,192,29459,128,0,29537:0:0:0:0:
64,192,29537,128,0,29615:0:0:0:0:
448,192,29615,128,0,29693:0:0:0:0:
320,192,29693,128,0,29771:0:0:0:0:
64,192,29771,128,0,29849:0:0:0:0:
192,192,29849,128,0,29927:0:0:0:0:
320,192,30006,1,0,0:0:0:0:
448,192,30006,1,0,0:0:0:0:
192,192,30084,1,0,0:0:0:0:
64,192,30162,1,0,0:0:0:0:
320,192,30240,1,0,0:0:0:0:
448,192,30318,1,0,0:0:0:0:
192,192,30396,1,0,0:0:0:0:
64,192,30474,1,0,0:0:0:0:
320,192,30552,1,0,0:0:0:0:
448,192,30631,1,0,0:0:0:0:
192,192,30631,1,0,0:0:0:0:
64,192,30787,1,0,0:0:0:0:
192,192,30865,1,0,0:0:0:0:
64,192,30943,1,0,0:0:0:0:
192,192,31021,1,0,0:0:0:0:
320,192,31099,1,0,0:0:0:0:
448,192,31099,1,0,0:0:0:0:
448,192,31256,1,0,0:0:0:0:
192,192,31334,1,0,0:0:0:0:
320,192,31412,1,0,0:0:0:0:
448,192,31490,1,0,0:0:0:0:
64,192,31568,1,0,0:0:0:0:
192,192,31646,1,0,0:0:0:0:
320,192,31724,1,0,0:0:0:0:
448,192,31802,1,0,0:0:0:0:
192,192,31881,128,0,31959:0:0:0:0:
320,192,31959,128,0,32037:0:0:0:0:
192,192,32037,128,0,32115:0:0:0:0:
320,192,32115,128,0,32193:0:0:0:0:
64,192,32193,1,0,0:0:0:0:
192,192,32193,1,0,0:0:0:0:
448,192,32271,1,0,0:0:0:0:
192,192,32349,1,0,0:0:0:0:
320,192,32427,1,0,0:0:0:0:
448,192,32506,1,0,0:0:0:0:
64,192,32506,1,0,0:0:0:0:
320,192,32584,1,0,0:0:0:0:
192,192,32662,1,0,0:0:0:0:
64,192,32740,1,0,0:0:0:0:
192,192,32818,1,0,0:0:0:0:
448,192,32896,1,0,0:0:0:0:
320,192,32974,1,0,0:0:0:0:
192,192,33052,1,0,0:0:0:0:
64,192,33131,1,0,0:0:0:0:
192,192,33170,1,0,0:0:0:0:
448,192,33209,1,0,0:0:0:0:
320,192,33248,1,0,0:0:0:0:
64,192,33287,1,0,0:0:0:0:
192,192,33326,1,0,0:0:0:0:
448,192,33365,1,0,0:0:0:0:
320,192,33404,1,0,0:0:0:0:
64,192,33443,1,0,0:0:0:0:
192,192,33443,1,0,0:0:0:0:
448,192,33521,1,0,0:0:0:0:
192,192,33599,1,0,0:0:0:0:
64,192,33599,1,0,0:0:0:0:
320,192,33677,1,0,0:0:0:0:
448,192,33756,1,0,0:0:0:0:
64,192,33756,128,0,34693:0:0:0:0:
192,192,33756,1,0,0:0:0:0:
192,192,34068,128,0,34693:0:0:0:0:
448,192,34068,1,0,0:0:0:0:
320,192,34224,128,0,34693:0:0:0:0:
448,192,34381,1,0,0:0:0:0:
448,192,34693,1,0,0:0:0:0:
192,192,35006,1,0,0:0:0:0:
64,192,35006,1,0,0:0:0:0:
320,192,35084,1,0,0:0:0:0:
448,192,35162,1,0,0:0:0:0:
192,192,35240,1,0,0:0:0:0:
64,192,35318,1,0,0:0:0:0:
320,192,35396,1,0,0:0:0:0:
448,192,35474,1,0,0:0:0:0:
192,192,35552,1,0,0:0:0:0:
64,192,35631,1,0,0:0:0:0:
320,192,35631,1,0,0:0:0:0:
448,192,35631,1,0,0:0:0:0:
448,192,35787,1,0,0:0:0:0:
320,192,35865,1,0,0:0:0:0:
448,192,35943,1,0,0:0:0:0:
320,192,36021,1,0,0:0:0:0:
192,192,36099,1,0,0:0:0:0:
64,192,36099,1,0,0:0:0:0:
64,192,36256,1,0,0:0:0:0:
448,192,36256,1,0,0:0:0:0:
320,192,36256,1,0,0:0:0:0:
192,192,36412,128,0,36568:0:0:0:0:
448,192,36568,128,0,36646:0:0:0:0:
320,192,36646,128,0,36724:0:0:0:0:
192,192,36724,128,0,36802:0:0:0:0:
64,192,36802,128,0,36881:0:0:0:0:
320,192,36881,1,0,0:0:0:0:
448,192,36881,1,0,0:0:0:0:
192,192,36881,1,0,0:0:0:0:
320,192,37037,1,0,0:0:0:0:
192,192,37115,1,0,0:0:0:0:
448,192,37193,1,0,0:0:0:0:
320,192,37193,1,0,0:0:0:0:
64,192,37271,1,0,0:0:0:0:
320,192,37349,1,0,0:0:0:0:
192,192,37427,1,0,0:0:0:0:
64,192,37506,1,0,0:0:0:0:
448,192,37506,1,0,0:0:0:0:
320,192,37506,1,0,0:0:0:0:
192,192,37584,1,0,0:0:0:0:
320,192,37662,1,0,0:0:0:0:
448,192,37740,1,0,0:0:0:0:
320,192,37818,1,0,0:0:0:0:
64,192,37896,1,0,0:0:0:0:
192,192,37974,1,0,0:0:0:0:
320,192,38052,1,0,0:0:0:0:
448,192,38131,1,0,0:0:0:0:
320,192,38170,1,0,0:0:0:0:
64,192,38209,1,0,0:0:0:0:
192,192,38248,1,0,0:0:0:0:
448,192,38287,1,0,0:0:0:0:
320,192,38326,1,0,0:0:0:0:
192,192,38365,1,0,0:0:0:0:
64,192,38404,1,0,0:0:0:0:
448,192,38443,1,0,0:0:0:0:
320,192,38443,1,0,0:0:0:0:
64,192,38521,1,0,0:0:0:0:
320,192,38599,1,0,0:0:0:0:
448,192,38599,1,0,0:0:0:0:
192,192,38677,1,0,0:0:0:0:
64,192,38756,1,0,0:0:0:0:
320,192,38756,1,0,0:0:0:0:
448,192,38756,1,0,0:0:0:0:
192,192,38834,1,0,0:0:0:0:
320,192,38912,1,0,0:0:0:0:
192,192,38990,1,0,0:0:0:0:
64,192,39068,1,0,0:0:0:0:
320,192,39068,1,0,0:0:0:0:
192,192,39224,1,0,0:0:0:0:
192,192,39381,1,0,0:0:0:0:
320,192,39381,128,0,39537:0:0:0:0:
448,192,39420,128,0,39576:0:0:0:0:
320,192,40006,1,0,0:0:0:0:
448,192,40006,1,0,0:0:0:0:
448,192,40162,1,0,0:0:0:0:
320,192,40240,1,0,0:0:0:0:
192,192,40318,1,0,0:0:0:0:
320,192,40396,1,0,0:0:0:0:
448,192,40474,1,0,0:0:0:0:
320,192,40552,1,0,0:0:0:0:
192,192,40631,1,0,0:0:0:0:
64,192,40631,1,0,0:0:0:0:
448,192,40631,1,0,0:0:0:0:
320,192,40709,1,0,0:0:0:0:
192,192,40787,1,0,0:0:0:0:
64,192,40865,1,0,0:0:0:0:
192,192,40943,128,0,41099:0:0:0:0:
320,192,41099,128,0,41256:0:0:0:0:
192,192,41256,1,0,0:0:0:0:
64,192,41256,1,0,0:0:0:0:
448,192,41256,1,0,0:0:0:0:
320,192,41412,1,0,0:0:0:0:
448,192,41451,1,0,0:0:0:0:
192,192,41490,1,0,0:0:0:0:
320,192,41568,1,0,0:0:0:0:
64,192,41607,1,0,0:0:0:0:
192,192,41646,1,0,0:0:0:0:
320,192,41724,1,0,0:0:0:0:
192,192,41763,1,0,0:0:0:0:
448,192,41802,1,0,0:0:0:0:
320,192,41881,1,0,0:0:0:0:
64,192,41881,1,0,0:0:0:0:
448,192,41920,1,0,0:0:0:0:
192,192,41959,1,0,0:0:0:0:
64,192,42037,1,0,0:0:0:0:
320,192,42115,1,0,0:0:0:0:
192,192,42193,1,0,0:0:0:0:
448,192,42271,1,0,0:0:0:0:
320,192,42349,1,0,0:0:0:0:
192,192,42427,1,0,0:0:0:0:
64,192,42506,1,0,0:0:0:0:
448,192,42506,1,0,0:0:0:0:
448,192,42662,1,0,0:0:0:0:
320,192,42662,1,0,0:0:0:0:
320,192,42818,1,0,0:0:0:0:
192,192,42896,1,0,0:0:0:0:
64,192,42974,1,0,0:0:0:0:
320,192,43052,1,0,0:0:0:0:
448,192,43131,128,0,43287:0:0:0:0:
320,192,43209,128,0,43365:0:0:0:0:
192,192,43287,128,0,43443:0:0:0:0:
64,192,43365,128,0,43521:0:0:0:0:
448,192,43443,128,0,43521:0:0:0:0:
320,192,43521,128,0,43599:0:0:0:0:
192,192,43599,128,0,43677:0:0:0:0:
64,192,43677,128,0,43756:0:0:0:0:
448,192,43756,128,0,44693:0:0:0:0:
192,192,43756,1,0,0:0:0:0:
320,192,43756,128,0,44537:0:0:0:0:
192,192,44224,128,0,44459:0:0:0:0:
64,192,44381,128,0,44537:0:0:0:0:
192,192,44693,1,0,0:0:0:0:
64,192,44732,1,0,0:0:0:0:
448,192,44771,1,0,0:0:0:0:
320,192,44810,1,0,0:0:0:0:
192,192,44849,1,0,0:0:0:0:
64,192,44888,1,0,0:0:0:0:
448,192,44927,1,0,0:0:0:0:
320,192,44966,1,0,0:0:0:0:
192,192,45006,1,0,0:0:0:0:
64,192,45006,1,0,0:0:0:0:
320,192,45084,1,0,0:0:0:0:
448,192,45162,1,0,0:0:0:0:
320,192,45240,1,0,0:0:0:0:
448,192,45318,1,0,0:0:0:0:
320,192,45396,1,0,0:0:0:0:
192,192,45474,1,0,0:0:0:0:
64,192,45552,1,0,0:0:0:0:
192,192,45631,1,0,0:0:0:0:
320,192,45631,1,0,0:0:0:0:
448,192,45631,1,0,0:0:0:0:
448,192,45787,1,0,0:0:0:0:
192,192,45787,1,0,0:0:0:0:
320,192,45865,1,0,0:0:0:0:
192,192,45943,1,0,0:0:0:0:
64,192,45943,1,0,0:0:0:0:
448,192,46021,1,0,0:0:0:0:
320,192,46099,1,0,0:0:0:0:
192,192,46177,1,0,0:0:0:0:
448,192,46256,1,0,0:0:0:0:
64,192,46256,1,0,0:0:0:0:
192,192,46334,1,0,0:0:0:0:
320,192,46412,1,0,0:0:0:0:
192,192,46490,1,0,0:0:0:0:
320,192,46568,1,0,0:0:0:0:
64,192,46646,1,0,0:0:0:0:
320,192,46724,1,0,0:0:0:0:
192,192,46802,1,0,0:0:0:0:
64,192,46881,1,0,0:0:0:0:
320,192,46881,1,0,0:0:0:0:
448,192,46881,1,0,0:0:0:0:
192,192,46959,1,0,0:0:0:0:
448,192,47037,1,0,0:0:0:0:
192,192,47115,1,0,0:0:0:0:
448,192,47193,1,0,0:0:0:0:
64,192,47193,1,0,0:0:0:0:
320,192,47271,1,0,0:0:0:0:
192,192,47349,1,0,0:0:0:0:
64,192,47427,1,0,0:0:0:0:
320,192,47506,1,0,0:0:0:0:
448,192,47506,1,0,0:0:0:0:
192,192,47584,1,0,0:0:0:0:
320,192,47662,1,0,0:0:0:0:
448,192,47740,1,0,0:0:0:0:
320,192,47818,1,0,0:0:0:0:
192,192,47896,1,0,0:0:0:0:
64,192,47974,1,0,0:0:0:0:
192,192,48052,1,0,0:0:0:0:
320,192,48131,1,0,0:0:0:0:
448,192,48131,1,0,0:0:0:0:
64,192,48209,1,0,0:0:0:0:
192,192,48209,1,0,0:0:0:0:
320,192,48287,1,0,0:0:0:0:
64,192,48365,1,0,0:0:0:0:
192,192,48443,1,0,0:0:0:0:
448,192,48443,1,0,0:0:0:0:
320,192,48521,1,0,0:0:0:0:
64,192,48521,1,0,0:0:0:0:
192,192,48599,1,0,0:0:0:0:
448,192,48599,1,0,0:0:0:0:
320,192,48677,1,0,0:0:0:0:
192,192,48756,128,0,49381:0:0:0:0:
64,192,48756,128,0,50006:0:0:0:0:
448,192,49224,128,0,49537:0:0:0:0:
320,192,49381,128,0,49693:0:0:0:0:
192,192,49537,128,0,49849:0:0:0:0:
320,192,50006,1,0,0:0:0:0:
448,192,50006,1,0,0:0:0:0:
192,192,50162,1,0,0:0:0:0:
320,192,50240,1,0,0:0:0:0:
448,192,50318,1,0,0:0:0:0:
64,192,50396,1,0,0:0:0:0:
192,192,50474,1,0,0:0:0:0:
320,192,50552,1,0,0:0:0:0:
192,192,50631,1,0,0:0:0:0:
448,192,50631,1,0,0:0:0:0:
64,192,50631,1,0,0:0:0:0:
320,192,50709,128,0,50787:0:0:0:0:
448,192,50787,128,0,50865:0:0:0:0:
192,192,50865,128,0,50943:0:0:0:0:
320,192,50943,128,0,51021:0:0:0:0:
64,192,51021,128,0,51099:0:0:0:0:
192,192,51099,1,0,0:0:0:0:
448,192,51099,128,0,51177:0:0:0:0:
320,192,51177,128,0,51256:0:0:0:0:
192,192,51256,1,0,0:0:0:0:
64,192,51256,1,0,0:0:0:0:
448,192,51256,1,0,0:0:0:0:
320,192,51334,1,0,0:0:0:0:
448,192,51373,1,0,0:0:0:0:
192,192,51412,1,0,0:0:0:0:
64,192,51451,1,0,0:0:0:0:
320,192,51490,1,0,0:0:0:0:
448,192,51568,1,0,0:0:0:0:
192,192,51568,1,0,0:0:0:0:
320,192,51646,1,0,0:0:0:0:
64,192,51724,1,0,0:0:0:0:
448,192,51802,1,0,0:0:0:0:
64,192,51881,1,0,0:0:0:0:
320,192,51881,1,0,0:0:0:0:
192,192,51881,1,0,0:0:0:0:
448,192,51959,1,0,0:0:0:0:
320,192,52037,1,0,0:0:0:0:
64,192,52115,1,0,0:0:0:0:
448,192,52193,128,0,52506:0:0:0:0:
192,192,52193,1,0,0:0:0:0:
320,192,52193,1,0,0:0:0:0:
64,192,52506,128,0,55006:0:0:0:0:
192,192,52506,128,0,53756:0:0:0:0:
320,192,52506,128,0,53599:0:0:0:0:
320,192,53756,128,0,54927:0:0:0:0:
448,192,53756,128,0,55006:0:0:0:0:
448,192,55240,128,0,55396:0:0:0:0:
448,192,55552,128,0,56881:0:0:0:0:
320,192,57506,1,0,0:0:0:0:
448,192,57506,1,0,0:0:0:0:
64,192,57506,1,0,0:0:0:0:
192,192,57584,1,0,0:0:0:0:
320,192,57662,1,0,0:0:0:0:
64,192,57740,1,0,0:0:0:0:
448,192,57818,1,0,0:0:0:0:
192,192,57818,1,0,0:0:0:0:
320,192,57896,1,0,0:0:0:0:
192,192,57974,1,0,0:0:0:0:
64,192,58052,1,0,0:0:0:0:
192,192,58131,1,0,0:0:0:0:
320,192,58131,1,0,0:0:0:0:
448,192,58131,1,0,0:0:0:0:
448,192,58287,1,0,0:0:0:0:
64,192,58365,1,0,0:0:0:0:
448,192,58443,1,0,0:0:0:0:
192,192,58443,1,0,0:0:0:0:
64,192,58521,1,0,0:0:0:0:
192,192,58599,1,0,0:0:0:0:
320,192,58599,1,0,0:0:0:0:
448,192,58677,1,0,0:0:0:0:
320,192,58756,1,0,0:0:0:0:
192,192,58756,1,0,0:0:0:0:
64,192,58756,1,0,0:0:0:0:
64,192,58912,128,0,58990:0:0:0:0:
192,192,58990,128,0,59068:0:0:0:0:
64,192,59068,1,0,0:0:0:0:
192,192,59224,1,0,0:0:0:0:
64,192,59224,1,0,0:0:0:0:
320,192,59381,1,0,0:0:0:0:
448,192,59381,1,0,0:0:0:0:
192,192,59459,128,0,59537:0:0:0:0:
64,192,59537,128,0,59615:0:0:0:0:
192,192,59615,128,0,59693:0:0:0:0:
320,192,59693,128,0,59771:0:0:0:0:
448,192,59849,1,0,0:0:0:0:
448,192,60006,1,0,0:0:0:0:
320,192,60006,1,0,0:0:0:0:
192,192,60084,1,0,0:0:0:0:
448,192,60162,1,0,0:0:0:0:
320,192,60240,1,0,0:0:0:0:
64,192,60318,1,0,0:0:0:0:
192,192,60396,1,0,0:0:0:0:
448,192,60474,1,0,0:0:0:0:
64,192,60552,1,0,0:0:0:0:
320,192,60631,1,0,0:0:0:0:
192,192,60631,1,0,0:0:0:0:
448,192,60709,1,0,0:0:0:0:
64,192,60787,1,0,0:0:0:0:
192,192,60787,1,0,0:0:0:0:
448,192,60865,128,0,60943:0:0:0:0:
192,192,60943,1,0,0:0:0:0:
64,192,60943,1,0,0:0:0:0:
320,192,61021,1,0,0:0:0:0:
448,192,61021,1,0,0:0:0:0:
64,192,61099,1,0,0:0:0:0:
192,192,61099,1,0,0:0:0:0:
320,192,61177,1,0,0:0:0:0:
448,192,61177,1,0,0:0:0:0:
192,192,61256,1,0,0:0:0:0:
64,192,61256,1,0,0:0:0:0:
192,192,61412,1,0,0:0:0:0:
64,192,61412,1,0,0:0:0:0:
320,192,61568,1,0,0:0:0:0:
192,192,61724,1,0,0:0:0:0:
64,192,61881,1,0,0:0:0:0:
448,192,61881,128,0,62506:0:0:0:0:
320,192,62037,128,0,62427:0:0:0:0:
192,192,62193,128,0,62349:0:0:0:0:
64,192,62349,128,0,62506:0:0:0:0:
320,192,62506,1,0,0:0:0:0:
192,192,62506,1,0,0:0:0:0:
64,192,62584,1,0,0:0:0:0:
448,192,62584,1,0,0:0:0:0:
320,192,62662,1,0,0:0:0:0:
192,192,62740,1,0,0:0:0:0:
448,192,62818,1,0,0:0:0:0:
64,192,62896,1,0,0:0:0:0:
192,192,62974,1,0,0:0:0:0:
448,192,63052,1,0,0:0:0:0:
192,192,63131,1,0,0:0:0:0:
64,192,63131,1,0,0:0:0:0:
320,192,63131,1,0,0:0:0:0:
448,192,63209,1,0,0:0:0:0:
64,192,63287,1,0,0:0:0:0:
448,192,63365,1,0,0:0:0:0:
192,192,63443,1,0,0:0:0:0:
64,192,63443,128,0,63521:0:0:0:0:
320,192,63521,1,0,0:0:0:0:
448,192,63599,1,0,0:0:0:0:
192,192,63599,1,0,0:0:0:0:
64,192,63599,1,0,0:0:0:0:
320,192,63677,1,0,0:0:0:0:
64,192,63756,1,0,0:0:0:0:
192,192,63834,1,0,0:0:0:0:
320,192,63873,1,0,0:0:0:0:
448,192,63912,1,0,0:0:0:0:
192,192,63964,1,0,0:0:0:0:
320,192,64016,1,0,0:0:0:0:
64,192,64107,1,0,0:0:0:0:
192,192,64224,1,0,0:0:0:0:
192,192,64381,1,0,0:0:0:0:
64,192,64381,1,0,0:0:0:0:
448,192,64381,1,0,0:0:0:0:
320,192,64537,1,0,0:0:0:0:
64,192,64537,1,0,0:0:0:0:
448,192,64615,1,0,0:0:0:0:
192,192,64693,1,0,0:0:0:0:
64,192,64693,1,0,0:0:0:0:
320,192,64771,1,0,0:0:0:0:
448,192,64849,1,0,0:0:0:0:
192,192,64849,1,0,0:0:0:0:
64,192,64927,1,0,0:0:0:0:
320,192,65006,1,0,0:0:0:0:
192,192,65006,1,0,0:0:0:0:
448,192,65084,1,0,0:0:0:0:
192,192,65162,1,0,0:0:0:0:
320,192,65240,1,0,0:0:0:0:
448,192,65318,1,0,0:0:0:0:
64,192,65396,1,0,0:0:0:0:
320,192,65474,1,0,0:0:0:0:
192,192,65552,1,0,0:0:0:0:
320,192,65631,1,0,0:0:0:0:
64,192,65631,1,0,0:0:0:0:
448,192,65631,1,0,0:0:0:0:
192,192,65709,1,0,0:0:0:0:
320,192,65787,1,0,0:0:0:0:
448,192,65865,1,0,0:0:0:0:
192,192,65943,1,0,0:0:0:0:
320,192,66021,1,0,0:0:0:0:
64,192,66099,1,0,0:0:0:0:
448,192,66177,1,0,0:0:0:0:
64,192,66256,128,0,66881:0:0:0:0:
192,192,66334,128,0,66490:0:0:0:0:
320,192,66334,128,0,66568:0:0:0:0:
448,192,66373,128,0,66881:0:0:0:0:
192,192,66568,128,0,66802:0:0:0:0:
320,192,66646,128,0,66802:0:0:0:0:
320,192,66881,128,0,66959:0:0:0:0:
192,192,66881,128,0,67037:0:0:0:0:
192,192,67193,128,0,67271:0:0:0:0:
320,192,67193,128,0,67349:0:0:0:0:
192,192,67506,128,0,67662:0:0:0:0:
320,192,67506,128,0,67818:0:0:0:0:
448,192,67506,128,0,68131:0:0:0:0:
64,192,67974,1,0,0:0:0:0:
192,192,67974,1,0,0:0:0:0:
320,192,68052,1,0,0:0:0:0:
64,192,68131,128,0,68443:0:0:0:0:
192,192,68131,1,0,0:0:0:0:
320,192,68287,128,0,68443:0:0:0:0:
448,192,68287,1,0,0:0:0:0:
192,192,68443,1,0,0:0:0:0:
448,192,68443,128,0,68599:0:0:0:0:
192,192,68599,1,0,0:0:0:0:
64,192,68599,1,0,0:0:0:0:
320,192,68677,1,0,0:0:0:0:
448,192,68756,1,0,0:0:0:0:
64,192,68834,1,0,0:0:0:0:
448,192,68912,1,0,0:0:0:0:
320,192,68912,1,0,0:0:0:0:
64,192,68990,1,0,0:0:0:0:
448,192,69068,1,0,0:0:0:0:
192,192,69068,1,0,0:0:0:0:
320,192,69224,1,0,0:0:0:0:
64,192,69381,1,0,0:0:0:0:
192,192,69381,1,0,0:0:0:0:
320,192,69381,1,0,0:0:0:0:
320,192,69537,128,0,69693:0:0:0:0:
448,192,69537,1,0,0:0:0:0:
192,192,69537,1,0,0:0:0:0:
192,192,69693,128,0,69849:0:0:0:0:
448,192,69693,1,0,0:0:0:0:
64,192,69693,1,0,0:0:0:0:
448,192,69849,128,0,70006:0:0:0:0:
320,192,69849,1,0,0:0:0:0:
64,192,69849,1,0,0:0:0:0:
192,192,70006,1,0,0:0:0:0:
320,192,70006,1,0,0:0:0:0:
64,192,70084,1,0,0:0:0:0:
448,192,70318,128,0,70396:0:0:0:0:
64,192,70318,1,0,0:0:0:0:
320,192,70357,128,0,70435:0:0:0:0:
192,192,70396,128,0,70631:0:0:0:0:
320,192,70631,128,0,70709:0:0:0:0:
448,192,70631,128,0,70709:0:0:0:0:
192,192,70709,1,0,0:0:0:0:
64,192,70709,1,0,0:0:0:0:
448,192,70787,128,0,70865:0:0:0:0:
320,192,70787,128,0,70865:0:0:0:0:
192,192,70865,1,0,0:0:0:0:
64,192,70865,1,0,0:0:0:0:
320,192,70943,128,0,71021:0:0:0:0:
448,192,70943,128,0,71021:0:0:0:0:
192,192,71021,1,0,0:0:0:0:
64,192,71021,1,0,0:0:0:0:
448,192,71099,128,0,71256:0:0:0:0:
320,192,71099,128,0,71256:0:0:0:0:
64,192,71256,1,0,0:0:0:0:
192,192,71295,1,0,0:0:0:0:
320,192,71412,1,0,0:0:0:0:
192,192,71451,1,0,0:0:0:0:
448,192,71568,1,0,0:0:0:0:
64,192,71646,1,0,0:0:0:0:
448,192,71724,1,0,0:0:0:0:
192,192,71802,1,0,0:0:0:0:
320,192,71881,1,0,0:0:0:0:
448,192,71881,1,0,0:0:0:0:
64,192,71881,1,0,0:0:0:0:
320,192,72037,1,0,0:0:0:0:
64,192,72037,128,0,72115:0:0:0:0:
192,192,72037,1,0,0:0:0:0:
192,192,72193,128,0,72271:0:0:0:0:
448,192,72193,1,0,0:0:0:0:
320,192,72193,1,0,0:0:0:0:
320,192,72349,128,0,72506:0:0:0:0:
64,192,72349,1,0,0:0:0:0:
448,192,72349,1,0,0:0:0:0:
192,192,72506,1,0,0:0:0:0:
64,192,72506,1,0,0:0:0:0:
320,192,72584,1,0,0:0:0:0:
448,192,72662,1,0,0:0:0:0:
192,192,72740,1,0,0:0:0:0:
448,192,72818,1,0,0:0:0:0:
320,192,72896,1,0,0:0:0:0:
64,192,72974,1,0,0:0:0:0:
320,192,73052,1,0,0:0:0:0:
192,192,73131,1,0,0:0:0:0:
448,192,73131,1,0,0:0:0:0:
64,192,73131,1,0,0:0:0:0:
320,192,73365,128,0,73443:0:0:0:0:
64,192,73365,1,0,0:0:0:0:
192,192,73443,128,0,74381:0:0:0:0:
448,192,73443,1,0,0:0:0:0:
320,192,73599,1,0,0:0:0:0:
64,192,73599,128,0,73756:0:0:0:0:
448,192,73756,1,0,0:0:0:0:
320,192,73990,1,0,0:0:0:0:
64,192,74068,1,0,0:0:0:0:
320,192,74146,1,0,0:0:0:0:
448,192,74224,1,0,0:0:0:0:
320,192,74302,1,0,0:0:0:0:
448,192,74381,1,0,0:0:0:0:
64,192,74381,1,0,0:0:0:0:
320,192,74459,128,0,74615:0:0:0:0:
192,192,74537,128,0,74615:0:0:0:0:
448,192,74537,1,0,0:0:0:0:
64,192,74615,1,0,0:0:0:0:
448,192,74693,128,0,74771:0:0:0:0:
192,192,74693,1,0,0:0:0:0:
448,192,74849,128,0,74927:0:0:0:0:
192,192,74849,1,0,0:0:0:0:
320,192,75006,1,0,0:0:0:0:
64,192,75006,1,0,0:0:0:0:
192,192,75084,1,0,0:0:0:0:
320,192,75240,1,0,0:0:0:0:
192,192,75318,1,0,0:0:0:0:
448,192,75396,1,0,0:0:0:0:
320,192,75474,1,0,0:0:0:0:
192,192,75552,1,0,0:0:0:0:
64,192,75631,1,0,0:0:0:0:
448,192,75631,1,0,0:0:0:0:
320,192,75631,1,0,0:0:0:0:
192,192,75787,1,0,0:0:0:0:
320,192,75865,1,0,0:0:0:0:
64,192,75943,1,0,0:0:0:0:
448,192,76021,1,0,0:0:0:0:
320,192,76021,1,0,0:0:0:0:
192,192,76099,1,0,0:0:0:0:
320,192,76177,1,0,0:0:0:0:
448,192,76256,1,0,0:0:0:0:
64,192,76256,1,0,0:0:0:0:
320,192,76412,1,0,0:0:0:0:
448,192,76490,1,0,0:0:0:0:
192,192,76568,1,0,0:0:0:0:
448,192,76646,1,0,0:0:0:0:
320,192,76724,1,0,0:0:0:0:
64,192,76802,128,0,76881:0:0:0:0:
192,192,76881,1,0,0:0:0:0:
320,192,76881,1,0,0:0:0:0:
448,192,77037,128,0,77193:0:0:0:0:
320,192,77193,128,0,77506:0:0:0:0:
192,192,77506,1,0,0:0:0:0:
64,192,77506,1,0,0:0:0:0:
448,192,77506,1,0,0:0:0:0:
320,192,77662,1,0,0:0:0:0:
64,192,77740,1,0,0:0:0:0:
448,192,77818,1,0,0:0:0:0:
320,192,77896,1,0,0:0:0:0:
64,192,77974,1,0,0:0:0:0:
320,192,78052,1,0,0:0:0:0:
448,192,78131,1,0,0:0:0:0:
192,192,78131,1,0,0:0:0:0:
64,192,78131,1,0,0:0:0:0:
448,192,78287,1,0,0:0:0:0:
320,192,78365,1,0,0:0:0:0:
64,192,78443,1,0,0:0:0:0:
192,192,78521,1,0,0:0:0:0:
320,192,78599,1,0,0:0:0:0:
448,192,78599,1,0,0:0:0:0:
448,192,78756,1,0,0:0:0:0:
320,192,78756,1,0,0:0:0:0:
64,192,78912,1,0,0:0:0:0:
320,192,78990,1,0,0:0:0:0:
64,192,79068,1,0,0:0:0:0:
320,192,79146,1,0,0:0:0:0:
64,192,79224,1,0,0:0:0:0:
448,192,79224,1,0,0:0:0:0:
320,192,79302,1,0,0:0:0:0:
192,192,79381,1,0,0:0:0:0:
64,192,79381,1,0,0:0:0:0:
448,192,79381,1,0,0:0:0:0:
320,192,79537,1,0,0:0:0:0:
448,192,79615,1,0,0:0:0:0:
192,192,79693,1,0,0:0:0:0:
320,192,79693,1,0,0:0:0:0:
448,192,79771,1,0,0:0:0:0:
64,192,79849,1,0,0:0:0:0:
192,192,79849,1,0,0:0:0:0:
320,192,79927,1,0,0:0:0:0:
192,192,80006,1,0,0:0:0:0:
64,192,80006,1,0,0:0:0:0:
320,192,80084,1,0,0:0:0:0:
448,192,80162,1,0,0:0:0:0:
64,192,80240,1,0,0:0:0:0:
320,192,80318,1,0,0:0:0:0:
192,192,80396,1,0,0:0:0:0:
448,192,80474,1,0,0:0:0:0:
192,192,80552,1,0,0:0:0:0:
64,192,80631,1,0,0:0:0:0:
320,192,80631,1,0,0:0:0:0:
448,192,80631,1,0,0:0:0:0:
320,192,80787,1,0,0:0:0:0:
64,192,80787,1,0,0:0:0:0:
192,192,80787,1,0,0:0:0:0:
448,192,80943,128,0,81021:0:0:0:0:
320,192,81021,1,0,0:0:0:0:
64,192,81021,128,0,81099:0:0:0:0:
192,192,81099,1,0,0:0:0:0:
448,192,81099,128,0,81177:0:0:0:0:
320,192,81256,128,0,81334:0:0:0:0:
64,192,81256,1,0,0:0:0:0:
192,192,81334,128,0,81412:0:0:0:0:
320,192,81412,128,0,81490:0:0:0:0:
192,192,81490,128,0,81568:0:0:0:0:
448,192,81568,128,0,81646:0:0:0:0:
192,192,81646,128,0,81724:0:0:0:0:
448,192,81724,128,0,81802:0:0:0:0:
320,192,81724,128,0,81802:0:0:0:0:
64,192,81802,128,0,81881:0:0:0:0:
320,192,81881,1,0,0:0:0:0:
192,192,81881,1,0,0:0:0:0:
448,192,82037,1,0,0:0:0:0:
320,192,82115,1,0,0:0:0:0:
64,192,82193,1,0,0:0:0:0:
320,192,82271,1,0,0:0:0:0:
448,192,82349,1,0,0:0:0:0:
192,192,82349,128,0,82506:0:0:0:0:
448,192,82506,1,0,0:0:0:0:
320,192,82506,128,0,83131:0:0:0:0:
64,192,82662,128,0,83131:0:0:0:0:
192,192,83131,1,0,0:0:0:0:
448,192,83131,1,0,0:0:0:0:
320,192,83209,1,0,0:0:0:0:
448,192,83287,1,0,0:0:0:0:
192,192,83365,1,0,0:0:0:0:
320,192,83443,1,0,0:0:0:0:
64,192,83443,128,0,83599:0:0:0:0:
192,192,83599,1,0,0:0:0:0:
320,192,83599,1,0,0:0:0:0:
448,192,83677,1,0,0:0:0:0:
64,192,83756,128,0,84068:0:0:0:0:
192,192,83756,1,0,0:0:0:0:
192,192,84068,1,0,0:0:0:0:
320,192,84068,1,0,0:0:0:0:
448,192,84146,1,0,0:0:0:0:
64,192,84146,1,0,0:0:0:0:
192,192,84224,1,0,0:0:0:0:
448,192,84302,1,0,0:0:0:0:
320,192,84302,1,0,0:0:0:0:
64,192,84381,1,0,0:0:0:0:
192,192,84459,1,0,0:0:0:0:
64,192,84537,1,0,0:0:0:0:
192,192,84615,1,0,0:0:0:0:
448,192,84693,1,0,0:0:0:0:
320,192,84771,1,0,0:0:0:0:
192,192,84849,1,0,0:0:0:0:
320,192,84927,1,0,0:0:0:0:
192,192,85006,1,0,0:0:0:0:
64,192,85006,1,0,0:0:0:0:
192,192,85162,1,0,0:0:0:0:
64,192,85162,1,0,0:0:0:0:
320,192,85318,1,0,0:0:0:0:
192,192,85318,1,0,0:0:0:0:
448,192,85474,1,0,0:0:0:0:
192,192,85552,1,0,0:0:0:0:
64,192,85631,1,0,0:0:0:0:
448,192,85631,1,0,0:0:0:0:
320,192,85631,1,0,0:0:0:0:
192,192,85709,1,0,0:0:0:0:
320,192,85787,1,0,0:0:0:0:
64,192,85865,1,0,0:0:0:0:
192,192,85943,1,0,0:0:0:0:
448,192,86021,1,0,0:0:0:0:
320,192,86099,1,0,0:0:0:0:
192,192,86177,1,0,0:0:0:0:
64,192,86256,1,0,0:0:0:0:
448,192,86256,128,0,87193:0:0:0:0:
320,192,86412,128,0,87349:0:0:0:0:
192,192,86568,128,0,87506:0:0:0:0:
64,192,86724,128,0,87818:0:0:0:0:
448,192,87506,1,0,0:0:0:0:
320,192,87506,1,0,0:0:0:0:
192,192,87662,1,0,0:0:0:0:
320,192,87740,1,0,0:0:0:0:
448,192,87818,1,0,0:0:0:0:
192,192,87896,1,0,0:0:0:0:
320,192,87974,1,0,0:0:0:0:
64,192,88052,1,0,0:0:0:0:
320,192,88131,1,0,0:0:0:0:
192,192,88131,1,0,0:0:0:0:
448,192,88287,1,0,0:0:0:0:
320,192,88365,1,0,0:0:0:0:
64,192,88443,1,0,0:0:0:0:
448,192,88443,128,0,88756:0:0:0:0:
192,192,88521,1,0,0:0:0:0:
320,192,88599,1,0,0:0:0:0:
192,192,88677,1,0,0:0:0:0:
64,192,88756,1,0,0:0:0:0:
320,192,88756,1,0,0:0:0:0:
192,192,88834,1,0,0:0:0:0:
448,192,88912,1,0,0:0:0:0:
320,192,88990,1,0,0:0:0:0:
64,192,89068,1,0,0:0:0:0:
192,192,89146,1,0,0:0:0:0:
448,192,89224,1,0,0:0:0:0:
192,192,89302,1,0,0:0:0:0:
320,192,89381,1,0,0:0:0:0:
448,192,89381,1,0,0:0:0:0:
64,192,89381,1,0,0:0:0:0:
192,192,89459,1,0,0:0:0:0:
64,192,89537,1,0,0:0:0:0:
320,192,89615,1,0,0:0:0:0:
448,192,89693,128,0,90006:0:0:0:0:
192,192,89693,1,0,0:0:0:0:
64,192,89771,1,0,0:0:0:0:
192,192,89849,1,0,0:0:0:0:
320,192,89849,1,0,0:0:0:0:
320,192,90006,1,0,0:0:0:0:
192,192,90006,1,0,0:0:0:0:
448,192,90084,1,0,0:0:0:0:
64,192,90084,1,0,0:0:0:0:
320,192,90162,128,0,91021:0:0:0:0:
192,192,90162,1,0,0:0:0:0:
64,192,90240,1,0,0:0:0:0:
448,192,90318,1,0,0:0:0:0:
192,192,90396,1,0,0:0:0:0:
64,192,90474,1,0,0:0:0:0:
448,192,90552,1,0,0:0:0:0:
192,192,90631,1,0,0:0:0:0:
64,192,90631,1,0,0:0:0:0:
448,192,90709,1,0,0:0:0:0:
192,192,90787,1,0,0:0:0:0:
64,192,90865,1,0,0:0:0:0:
192,192,90943,1,0,0:0:0:0:
448,192,90943,128,0,91256:0:0:0:0:
64,192,91021,1,0,0:0:0:0:
192,192,91099,1,0,0:0:0:0:
320,192,91177,1,0,0:0:0:0:
64,192,91256,1,0,0:0:0:0:
192,192,91256,1,0,0:0:0:0:
320,192,91334,1,0,0:0:0:0:
448,192,91412,1,0,0:0:0:0:
64,192,91412,1,0,0:0:0:0:
320,192,91490,1,0,0:0:0:0:
448,192,91568,1,0,0:0:0:0:
192,192,91568,1,0,0:0:0:0:
64,192,91646,1,0,0:0:0:0:
192,192,91724,1,0,0:0:0:0:
448,192,91724,1,0,0:0:0:0:
320,192,91802,1,0,0:0:0:0:
192,192,91881,128,0,92115:0:0:0:0:
64,192,91881,128,0,92115:0:0:0:0:
320,192,92037,128,0,92271:0:0:0:0:
448,192,92037,128,0,92271:0:0:0:0:
64,192,92193,128,0,92427:0:0:0:0:
192,192,92193,128,0,92427:0:0:0:0:
320,192,92349,128,0,92506:0:0:0:0:
448,192,92349,128,0,92506:0:0:0:0:
192,192,92506,1,0,0:0:0:0:
64,192,92506,1,0,0:0:0:0:
448,192,92662,1,0,0:0:0:0:
192,192,92740,1,0,0:0:0:0:
448,192,92818,1,0,0:0:0:0:
320,192,92896,1,0,0:0:0:0:
64,192,92974,1,0,0:0:0:0:
192,192,93052,1,0,0:0:0:0:
320,192,93131,1,0,0:0:0:0:
448,192,93131,1,0,0:0:0:0:
64,192,93131,1,0,0:0:0:0:
192,192,93209,128,0,93365:0:0:0:0:
64,192,93287,128,0,93443:0:0:0:0:
320,192,93365,128,0,93521:0:0:0:0:
192,192,93443,128,0,93599:0:0:0:0:
448,192,93521,128,0,93677:0:0:0:0:
64,192,93599,128,0,93756:0:0:0:0:
320,192,93599,1,0,0:0:0:0:
192,192,93677,128,0,93756:0:0:0:0:
320,192,93756,1,0,0:0:0:0:
448,192,93756,1,0,0:0:0:0:
192,192,93834,1,0,0:0:0:0:
64,192,93834,1,0,0:0:0:0:
448,192,93912,1,0,0:0:0:0:
192,192,93990,1,0,0:0:0:0:
320,192,94068,1,0,0:0:0:0:
448,192,94068,1,0,0:0:0:0:
64,192,94146,1,0,0:0:0:0:
320,192,94224,1,0,0:0:0:0:
64,192,94302,1,0,0:0:0:0:
320,192,94381,1,0,0:0:0:0:
192,192,94381,1,0,0:0:0:0:
448,192,94381,1,0,0:0:0:0:
448,192,94537,1,0,0:0:0:0:
320,192,94615,1,0,0:0:0:0:
64,192,94693,128,0,95006:0:0:0:0:
192,192,94693,1,0,0:0:0:0:
192,192,94927,128,0,95006:0:0:0:0:
320,192,95006,1,0,0:0:0:0:
448,192,95006,1,0,0:0:0:0:
320,192,95110,1,0,0:0:0:0:
192,192,95214,1,0,0:0:0:0:
64,192,95214,1,0,0:0:0:0:
192,192,95318,1,0,0:0:0:0:
320,192,95422,1,0,0:0:0:0:
448,192,95422,1,0,0:0:0:0:
320,192,95526,1,0,0:0:0:0:
192,192,95631,1,0,0:0:0:0:
64,192,95631,1,0,0:0:0:0:
192,192,95735,1,0,0:0:0:0:
448,192,95839,1,0,0:0:0:0:
320,192,95839,1,0,0:0:0:0:
320,192,95943,1,0,0:0:0:0:
64,192,96047,1,0,0:0:0:0:
192,192,96047,1,0,0:0:0:0:
192,192,96151,1,0,0:0:0:0:
448,192,96256,1,0,0:0:0:0:
320,192,96256,1,0,0:0:0:0:
192,192,96360,1,0,0:0:0:0:
64,192,96360,1,0,0:0:0:0:
320,192,96412,1,0,0:0:0:0:
448,192,96412,1,0,0:0:0:0:
64,192,96464,1,0,0:0:0:0:
192,192,96464,1,0,0:0:0:0:
320,192,96568,1,0,0:0:0:0:
448,192,96568,1,0,0:0:0:0:
192,192,96620,1,0,0:0:0:0:
64,192,96620,1,0,0:0:0:0:
320,192,96672,1,0,0:0:0:0:
448,192,96672,1,0,0:0:0:0:
192,192,96776,1,0,0:0:0:0:
64,192,96776,1,0,0:0:0:0:
320,192,96881,1,0,0:0:0:0:
448,192,96881,1,0,0:0:0:0:
192,192,96985,1,0,0:0:0:0:
64,192,96985,1,0,0:0:0:0:
320,192,97089,1,0,0:0:0:0:
448,192,97089,1,0,0:0:0:0:
192,192,97193,1,0,0:0:0:0:
64,192,97193,1,0,0:0:0:0:
320,192,97297,1,0,0:0:0:0:
448,192,97297,1,0,0:0:0:0:
64,192,97401,1,0,0:0:0:0:
192,192,97401,1,0,0:0:0:0:
320,192,97453,1,0,0:0:0:0:
448,192,97453,1,0,0:0:0:0:
192,192,97506,1,0,0:0:0:0:
64,192,97506,1,0,0:0:0:0:
448,192,98756,1,0,0:0:0:0:
192,192,98756,1,0,0:0:0:0:
64,192,100006,1,0,0:0:0:0:
320,192,100006,1,0,0:0:0:0:
320,192,100943,1,0,0:0:0:0:
192,192,101256,1,0,0:0:0:0:
448,192,101568,128,0,102506:0:0:0:0:
320,192,101724,128,0,102506:0:0:0:0:
192,192,102506,1,0,0:0:0:0:
64,192,102506,1,0,0:0:0:0:
320,192,102740,1,0,0:0:0:0:
448,192,102818,1,0,0:0:0:0:
192,192,102896,1,0,0:0:0:0:
64,192,103131,1,0,0:0:0:0:
192,192,103131,1,0,0:0:0:0:
448,192,103131,1,0,0:0:0:0:
320,192,103287,1,0,0:0:0:0:
448,192,103365,1,0,0:0:0:0:
192,192,103443,1,0,0:0:0:0:
64,192,103443,1,0,0:0:0:0:
320,192,103521,1,0,0:0:0:0:
64,192,103599,1,0,0:0:0:0:
448,192,103599,1,0,0:0:0:0:
192,192,103677,1,0,0:0:0:0:
320,192,103756,1,0,0:0:0:0:
448,192,103756,1,0,0:0:0:0:
192,192,103834,1,0,0:0:0:0:
320,192,103912,128,0,103990:0:0:0:0:
64,192,103990,128,0,104068:0:0:0:0:
448,192,104068,128,0,104146:0:0:0:0:
192,192,104146,128,0,104224:0:0:0:0:
320,192,104224,128,0,104302:0:0:0:0:
64,192,104302,128,0,104381:0:0:0:0:
448,192,104381,1,0,0:0:0:0:
320,192,104381,1,0,0:0:0:0:
192,192,104381,128,0,104459:0:0:0:0:
64,192,104459,128,0,104537:0:0:0:0:
448,192,104537,128,0,104615:0:0:0:0:
192,192,104615,128,0,104693:0:0:0:0:
320,192,104693,128,0,104849:0:0:0:0:
64,192,104771,128,0,104849:0:0:0:0:
448,192,104849,128,0,104927:0:0:0:0:
192,192,104927,128,0,105006:0:0:0:0:
320,192,105006,1,0,0:0:0:0:
64,192,105006,1,0,0:0:0:0:
448,192,105084,1,0,0:0:0:0:
320,192,105162,1,0,0:0:0:0:
192,192,105240,1,0,0:0:0:0:
64,192,105318,1,0,0:0:0:0:
320,192,105396,1,0,0:0:0:0:
64,192,105474,1,0,0:0:0:0:
448,192,105552,1,0,0:0:0:0:
192,192,105631,1,0,0:0:0:0:
64,192,105631,1,0,0:0:0:0:
320,192,105787,1,0,0:0:0:0:
448,192,105865,1,0,0:0:0:0:
192,192,105943,1,0,0:0:0:0:
64,192,105943,1,0,0:0:0:0:
320,192,106021,1,0,0:0:0:0:
448,192,106021,1,0,0:0:0:0:
192,192,106099,1,0,0:0:0:0:
320,192,106177,1,0,0:0:0:0:
64,192,106256,128,0,106412:0:0:0:0:
192,192,106334,128,0,106490:0:0:0:0:
320,192,106412,128,0,106568:0:0:0:0:
448,192,106490,128,0,106646:0:0:0:0:
64,192,106568,128,0,106724:0:0:0:0:
192,192,106646,128,0,106802:0:0:0:0:
320,192,106724,128,0,106881:0:0:0:0:
448,192,106802,128,0,106881:0:0:0:0:
64,192,106881,1,0,0:0:0:0:
192,192,107193,128,0,107506:0:0:0:0:
320,192,107349,128,0,107506:0:0:0:0:
448,192,107506,1,0,0:0:0:0:
64,192,107506,1,0,0:0:0:0:
320,192,107584,1,0,0:0:0:0:
64,192,107662,1,0,0:0:0:0:
448,192,107740,1,0,0:0:0:0:
192,192,107818,1,0,0:0:0:0:
448,192,107896,1,0,0:0:0:0:
320,192,107974,1,0,0:0:0:0:
192,192,108052,1,0,0:0:0:0:
320,192,108131,1,0,0:0:0:0:
448,192,108131,128,0,108756:0:0:0:0:
64,192,108131,1,0,0:0:0:0:
192,192,108209,128,0,108756:0:0:0:0:
320,192,108756,128,0,108834:0:0:0:0:
448,192,109068,128,0,109381:0:0:0:0:
192,192,109068,1,0,0:0:0:0:
64,192,109068,1,0,0:0:0:0:
192,192,109381,1,0,0:0:0:0:
64,192,109381,1,0,0:0:0:0:
320,192,109459,1,0,0:0:0:0:
448,192,109459,1,0,0:0:0:0:
64,192,109537,1,0,0:0:0:0:
448,192,109615,1,0,0:0:0:0:
192,192,109693,1,0,0:0:0:0:
320,192,109771,1,0,0:0:0:0:
64,192,109849,1,0,0:0:0:0:
192,192,109927,1,0,0:0:0:0:
320,192,110006,1,0,0:0:0:0:
448,192,110006,128,0,110084:0:0:0:0:
192,192,110084,1,0,0:0:0:0:
64,192,110162,128,0,110240:0:0:0:0:
320,192,110240,1,0,0:0:0:0:
192,192,110318,1,0,0:0:0:0:
448,192,110318,128,0,110396:0:0:0:0:
320,192,110396,128,0,110474:0:0:0:0:
64,192,110396,1,0,0:0:0:0:
192,192,110474,1,0,0:0:0:0:
448,192,110552,1,0,0:0:0:0:
192,192,110631,1,0,0:0:0:0:
320,192,110631,128,0,110943:0:0:0:0:
64,192,110631,1,0,0:0:0:0:
448,192,110709,128,0,111256:0:0:0:0:
192,192,110943,128,0,111256:0:0:0:0:
320,192,111256,128,0,111568:0:0:0:0:
64,192,111256,128,0,112506:0:0:0:0:
192,192,111568,128,0,111646:0:0:0:0:
448,192,111646,128,0,111724:0:0:0:0:
320,192,111724,128,0,111802:0:0:0:0:
192,192,111802,128,0,111881:0:0:0:0:
448,192,111881,128,0,111959:0:0:0:0:
320,192,111959,128,0,112037:0:0:0:0:
192,192,112037,128,0,112115:0:0:0:0:
448,192,112115,128,0,112193:0:0:0:0:
320,192,112193,128,0,112271:0:0:0:0:
192,192,112271,128,0,112349:0:0:0:0:
448,192,112349,128,0,112427:0:0:0:0:
320,192,112427,128,0,112506:0:0:0:0:
448,192,112506,1,0,0:0:0:0:
192,192,112506,1,0,0:0:0:0:
320,192,112584,1,0,0:0:0:0:
64,192,112662,1,0,0:0:0:0:
192,192,112740,1,0,0:0:0:0:
448,192,112818,1,0,0:0:0:0:
320,192,112818,128,0,112974:0:0:0:0:
192,192,112974,1,0,0:0:0:0:
448,192,112974,128,0,113052:0:0:0:0:
64,192,113052,128,0,113131:0:0:0:0:
192,192,113131,1,0,0:0:0:0:
448,192,113131,1,0,0:0:0:0:
320,192,113131,1,0,0:0:0:0:
320,192,113287,1,0,0:0:0:0:
448,192,113443,1,0,0:0:0:0:
192,192,113443,1,0,0:0:0:0:
192,192,113599,1,0,0:0:0:0:
64,192,113756,1,0,0:0:0:0:
192,192,113756,1,0,0:0:0:0:
320,192,113834,128,0,114068:0:0:0:0:
448,192,113912,1,0,0:0:0:0:
448,192,114068,1,0,0:0:0:0:
64,192,114068,1,0,0:0:0:0:
192,192,114224,128,0,114381:0:0:0:0:
320,192,114381,1,0,0:0:0:0:
64,192,114381,1,0,0:0:0:0:
448,192,114381,1,0,0:0:0:0:
192,192,114537,1,0,0:0:0:0:
320,192,114693,1,0,0:0:0:0:
448,192,114771,1,0,0:0:0:0:
192,192,114849,1,0,0:0:0:0:
448,192,114927,1,0,0:0:0:0:
192,192,115006,1,0,0:0:0:0:
64,192,115006,1,0,0:0:0:0:
320,192,115162,1,0,0:0:0:0:
448,192,115240,1,0,0:0:0:0:
320,192,115318,1,0,0:0:0:0:
192,192,115318,1,0,0:0:0:0:
192,192,115474,1,0,0:0:0:0:
64,192,115552,1,0,0:0:0:0:
320,192,115631,1,0,0:0:0:0:
448,192,115631,1,0,0:0:0:0:
192,192,115631,1,0,0:0:0:0:
64,192,115709,1,0,0:0:0:0:
448,192,115787,1,0,0:0:0:0:
320,192,115865,1,0,0:0:0:0:
192,192,115943,1,0,0:0:0:0:
448,192,116021,1,0,0:0:0:0:
320,192,116099,1,0,0:0:0:0:
192,192,116099,1,0,0:0:0:0:
64,192,116177,1,0,0:0:0:0:
192,192,116256,1,0,0:0:0:0:
448,192,116256,128,0,116360:0:0:0:0:
320,192,116308,128,0,116412:0:0:0:0:
192,192,116360,128,0,116464:0:0:0:0:
64,192,116412,128,0,116516:0:0:0:0:
448,192,116464,128,0,116568:0:0:0:0:
320,192,116516,128,0,116620:0:0:0:0:
192,192,116568,128,0,116672:0:0:0:0:
64,192,116620,128,0,116724:0:0:0:0:
448,192,116672,128,0,116776:0:0:0:0:
320,192,116724,128,0,116828:0:0:0:0:
192,192,116776,128,0,116881:0:0:0:0:
64,192,116828,128,0,116933:0:0:0:0:
448,192,116881,128,0,117506:0:0:0:0:
320,192,116933,128,0,117349:0:0:0:0:
192,192,116985,128,0,117349:0:0:0:0:
64,192,117037,128,0,117506:0:0:0:0:
320,192,117506,1,0,0:0:0:0:
192,192,117506,1,0,0:0:0:0:
448,192,117584,1,0,0:0:0:0:
320,192,117662,1,0,0:0:0:0:
192,192,117740,1,0,0:0:0:0:
320,192,117818,1,0,0:0:0:0:
192,192,117896,1,0,0:0:0:0:
64,192,117974,1,0,0:0:0:0:
448,192,118052,1,0,0:0:0:0:
192,192,118131,1,0,0:0:0:0:
64,192,118131,1,0,0:0:0:0:
320,192,118131,1,0,0:0:0:0:
192,192,118287,1,0,0:0:0:0:
448,192,118365,1,0,0:0:0:0:
192,192,118443,1,0,0:0:0:0:
64,192,118599,1,0,0:0:0:0:
448,192,118756,128,0,118834:0:0:0:0:
320,192,118834,128,0,118912:0:0:0:0:
64,192,118912,128,0,118990:0:0:0:0:
448,192,118990,128,0,119068:0:0:0:0:
192,192,119068,128,0,119146:0:0:0:0:
320,192,119146,128,0,119224:0:0:0:0:
64,192,119224,128,0,119381:0:0:0:0:
448,192,119224,1,0,0:0:0:0:
192,192,119381,128,0,120006:0:0:0:0:
448,192,119381,128,0,119693:0:0:0:0:
320,192,119381,128,0,119537:0:0:0:0:
320,192,120006,1,0,0:0:0:0:
320,192,120162,1,0,0:0:0:0:
192,192,120318,1,0,0:0:0:0:
64,192,120396,1,0,0:0:0:0:
192,192,120474,1,0,0:0:0:0:
320,192,120631,1,0,0:0:0:0:
448,192,120631,1,0,0:0:0:0:
64,192,120631,1,0,0:0:0:0:
192,192,120787,1,0,0:0:0:0:
448,192,120865,1,0,0:0:0:0:
192,192,120943,1,0,0:0:0:0:
320,192,121021,1,0,0:0:0:0:
448,192,121099,128,0,121177:0:0:0:0:
320,192,121177,128,0,121256:0:0:0:0:
192,192,121256,1,0,0:0:0:0:
64,192,121256,1,0,0:0:0:0:
320,192,121412,1,0,0:0:0:0:
448,192,121490,1,0,0:0:0:0:
192,192,121568,1,0,0:0:0:0:
320,192,121646,1,0,0:0:0:0:
64,192,121724,1,0,0:0:0:0:
448,192,121802,1,0,0:0:0:0:
192,192,121881,1,0,0:0:0:0:
64,192,121881,128,0,122271:0:0:0:0:
320,192,121881,1,0,0:0:0:0:
448,192,122037,128,0,122349:0:0:0:0:
320,192,122193,128,0,122506:0:0:0:0:
64,192,122427,128,0,122506:0:0:0:0:
192,192,122506,1,0,0:0:0:0:
448,192,122506,1,0,0:0:0:0:
320,192,122584,1,0,0:0:0:0:
64,192,122662,1,0,0:0:0:0:
192,192,122740,1,0,0:0:0:0:
448,192,122818,1,0,0:0:0:0:
320,192,122896,1,0,0:0:0:0:
64,192,122974,1,0,0:0:0:0:
448,192,123052,1,0,0:0:0:0:
192,192,123131,1,0,0:0:0:0:
64,192,123131,1,0,0:0:0:0:
320,192,123131,1,0,0:0:0:0:
448,192,123209,1,0,0:0:0:0:
192,192,123287,1,0,0:0:0:0:
320,192,123365,1,0,0:0:0:0:
64,192,123443,128,0,123599:0:0:0:0:
192,192,123443,1,0,0:0:0:0:
320,192,123599,1,0,0:0:0:0:
192,192,123599,128,0,123756:0:0:0:0:
320,192,123756,1,0,0:0:0:0:
448,192,123756,1,0,0:0:0:0:
64,192,123834,1,0,0:0:0:0:
192,192,123912,1,0,0:0:0:0:
64,192,124016,1,0,0:0:0:0:
192,192,124120,1,0,0:0:0:0:
64,192,124224,1,0,0:0:0:0:
64,192,124381,1,0,0:0:0:0:
192,192,124381,1,0,0:0:0:0:
320,192,124381,1,0,0:0:0:0:
320,192,124537,1,0,0:0:0:0:
448,192,124615,1,0,0:0:0:0:
192,192,124693,1,0,0:0:0:0:
64,192,124771,1,0,0:0:0:0:
320,192,124849,1,0,0:0:0:0:
448,192,124849,1,0,0:0:0:0:
192,192,124927,1,0,0:0:0:0:
448,192,125006,1,0,0:0:0:0:
64,192,125006,1,0,0:0:0:0:
320,192,125084,1,0,0:0:0:0:
192,192,125162,1,0,0:0:0:0:
320,192,125240,1,0,0:0:0:0:
448,192,125318,1,0,0:0:0:0:
64,192,125396,1,0,0:0:0:0:
320,192,125474,1,0,0:0:0:0:
192,192,125552,1,0,0:0:0:0:
320,192,125631,1,0,0:0:0:0:
448,192,125631,1,0,0:0:0:0:
64,192,125631,1,0,0:0:0:0:
320,192,125787,1,0,0:0:0:0:
192,192,125865,1,0,0:0:0:0:
448,192,125943,1,0,0:0:0:0:
64,192,126021,1,0,0:0:0:0:
448,192,126099,1,0,0:0:0:0:
64,192,126177,1,0,0:0:0:0:
320,192,126256,1,0,0:0:0:0:
448,192,126256,1,0,0:0:0:0:
192,192,126334,1,0,0:0:0:0:
64,192,126334,1,0,0:0:0:0:
320,192,126412,1,0,0:0:0:0:
192,192,126490,1,0,0:0:0:0:
448,192,126568,1,0,0:0:0:0:
64,192,126646,1,0,0:0:0:0:
192,192,126724,1,0,0:0:0:0:
320,192,126802,1,0,0:0:0:0:
448,192,126881,1,0,0:0:0:0:
64,192,126881,128,0,127506:0:0:0:0:
192,192,126881,1,0,0:0:0:0:
320,192,127037,128,0,127506:0:0:0:0:
448,192,127037,1,0,0:0:0:0:
192,192,127193,128,0,127349:0:0:0:0:
448,192,127349,1,0,0:0:0:0:
448,192,127506,1,0,0:0:0:0:
192,192,127506,1,0,0:0:0:0:
320,192,127584,1,0,0:0:0:0:
192,192,127662,1,0,0:0:0:0:
448,192,127740,1,0,0:0:0:0:
64,192,127818,1,0,0:0:0:0:
320,192,127896,1,0,0:0:0:0:
192,192,127974,1,0,0:0:0:0:
64,192,128052,1,0,0:0:0:0:
320,192,128131,1,0,0:0:0:0:
448,192,128131,1,0,0:0:0:0:
192,192,128131,1,0,0:0:0:0:
320,192,128287,1,0,0:0:0:0:
320,192,128443,1,0,0:0:0:0:
192,192,128443,1,0,0:0:0:0:
64,192,128521,1,0,0:0:0:0:
448,192,128599,1,0,0:0:0:0:
320,192,128677,1,0,0:0:0:0:
192,192,128756,1,0,0:0:0:0:
448,192,128834,1,0,0:0:0:0:
192,192,128912,1,0,0:0:0:0:
448,192,128990,1,0,0:0:0:0:
192,192,129068,1,0,0:0:0:0:
64,192,129068,1,0,0:0:0:0:
320,192,129224,1,0,0:0:0:0:
448,192,129224,1,0,0:0:0:0:
64,192,129381,1,0,0:0:0:0:
320,192,129381,1,0,0:0:0:0:
192,192,129381,1,0,0:0:0:0:
192,192,129537,128,0,129615:0:0:0:0:
64,192,129615,128,0,129693:0:0:0:0:
320,192,129693,1,0,0:0:0:0:
448,192,129693,1,0,0:0:0:0:
192,192,129849,1,0,0:0:0:0:
320,192,130006,1,0,0:0:0:0:
64,192,130006,128,0,130084:0:0:0:0:
192,192,130084,1,0,0:0:0:0:
320,192,130162,128,0,130240:0:0:0:0:
448,192,130162,1,0,0:0:0:0:
64,192,130240,128,0,130318:0:0:0:0:
192,192,130318,1,0,0:0:0:0:
448,192,130318,128,0,130474:0:0:0:0:
320,192,130474,128,0,130552:0:0:0:0:
64,192,130474,1,0,0:0:0:0:
192,192,130552,128,0,130631:0:0:0:0:
448,192,130631,1,0,0:0:0:0:
64,192,130631,128,0,130787:0:0:0:0:
320,192,130631,1,0,0:0:0:0:
320,192,130787,128,0,130943:0:0:0:0:
448,192,130943,128,0,131099:0:0:0:0:
192,192,130943,1,0,0:0:0:0:
320,192,131099,1,0,0:0:0:0:
192,192,131177,1,0,0:0:0:0:
320,192,131256,1,0,0:0:0:0:
448,192,131256,1,0,0:0:0:0:
192,192,131334,1,0,0:0:0:0:
64,192,131334,1,0,0:0:0:0:
320,192,131412,1,0,0:0:0:0:
448,192,131412,1,0,0:0:0:0:
192,192,131490,1,0,0:0:0:0:
64,192,131490,1,0,0:0:0:0:
320,192,131568,1,0,0:0:0:0:
448,192,131568,1,0,0:0:0:0:
192,192,131646,1,0,0:0:0:0:
64,192,131646,1,0,0:0:0:0:
320,192,131724,1,0,0:0:0:0:
448,192,131724,1,0,0:0:0:0:
192,192,131802,1,0,0:0:0:0:
64,192,131802,1,0,0:0:0:0:
448,192,131881,1,0,0:0:0:0:
320,192,131881,128,0,131959:0:0:0:0:
192,192,132037,1,0,0:0:0:0:
448,192,132037,128,0,132115:0:0:0:0:
320,192,132193,128,0,132271:0:0:0:0:
192,192,132271,128,0,132349:0:0:0:0:
448,192,132349,128,0,132427:0:0:0:0:
64,192,132349,1,0,0:0:0:0:
64,192,132506,1,0,0:0:0:0:
192,192,132506,1,0,0:0:0:0:
192,192,132662,1,0,0:0:0:0:
320,192,132740,1,0,0:0:0:0:
64,192,132818,1,0,0:0:0:0:
192,192,132896,1,0,0:0:0:0:
448,192,132974,1,0,0:0:0:0:
320,192,133052,1,0,0:0:0:0:
64,192,133131,128,0,133287:0:0:0:0:
192,192,133287,128,0,133365:0:0:0:0:
64,192,133365,128,0,133443:0:0:0:0:
192,192,133443,128,0,133521:0:0:0:0:
320,192,133521,128,0,133599:0:0:0:0:
448,192,133599,1,0,0:0:0:0:
64,192,133599,128,0,133756:0:0:0:0:
448,192,133756,1,0,0:0:0:0:
320,192,133834,1,0,0:0:0:0:
448,192,133912,1,0,0:0:0:0:
320,192,133990,1,0,0:0:0:0:
64,192,134068,1,0,0:0:0:0:
192,192,134068,1,0,0:0:0:0:
320,192,134146,1,0,0:0:0:0:
448,192,134224,1,0,0:0:0:0:
192,192,134302,1,0,0:0:0:0:
64,192,134302,1,0,0:0:0:0:
448,192,134381,1,0,0:0:0:0:
320,192,134459,1,0,0:0:0:0:
64,192,134537,1,0,0:0:0:0:
192,192,134615,1,0,0:0:0:0:
448,192,134693,1,0,0:0:0:0:
192,192,134771,1,0,0:0:0:0:
320,192,134849,1,0,0:0:0:0:
64,192,134927,1,0,0:0:0:0:
320,192,135006,1,0,0:0:0:0:
448,192,135006,1,0,0:0:0:0:
192,192,135084,1,0,0:0:0:0:
448,192,135162,1,0,0:0:0:0:
320,192,135240,1,0,0:0:0:0:
192,192,135318,1,0,0:0:0:0:
64,192,135396,1,0,0:0:0:0:
192,192,135474,128,0,135552:0:0:0:0:
320,192,135552,128,0,135631:0:0:0:0:
64,192,135631,128,0,135709:0:0:0:0:
192,192,135709,128,0,135787:0:0:0:0:
320,192,135787,128,0,135865:0:0:0:0:
448,192,135865,128,0,135943:0:0:0:0:
192,192,135943,128,0,136021:0:0:0:0:
320,192,136021,128,0,136099:0:0:0:0:
64,192,136099,128,0,136177:0:0:0:0:
192,192,136177,128,0,136256:0:0:0:0:
448,192,136256,128,0,136412:0:0:0:0:
320,192,136256,128,0,136412:0:0:0:0:
192,192,136412,128,0,136490:0:0:0:0:
320,192,136490,128,0,136568:0:0:0:0:
64,192,136568,128,0,136724:0:0:0:0:
448,192,136646,128,0,136724:0:0:0:0:
192,192,136724,128,0,136881:0:0:0:0:
320,192,136881,1,0,0:0:0:0:
448,192,136881,1,0,0:0:0:0:
192,192,136959,1,0,0:0:0:0:
64,192,136959,1,0,0:0:0:0:
320,192,137037,1,0,0:0:0:0:
448,192,137037,1,0,0:0:0:0:
64,192,137115,1,0,0:0:0:0:
192,192,137115,1,0,0:0:0:0:
448,192,137193,1,0,0:0:0:0:
192,192,137271,1,0,0:0:0:0:
320,192,137349,1,0,0:0:0:0:
64,192,137427,1,0,0:0:0:0:
448,192,137506,128,0,137662:0:0:0:0:
192,192,139224,128,0,139537:0:0:0:0:
448,192,139537,128,0,142427:0:0:0:0:
320,192,139537,128,0,142896:0:0:0:0:
64,192,139537,128,0,144224:0:0:0:0:
192,192,139849,128,0,143131:0:0:0:0:
448,192,142662,128,0,144693:0:0:0:0:
320,192,143131,128,0,143443:0:0:0:0:
192,192,143365,128,0,143756:0:0:0:0:
320,192,143756,128,0,144849:0:0:0:0:
192,192,144068,128,0,145006:0:0:0:0:
64,192,144381,128,0,145006:0:0:0:0:
448,192,145006,128,0,145084:0:0:0:0:
320,192,145162,128,0,146412:0:0:0:0:
192,192,145214,128,0,147506:0:0:0:0:
448,192,146412,1,0,0:0:0:0:
64,192,146464,1,0,0:0:0:0:
320,192,146516,1,0,0:0:0:0:
448,192,146568,1,0,0:0:0:0:
64,192,146620,1,0,0:0:0:0:
320,192,146672,1,0,0:0:0:0:
448,192,146756,1,0,0:0:0:0:
64,192,146818,1,0,0:0:0:0:
320,192,146943,1,0,0:0:0:0:
64,192,147037,128,0,148521:0:0:0:0:
448,192,147068,128,0,147131:0:0:0:0:
320,192,147256,128,0,147318:0:0:0:0:
448,192,147506,128,0,147568:0:0:0:0:
448,192,148131,128,0,148443:0:0:0:0:
192,192,149537,128,0,149927:0:0:0:0:
320,192,150006,1,0,0:0:0:0:
448,192,150006,1,0,0:0:0:0:
192,192,150045,1,0,0:0:0:0:
64,192,150084,1,0,0:0:0:0:
320,192,150162,1,0,0:0:0:0:
192,192,150240,1,0,0:0:0:0:
448,192,150318,1,0,0:0:0:0:
64,192,150396,1,0,0:0:0:0:
448,192,150474,1,0,0:0:0:0:
64,192,150552,1,0,0:0:0:0:
320,192,150631,1,0,0:0:0:0:
448,192,150631,1,0,0:0:0:0:
192,192,150631,1,0,0:0:0:0:
320,192,150787,1,0,0:0:0:0:
448,192,150787,1,0,0:0:0:0:
64,192,150787,1,0,0:0:0:0:
192,192,150865,1,0,0:0:0:0:
64,192,150943,1,0,0:0:0:0:
192,192,151099,1,0,0:0:0:0:
448,192,151099,1,0,0:0:0:0:
320,192,151256,1,0,0:0:0:0:
192,192,151334,1,0,0:0:0:0:
448,192,151412,1,0,0:0:0:0:
64,192,151412,1,0,0:0:0:0:
192,192,151490,1,0,0:0:0:0:
320,192,151490,1,0,0:0:0:0:
320,192,151646,1,0,0:0:0:0:
192,192,151646,1,0,0:0:0:0:
64,192,151724,1,0,0:0:0:0:
448,192,151724,1,0,0:0:0:0:
320,192,151802,1,0,0:0:0:0:
192,192,151881,1,0,0:0:0:0:
64,192,151881,128,0,152037:0:0:0:0:
448,192,151881,1,0,0:0:0:0:
320,192,152037,1,0,0:0:0:0:
448,192,152037,128,0,152506:0:0:0:0:
320,192,152349,1,0,0:0:0:0:
192,192,152349,1,0,0:0:0:0:
192,192,152506,1,0,0:0:0:0:
64,192,152506,1,0,0:0:0:0:
320,192,152545,1,0,0:0:0:0:
448,192,152584,1,0,0:0:0:0:
320,192,152818,1,0,0:0:0:0:
192,192,152896,1,0,0:0:0:0:
448,192,152974,1,0,0:0:0:0:
320,192,153052,1,0,0:0:0:0:
64,192,153131,1,0,0:0:0:0:
448,192,153131,128,0,153209:0:0:0:0:
64,192,153287,1,0,0:0:0:0:
320,192,153287,128,0,153365:0:0:0:0:
192,192,153287,1,0,0:0:0:0:
192,192,153443,1,0,0:0:0:0:
320,192,153599,1,0,0:0:0:0:
192,192,153599,128,0,153677:0:0:0:0:
320,192,153756,1,0,0:0:0:0:
448,192,153756,1,0,0:0:0:0:
64,192,153834,1,0,0:0:0:0:
320,192,153912,1,0,0:0:0:0:
448,192,153912,1,0,0:0:0:0:
192,192,153990,1,0,0:0:0:0:
64,192,153990,1,0,0:0:0:0:
448,192,154068,1,0,0:0:0:0:
192,192,154146,1,0,0:0:0:0:
64,192,154146,1,0,0:0:0:0:
320,192,154224,1,0,0:0:0:0:
448,192,154224,1,0,0:0:0:0:
192,192,154302,1,0,0:0:0:0:
64,192,154302,1,0,0:0:0:0:
320,192,154381,1,0,0:0:0:0:
448,192,154381,1,0,0:0:0:0:
320,192,154537,1,0,0:0:0:0:
64,192,154537,1,0,0:0:0:0:
192,192,154615,128,0,154849:0:0:0:0:
448,192,154615,128,0,154849:0:0:0:0:
320,192,154849,1,0,0:0:0:0:
64,192,154849,1,0,0:0:0:0:
448,192,155006,1,0,0:0:0:0:
320,192,155006,1,0,0:0:0:0:
192,192,155045,1,0,0:0:0:0:
64,192,155084,1,0,0:0:0:0:
448,192,155318,1,0,0:0:0:0:
192,192,155396,1,0,0:0:0:0:
448,192,155474,1,0,0:0:0:0:
64,192,155552,1,0,0:0:0:0:
320,192,155631,1,0,0:0:0:0:
448,192,155631,1,0,0:0:0:0:
192,192,155631,1,0,0:0:0:0:
64,192,155787,1,0,0:0:0:0:
320,192,155943,1,0,0:0:0:0:
320,192,156099,1,0,0:0:0:0:
448,192,156099,128,0,156256:0:0:0:0:
64,192,156099,128,0,156177:0:0:0:0:
192,192,156256,1,0,0:0:0:0:
320,192,156334,1,0,0:0:0:0:
64,192,156412,1,0,0:0:0:0:
192,192,156412,1,0,0:0:0:0:
64,192,156568,1,0,0:0:0:0:
192,192,156568,1,0,0:0:0:0:
320,192,156646,1,0,0:0:0:0:
448,192,156724,1,0,0:0:0:0:
192,192,156802,1,0,0:0:0:0:
64,192,156881,1,0,0:0:0:0:
320,192,156881,1,0,0:0:0:0:
448,192,156881,1,0,0:0:0:0:
320,192,157037,1,0,0:0:0:0:
448,192,157115,1,0,0:0:0:0:
192,192,157193,128,0,157271:0:0:0:0:
320,192,157271,128,0,157349:0:0:0:0:
64,192,157349,128,0,157427:0:0:0:0:
448,192,157427,128,0,157506:0:0:0:0:
64,192,157506,1,0,0:0:0:0:
192,192,157506,1,0,0:0:0:0:
320,192,157545,1,0,0:0:0:0:
448,192,157584,1,0,0:0:0:0:
192,192,157818,1,0,0:0:0:0:
320,192,157896,1,0,0:0:0:0:
64,192,157974,1,0,0:0:0:0:
448,192,158052,1,0,0:0:0:0:
192,192,158131,1,0,0:0:0:0:
64,192,158131,1,0,0:0:0:0:
320,192,158131,1,0,0:0:0:0:
320,192,158287,128,0,158365:0:0:0:0:
448,192,158287,128,0,158443:0:0:0:0:
192,192,158443,1,0,0:0:0:0:
192,192,158599,128,0,158677:0:0:0:0:
320,192,158599,1,0,0:0:0:0:
64,192,158599,128,0,158756:0:0:0:0:
320,192,158756,1,0,0:0:0:0:
448,192,158756,1,0,0:0:0:0:
192,192,158834,1,0,0:0:0:0:
448,192,158912,128,0,158990:0:0:0:0:
320,192,158912,128,0,159068:0:0:0:0:
192,192,158990,1,0,0:0:0:0:
64,192,159068,1,0,0:0:0:0:
448,192,159146,1,0,0:0:0:0:
64,192,159224,128,0,159302:0:0:0:0:
192,192,159224,128,0,159381:0:0:0:0:
320,192,159302,1,0,0:0:0:0:
448,192,159381,128,0,159537:0:0:0:0:
64,192,159381,128,0,159459:0:0:0:0:
192,192,159537,1,0,0:0:0:0:
320,192,159537,1,0,0:0:0:0:
64,192,159693,128,0,160006:0:0:0:0:
448,192,159693,128,0,160006:0:0:0:0:
192,192,160006,1,0,0:0:0:0:
320,192,160006,128,0,162349:0:0:0:0:
192,192,160318,1,0,0:0:0:0:
64,192,160396,1,0,0:0:0:0:
192,192,160474,1,0,0:0:0:0:
448,192,160552,1,0,0:0:0:0:
192,192,160631,1,0,0:0:0:0:
64,192,160631,1,0,0:0:0:0:
192,192,160787,1,0,0:0:0:0:
64,192,160787,1,0,0:0:0:0:
448,192,160787,1,0,0:0:0:0:
448,192,160943,1,0,0:0:0:0:
64,192,161099,1,0,0:0:0:0:
448,192,161099,1,0,0:0:0:0:
64,192,161256,1,0,0:0:0:0:
192,192,161334,1,0,0:0:0:0:
64,192,161412,1,0,0:0:0:0:
192,192,161490,1,0,0:0:0:0:
448,192,161568,1,0,0:0:0:0:
64,192,161646,1,0,0:0:0:0:
448,192,161724,1,0,0:0:0:0:
192,192,161802,1,0,0:0:0:0:
64,192,161881,1,0,0:0:0:0:
448,192,161881,1,0,0:0:0:0:
64,192,162037,1,0,0:0:0:0:
192,192,162037,128,0,162506:0:0:0:0:
448,192,162349,1,0,0:0:0:0:
64,192,162349,1,0,0:0:0:0:
320,192,162506,1,0,0:0:0:0:
64,192,162506,1,0,0:0:0:0:
448,192,162584,1,0,0:0:0:0:
64,192,162662,1,0,0:0:0:0:
320,192,162662,1,0,0:0:0:0:
192,192,162740,1,0,0:0:0:0:
320,192,162818,1,0,0:0:0:0:
448,192,162818,1,0,0:0:0:0:
192,192,162896,1,0,0:0:0:0:
64,192,162974,1,0,0:0:0:0:
320,192,162974,1,0,0:0:0:0:
192,192,163052,1,0,0:0:0:0:
320,192,163131,1,0,0:0:0:0:
448,192,163131,1,0,0:0:0:0:
192,192,163209,1,0,0:0:0:0:
64,192,163287,1,0,0:0:0:0:
448,192,163287,1,0,0:0:0:0:
192,192,163365,1,0,0:0:0:0:
64,192,163443,1,0,0:0:0:0:
320,192,163443,1,0,0:0:0:0:
448,192,163521,1,0,0:0:0:0:
320,192,163599,1,0,0:0:0:0:
192,192,163599,1,0,0:0:0:0:
64,192,163677,1,0,0:0:0:0:
320,192,163756,1,0,0:0:0:0:
448,192,163756,1,0,0:0:0:0:
192,192,163834,1,0,0:0:0:0:
448,192,163912,1,0,0:0:0:0:
64,192,163912,1,0,0:0:0:0:
320,192,163990,1,0,0:0:0:0:
192,192,164068,1,0,0:0:0:0:
64,192,164068,1,0,0:0:0:0:
320,192,164146,1,0,0:0:0:0:
192,192,164224,1,0,0:0:0:0:
448,192,164224,1,0,0:0:0:0:
64,192,164302,1,0,0:0:0:0:
192,192,164381,1,0,0:0:0:0:
320,192,164381,1,0,0:0:0:0:
448,192,164459,1,0,0:0:0:0:
192,192,164537,1,0,0:0:0:0:
64,192,164537,1,0,0:0:0:0:
192,192,164693,1,0,0:0:0:0:
448,192,164693,128,0,165006:0:0:0:0:
320,192,164693,1,0,0:0:0:0:
64,192,165006,1,0,0:0:0:0:
192,192,165006,1,0,0:0:0:0:
320,192,165045,1,0,0:0:0:0:
448,192,165084,1,0,0:0:0:0:
64,192,165318,1,0,0:0:0:0:
448,192,165396,1,0,0:0:0:0:
192,192,165474,1,0,0:0:0:0:
320,192,165552,1,0,0:0:0:0:
192,192,165631,1,0,0:0:0:0:
64,192,165631,1,0,0:0:0:0:
448,192,165631,1,0,0:0:0:0:
192,192,165787,1,0,0:0:0:0:
320,192,165943,1,0,0:0:0:0:
320,192,166099,128,0,166256:0:0:0:0:
192,192,166099,1,0,0:0:0:0:
64,192,166099,1,0,0:0:0:0:
448,192,166099,128,0,166256:0:0:0:0:
192,192,166256,1,0,0:0:0:0:
64,192,166334,1,0,0:0:0:0:
320,192,166412,1,0,0:0:0:0:
448,192,166412,1,0,0:0:0:0:
64,192,166490,1,0,0:0:0:0:
448,192,166568,1,0,0:0:0:0:
192,192,166568,1,0,0:0:0:0:
320,192,166646,1,0,0:0:0:0:
192,192,166724,1,0,0:0:0:0:
448,192,166802,1,0,0:0:0:0:
320,192,166881,1,0,0:0:0:0:
64,192,166881,128,0,167037:0:0:0:0:
192,192,166959,128,0,167037:0:0:0:0:
448,192,167037,128,0,167193:0:0:0:0:
320,192,167115,128,0,167193:0:0:0:0:
192,192,167193,1,0,0:0:0:0:
64,192,167193,1,0,0:0:0:0:
448,192,167271,1,0,0:0:0:0:
320,192,167271,1,0,0:0:0:0:
64,192,167349,128,0,167506:0:0:0:0:
192,192,167427,128,0,167506:0:0:0:0:
320,192,167506,1,0,0:0:0:0:
448,192,167506,1,0,0:0:0:0:
320,192,167610,1,0,0:0:0:0:
192,192,167714,1,0,0:0:0:0:
64,192,167714,1,0,0:0:0:0:
192,192,167818,1,0,0:0:0:0:
320,192,167922,1,0,0:0:0:0:
448,192,167922,1,0,0:0:0:0:
320,192,168026,1,0,0:0:0:0:
192,192,168131,1,0,0:0:0:0:
64,192,168131,1,0,0:0:0:0:
192,192,168235,1,0,0:0:0:0:
320,192,168339,1,0,0:0:0:0:
448,192,168339,1,0,0:0:0:0:
320,192,168443,1,0,0:0:0:0:
64,192,168547,1,0,0:0:0:0:
192,192,168547,1,0,0:0:0:0:
192,192,168651,1,0,0:0:0:0:
320,192,168756,1,0,0:0:0:0:
448,192,168756,1,0,0:0:0:0:
192,192,168834,1,0,0:0:0:0:
64,192,168834,1,0,0:0:0:0:
320,192,168912,1,0,0:0:0:0:
448,192,168912,1,0,0:0:0:0:
192,192,168990,1,0,0:0:0:0:
64,192,168990,1,0,0:0:0:0:
448,192,169068,1,0,0:0:0:0:
64,192,169146,1,0,0:0:0:0:
320,192,169224,1,0,0:0:0:0:
192,192,169302,1,0,0:0:0:0:
320,192,169381,1,0,0:0:0:0:
448,192,169381,1,0,0:0:0:0:
192,192,169433,1,0,0:0:0:0:
64,192,169485,1,0,0:0:0:0:
320,192,169537,1,0,0:0:0:0:
448,192,169589,1,0,0:0:0:0:
192,192,169641,1,0,0:0:0:0:
320,192,169693,1,0,0:0:0:0:
64,192,169693,128,0,170006:0:0:0:0:
448,192,170006,1,0,0:0:0:0:
320,192,170006,1,0,0:0:0:0:
192,192,170045,1,0,0:0:0:0:
64,192,170084,1,0,0:0:0:0:
320,192,170318,1,0,0:0:0:0:
64,192,170396,1,0,0:0:0:0:
320,192,170474,1,0,0:0:0:0:
448,192,170552,1,0,0:0:0:0:
192,192,170631,1,0,0:0:0:0:
320,192,170631,1,0,0:0:0:0:
64,192,170631,1,0,0:0:0:0:
64,192,170787,1,0,0:0:0:0:
192,192,170787,1,0,0:0:0:0:
448,192,170787,1,0,0:0:0:0:
320,192,170943,1,0,0:0:0:0:
192,192,171099,1,0,0:0:0:0:
448,192,171099,1,0,0:0:0:0:
320,192,171256,1,0,0:0:0:0:
192,192,171334,1,0,0:0:0:0:
64,192,171412,1,0,0:0:0:0:
320,192,171412,1,0,0:0:0:0:
448,192,171490,1,0,0:0:0:0:
320,192,171568,1,0,0:0:0:0:
192,192,171646,1,0,0:0:0:0:
64,192,171646,1,0,0:0:0:0:
320,192,171724,1,0,0:0:0:0:
448,192,171724,1,0,0:0:0:0:
192,192,171802,1,0,0:0:0:0:
64,192,171881,1,0,0:0:0:0:
320,192,171881,1,0,0:0:0:0:
192,192,172037,1,0,0:0:0:0:
64,192,172037,128,0,172349:0:0:0:0:
448,192,172037,1,0,0:0:0:0:
192,192,172349,1,0,0:0:0:0:
192,192,172506,128,0,172818:0:0:0:0:
448,192,172506,1,0,0:0:0:0:
320,192,172545,1,0,0:0:0:0:
64,192,172584,1,0,0:0:0:0:
448,192,172818,1,0,0:0:0:0:
320,192,172896,1,0,0:0:0:0:
64,192,172974,1,0,0:0:0:0:
192,192,173052,1,0,0:0:0:0:
448,192,173131,1,0,0:0:0:0:
320,192,173131,128,0,173287:0:0:0:0:
64,192,173131,1,0,0:0:0:0:
64,192,173287,1,0,0:0:0:0:
192,192,173287,128,0,173443:0:0:0:0:
448,192,173287,1,0,0:0:0:0:
320,192,173443,1,0,0:0:0:0:
192,192,173599,128,0,173756:0:0:0:0:
64,192,173599,1,0,0:0:0:0:
448,192,173599,1,0,0:0:0:0:
320,192,173756,1,0,0:0:0:0:
448,192,173834,1,0,0:0:0:0:
64,192,173912,1,0,0:0:0:0:
320,192,173912,1,0,0:0:0:0:
192,192,173990,1,0,0:0:0:0:
448,192,173990,1,0,0:0:0:0:
320,192,174068,128,0,174146:0:0:0:0:
192,192,174146,1,0,0:0:0:0:
64,192,174224,128,0,174302:0:0:0:0:
192,192,174302,1,0,0:0:0:0:
320,192,174381,1,0,0:0:0:0:
448,192,174381,1,0,0:0:0:0:
64,192,174537,128,0,174849:0:0:0:0:
448,192,174537,1,0,0:0:0:0:
192,192,174537,128,0,174849:0:0:0:0:
320,192,174849,1,0,0:0:0:0:
448,192,175006,1,0,0:0:0:0:
320,192,175006,1,0,0:0:0:0:
192,192,175045,1,0,0:0:0:0:
64,192,175084,1,0,0:0:0:0:
192,192,175318,1,0,0:0:0:0:
64,192,175396,1,0,0:0:0:0:
320,192,175474,1,0,0:0:0:0:
448,192,175552,1,0,0:0:0:0:
64,192,175631,1,0,0:0:0:0:
192,192,175631,1,0,0:0:0:0:
320,192,175735,1,0,0:0:0:0:
192,192,175787,1,0,0:0:0:0:
64,192,175787,1,0,0:0:0:0:
448,192,175839,1,0,0:0:0:0:
192,192,175943,1,0,0:0:0:0:
64,192,175943,1,0,0:0:0:0:
320,192,176021,1,0,0:0:0:0:
192,192,176047,1,0,0:0:0:0:
448,192,176099,1,0,0:0:0:0:
64,192,176099,1,0,0:0:0:0:
320,192,176151,1,0,0:0:0:0:
64,192,176256,1,0,0:0:0:0:
448,192,176300,1,0,0:0:0:0:
192,192,176334,1,0,0:0:0:0:
64,192,176412,1,0,0:0:0:0:
448,192,176412,1,0,0:0:0:0:
320,192,176434,1,0,0:0:0:0:
192,192,176490,1,0,0:0:0:0:
448,192,176568,1,0,0:0:0:0:
64,192,176568,1,0,0:0:0:0:
192,192,176646,1,0,0:0:0:0:
320,192,176702,1,0,0:0:0:0:
448,192,176724,1,0,0:0:0:0:
192,192,176802,1,0,0:0:0:0:
64,192,176881,1,0,0:0:0:0:
448,192,176881,1,0,0:0:0:0:
320,192,176881,1,0,0:0:0:0:
320,192,177037,1,0,0:0:0:0:
192,192,177037,1,0,0:0:0:0:
64,192,177115,1,0,0:0:0:0:
448,192,177193,1,0,0:0:0:0:
192,192,177193,128,0,177271:0:0:0:0:
64,192,177271,128,0,177349:0:0:0:0:
320,192,177349,1,0,0:0:0:0:
448,192,177349,128,0,177427:0:0:0:0:
192,192,177427,128,0,177506:0:0:0:0:
448,192,177506,1,0,0:0:0:0:
320,192,177506,1,0,0:0:0:0:
320,192,177610,1,0,0:0:0:0:
192,192,177714,1,0,0:0:0:0:
64,192,177714,1,0,0:0:0:0:
192,192,177818,1,0,0:0:0:0:
320,192,177922,1,0,0:0:0:0:
448,192,177922,1,0,0:0:0:0:
320,192,178026,1,0,0:0:0:0:
192,192,178131,1,0,0:0:0:0:
64,192,178131,1,0,0:0:0:0:
192,192,178235,1,0,0:0:0:0:
320,192,178339,1,0,0:0:0:0:
448,192,178339,1,0,0:0:0:0:
320,192,178443,1,0,0:0:0:0:
192,192,178547,1,0,0:0:0:0:
64,192,178547,1,0,0:0:0:0:
192,192,178651,1,0,0:0:0:0:
448,192,178756,1,0,0:0:0:0:
64,192,178756,1,0,0:0:0:0:
320,192,178808,1,0,0:0:0:0:
192,192,178860,1,0,0:0:0:0:
64,192,178912,1,0,0:0:0:0:
448,192,178964,1,0,0:0:0:0:
320,192,179016,1,0,0:0:0:0:
64,192,179068,1,0,0:0:0:0:
192,192,179120,1,0,0:0:0:0:
320,192,179172,1,0,0:0:0:0:
448,192,179224,1,0,0:0:0:0:
64,192,179276,1,0,0:0:0:0:
192,192,179328,1,0,0:0:0:0:
448,192,179381,1,0,0:0:0:0:
320,192,179433,1,0,0:0:0:0:
192,192,179485,1,0,0:0:0:0:
64,192,179537,1,0,0:0:0:0:
448,192,179589,1,0,0:0:0:0:
320,192,179641,1,0,0:0:0:0:
64,192,179693,128,0,180006:0:0:0:0:
192,192,179693,128,0,180006:0:0:0:0:
448,192,180006,1,0,0:0:0:0:
320,192,180006,1,0,0:0:0:0:
192,192,180162,1,0,0:0:0:0:
64,192,180162,1,0,0:0:0:0:
320,192,180318,1,0,0:0:0:0:
192,192,180396,1,0,0:0:0:0:
448,192,180474,1,0,0:0:0:0:
64,192,180552,1,0,0:0:0:0:
320,192,180631,1,0,0:0:0:0:
448,192,180631,1,0,0:0:0:0:
192,192,180787,1,0,0:0:0:0:
64,192,180787,1,0,0:0:0:0:
320,192,180943,128,0,181099:0:0:0:0:
64,192,181099,128,0,181256:0:0:0:0:
192,192,181099,1,0,0:0:0:0:
320,192,181256,1,0,0:0:0:0:
448,192,181334,1,0,0:0:0:0:
64,192,181412,1,0,0:0:0:0:
320,192,181412,1,0,0:0:0:0:
192,192,181490,1,0,0:0:0:0:
448,192,181490,1,0,0:0:0:0:
320,192,181568,1,0,0:0:0:0:
64,192,181646,1,0,0:0:0:0:
192,192,181724,1,0,0:0:0:0:
448,192,181802,1,0,0:0:0:0:
64,192,181881,1,0,0:0:0:0:
320,192,181881,128,0,182037:0:0:0:0:
192,192,181881,1,0,0:0:0:0:
448,192,182037,1,0,0:0:0:0:
192,192,182037,128,0,182193:0:0:0:0:
64,192,182037,1,0,0:0:0:0:
192,192,182349,1,0,0:0:0:0:
448,192,182349,128,0,182506:0:0:0:0:
64,192,182506,1,0,0:0:0:0:
320,192,182506,1,0,0:0:0:0:
192,192,182584,1,0,0:0:0:0:
448,192,182662,1,0,0:0:0:0:
64,192,182662,1,0,0:0:0:0:
320,192,182740,1,0,0:0:0:0:
192,192,182818,1,0,0:0:0:0:
64,192,182818,1,0,0:0:0:0:
448,192,182896,1,0,0:0:0:0:
320,192,182974,1,0,0:0:0:0:
64,192,182974,1,0,0:0:0:0:
448,192,183052,1,0,0:0:0:0:
320,192,183131,1,0,0:0:0:0:
192,192,183131,1,0,0:0:0:0:
64,192,183209,1,0,0:0:0:0:
192,192,183287,1,0,0:0:0:0:
448,192,183287,1,0,0:0:0:0:
320,192,183365,1,0,0:0:0:0:
448,192,183443,1,0,0:0:0:0:
64,192,183443,1,0,0:0:0:0:
192,192,183521,1,0,0:0:0:0:
320,192,183599,1,0,0:0:0:0:
448,192,183599,1,0,0:0:0:0:
192,192,183677,1,0,0:0:0:0:
64,192,183756,1,0,0:0:0:0:
320,192,183756,1,0,0:0:0:0:
192,192,183834,1,0,0:0:0:0:
64,192,183912,1,0,0:0:0:0:
448,192,183912,1,0,0:0:0:0:
320,192,183990,1,0,0:0:0:0:
192,192,184068,1,0,0:0:0:0:
448,192,184068,1,0,0:0:0:0:
64,192,184146,1,0,0:0:0:0:
192,192,184224,1,0,0:0:0:0:
320,192,184224,1,0,0:0:0:0:
448,192,184302,1,0,0:0:0:0:
64,192,184381,1,0,0:0:0:0:
192,192,184381,1,0,0:0:0:0:
320,192,184459,1,0,0:0:0:0:
64,192,184537,1,0,0:0:0:0:
192,192,184537,1,0,0:0:0:0:
192,192,184693,1,0,0:0:0:0:
64,192,184693,128,0,185006:0:0:0:0:
448,192,185006,1,0,0:0:0:0:
320,192,185006,1,0,0:0:0:0:
192,192,185006,1,0,0:0:0:0:
448,192,185162,1,0,0:0:0:0:
320,192,185162,1,0,0:0:0:0:
192,192,185318,1,0,0:0:0:0:
320,192,185396,1,0,0:0:0:0:
64,192,185474,1,0,0:0:0:0:
320,192,185552,1,0,0:0:0:0:
192,192,185631,1,0,0:0:0:0:
448,192,185631,1,0,0:0:0:0:
64,192,185631,1,0,0:0:0:0:
192,192,185787,128,0,185865:0:0:0:0:
320,192,185943,1,0,0:0:0:0:
64,192,186099,1,0,0:0:0:0:
192,192,186099,1,0,0:0:0:0:
320,192,186256,1,0,0:0:0:0:
64,192,186334,1,0,0:0:0:0:
192,192,186412,1,0,0:0:0:0:
448,192,186490,1,0,0:0:0:0:
64,192,186568,1,0,0:0:0:0:
192,192,186568,1,0,0:0:0:0:
320,192,186646,1,0,0:0:0:0:
64,192,186724,1,0,0:0:0:0:
448,192,186802,1,0,0:0:0:0:
320,192,186881,1,0,0:0:0:0:
192,192,186881,128,0,187037:0:0:0:0:
64,192,187037,128,0,187193:0:0:0:0:
448,192,187037,1,0,0:0:0:0:
320,192,187115,1,0,0:0:0:0:
192,192,187193,1,0,0:0:0:0:
320,192,187271,1,0,0:0:0:0:
448,192,187349,1,0,0:0:0:0:
192,192,187349,1,0,0:0:0:0:
64,192,187427,1,0,0:0:0:0:
320,192,187506,1,0,0:0:0:0:
448,192,187506,1,0,0:0:0:0:
320,192,187610,1,0,0:0:0:0:
192,192,187714,1,0,0:0:0:0:
64,192,187714,1,0,0:0:0:0:
192,192,187818,1,0,0:0:0:0:
320,192,187922,1,0,0:0:0:0:
448,192,187922,1,0,0:0:0:0:
320,192,188026,1,0,0:0:0:0:
192,192,188131,1,0,0:0:0:0:
64,192,188131,1,0,0:0:0:0:
192,192,188235,1,0,0:0:0:0:
320,192,188339,1,0,0:0:0:0:
448,192,188339,1,0,0:0:0:0:
320,192,188443,1,0,0:0:0:0:
192,192,188547,1,0,0:0:0:0:
64,192,188547,1,0,0:0:0:0:
192,192,188651,1,0,0:0:0:0:
320,192,188756,1,0,0:0:0:0:
448,192,188756,1,0,0:0:0:0:
320,192,188860,1,0,0:0:0:0:
192,192,188912,1,0,0:0:0:0:
448,192,188964,1,0,0:0:0:0:
64,192,188964,1,0,0:0:0:0:
192,192,189068,1,0,0:0:0:0:
320,192,189120,1,0,0:0:0:0:
448,192,189172,1,0,0:0:0:0:
64,192,189172,1,0,0:0:0:0:
320,192,189276,1,0,0:0:0:0:
192,192,189328,1,0,0:0:0:0:
64,192,189381,1,0,0:0:0:0:
448,192,189381,128,0,189459:0:0:0:0:
192,192,189420,1,0,0:0:0:0:
320,192,189498,1,0,0:0:0:0:
448,192,189576,1,0,0:0:0:0:
64,192,189654,1,0,0:0:0:0:
192,192,189732,1,0,0:0:0:0:
320,192,189849,1,0,0:0:0:0:
448,192,189927,1,0,0:0:0:0:
64,192,190045,1,0,0:0:0:0:
192,192,190184,1,0,0:0:0:0:
320,192,190357,1,0,0:0:0:0:
448,192,190513,1,0,0:0:0:0:
64,192,190748,1,0,0:0:0:0:
192,192,190988,1,0,0:0:0:0:
320,192,191373,1,0,0:0:0:0:
448,192,191959,128,0,195006:0:0:0:0:
320,192,193599,128,0,195006:0:0:0:0:
64,192,194537,128,0,195006:0:0:0:0:
192,192,195006,128,0,196021:0:0:0:0:
320,192,195943,128,0,196099:0:0:0:0:
64,192,196099,128,0,196177:0:0:0:0:
448,192,196177,128,0,196256:0:0:0:0:
320,192,196256,1,0,0:0:0:0:
192,192,196256,1,0,0:0:0:0:
64,192,196295,1,0,0:0:0:0:
320,192,196412,1,0,0:0:0:0:
448,192,196451,1,0,0:0:0:0:
192,192,196568,1,0,0:0:0:0:
320,192,196607,1,0,0:0:0:0:
448,192,196724,1,0,0:0:0:0:
320,192,196724,1,0,0:0:0:0:
192,192,196763,1,0,0:0:0:0:
64,192,196802,1,0,0:0:0:0:
448,192,196881,1,0,0:0:0:0:
320,192,196881,1,0,0:0:0:0:
192,192,196920,1,0,0:0:0:0:
64,192,196959,1,0,0:0:0:0:
320,192,197037,1,0,0:0:0:0:
192,192,197115,1,0,0:0:0:0:
448,192,197193,1,0,0:0:0:0:
64,192,197193,1,0,0:0:0:0:
320,192,197271,1,0,0:0:0:0:
192,192,197349,1,0,0:0:0:0:
320,192,197427,1,0,0:0:0:0:
192,192,197506,1,0,0:0:0:0:
448,192,197506,1,0,0:0:0:0:
64,192,197545,1,0,0:0:0:0:
320,192,197662,1,0,0:0:0:0:
192,192,197662,1,0,0:0:0:0:
448,192,197701,1,0,0:0:0:0:
64,192,197818,1,0,0:0:0:0:
448,192,197818,1,0,0:0:0:0:
320,192,197857,1,0,0:0:0:0:
448,192,197974,1,0,0:0:0:0:
192,192,197974,1,0,0:0:0:0:
320,192,198013,1,0,0:0:0:0:
64,192,198131,128,0,198287:0:0:0:0:
192,192,198131,1,0,0:0:0:0:
448,192,198131,1,0,0:0:0:0:
192,192,198287,1,0,0:0:0:0:
320,192,198365,128,0,198521:0:0:0:0:
448,192,198365,1,0,0:0:0:0:
64,192,198365,1,0,0:0:0:0:
192,192,198521,1,0,0:0:0:0:
64,192,198599,128,0,198756:0:0:0:0:
320,192,198599,1,0,0:0:0:0:
448,192,198599,1,0,0:0:0:0:
448,192,198756,1,0,0:0:0:0:
320,192,198756,1,0,0:0:0:0:
192,192,198795,1,0,0:0:0:0:
64,192,198912,1,0,0:0:0:0:
448,192,198912,1,0,0:0:0:0:
320,192,198951,1,0,0:0:0:0:
448,192,199068,1,0,0:0:0:0:
64,192,199068,1,0,0:0:0:0:
192,192,199107,1,0,0:0:0:0:
64,192,199224,1,0,0:0:0:0:
192,192,199224,1,0,0:0:0:0:
320,192,199263,1,0,0:0:0:0:
448,192,199381,1,0,0:0:0:0:
320,192,199381,1,0,0:0:0:0:
192,192,199381,1,0,0:0:0:0:
192,192,199537,1,0,0:0:0:0:
64,192,199537,128,0,199771:0:0:0:0:
448,192,199537,1,0,0:0:0:0:
192,192,199849,128,0,200006:0:0:0:0:
448,192,200006,1,0,0:0:0:0:
320,192,200006,1,0,0:0:0:0:
64,192,200084,1,0,0:0:0:0:
192,192,200162,1,0,0:0:0:0:
320,192,200162,1,0,0:0:0:0:
448,192,200240,1,0,0:0:0:0:
320,192,200318,1,0,0:0:0:0:
64,192,200318,1,0,0:0:0:0:
192,192,200396,1,0,0:0:0:0:
448,192,200474,1,0,0:0:0:0:
64,192,200474,1,0,0:0:0:0:
320,192,200552,1,0,0:0:0:0:
64,192,200631,1,0,0:0:0:0:
192,192,200631,1,0,0:0:0:0:
320,192,200670,1,0,0:0:0:0:
448,192,200787,1,0,0:0:0:0:
320,192,200826,1,0,0:0:0:0:
192,192,200943,1,0,0:0:0:0:
320,192,200982,1,0,0:0:0:0:
64,192,201099,1,0,0:0:0:0:
448,192,201099,1,0,0:0:0:0:
320,192,201177,1,0,0:0:0:0:
192,192,201177,1,0,0:0:0:0:
64,192,201256,1,0,0:0:0:0:
448,192,201256,1,0,0:0:0:0:
192,192,201334,1,0,0:0:0:0:
320,192,201334,1,0,0:0:0:0:
448,192,201412,1,0,0:0:0:0:
64,192,201412,1,0,0:0:0:0:
64,192,201568,1,0,0:0:0:0:
192,192,201568,1,0,0:0:0:0:
320,192,201646,1,0,0:0:0:0:
448,192,201646,1,0,0:0:0:0:
320,192,201802,1,0,0:0:0:0:
448,192,201802,1,0,0:0:0:0:
192,192,201881,1,0,0:0:0:0:
64,192,201881,1,0,0:0:0:0:
64,192,202037,128,0,202115:0:0:0:0:
192,192,202115,128,0,202193:0:0:0:0:
448,192,202193,128,0,202271:0:0:0:0:
320,192,202271,128,0,202349:0:0:0:0:
64,192,202349,128,0,202427:0:0:0:0:
192,192,202427,128,0,202506:0:0:0:0:
448,192,202506,128,0,203131:0:0:0:0:
320,192,202506,1,0,0:0:0:0:
64,192,202558,1,0,0:0:0:0:
192,192,202610,1,0,0:0:0:0:
320,192,202662,128,0,202740:0:0:0:0:
64,192,202740,128,0,202818:0:0:0:0:
192,192,202818,128,0,202922:0:0:0:0:
320,192,202922,128,0,203026:0:0:0:0:
64,192,203026,128,0,203131:0:0:0:0:
192,192,203131,1,0,0:0:0:0:
320,192,203170,1,0,0:0:0:0:
448,192,203287,1,0,0:0:0:0:
192,192,203287,1,0,0:0:0:0:
320,192,203326,1,0,0:0:0:0:
320,192,203443,1,0,0:0:0:0:
64,192,203443,1,0,0:0:0:0:
192,192,203482,1,0,0:0:0:0:
192,192,203599,1,0,0:0:0:0:
448,192,203599,1,0,0:0:0:0:
320,192,203638,1,0,0:0:0:0:
320,192,203756,1,0,0:0:0:0:
64,192,203756,128,0,203912:0:0:0:0:
192,192,203795,1,0,0:0:0:0:
448,192,203912,1,0,0:0:0:0:
192,192,203990,1,0,0:0:0:0:
320,192,204068,1,0,0:0:0:0:
64,192,204146,1,0,0:0:0:0:
448,192,204224,128,0,204381:0:0:0:0:
320,192,204224,1,0,0:0:0:0:
192,192,204381,1,0,0:0:0:0:
64,192,204381,1,0,0:0:0:0:
448,192,204485,1,0,0:0:0:0:
320,192,204485,1,0,0:0:0:0:
192,192,204537,1,0,0:0:0:0:
64,192,204537,1,0,0:0:0:0:
320,192,204589,1,0,0:0:0:0:
448,192,204589,1,0,0:0:0:0:
192,192,204693,1,0,0:0:0:0:
64,192,204693,1,0,0:0:0:0:
320,192,204745,1,0,0:0:0:0:
448,192,204745,1,0,0:0:0:0:
192,192,204797,1,0,0:0:0:0:
64,192,204797,1,0,0:0:0:0:
320,192,204901,1,0,0:0:0:0:
448,192,204901,1,0,0:0:0:0:
192,192,204953,1,0,0:0:0:0:
64,192,204953,1,0,0:0:0:0:
448,192,205006,1,0,0:0:0:0:
320,192,205006,128,0,205084:0:0:0:0:
192,192,205045,1,0,0:0:0:0:
64,192,205162,128,0,205240:0:0:0:0:
192,192,205201,1,0,0:0:0:0:
448,192,205318,128,0,205396:0:0:0:0:
320,192,205357,1,0,0:0:0:0:
192,192,205474,128,0,205552:0:0:0:0:
64,192,205474,1,0,0:0:0:0:
320,192,205513,1,0,0:0:0:0:
448,192,205552,1,0,0:0:0:0:
320,192,205631,1,0,0:0:0:0:
64,192,205631,128,0,205787:0:0:0:0:
192,192,205787,128,0,205865:0:0:0:0:
320,192,205865,1,0,0:0:0:0:
448,192,205943,1,0,0:0:0:0:
64,192,205943,1,0,0:0:0:0:
192,192,206021,1,0,0:0:0:0:
320,192,206021,1,0,0:0:0:0:
448,192,206099,1,0,0:0:0:0:
64,192,206099,1,0,0:0:0:0:
320,192,206177,1,0,0:0:0:0:
192,192,206256,1,0,0:0:0:0:
64,192,206256,1,0,0:0:0:0:
448,192,206334,1,0,0:0:0:0:
64,192,206412,1,0,0:0:0:0:
320,192,206490,1,0,0:0:0:0:
64,192,206568,1,0,0:0:0:0:
448,192,206646,1,0,0:0:0:0:
192,192,206724,1,0,0:0:0:0:
448,192,206802,1,0,0:0:0:0:
64,192,206881,1,0,0:0:0:0:
192,192,206881,1,0,0:0:0:0:
320,192,206959,1,0,0:0:0:0:
448,192,206959,1,0,0:0:0:0:
192,192,207037,1,0,0:0:0:0:
64,192,207037,1,0,0:0:0:0:
320,192,207115,1,0,0:0:0:0:
448,192,207115,1,0,0:0:0:0:
192,192,207193,1,0,0:0:0:0:
64,192,207193,1,0,0:0:0:0:
320,192,207271,1,0,0:0:0:0:
448,192,207271,1,0,0:0:0:0:
192,192,207349,1,0,0:0:0:0:
64,192,207349,1,0,0:0:0:0:
320,192,207427,1,0,0:0:0:0:
448,192,207427,1,0,0:0:0:0:
192,192,207506,1,0,0:0:0:0:
64,192,207506,1,0,0:0:0:0:
320,192,207545,1,0,0:0:0:0:
64,192,207662,1,0,0:0:0:0:
192,192,207701,1,0,0:0:0:0:
448,192,207818,1,0,0:0:0:0:
320,192,207857,1,0,0:0:0:0:
192,192,207974,1,0,0:0:0:0:
64,192,207974,1,0,0:0:0:0:
320,192,208041,1,0,0:0:0:0:
448,192,208041,1,0,0:0:0:0:
192,192,208131,1,0,0:0:0:0:
64,192,208131,1,0,0:0:0:0:
448,192,208209,128,0,208287:0:0:0:0:
192,192,208287,1,0,0:0:0:0:
320,192,208287,1,0,0:0:0:0:
64,192,208365,1,0,0:0:0:0:
192,192,208443,1,0,0:0:0:0:
320,192,208443,1,0,0:0:0:0:
448,192,208521,1,0,0:0:0:0:
64,192,208521,128,0,208677:0:0:0:0:
448,192,208756,1,0,0:0:0:0:
192,192,208808,1,0,0:0:0:0:
320,192,208860,1,0,0:0:0:0:
64,192,208912,1,0,0:0:0:0:
448,192,208964,1,0,0:0:0:0:
192,192,209016,1,0,0:0:0:0:
320,192,209068,1,0,0:0:0:0:
64,192,209120,1,0,0:0:0:0:
448,192,209172,1,0,0:0:0:0:
192,192,209224,1,0,0:0:0:0:
320,192,209276,1,0,0:0:0:0:
64,192,209328,1,0,0:0:0:0:
448,192,209381,128,0,210006:0:0:0:0:
320,192,209459,128,0,209732:0:0:0:0:
192,192,209693,1,0,0:0:0:0:
64,192,209771,1,0,0:0:0:0:
192,192,209849,1,0,0:0:0:0:
64,192,209927,1,0,0:0:0:0:
192,192,210006,1,0,0:0:0:0:
320,192,210006,1,0,0:0:0:0:
64,192,210045,1,0,0:0:0:0:
320,192,210162,1,0,0:0:0:0:
192,192,210201,1,0,0:0:0:0:
448,192,210318,1,0,0:0:0:0:
320,192,210357,1,0,0:0:0:0:
64,192,210474,1,0,0:0:0:0:
448,192,210474,1,0,0:0:0:0:
320,192,210552,1,0,0:0:0:0:
192,192,210631,1,0,0:0:0:0:
64,192,210631,1,0,0:0:0:0:
448,192,210709,1,0,0:0:0:0:
320,192,210709,1,0,0:0:0:0:
192,192,210787,1,0,0:0:0:0:
64,192,210787,1,0,0:0:0:0:
448,192,210943,1,0,0:0:0:0:
320,192,210943,1,0,0:0:0:0:
192,192,211021,1,0,0:0:0:0:
64,192,211021,1,0,0:0:0:0:
448,192,211177,1,0,0:0:0:0:
320,192,211177,1,0,0:0:0:0:
192,192,211256,1,0,0:0:0:0:
64,192,211256,1,0,0:0:0:0:
320,192,211334,128,0,211412:0:0:0:0:
448,192,211412,128,0,211490:0:0:0:0:
320,192,211490,128,0,211568:0:0:0:0:
192,192,211568,128,0,211646:0:0:0:0:
64,192,211646,128,0,211724:0:0:0:0:
192,192,211724,128,0,211802:0:0:0:0:
320,192,211802,128,0,211881:0:0:0:0:
448,192,211881,128,0,211959:0:0:0:0:
64,192,211881,128,0,212506:0:0:0:0:
192,192,211881,128,0,212193:0:0:0:0:
320,192,212506,1,0,0:0:0:0:
192,192,212545,1,0,0:0:0:0:
320,192,212662,1,0,0:0:0:0:
448,192,212662,1,0,0:0:0:0:
192,192,212740,1,0,0:0:0:0:
320,192,212818,1,0,0:0:0:0:
448,192,212818,1,0,0:0:0:0:
64,192,212896,1,0,0:0:0:0:
192,192,212974,1,0,0:0:0:0:
320,192,212974,1,0,0:0:0:0:
448,192,213052,1,0,0:0:0:0:
192,192,213131,1,0,0:0:0:0:
64,192,213131,128,0,213287:0:0:0:0:
448,192,213287,1,0,0:0:0:0:
192,192,213365,1,0,0:0:0:0:
448,192,213443,1,0,0:0:0:0:
64,192,213443,1,0,0:0:0:0:
320,192,213521,1,0,0:0:0:0:
192,192,213599,1,0,0:0:0:0:
64,192,213599,1,0,0:0:0:0:
320,192,213677,1,0,0:0:0:0:
192,192,213756,1,0,0:0:0:0:
64,192,213756,1,0,0:0:0:0:
320,192,213860,1,0,0:0:0:0:
448,192,213860,1,0,0:0:0:0:
192,192,213912,1,0,0:0:0:0:
64,192,213912,1,0,0:0:0:0:
320,192,213964,1,0,0:0:0:0:
448,192,213964,1,0,0:0:0:0:
192,192,214068,1,0,0:0:0:0:
64,192,214068,1,0,0:0:0:0:
448,192,214120,1,0,0:0:0:0:
320,192,214120,1,0,0:0:0:0:
192,192,214172,1,0,0:0:0:0:
64,192,214172,1,0,0:0:0:0:
320,192,214276,1,0,0:0:0:0:
448,192,214276,1,0,0:0:0:0:
192,192,214328,1,0,0:0:0:0:
64,192,214328,1,0,0:0:0:0:
192,192,215006,1,0,0:0:0:0:
448,192,215006,1,0,0:0:0:0:
320,192,215045,1,0,0:0:0:0:
64,192,215162,1,0,0:0:0:0:
192,192,215201,1,0,0:0:0:0:
320,192,215318,1,0,0:0:0:0:
192,192,215357,1,0,0:0:0:0:
320,192,215474,1,0,0:0:0:0:
448,192,215474,1,0,0:0:0:0:
192,192,215552,1,0,0:0:0:0:
64,192,215552,1,0,0:0:0:0:
320,192,215631,1,0,0:0:0:0:
448,192,215631,1,0,0:0:0:0:
320,192,216256,1,0,0:0:0:0:
64,192,216256,1,0,0:0:0:0:
448,192,216334,1,0,0:0:0:0:
64,192,216412,1,0,0:0:0:0:
192,192,216412,1,0,0:0:0:0:
320,192,216490,1,0,0:0:0:0:
192,192,216568,1,0,0:0:0:0:
448,192,216568,1,0,0:0:0:0:
64,192,216646,1,0,0:0:0:0:
448,192,216724,1,0,0:0:0:0:
192,192,216724,1,0,0:0:0:0:
320,192,216802,1,0,0:0:0:0:
64,192,216881,128,0,217506:0:0:0:0:
320,192,217506,1,0,0:0:0:0:
192,192,217506,1,0,0:0:0:0:
448,192,217545,1,0,0:0:0:0:
192,192,217662,1,0,0:0:0:0:
320,192,217701,1,0,0:0:0:0:
192,192,217818,1,0,0:0:0:0:
64,192,217857,1,0,0:0:0:0:
448,192,217974,1,0,0:0:0:0:
320,192,218013,1,0,0:0:0:0:
192,192,218131,1,0,0:0:0:0:
64,192,218131,1,0,0:0:0:0:
448,192,218131,1,0,0:0:0:0:
448,192,218756,128,0,218912:0:0:0:0:
320,192,218912,128,0,218990:0:0:0:0:
448,192,218990,128,0,219146:0:0:0:0:
320,192,219146,128,0,219224:0:0:0:0:
448,192,219224,128,0,219381:0:0:0:0:
64,192,219381,1,0,0:0:0:0:
192,192,219381,1,0,0:0:0:0:
320,192,219420,1,0,0:0:0:0:
192,192,219537,1,0,0:0:0:0:
320,192,219576,1,0,0:0:0:0:
448,192,219693,1,0,0:0:0:0:
320,192,219732,1,0,0:0:0:0:
192,192,219849,1,0,0:0:0:0:
64,192,219849,1,0,0:0:0:0:
320,192,219927,1,0,0:0:0:0:
448,192,219927,1,0,0:0:0:0:
192,192,220006,1,0,0:0:0:0:
64,192,220006,1,0,0:0:0:0:
64,192,220162,1,0,0:0:0:0:
64,192,220318,128,0,221099:0:0:0:0:
320,192,220631,1,0,0:0:0:0:
448,192,220631,1,0,0:0:0:0:
192,192,220670,1,0,0:0:0:0:
192,192,220787,128,0,220865:0:0:0:0:
320,192,220865,128,0,220943:0:0:0:0:
448,192,220943,128,0,221021:0:0:0:0:
320,192,221021,128,0,221099:0:0:0:0:
192,192,221099,128,0,221177:0:0:0:0:
320,192,221177,128,0,221881:0:0:0:0:
64,192,221256,1,0,0:0:0:0:
448,192,221256,1,0,0:0:0:0:
192,192,221308,1,0,0:0:0:0:
448,192,221360,1,0,0:0:0:0:
64,192,221412,128,0,221490:0:0:0:0:
192,192,221490,128,0,221568:0:0:0:0:
448,192,221568,128,0,221672:0:0:0:0:
64,192,221672,128,0,221776:0:0:0:0:
192,192,221776,128,0,221881:0:0:0:0:
448,192,221881,1,0,0:0:0:0:
64,192,221920,1,0,0:0:0:0:
448,192,222037,1,0,0:0:0:0:
192,192,222076,1,0,0:0:0:0:
448,192,222193,1,0,0:0:0:0:
320,192,222232,1,0,0:0:0:0:
192,192,222349,1,0,0:0:0:0:
64,192,222349,1,0,0:0:0:0:
320,192,222427,1,0,0:0:0:0:
448,192,222427,1,0,0:0:0:0:
192,192,222506,1,0,0:0:0:0:
64,192,222506,1,0,0:0:0:0:
448,192,222662,1,0,0:0:0:0:
320,192,222740,1,0,0:0:0:0:
448,192,222818,1,0,0:0:0:0:
320,192,222974,1,0,0:0:0:0:
192,192,223131,1,0,0:0:0:0:
64,192,223131,1,0,0:0:0:0:
320,192,223235,1,0,0:0:0:0:
448,192,223235,1,0,0:0:0:0:
192,192,223287,1,0,0:0:0:0:
64,192,223287,1,0,0:0:0:0:
448,192,223339,1,0,0:0:0:0:
320,192,223339,1,0,0:0:0:0:
192,192,223443,1,0,0:0:0:0:
64,192,223443,1,0,0:0:0:0:
320,192,223495,1,0,0:0:0:0:
448,192,223495,1,0,0:0:0:0:
192,192,223547,1,0,0:0:0:0:
64,192,223547,1,0,0:0:0:0:
448,192,223651,1,0,0:0:0:0:
320,192,223651,1,0,0:0:0:0:
192,192,223703,1,0,0:0:0:0:
64,192,223703,1,0,0:0:0:0:
320,192,223756,1,0,0:0:0:0:
448,192,223756,128,0,223808:0:0:0:0:
64,192,224381,1,0,0:0:0:0:
192,192,224381,1,0,0:0:0:0:
320,192,224420,1,0,0:0:0:0:
64,192,224537,1,0,0:0:0:0:
192,192,224576,1,0,0:0:0:0:
448,192,224693,1,0,0:0:0:0:
320,192,224732,1,0,0:0:0:0:
448,192,224849,1,0,0:0:0:0:
320,192,224849,1,0,0:0:0:0:
192,192,224927,1,0,0:0:0:0:
64,192,224927,1,0,0:0:0:0:
320,192,225006,1,0,0:0:0:0:
448,192,225006,1,0,0:0:0:0:
192,192,225631,1,0,0:0:0:0:
64,192,225631,1,0,0:0:0:0:
448,192,225709,1,0,0:0:0:0:
320,192,225787,1,0,0:0:0:0:
192,192,225787,1,0,0:0:0:0:
64,192,225865,1,0,0:0:0:0:
448,192,225943,1,0,0:0:0:0:
192,192,225943,1,0,0:0:0:0:
320,192,226021,1,0,0:0:0:0:
448,192,226099,1,0,0:0:0:0:
64,192,226099,1,0,0:0:0:0:
192,192,226177,1,0,0:0:0:0:
64,192,226881,1,0,0:0:0:0:
320,192,226881,1,0,0:0:0:0:
192,192,226920,1,0,0:0:0:0:
64,192,227037,1,0,0:0:0:0:
320,192,227076,1,0,0:0:0:0:
320,192,227193,1,0,0:0:0:0:
448,192,227232,1,0,0:0:0:0:
320,192,227349,1,0,0:0:0:0:
64,192,227388,1,0,0:0:0:0:
192,192,227506,1,0,0:0:0:0:
64,192,227506,1,0,0:0:0:0:
448,192,227506,1,0,0:0:0:0:
192,192,227662,128,0,227818:0:0:0:0:
64,192,227662,128,0,227974:0:0:0:0:
320,192,227662,1,0,0:0:0:0:
192,192,227974,128,0,228131:0:0:0:0:
448,192,228131,1,0,0:0:0:0:
320,192,228131,1,0,0:0:0:0:
64,192,228209,1,0,0:0:0:0:
192,192,228209,1,0,0:0:0:0:
320,192,228287,1,0,0:0:0:0:
448,192,228287,1,0,0:0:0:0:
192,192,228365,1,0,0:0:0:0:
64,192,228365,1,0,0:0:0:0:
320,192,228443,1,0,0:0:0:0:
448,192,228443,1,0,0:0:0:0:
192,192,228521,1,0,0:0:0:0:
64,192,228521,1,0,0:0:0:0:
320,192,228599,1,0,0:0:0:0:
448,192,228599,1,0,0:0:0:0:
192,192,228677,1,0,0:0:0:0:
64,192,228677,1,0,0:0:0:0:
320,192,228756,1,0,0:0:0:0:
448,192,228756,1,0,0:0:0:0:
192,192,228795,1,0,0:0:0:0:
64,192,228912,1,0,0:0:0:0:
320,192,228912,1,0,0:0:0:0:
448,192,228951,1,0,0:0:0:0:
448,192,229068,1,0,0:0:0:0:
64,192,229068,1,0,0:0:0:0:
192,192,229107,1,0,0:0:0:0:
320,192,229224,1,0,0:0:0:0:
448,192,229224,1,0,0:0:0:0:
64,192,229302,1,0,0:0:0:0:
192,192,229302,1,0,0:0:0:0:
320,192,229381,1,0,0:0:0:0:
448,192,229381,1,0,0:0:0:0:
192,192,229537,128,0,229693:0:0:0:0:
64,192,229693,128,0,229771:0:0:0:0:
192,192,229771,128,0,229927:0:0:0:0:
64,192,229927,128,0,230006:0:0:0:0:
448,192,230006,1,0,0:0:0:0:
320,192,230006,1,0,0:0:0:0:
192,192,230084,128,0,230162:0:0:0:0:
64,192,230162,128,0,230240:0:0:0:0:
192,192,230240,128,0,230318:0:0:0:0:
320,192,230318,128,0,230396:0:0:0:0:
448,192,230396,128,0,230474:0:0:0:0:
320,192,230474,128,0,230552:0:0:0:0:
192,192,230552,128,0,230631:0:0:0:0:
64,192,230631,1,0,0:0:0:0:
448,192,230631,1,0,0:0:0:0:
320,192,230675,1,0,0:0:0:0:
192,192,230720,1,0,0:0:0:0:
448,192,230764,1,0,0:0:0:0:
64,192,230809,1,0,0:0:0:0:
320,192,230854,128,0,230943:0:0:0:0:
448,192,230943,128,0,231032:0:0:0:0:
320,192,231047,128,0,231151:0:0:0:0:
448,192,231151,128,0,231256:0:0:0:0:
64,192,231256,1,0,0:0:0:0:
320,192,231256,1,0,0:0:0:0:
192,192,231295,1,0,0:0:0:0:
448,192,231412,1,0,0:0:0:0:
320,192,231451,1,0,0:0:0:0:
64,192,231568,1,0,0:0:0:0:
320,192,231607,1,0,0:0:0:0:
64,192,231724,1,0,0:0:0:0:
192,192,231724,1,0,0:0:0:0:
448,192,231802,1,0,0:0:0:0:
320,192,231802,1,0,0:0:0:0:
192,192,231881,1,0,0:0:0:0:
64,192,231881,1,0,0:0:0:0:
448,192,232037,128,0,232115:0:0:0:0:
320,192,232115,128,0,232193:0:0:0:0:
448,192,232193,128,0,232349:0:0:0:0:
320,192,232349,128,0,232506:0:0:0:0:
192,192,232506,1,0,0:0:0:0:
64,192,232506,1,0,0:0:0:0:
320,192,232610,1,0,0:0:0:0:
448,192,232610,1,0,0:0:0:0:
192,192,232662,1,0,0:0:0:0:
64,192,232662,1,0,0:0:0:0:
320,192,232714,1,0,0:0:0:0:
448,192,232714,1,0,0:0:0:0:
192,192,232818,1,0,0:0:0:0:
64,192,232818,1,0,0:0:0:0:
320,192,232870,1,0,0:0:0:0:
448,192,232870,1,0,0:0:0:0:
192,192,232922,1,0,0:0:0:0:
64,192,232922,1,0,0:0:0:0:
320,192,233026,1,0,0:0:0:0:
448,192,233026,1,0,0:0:0:0:
192,192,233078,1,0,0:0:0:0:
64,192,233078,1,0,0:0:0:0:
320,192,233131,1,0,0:0:0:0:
448,192,233131,1,0,0:0:0:0:
64,192,233170,1,0,0:0:0:0:
192,192,233287,1,0,0:0:0:0:
448,192,233326,1,0,0:0:0:0:
320,192,233443,1,0,0:0:0:0:
64,192,233482,1,0,0:0:0:0:
448,192,233599,1,0,0:0:0:0:
320,192,233599,1,0,0:0:0:0:
192,192,233677,1,0,0:0:0:0:
64,192,233677,1,0,0:0:0:0:
320,192,233756,1,0,0:0:0:0:
448,192,233756,1,0,0:0:0:0:
192,192,234381,1,0,0:0:0:0:
64,192,234381,1,0,0:0:0:0:
320,192,234459,1,0,0:0:0:0:
448,192,234537,1,0,0:0:0:0:
64,192,234537,1,0,0:0:0:0:
320,192,234615,1,0,0:0:0:0:
192,192,234693,1,0,0:0:0:0:
64,192,234693,1,0,0:0:0:0:
320,192,234771,1,0,0:0:0:0:
448,192,234849,1,0,0:0:0:0:
192,192,234849,1,0,0:0:0:0:
64,192,234927,1,0,0:0:0:0:
320,192,235006,1,0,0:0:0:0:
448,192,235006,1,0,0:0:0:0:
192,192,235084,1,0,0:0:0:0:
64,192,235084,1,0,0:0:0:0:
320,192,235162,1,0,0:0:0:0:
448,192,235318,1,0,0:0:0:0:
320,192,235318,1,0,0:0:0:0:
64,192,235396,1,0,0:0:0:0:
192,192,235396,1,0,0:0:0:0:
448,192,235474,1,0,0:0:0:0:
320,192,235474,1,0,0:0:0:0:
192,192,235552,1,0,0:0:0:0:
64,192,235552,1,0,0:0:0:0:
320,192,235631,1,0,0:0:0:0:
448,192,235631,1,0,0:0:0:0:
192,192,235670,1,0,0:0:0:0:
64,192,235787,1,0,0:0:0:0:
448,192,235826,1,0,0:0:0:0:
320,192,235943,1,0,0:0:0:0:
64,192,235982,1,0,0:0:0:0:
448,192,236099,1,0,0:0:0:0:
320,192,236099,1,0,0:0:0:0:
192,192,236177,1,0,0:0:0:0:
64,192,236177,1,0,0:0:0:0:
320,192,236256,1,0,0:0:0:0:
448,192,236256,1,0,0:0:0:0:
448,192,236412,128,0,236568:0:0:0:0:
320,192,236568,128,0,236646:0:0:0:0:
448,192,236646,128,0,236802:0:0:0:0:
64,192,236881,1,0,0:0:0:0:
320,192,236933,1,0,0:0:0:0:
192,192,236985,1,0,0:0:0:0:
448,192,237037,1,0,0:0:0:0:
64,192,237089,1,0,0:0:0:0:
320,192,237141,1,0,0:0:0:0:
192,192,237193,1,0,0:0:0:0:
448,192,237245,1,0,0:0:0:0:
64,192,237297,1,0,0:0:0:0:
320,192,237349,1,0,0:0:0:0:
192,192,237401,1,0,0:0:0:0:
448,192,237453,1,0,0:0:0:0:
64,192,237506,128,0,238078:0:0:0:0:
192,192,237662,128,0,237974:0:0:0:0:
320,192,238131,1,0,0:0:0:0:
448,192,238131,1,0,0:0:0:0:
192,192,238170,1,0,0:0:0:0:
64,192,238287,1,0,0:0:0:0:
192,192,238326,1,0,0:0:0:0:
448,192,238443,1,0,0:0:0:0:
64,192,238482,1,0,0:0:0:0:
448,192,238599,1,0,0:0:0:0:
320,192,238599,1,0,0:0:0:0:
192,192,238677,1,0,0:0:0:0:
64,192,238677,1,0,0:0:0:0:
448,192,238756,1,0,0:0:0:0:
320,192,238756,128,0,238834:0:0:0:0:
192,192,238912,1,0,0:0:0:0:
64,192,238912,128,0,239068:0:0:0:0:
448,192,239068,1,0,0:0:0:0:
320,192,239068,1,0,0:0:0:0:
192,192,239146,1,0,0:0:0:0:
64,192,239146,128,0,239302:0:0:0:0:
448,192,239302,1,0,0:0:0:0:
192,192,239381,1,0,0:0:0:0:
64,192,239381,1,0,0:0:0:0:
320,192,239420,1,0,0:0:0:0:
448,192,239537,128,0,239615:0:0:0:0:
320,192,239615,128,0,239693:0:0:0:0:
192,192,239693,128,0,239771:0:0:0:0:
64,192,239771,128,0,239849:0:0:0:0:
192,192,239849,128,0,239927:0:0:0:0:
320,192,239927,128,0,240006:0:0:0:0:
64,192,240006,1,0,0:0:0:0:
448,192,240006,1,0,0:0:0:0:
192,192,240058,1,0,0:0:0:0:
320,192,240110,1,0,0:0:0:0:
448,192,240162,1,0,0:0:0:0:
64,192,240214,1,0,0:0:0:0:
192,192,240266,1,0,0:0:0:0:
320,192,240318,1,0,0:0:0:0:
448,192,240370,1,0,0:0:0:0:
64,192,240422,1,0,0:0:0:0:
192,192,240474,1,0,0:0:0:0:
320,192,240526,1,0,0:0:0:0:
448,192,240578,1,0,0:0:0:0:
192,192,240631,1,0,0:0:0:0:
64,192,240631,1,0,0:0:0:0:
320,192,240670,1,0,0:0:0:0:
448,192,240787,1,0,0:0:0:0:
192,192,240787,1,0,0:0:0:0:
64,192,240826,1,0,0:0:0:0:
192,192,240943,1,0,0:0:0:0:
320,192,240943,1,0,0:0:0:0:
448,192,240982,1,0,0:0:0:0:
64,192,241099,1,0,0:0:0:0:
320,192,241099,1,0,0:0:0:0:
448,192,241138,1,0,0:0:0:0:
64,192,241256,128,0,241412:0:0:0:0:
192,192,241256,128,0,241334:0:0:0:0:
448,192,241412,1,0,0:0:0:0:
320,192,241412,1,0,0:0:0:0:
192,192,241490,1,0,0:0:0:0:
64,192,241490,1,0,0:0:0:0:
448,192,241568,1,0,0:0:0:0:
320,192,241568,128,0,241724:0:0:0:0:
64,192,241724,1,0,0:0:0:0:
192,192,241724,128,0,241881:0:0:0:0:
448,192,241881,1,0,0:0:0:0:
320,192,241881,1,0,0:0:0:0:
64,192,241985,1,0,0:0:0:0:
192,192,241985,1,0,0:0:0:0:
320,192,242037,1,0,0:0:0:0:
448,192,242037,1,0,0:0:0:0:
192,192,242089,1,0,0:0:0:0:
64,192,242089,1,0,0:0:0:0:
320,192,242193,1,0,0:0:0:0:
448,192,242193,1,0,0:0:0:0:
192,192,242245,1,0,0:0:0:0:
64,192,242245,1,0,0:0:0:0:
320,192,242297,1,0,0:0:0:0:
448,192,242297,1,0,0:0:0:0:
192,192,242401,1,0,0:0:0:0:
64,192,242401,1,0,0:0:0:0:
320,192,242453,1,0,0:0:0:0:
448,192,242453,1,0,0:0:0:0:
64,192,242506,128,0,244224:0:0:0:0:
192,192,242506,128,0,242584:0:0:0:0:
192,192,242662,128,0,243131:0:0:0:0:
320,192,243131,128,0,243287:0:0:0:0:
448,192,243287,128,0,243443:0:0:0:0:
320,192,243443,128,0,243599:0:0:0:0:
192,192,243599,128,0,243756:0:0:0:0:
320,192,243756,128,0,243860:0:0:0:0:
448,192,243860,128,0,243964:0:0:0:0:
320,192,243964,128,0,244068:0:0:0:0:
192,192,244068,128,0,244172:0:0:0:0:
320,192,244172,128,0,244276:0:0:0:0:
448,192,244276,128,0,244381:0:0:0:0:
64,192,244381,128,0,244693:0:0:0:0:
320,192,244381,128,0,244693:0:0:0:0:
192,192,244615,128,0,244927:0:0:0:0:
448,192,244615,128,0,244927:0:0:0:0:
320,192,244849,128,0,245162:0:0:0:0:
64,192,244849,128,0,245162:0:0:0:0:
448,192,245084,128,0,245396:0:0:0:0:
192,192,245084,128,0,245396:0:0:0:0:
320,192,245318,128,0,245631:0:0:0:0:
64,192,245318,128,0,245631:0:0:0:0:
448,192,245631,128,0,247506:0:0:0:0:
192,192,245631,128,0,246256:0:0:0:0:
320,192,246881,128,0,247818:0:0:0:0:
192,192,247766,1,0,0:0:0:0:
64,192,247818,1,0,0:0:0:0:
448,192,247870,1,0,0:0:0:0:
320,192,247922,1,0,0:0:0:0:
192,192,247974,1,0,0:0:0:0:
64,192,248052,1,0,0:0:0:0:
448,192,248131,1,0,0:0:0:0:
320,192,248209,1,0,0:0:0:0:
192,192,248287,1,0,0:0:0:0:
64,192,248398,1,0,0:0:0:0:
448,192,248532,1,0,0:0:0:0:
320,192,248711,1,0,0:0:0:0:
192,192,248912,1,0,0:0:0:0:
64,192,249146,1,0,0:0:0:0:
448,192,249415,1,0,0:0:0:0:
