osu file format v14

[General]
AudioFilename: audio.mp3
AudioLeadIn: 0
PreviewTime: 160631
Countdown: 0
SampleSet: Normal
StackLeniency: 0.2
Mode: 1
LetterboxInBreaks: 0
WidescreenStoryboard: 0

[Editor]
Bookmarks: 32984,90631,107101,160631,177101,210043,226513,242983,259454,275924,292395
DistanceSpacing: 0.8
BeatDivisor: 6
GridSize: 32
TimelineZoom: 3.399999

[Metadata]
Title:7C0
TitleUnicode:7C0
Artist:Ruby My Dear
ArtistUnicode:Ruby My Dear
Creator:Jaye
Version:Lumen in Room 101
Source:
Tags:Ginkgo EP
BeatmapID:1642454
BeatmapSetID:782130

[Difficulty]
HPDrainRate:4.8
CircleSize:2
OverallDifficulty:6.8
ApproachRate:10
SliderMultiplier:1.4
SliderTickRate:1

[Events]
//Background and Video events
0,0,"Gloomy Sunday.jpg",0,0
//Break Periods
//Storyboard Layer 0 (Background)
//Storyboard Layer 1 (Fail)
//Storyboard Layer 2 (Pass)
//Storyboard Layer 3 (Foreground)
//Storyboard Sound Samples

[TimingPoints]
43,294.117647058824,7,1,0,25,1,0
43,-133.333333333333,7,1,0,25,0,0
8204,-133.333333333333,7,1,0,40,0,0
32984,-100,7,1,0,70,0,0
90631,-100,7,1,0,100,0,1
107101,-100,7,1,0,70,0,0
160631,-100,7,1,0,100,0,1
175925,-100,7,1,0,70,0,1
177101,-100,7,1,0,100,0,0
210043,-200,7,1,0,30,0,0
226219,-125,7,1,0,30,0,0
226366,-111.111111111111,7,1,0,30,0,0
226513,294.117647058824,6,1,0,50,1,0
292395,294.117647058824,7,1,0,40,1,0

[HitObjects]
256,192,43,5,0,0:0:0:0:
256,192,337,1,0,0:0:0:0:
256,192,484,1,0,0:0:0:0:
256,192,631,1,8,0:0:0:0:
256,192,925,1,0,0:0:0:0:
256,192,1219,1,8,0:0:0:0:
256,192,1807,1,8,0:0:0:0:
256,192,2101,1,0,0:0:0:0:
256,192,2395,1,0,0:0:0:0:
256,192,2984,1,8,0:0:0:0:
256,192,3082,1,8,0:0:0:0:
256,192,3180,1,8,0:0:0:0:
256,192,3278,1,0,0:0:0:0:
256,192,3572,1,8,0:0:0:0:
256,192,3719,1,8,0:0:0:0:
256,192,3866,1,0,0:0:0:0:
256,192,4013,1,0,0:0:0:0:
256,192,4160,1,0,0:0:0:0:
256,192,4454,1,0,0:0:0:0:
256,192,4601,1,0,0:0:0:0:
256,192,4748,1,8,0:0:0:0:
256,192,4895,1,0,0:0:0:0:
256,192,5043,1,8,0:0:0:0:
256,192,5336,1,8,0:0:0:0:
256,192,5484,1,0,0:0:0:0:
256,192,5631,1,8,0:0:0:0:
256,192,5778,1,0,0:0:0:0:
256,192,5924,1,8,0:0:0:0:
256,192,6023,1,8,0:0:0:0:
256,192,6121,1,8,0:0:0:0:
256,192,6218,1,0,0:0:0:0:
256,192,6512,1,0,0:0:0:0:
256,192,6660,1,0,0:0:0:0:
256,192,6807,1,0,0:0:0:0:
256,192,7101,1,8,0:0:0:0:
256,192,7199,1,8,0:0:0:0:
256,192,7297,1,8,0:0:0:0:
256,192,7395,1,0,0:0:0:0:
256,192,7493,1,8,0:0:0:0:
256,192,7592,1,8,0:0:0:0:
256,192,7690,1,0,0:0:0:0:
256,192,7984,1,0,0:0:0:0:
256,192,8278,1,0,0:0:0:0:
256,192,8425,1,0,0:0:0:0:
256,192,8572,1,8,0:0:0:0:
256,192,8719,1,0,0:0:0:0:
256,192,8866,1,8,0:0:0:0:
256,192,9160,1,0,0:0:0:0:
256,192,9454,1,8,0:0:0:0:
256,192,9748,1,0,0:0:0:0:
256,192,9846,1,0,0:0:0:0:
256,192,9944,1,0,0:0:0:0:
256,192,10042,1,8,0:0:0:0:
256,192,10336,1,0,0:0:0:0:
256,192,10630,1,8,0:0:0:0:
256,192,10925,1,0,0:0:0:0:
256,192,11121,1,0,0:0:0:0:
256,192,11219,1,8,0:0:0:0:
256,192,11317,1,8,0:0:0:0:
256,192,11415,1,8,0:0:0:0:
256,192,11513,1,0,0:0:0:0:
256,192,11709,1,8,0:0:0:0:
256,192,11807,1,0,0:0:0:0:
256,192,12003,1,8,0:0:0:0:
256,192,12101,1,0,0:0:0:0:
256,192,12199,1,0,0:0:0:0:
256,192,12297,1,8,0:0:0:0:
256,192,12395,1,0,0:0:0:0:
256,192,12689,1,0,0:0:0:0:
256,192,12836,1,0,0:0:0:0:
256,192,12983,1,8,0:0:0:0:
256,192,13130,1,0,0:0:0:0:
256,192,13278,1,8,0:0:0:0:
256,192,13571,1,8,0:0:0:0:
256,192,13719,1,0,0:0:0:0:
256,192,13866,1,8,0:0:0:0:
256,192,14013,1,0,0:0:0:0:
256,192,14159,1,8,0:0:0:0:
256,192,14258,1,8,0:0:0:0:
256,192,14356,1,8,0:0:0:0:
256,192,14453,1,0,0:0:0:0:
256,192,14747,1,0,0:0:0:0:
256,192,14895,1,0,0:0:0:0:
256,192,15042,1,0,0:0:0:0:
256,192,15336,1,8,0:0:0:0:
256,192,15410,1,8,0:0:0:0:
256,192,15484,1,8,0:0:0:0:
256,192,15557,1,8,0:0:0:0:
256,192,15630,1,0,0:0:0:0:
256,192,15728,1,8,0:0:0:0:
256,192,15827,1,8,0:0:0:0:
256,192,15925,1,0,0:0:0:0:
256,192,16219,1,0,0:0:0:0:
256,192,16513,1,0,0:0:0:0:
256,192,16660,1,8,0:0:0:0:
256,192,16807,1,8,0:0:0:0:
256,192,16954,1,0,0:0:0:0:
256,192,17101,1,8,0:0:0:0:
256,192,17395,1,0,0:0:0:0:
256,192,17689,1,8,0:0:0:0:
256,192,17983,1,0,0:0:0:0:
256,192,18081,1,0,0:0:0:0:
256,192,18179,1,0,0:0:0:0:
256,192,18277,1,8,0:0:0:0:
256,192,18571,1,0,0:0:0:0:
256,192,18865,1,8,0:0:0:0:
256,192,19062,1,8,0:0:0:0:
256,192,19160,1,0,0:0:0:0:
256,192,19356,1,0,0:0:0:0:
256,192,19454,1,8,0:0:0:0:
256,192,19552,1,8,0:0:0:0:
256,192,19650,1,8,0:0:0:0:
256,192,19748,1,0,0:0:0:0:
256,192,19944,1,0,0:0:0:0:
256,192,20042,1,8,0:0:0:0:
256,192,20238,1,8,0:0:0:0:
256,192,20336,1,0,0:0:0:0:
256,192,20434,1,8,0:0:0:0:
256,192,20532,1,8,0:0:0:0:
256,192,20630,1,0,0:0:0:0:
256,192,20924,1,0,0:0:0:0:
256,192,21071,1,0,0:0:0:0:
256,192,21218,1,8,0:0:0:0:
256,192,21365,1,0,0:0:0:0:
256,192,21513,1,8,0:0:0:0:
256,192,21806,1,8,0:0:0:0:
256,192,21954,1,0,0:0:0:0:
256,192,22101,1,8,0:0:0:0:
256,192,22248,1,0,0:0:0:0:
256,192,22394,1,8,0:0:0:0:
256,192,22493,1,8,0:0:0:0:
256,192,22591,1,8,0:0:0:0:
256,192,22690,1,0,0:0:0:0:
256,192,22984,1,0,0:0:0:0:
256,192,23130,1,0,0:0:0:0:
256,192,23277,1,0,0:0:0:0:
256,192,23571,1,8,0:0:0:0:
256,192,23645,1,8,0:0:0:0:
256,192,23719,1,8,0:0:0:0:
256,192,23792,1,8,0:0:0:0:
256,192,23865,1,0,0:0:0:0:
256,192,23963,1,8,0:0:0:0:
256,192,24062,1,8,0:0:0:0:
256,192,24160,1,0,0:0:0:0:
256,192,24454,1,0,0:0:0:0:
256,192,24601,1,0,0:0:0:0:
256,192,24748,1,8,0:0:0:0:
256,192,24895,1,8,0:0:0:0:
256,192,25042,1,8,0:0:0:0:
256,192,25189,1,0,0:0:0:0:
256,192,25336,1,8,0:0:0:0:
256,192,25631,1,0,0:0:0:0:
256,192,25925,1,8,0:0:0:0:
256,192,26072,1,8,0:0:0:0:
256,192,26219,1,0,0:0:0:0:
256,192,26317,1,0,0:0:0:0:
256,192,26415,1,0,0:0:0:0:
256,192,26513,1,8,0:0:0:0:
256,192,26807,1,0,0:0:0:0:
256,192,27101,1,8,0:0:0:0:
256,192,27298,1,8,0:0:0:0:
256,192,27396,1,0,0:0:0:0:
256,192,27592,1,0,0:0:0:0:
256,192,27690,1,8,0:0:0:0:
256,192,27788,1,8,0:0:0:0:
256,192,27886,1,8,0:0:0:0:
256,192,27984,1,0,0:0:0:0:
256,192,28180,1,0,0:0:0:0:
256,192,28278,1,8,0:0:0:0:
256,192,28474,1,8,0:0:0:0:
256,192,28572,1,0,0:0:0:0:
256,192,28670,1,0,0:0:0:0:
256,192,28768,1,8,0:0:0:0:
256,192,28866,1,0,0:0:0:0:
256,192,29160,1,0,0:0:0:0:
256,192,29307,1,0,0:0:0:0:
256,192,29454,1,8,0:0:0:0:
256,192,29601,1,0,0:0:0:0:
256,192,29749,1,8,0:0:0:0:
256,192,30042,1,8,0:0:0:0:
256,192,30190,1,0,0:0:0:0:
256,192,30337,1,8,0:0:0:0:
256,192,30484,1,0,0:0:0:0:
256,192,30630,1,8,0:0:0:0:
256,192,30729,1,8,0:0:0:0:
256,192,30827,1,8,0:0:0:0:
256,192,30924,1,0,0:0:0:0:
256,192,31023,1,8,0:0:0:0:
256,192,31121,1,8,0:0:0:0:
256,192,31218,1,0,0:0:0:0:
256,192,31366,1,0,0:0:0:0:
256,192,31513,1,0,0:0:0:0:
256,192,31807,1,8,0:0:0:0:
256,192,31881,1,8,0:0:0:0:
256,192,31955,1,8,0:0:0:0:
256,192,32028,1,8,0:0:0:0:
256,192,32101,1,0,0:0:0:0:
256,192,32199,1,8,0:0:0:0:
256,192,32298,1,8,0:0:0:0:
256,192,32396,1,0,0:0:0:0:
256,192,32690,1,0,0:0:0:0:
256,192,32984,1,8,0:0:0:0:
256,192,33131,1,0,0:0:0:0:
256,192,33278,1,8,0:0:0:0:
256,192,33425,1,0,0:0:0:0:
256,192,33498,1,8,0:0:0:0:
256,192,33572,1,8,0:0:0:0:
256,192,33646,1,8,0:0:0:0:
256,192,33719,1,0,0:0:0:0:
256,192,33866,1,8,0:0:0:0:
256,192,34013,1,0,0:0:0:0:
256,192,34087,1,8,0:0:0:0:
256,192,34160,1,8,0:0:0:0:
256,192,34307,1,0,0:0:0:0:
256,192,34454,1,8,0:0:0:0:
256,192,34601,1,0,0:0:0:0:
256,192,34675,1,0,0:0:0:0:
256,192,34748,1,8,0:0:0:0:
256,192,34822,1,8,0:0:0:0:
256,192,34895,1,0,0:0:0:0:
256,192,35043,1,8,0:0:0:0:
256,192,35190,1,8,0:0:0:0:
256,192,35337,1,0,0:0:0:0:
256,192,35484,1,0,0:0:0:0:
256,192,35631,1,8,0:0:0:0:
256,192,35778,1,8,0:0:0:0:
256,192,35851,1,0,0:0:0:0:
256,192,35925,1,8,0:0:0:0:
256,192,35998,1,0,0:0:0:0:
256,192,36072,1,8,0:0:0:0:
256,192,36219,1,8,0:0:0:0:
256,192,36366,1,8,0:0:0:0:
256,192,36440,1,0,0:0:0:0:
256,192,36513,1,8,0:0:0:0:
256,192,36660,1,0,0:0:0:0:
256,192,36807,1,8,0:0:0:0:
256,192,36954,1,0,0:0:0:0:
256,192,37028,1,8,0:0:0:0:
256,192,37101,1,4,0:0:0:0:
256,192,37248,1,0,0:0:0:0:
256,192,37395,1,8,0:0:0:0:
256,192,37543,1,0,0:0:0:0:
256,192,37690,1,8,0:0:0:0:
256,192,37763,1,8,0:0:0:0:
256,192,37837,1,0,0:0:0:0:
256,192,37886,1,0,0:0:0:0:
256,192,37935,1,0,0:0:0:0:
256,192,37984,1,8,0:0:0:0:
256,192,38131,1,8,0:0:0:0:
256,192,38425,1,0,0:0:0:0:
256,192,38462,1,0,0:0:0:0:
256,192,38498,1,0,0:0:0:0:
256,192,38572,1,8,0:0:0:0:
256,192,38645,1,0,0:0:0:0:
256,192,38719,1,8,0:0:0:0:
256,192,38793,1,8,0:0:0:0:
256,192,38866,1,0,0:0:0:0:
256,192,39454,1,0,0:0:0:0:
256,192,39748,1,8,0:0:0:0:
256,192,39895,1,8,0:0:0:0:
256,192,40043,1,8,0:0:0:0:
256,192,40190,1,8,0:0:0:0:
256,192,40337,1,8,0:0:0:0:
256,192,40484,1,0,0:0:0:0:
256,192,40631,1,0,0:0:0:0:
256,192,40778,1,0,0:0:0:0:
256,192,40851,1,0,0:0:0:0:
256,192,40925,1,8,0:0:0:0:
256,192,40962,1,8,0:0:0:0:
256,192,41072,1,8,0:0:0:0:
256,192,41219,1,0,0:0:0:0:
256,192,41366,1,8,0:0:0:0:
256,192,41513,1,8,0:0:0:0:
256,192,41587,1,0,0:0:0:0:
256,192,41734,1,8,0:0:0:0:
256,192,41807,1,8,0:0:0:0:
256,192,41954,1,0,0:0:0:0:
256,192,42101,1,0,0:0:0:0:
256,192,42138,1,0,0:0:0:0:
256,192,42248,1,8,0:0:0:0:
256,192,42395,1,8,0:0:0:0:
256,192,42984,1,8,0:0:0:0:
256,192,43057,1,0,0:0:0:0:
256,192,43131,1,0,0:0:0:0:
256,192,43278,1,8,0:0:0:0:
256,192,43425,1,8,0:0:0:0:
256,192,43474,1,8,0:0:0:0:
256,192,43523,1,8,0:0:0:0:
256,192,43572,1,0,0:0:0:0:
256,192,43719,1,0,0:0:0:0:
256,192,44087,1,8,0:0:0:0:
256,192,44748,1,8,0:0:0:0:
256,192,44895,1,0,0:0:0:0:
256,192,45116,1,0,0:0:0:0:
256,192,45337,1,0,0:0:0:0:
256,192,45484,1,0,0:0:0:0:
256,192,45631,1,8,0:0:0:0:
256,192,45778,1,0,0:0:0:0:
256,192,45925,1,8,0:0:0:0:
256,192,45998,1,8,0:0:0:0:
256,192,46072,1,0,0:0:0:0:
256,192,46121,1,0,0:0:0:0:
256,192,46170,1,0,0:0:0:0:
256,192,46219,1,8,0:0:0:0:
256,192,46366,1,8,0:0:0:0:
256,192,46660,1,8,0:0:0:0:
256,192,46734,1,0,0:0:0:0:
256,192,46807,1,8,0:0:0:0:
256,192,46881,1,8,0:0:0:0:
256,192,46954,1,0,0:0:0:0:
256,192,47101,1,0,0:0:0:0:
256,192,47138,1,0,0:0:0:0:
256,192,47248,1,8,0:0:0:0:
256,192,47285,1,0,0:0:0:0:
256,192,47322,1,8,0:0:0:0:
256,192,47395,1,0,0:0:0:0:
256,192,47690,1,0,0:0:0:0:
256,192,47984,1,8,0:0:0:0:
256,192,48131,1,8,0:0:0:0:
256,192,48278,1,0,0:0:0:0:
256,192,48425,1,8,0:0:0:0:
256,192,48572,1,8,0:0:0:0:
256,192,48719,1,0,0:0:0:0:
256,192,48866,1,8,0:0:0:0:
256,192,49013,1,0,0:0:0:0:
256,192,49087,1,0,0:0:0:0:
256,192,49160,1,8,0:0:0:0:
256,192,49381,1,0,0:0:0:0:
256,192,49454,1,8,0:0:0:0:
256,192,49601,1,0,0:0:0:0:
256,192,49748,1,8,0:0:0:0:
256,192,49797,1,8,0:0:0:0:
256,192,49846,1,8,0:0:0:0:
256,192,49895,1,8,0:0:0:0:
256,192,49944,1,8,0:0:0:0:
256,192,49993,1,0,0:0:0:0:
256,192,50043,1,8,0:0:0:0:
256,192,50190,1,0,0:0:0:0:
256,192,50337,1,0,0:0:0:0:
256,192,50410,1,0,0:0:0:0:
256,192,50484,1,8,0:0:0:0:
256,192,50520,1,8,0:0:0:0:
256,192,50631,1,0,0:0:0:0:
256,192,50925,1,0,0:0:0:0:
256,192,50998,1,8,0:0:0:0:
256,192,51072,1,8,0:0:0:0:
256,192,51219,1,8,0:0:0:0:
256,192,51293,1,0,0:0:0:0:
256,192,51366,1,8,0:0:0:0:
256,192,51513,1,8,0:0:0:0:
256,192,51660,1,8,0:0:0:0:
256,192,51709,1,8,0:0:0:0:
256,192,51758,1,8,0:0:0:0:
256,192,51807,1,0,0:0:0:0:
256,192,51954,1,0,0:0:0:0:
256,192,52101,1,0,0:0:0:0:
256,192,52175,1,0,0:0:0:0:
256,192,52248,1,8,0:0:0:0:
256,192,52322,1,0,0:0:0:0:
256,192,52395,1,8,0:0:0:0:
256,192,52543,1,0,0:0:0:0:
256,192,52616,1,0,0:0:0:0:
256,192,52653,1,0,0:0:0:0:
256,192,52690,1,8,0:0:0:0:
256,192,52763,1,0,0:0:0:0:
256,192,52837,1,8,0:0:0:0:
256,192,52984,1,0,0:0:0:0:
256,192,53131,1,8,0:0:0:0:
256,192,53278,1,0,0:0:0:0:
256,192,53351,1,8,0:0:0:0:
256,192,53425,1,0,0:0:0:0:
256,192,53572,1,0,0:0:0:0:
256,192,53719,1,0,0:0:0:0:
256,192,53866,1,8,0:0:0:0:
256,192,54013,1,0,0:0:0:0:
256,192,54160,1,8,0:0:0:0:
256,192,54234,1,8,0:0:0:0:
256,192,54307,1,0,0:0:0:0:
256,192,54454,1,0,0:0:0:0:
256,192,54601,1,8,0:0:0:0:
256,192,54638,1,8,0:0:0:0:
256,192,54748,1,8,0:0:0:0:
256,192,54895,1,0,0:0:0:0:
256,192,55043,1,8,0:0:0:0:
256,192,55190,1,0,0:0:0:0:
256,192,55263,1,0,0:0:0:0:
256,192,55337,1,8,0:0:0:0:
256,192,55410,1,8,0:0:0:0:
256,192,55484,1,0,0:0:0:0:
256,192,55631,1,0,0:0:0:0:
256,192,55778,1,8,0:0:0:0:
256,192,55925,1,0,0:0:0:0:
256,192,56219,1,8,0:0:0:0:
256,192,56366,1,8,0:0:0:0:
256,192,56513,1,8,0:0:0:0:
256,192,56660,1,8,0:0:0:0:
256,192,56807,1,8,0:0:0:0:
256,192,57322,1,0,0:0:0:0:
256,192,57469,1,8,0:0:0:0:
256,192,57543,1,0,0:0:0:0:
256,192,57616,1,8,0:0:0:0:
256,192,57690,1,0,0:0:0:0:
256,192,57837,1,0,0:0:0:0:
256,192,57984,1,8,0:0:0:0:
256,192,58057,1,0,0:0:0:0:
256,192,58204,1,8,0:0:0:0:
256,192,58278,1,8,0:0:0:0:
256,192,58425,1,8,0:0:0:0:
256,192,58572,1,0,0:0:0:0:
256,192,58609,1,0,0:0:0:0:
256,192,58719,1,8,0:0:0:0:
256,192,58866,1,0,0:0:0:0:
256,192,59160,1,8,0:0:0:0:
256,192,59197,1,8,0:0:0:0:
256,192,59234,1,8,0:0:0:0:
256,192,59307,1,0,0:0:0:0:
256,192,59381,1,0,0:0:0:0:
256,192,59454,1,8,0:0:0:0:
256,192,59601,1,0,0:0:0:0:
256,192,59675,1,0,0:0:0:0:
256,192,59748,1,8,0:0:0:0:
256,192,59822,1,0,0:0:0:0:
256,192,59895,1,0,0:0:0:0:
256,192,59944,1,8,0:0:0:0:
256,192,59993,1,8,0:0:0:0:
256,192,60043,1,0,0:0:0:0:
256,192,60190,1,8,0:0:0:0:
256,192,60337,1,0,0:0:0:0:
256,192,60410,1,8,0:0:0:0:
256,192,60557,1,8,0:0:0:0:
256,192,60631,1,0,0:0:0:0:
256,192,61219,1,8,0:0:0:0:
256,192,61366,1,0,0:0:0:0:
256,192,61587,1,0,0:0:0:0:
256,192,61807,1,0,0:0:0:0:
256,192,61954,1,0,0:0:0:0:
256,192,62101,1,0,0:0:0:0:
256,192,62248,1,0,0:0:0:0:
256,192,62395,1,8,0:0:0:0:
256,192,62469,1,8,0:0:0:0:
256,192,62543,1,0,0:0:0:0:
256,192,62616,1,0,0:0:0:0:
256,192,62653,1,0,0:0:0:0:
256,192,62690,1,8,0:0:0:0:
256,192,62837,1,8,0:0:0:0:
256,192,62910,1,0,0:0:0:0:
256,192,62984,1,8,0:0:0:0:
256,192,63131,1,8,0:0:0:0:
256,192,63278,1,0,0:0:0:0:
256,192,63425,1,8,0:0:0:0:
256,192,63572,1,0,0:0:0:0:
256,192,63609,1,0,0:0:0:0:
256,192,63719,1,8,0:0:0:0:
256,192,63756,1,0,0:0:0:0:
256,192,63793,1,8,0:0:0:0:
256,192,63866,1,0,0:0:0:0:
256,192,64160,1,0,0:0:0:0:
256,192,64307,1,0,0:0:0:0:
256,192,64381,1,8,0:0:0:0:
256,192,64454,1,8,0:0:0:0:
256,192,64601,1,0,0:0:0:0:
256,192,64748,1,8,0:0:0:0:
256,192,64846,1,8,0:0:0:0:
256,192,64944,1,8,0:0:0:0:
256,192,65043,1,0,0:0:0:0:
256,192,65190,1,8,0:0:0:0:
256,192,65337,1,0,0:0:0:0:
256,192,65410,1,0,0:0:0:0:
256,192,65484,1,8,0:0:0:0:
256,192,65631,1,8,0:0:0:0:
256,192,65704,1,0,0:0:0:0:
256,192,65778,1,0,0:0:0:0:
256,192,65851,1,8,0:0:0:0:
256,192,65925,1,0,0:0:0:0:
256,192,66219,1,0,0:0:0:0:
256,192,66293,1,0,0:0:0:0:
256,192,66366,1,0,0:0:0:0:
256,192,66440,1,0,0:0:0:0:
256,192,66513,1,8,0:0:0:0:
256,192,66587,1,8,0:0:0:0:
256,192,66660,1,0,0:0:0:0:
256,192,66734,1,8,0:0:0:0:
256,192,66807,1,8,0:0:0:0:
256,192,66954,1,8,0:0:0:0:
256,192,67003,1,0,0:0:0:0:
256,192,67052,1,8,0:0:0:0:
256,192,67101,1,0,0:0:0:0:
256,192,67175,1,8,0:0:0:0:
256,192,67248,1,0,0:0:0:0:
256,192,67322,1,8,0:0:0:0:
256,192,67395,1,0,0:0:0:0:
256,192,67469,1,8,0:0:0:0:
256,192,67543,1,0,0:0:0:0:
256,192,67616,1,0,0:0:0:0:
256,192,67690,1,8,0:0:0:0:
256,192,67763,1,0,0:0:0:0:
256,192,67837,1,8,0:0:0:0:
256,192,67873,1,8,0:0:0:0:
256,192,67910,1,8,0:0:0:0:
256,192,67947,1,8,0:0:0:0:
256,192,67984,1,0,0:0:0:0:
256,192,68204,1,0,0:0:0:0:
256,192,68278,1,8,0:0:0:0:
256,192,68572,1,0,0:0:0:0:
256,192,68621,1,0,0:0:0:0:
256,192,68670,1,0,0:0:0:0:
256,192,68719,1,0,0:0:0:0:
256,192,68768,1,0,0:0:0:0:
256,192,68817,1,8,0:0:0:0:
256,192,68866,1,8,0:0:0:0:
256,192,69013,1,8,0:0:0:0:
256,192,69087,1,0,0:0:0:0:
256,192,69160,1,8,0:0:0:0:
256,192,69307,1,0,0:0:0:0:
256,192,69454,1,8,0:0:0:0:
256,192,69528,1,0,0:0:0:0:
256,192,69675,1,0,0:0:0:0:
256,192,69748,1,8,0:0:0:0:
256,192,69895,1,8,0:0:0:0:
256,192,69932,1,8,0:0:0:0:
256,192,70043,1,0,0:0:0:0:
256,192,70190,1,0,0:0:0:0:
256,192,70337,1,8,0:0:0:0:
256,192,70410,1,8,0:0:0:0:
256,192,70484,1,0,0:0:0:0:
256,192,70557,1,8,0:0:0:0:
256,192,70631,1,8,0:0:0:0:
256,192,70668,1,8,0:0:0:0:
256,192,70778,1,0,0:0:0:0:
256,192,70851,1,0,0:0:0:0:
256,192,70925,1,0,0:0:0:0:
256,192,71072,1,8,0:0:0:0:
256,192,71219,1,0,0:0:0:0:
256,192,71366,1,8,0:0:0:0:
256,192,71513,1,0,0:0:0:0:
256,192,71550,1,0,0:0:0:0:
256,192,72101,1,0,0:0:0:0:
256,192,72175,1,0,0:0:0:0:
256,192,72248,1,8,0:0:0:0:
256,192,72297,1,8,0:0:0:0:
256,192,72346,1,8,0:0:0:0:
256,192,72395,1,0,0:0:0:0:
256,192,72543,1,0,0:0:0:0:
256,192,72690,1,8,0:0:0:0:
256,192,72763,1,0,0:0:0:0:
256,192,72837,1,8,0:0:0:0:
256,192,72886,1,0,0:0:0:0:
256,192,72935,1,0,0:0:0:0:
256,192,72984,1,8,0:0:0:0:
256,192,73131,1,8,0:0:0:0:
256,192,73278,1,8,0:0:0:0:
256,192,73351,1,0,0:0:0:0:
256,192,73425,1,8,0:0:0:0:
256,192,73474,1,8,0:0:0:0:
256,192,73523,1,8,0:0:0:0:
256,192,73572,1,0,0:0:0:0:
256,192,73719,1,0,0:0:0:0:
256,192,73793,1,8,0:0:0:0:
256,192,73866,1,8,0:0:0:0:
256,192,74013,1,8,0:0:0:0:
256,192,74160,1,0,0:0:0:0:
256,192,74454,1,0,0:0:0:0:
256,192,74528,1,8,0:0:0:0:
256,192,74601,1,0,0:0:0:0:
256,192,74748,1,8,0:0:0:0:
256,192,74822,1,8,0:0:0:0:
256,192,74895,1,0,0:0:0:0:
256,192,74932,1,0,0:0:0:0:
256,192,74969,1,0,0:0:0:0:
256,192,75043,1,8,0:0:0:0:
256,192,75190,1,0,0:0:0:0:
256,192,75263,1,0,0:0:0:0:
256,192,75337,1,8,0:0:0:0:
256,192,75484,1,8,0:0:0:0:
256,192,75631,1,0,0:0:0:0:
256,192,75778,1,0,0:0:0:0:
256,192,75925,1,0,0:0:0:0:
256,192,75962,1,0,0:0:0:0:
256,192,76072,1,8,0:0:0:0:
256,192,76109,1,0,0:0:0:0:
256,192,76146,1,8,0:0:0:0:
256,192,76219,1,0,0:0:0:0:
256,192,76440,1,0,0:0:0:0:
256,192,76513,1,8,0:0:0:0:
256,192,76587,1,8,0:0:0:0:
256,192,76660,1,8,0:0:0:0:
256,192,76734,1,0,0:0:0:0:
256,192,76807,1,8,0:0:0:0:
256,192,76881,1,8,0:0:0:0:
256,192,76954,1,0,0:0:0:0:
256,192,77101,1,0,0:0:0:0:
256,192,77248,1,8,0:0:0:0:
256,192,77395,1,0,0:0:0:0:
256,192,77469,1,0,0:0:0:0:
256,192,77543,1,8,0:0:0:0:
256,192,77690,1,8,0:0:0:0:
256,192,77726,1,0,0:0:0:0:
256,192,77837,1,8,0:0:0:0:
256,192,77873,1,0,0:0:0:0:
256,192,77984,1,8,0:0:0:0:
256,192,78057,1,0,0:0:0:0:
256,192,78131,1,0,0:0:0:0:
256,192,78204,1,8,0:0:0:0:
256,192,78278,1,8,0:0:0:0:
256,192,78425,1,0,0:0:0:0:
256,192,78572,1,8,0:0:0:0:
256,192,78645,1,0,0:0:0:0:
256,192,78719,1,0,0:0:0:0:
256,192,78866,1,8,0:0:0:0:
256,192,78940,1,8,0:0:0:0:
256,192,79013,1,0,0:0:0:0:
256,192,79062,1,0,0:0:0:0:
256,192,79111,1,8,0:0:0:0:
256,192,79160,1,0,0:0:0:0:
256,192,79307,1,0,0:0:0:0:
256,192,79381,1,8,0:0:0:0:
256,192,79454,1,8,0:0:0:0:
256,192,79601,1,8,0:0:0:0:
256,192,79748,1,0,0:0:0:0:
256,192,79822,1,8,0:0:0:0:
256,192,79895,1,0,0:0:0:0:
256,192,80043,1,0,0:0:0:0:
256,192,80080,1,0,0:0:0:0:
256,192,80190,1,8,0:0:0:0:
256,192,80227,1,0,0:0:0:0:
256,192,80264,1,8,0:0:0:0:
256,192,80337,1,0,0:0:0:0:
256,192,80631,1,0,0:0:0:0:
256,192,80704,1,0,0:0:0:0:
256,192,80778,1,8,0:0:0:0:
256,192,80827,1,0,0:0:0:0:
256,192,80876,1,8,0:0:0:0:
256,192,80925,1,8,0:0:0:0:
256,192,81072,1,0,0:0:0:0:
256,192,81219,1,8,0:0:0:0:
256,192,81293,1,0,0:0:0:0:
256,192,81366,1,8,0:0:0:0:
256,192,81513,1,8,0:0:0:0:
256,192,81660,1,8,0:0:0:0:
256,192,81807,1,8,0:0:0:0:
256,192,81881,1,0,0:0:0:0:
256,192,81954,1,8,0:0:0:0:
256,192,82003,1,8,0:0:0:0:
256,192,82052,1,8,0:0:0:0:
256,192,82101,1,0,0:0:0:0:
256,192,82248,1,0,0:0:0:0:
256,192,82322,1,8,0:0:0:0:
256,192,82395,1,8,0:0:0:0:
256,192,82690,1,0,0:0:0:0:
256,192,82763,1,0,0:0:0:0:
256,192,82837,1,0,0:0:0:0:
256,192,82886,1,0,0:0:0:0:
256,192,82935,1,0,0:0:0:0:
256,192,82984,1,8,0:0:0:0:
256,192,83131,1,0,0:0:0:0:
256,192,83204,1,0,0:0:0:0:
256,192,83278,1,8,0:0:0:0:
256,192,83351,1,0,0:0:0:0:
256,192,83425,1,8,0:0:0:0:
256,192,83462,1,8,0:0:0:0:
256,192,83498,1,8,0:0:0:0:
256,192,83572,1,0,0:0:0:0:
256,192,83719,1,0,0:0:0:0:
256,192,83793,1,8,0:0:0:0:
256,192,83866,1,0,0:0:0:0:
256,192,84013,1,8,0:0:0:0:
256,192,84160,1,8,0:0:0:0:
256,192,84307,1,8,0:0:0:0:
256,192,84454,1,8,0:0:0:0:
256,192,84528,1,0,0:0:0:0:
256,192,84601,1,8,0:0:0:0:
256,192,84650,1,8,0:0:0:0:
256,192,84699,1,8,0:0:0:0:
256,192,84748,1,0,0:0:0:0:
256,192,84895,1,0,0:0:0:0:
256,192,85043,1,0,0:0:0:0:
256,192,85141,1,8,0:0:0:0:
256,192,85239,1,8,0:0:0:0:
256,192,85337,1,0,0:0:0:0:
256,192,85410,1,0,0:0:0:0:
256,192,85484,1,8,0:0:0:0:
256,192,85533,1,8,0:0:0:0:
256,192,85582,1,8,0:0:0:0:
256,192,85631,1,0,0:0:0:0:
256,192,85704,1,8,0:0:0:0:
256,192,85778,1,0,0:0:0:0:
256,192,85851,1,8,0:0:0:0:
256,192,85925,1,0,0:0:0:0:
256,192,85998,1,0,0:0:0:0:
256,192,86072,1,8,0:0:0:0:
256,192,86145,1,8,0:0:0:0:
256,192,86219,1,0,0:0:0:0:
256,192,86293,1,8,0:0:0:0:
256,192,86366,1,8,0:0:0:0:
256,192,86440,1,0,0:0:0:0:
256,192,86513,1,0,0:0:0:0:
256,192,86807,1,0,0:0:0:0:
256,192,86954,1,8,0:0:0:0:
256,192,87101,1,8,0:0:0:0:
256,192,87248,1,0,0:0:0:0:
256,192,87395,1,8,0:0:0:0:
256,192,87543,1,8,0:0:0:0:
256,192,87690,1,0,0:0:0:0:
256,192,87837,1,8,0:0:0:0:
256,192,87984,1,0,0:0:0:0:
256,192,88131,1,0,0:0:0:0:
256,192,88278,1,0,0:0:0:0:
256,192,88425,1,8,0:0:0:0:
256,192,88572,1,8,0:0:0:0:
256,192,88866,1,8,0:0:0:0:
256,192,89013,1,8,0:0:0:0:
256,192,89160,1,8,0:0:0:0:
256,192,89234,1,0,0:0:0:0:
256,192,89307,1,0,0:0:0:0:
256,192,89381,1,0,0:0:0:0:
256,192,89454,1,8,0:0:0:0:
256,192,89528,1,8,0:0:0:0:
256,192,89601,1,0,0:0:0:0:
256,192,89675,1,0,0:0:0:0:
256,192,89748,1,8,0:0:0:0:
256,192,89822,1,0,0:0:0:0:
256,192,89895,1,0,0:0:0:0:
256,192,89969,1,8,0:0:0:0:
256,192,90043,1,8,0:0:0:0:
256,192,90116,1,8,0:0:0:0:
256,192,90190,1,0,0:0:0:0:
256,192,90263,1,0,0:0:0:0:
256,192,90337,1,8,0:0:0:0:
256,192,90410,1,8,0:0:0:0:
256,192,90484,1,8,0:0:0:0:
256,192,90557,1,8,0:0:0:0:
256,192,90631,1,4,0:0:0:0:
256,192,90778,1,0,0:0:0:0:
256,192,90925,1,8,0:0:0:0:
256,192,90998,1,8,0:0:0:0:
256,192,91072,1,0,0:0:0:0:
256,192,91145,1,8,0:0:0:0:
256,192,91219,1,8,0:0:0:0:
256,192,91293,1,8,0:0:0:0:
256,192,91366,1,0,0:0:0:0:
256,192,91513,1,0,0:0:0:0:
256,192,91660,1,0,0:0:0:0:
256,192,91734,1,0,0:0:0:0:
256,192,91807,1,8,0:0:0:0:
256,192,91881,1,8,0:0:0:0:
256,192,91954,1,8,0:0:0:0:
256,192,92028,1,0,0:0:0:0:
256,192,92101,1,8,0:0:0:0:
256,192,92248,1,8,0:0:0:0:
256,192,92322,1,8,0:0:0:0:
256,192,92395,1,0,0:0:0:0:
256,192,92469,1,8,0:0:0:0:
256,192,92543,1,0,0:0:0:0:
256,192,92690,1,8,0:0:0:0:
256,192,92763,1,0,0:0:0:0:
256,192,92837,1,8,0:0:0:0:
256,192,92910,1,8,0:0:0:0:
256,192,92984,1,0,0:0:0:0:
256,192,93131,1,0,0:0:0:0:
256,192,93204,1,8,0:0:0:0:
256,192,93278,1,8,0:0:0:0:
256,192,93351,1,0,0:0:0:0:
256,192,93425,1,0,0:0:0:0:
256,192,93498,1,8,0:0:0:0:
256,192,93572,1,8,0:0:0:0:
256,192,93645,1,8,0:0:0:0:
256,192,93719,1,0,0:0:0:0:
256,192,93866,1,8,0:0:0:0:
256,192,93940,1,8,0:0:0:0:
256,192,94013,1,0,0:0:0:0:
256,192,94160,1,8,0:0:0:0:
256,192,94307,1,8,0:0:0:0:
256,192,94454,1,0,0:0:0:0:
256,192,94528,1,0,0:0:0:0:
256,192,94601,1,0,0:0:0:0:
256,192,94675,1,8,0:0:0:0:
256,192,94748,1,4,0:0:0:0:
256,192,94895,1,0,0:0:0:0:
256,192,94969,1,0,0:0:0:0:
256,192,95043,1,8,0:0:0:0:
256,192,95190,1,8,0:0:0:0:
256,192,95337,1,8,0:0:0:0:
256,192,95484,1,0,0:0:0:0:
256,192,95631,1,8,0:0:0:0:
256,192,95778,1,0,0:0:0:0:
256,192,95851,1,0,0:0:0:0:
256,192,95925,1,8,0:0:0:0:
256,192,95998,1,8,0:0:0:0:
256,192,96072,1,0,0:0:0:0:
256,192,96145,1,8,0:0:0:0:
256,192,96219,1,0,0:0:0:0:
256,192,96293,1,0,0:0:0:0:
256,192,96366,1,8,0:0:0:0:
256,192,96513,1,8,0:0:0:0:
256,192,96660,1,0,0:0:0:0:
256,192,96807,1,8,0:0:0:0:
256,192,96881,1,8,0:0:0:0:
256,192,96954,1,8,0:0:0:0:
256,192,97028,1,8,0:0:0:0:
256,192,97101,1,4,0:0:0:0:
256,192,97248,1,0,0:0:0:0:
256,192,97395,1,8,0:0:0:0:
256,192,97469,1,0,0:0:0:0:
256,192,97543,1,8,0:0:0:0:
256,192,97690,1,8,0:0:0:0:
256,192,97763,1,8,0:0:0:0:
256,192,97837,1,8,0:0:0:0:
256,192,97984,1,8,0:0:0:0:
256,192,98057,1,8,0:0:0:0:
256,192,98131,1,0,0:0:0:0:
256,192,98278,1,0,0:0:0:0:
256,192,98351,1,0,0:0:0:0:
256,192,98425,1,0,0:0:0:0:
256,192,98498,1,0,0:0:0:0:
256,192,98572,1,8,0:0:0:0:
256,192,98621,1,8,0:0:0:0:
256,192,98670,1,8,0:0:0:0:
256,192,98719,1,0,0:0:0:0:
256,192,98793,1,8,0:0:0:0:
256,192,98866,1,4,0:0:0:0:
256,192,99013,1,0,0:0:0:0:
256,192,99087,1,0,0:0:0:0:
256,192,99160,1,8,0:0:0:0:
256,192,99233,1,8,0:0:0:0:
256,192,99307,1,0,0:0:0:0:
256,192,99380,1,8,0:0:0:0:
256,192,99454,1,8,0:0:0:0:
256,192,99528,1,8,0:0:0:0:
256,192,99601,1,0,0:0:0:0:
256,192,99748,1,8,0:0:0:0:
256,192,99822,1,0,0:0:0:0:
256,192,99895,1,0,0:0:0:0:
256,192,99969,1,0,0:0:0:0:
256,192,100042,1,8,0:0:0:0:
256,192,100116,1,8,0:0:0:0:
256,192,100189,1,8,0:0:0:0:
256,192,100263,1,0,0:0:0:0:
256,192,100336,1,8,0:0:0:0:
256,192,100483,1,8,0:0:0:0:
256,192,100557,1,8,0:0:0:0:
256,192,100630,1,0,0:0:0:0:
256,192,100704,1,8,0:0:0:0:
256,192,100778,1,0,0:0:0:0:
256,192,100851,1,0,0:0:0:0:
256,192,100925,1,8,0:0:0:0:
256,192,100998,1,0,0:0:0:0:
256,192,101072,1,8,0:0:0:0:
256,192,101145,1,8,0:0:0:0:
256,192,101219,1,0,0:0:0:0:
256,192,101366,1,0,0:0:0:0:
256,192,101439,1,8,0:0:0:0:
256,192,101513,1,8,0:0:0:0:
256,192,101586,1,0,0:0:0:0:
256,192,101660,1,0,0:0:0:0:
256,192,101733,1,8,0:0:0:0:
256,192,101807,1,8,0:0:0:0:
256,192,101880,1,8,0:0:0:0:
256,192,101954,1,0,0:0:0:0:
256,192,102101,1,8,0:0:0:0:
256,192,102175,1,8,0:0:0:0:
256,192,102248,1,0,0:0:0:0:
256,192,102322,1,0,0:0:0:0:
256,192,102395,1,8,0:0:0:0:
256,192,102469,1,8,0:0:0:0:
256,192,102542,1,8,0:0:0:0:
256,192,102689,1,0,0:0:0:0:
256,192,102763,1,0,0:0:0:0:
256,192,102836,1,0,0:0:0:0:
256,192,102910,1,8,0:0:0:0:
256,192,102983,1,4,0:0:0:0:
256,192,103130,1,0,0:0:0:0:
256,192,103204,1,0,0:0:0:0:
256,192,103278,1,8,0:0:0:0:
256,192,103351,1,0,0:0:0:0:
256,192,103425,1,8,0:0:0:0:
256,192,103572,1,8,0:0:0:0:
256,192,103719,1,0,0:0:0:0:
256,192,103793,1,0,0:0:0:0:
256,192,103866,1,8,0:0:0:0:
256,192,103940,1,0,0:0:0:0:
256,192,104013,1,8,0:0:0:0:
256,192,104086,1,0,0:0:0:0:
256,192,104160,1,8,0:0:0:0:
256,192,104233,1,8,0:0:0:0:
256,192,104307,1,0,0:0:0:0:
256,192,104380,1,8,0:0:0:0:
256,192,104454,1,8,0:0:0:0:
256,192,104528,1,0,0:0:0:0:
256,192,104601,1,8,0:0:0:0:
256,192,104748,1,8,0:0:0:0:
256,192,104895,1,0,0:0:0:0:
256,192,104969,1,0,0:0:0:0:
256,192,105042,1,8,0:0:0:0:
256,192,105116,1,8,0:0:0:0:
256,192,105189,1,8,0:0:0:0:
256,192,105263,1,8,0:0:0:0:
256,192,105336,1,4,0:0:0:0:
256,192,105483,1,0,0:0:0:0:
256,192,105630,1,8,0:0:0:0:
256,192,105704,1,0,0:0:0:0:
256,192,105778,1,8,0:0:0:0:
256,192,105851,1,0,0:0:0:0:
256,192,105925,1,8,0:0:0:0:
256,192,105998,1,8,0:0:0:0:
256,192,106072,1,8,0:0:0:0:
256,192,106219,1,8,0:0:0:0:
256,192,106292,1,0,0:0:0:0:
256,192,106366,1,8,0:0:0:0:
256,192,106415,1,8,0:0:0:0:
256,192,106464,1,8,0:0:0:0:
256,192,106513,1,0,0:0:0:0:
256,192,106586,1,0,0:0:0:0:
256,192,106660,1,0,0:0:0:0:
256,192,106733,1,0,0:0:0:0:
256,192,106807,1,0,0:0:0:0:
256,192,106856,1,0,0:0:0:0:
256,192,106905,1,0,0:0:0:0:
256,192,106954,1,0,0:0:0:0:
256,192,107028,1,8,0:0:0:0:
256,192,107101,1,0,0:0:0:0:
256,192,107248,1,0,0:0:0:0:
256,192,107395,1,8,0:0:0:0:
256,192,107543,1,0,0:0:0:0:
256,192,107616,1,8,0:0:0:0:
256,192,107690,1,8,0:0:0:0:
256,192,107763,1,0,0:0:0:0:
256,192,107837,1,8,0:0:0:0:
256,192,107984,1,8,0:0:0:0:
256,192,108131,1,0,0:0:0:0:
256,192,108204,1,8,0:0:0:0:
256,192,108278,1,0,0:0:0:0:
256,192,108425,1,0,0:0:0:0:
256,192,108572,1,8,0:0:0:0:
256,192,108719,1,8,0:0:0:0:
256,192,108793,1,8,0:0:0:0:
256,192,108866,1,0,0:0:0:0:
256,192,108940,1,0,0:0:0:0:
256,192,109160,1,0,0:0:0:0:
256,192,109307,1,8,0:0:0:0:
256,192,109454,1,0,0:0:0:0:
256,192,109748,1,8,0:0:0:0:
256,192,109895,1,8,0:0:0:0:
256,192,110043,1,8,0:0:0:0:
256,192,110190,1,8,0:0:0:0:
256,192,110337,1,8,0:0:0:0:
256,192,110851,1,0,0:0:0:0:
256,192,110998,1,8,0:0:0:0:
256,192,111219,1,0,0:0:0:0:
256,192,111366,1,0,0:0:0:0:
256,192,111513,1,0,0:0:0:0:
256,192,111587,1,8,0:0:0:0:
256,192,111734,1,8,0:0:0:0:
256,192,111807,1,8,0:0:0:0:
256,192,111954,1,8,0:0:0:0:
256,192,112028,1,0,0:0:0:0:
256,192,112101,1,8,0:0:0:0:
256,192,112150,1,8,0:0:0:0:
256,192,112199,1,8,0:0:0:0:
256,192,112248,1,0,0:0:0:0:
256,192,112395,1,8,0:0:0:0:
256,192,112763,1,8,0:0:0:0:
256,192,112837,1,0,0:0:0:0:
256,192,112886,1,0,0:0:0:0:
256,192,112935,1,0,0:0:0:0:
256,192,112984,1,8,0:0:0:0:
256,192,113131,1,0,0:0:0:0:
256,192,113204,1,0,0:0:0:0:
256,192,113278,1,8,0:0:0:0:
256,192,113425,1,8,0:0:0:0:
256,192,113498,1,8,0:0:0:0:
256,192,113572,1,0,0:0:0:0:
256,192,113719,1,0,0:0:0:0:
256,192,114160,1,8,0:0:0:0:
256,192,114748,1,8,0:0:0:0:
256,192,114895,1,0,0:0:0:0:
256,192,115116,1,0,0:0:0:0:
256,192,115337,1,0,0:0:0:0:
256,192,115484,1,0,0:0:0:0:
256,192,115631,1,8,0:0:0:0:
256,192,115778,1,0,0:0:0:0:
256,192,115925,1,8,0:0:0:0:
256,192,115998,1,8,0:0:0:0:
256,192,116072,1,0,0:0:0:0:
256,192,116121,1,0,0:0:0:0:
256,192,116170,1,0,0:0:0:0:
256,192,116219,1,8,0:0:0:0:
256,192,116366,1,8,0:0:0:0:
256,192,116440,1,0,0:0:0:0:
256,192,116660,1,8,0:0:0:0:
256,192,116734,1,0,0:0:0:0:
256,192,116807,1,8,0:0:0:0:
256,192,116881,1,8,0:0:0:0:
256,192,116954,1,0,0:0:0:0:
256,192,117101,1,0,0:0:0:0:
256,192,117138,1,0,0:0:0:0:
256,192,117248,1,8,0:0:0:0:
256,192,117285,1,0,0:0:0:0:
256,192,117322,1,8,0:0:0:0:
256,192,117395,1,0,0:0:0:0:
256,192,117690,1,0,0:0:0:0:
256,192,117984,1,8,0:0:0:0:
256,192,118131,1,8,0:0:0:0:
256,192,118278,1,0,0:0:0:0:
256,192,118425,1,8,0:0:0:0:
256,192,118572,1,8,0:0:0:0:
256,192,118719,1,0,0:0:0:0:
256,192,118866,1,8,0:0:0:0:
256,192,119013,1,0,0:0:0:0:
256,192,119087,1,0,0:0:0:0:
256,192,119160,1,8,0:0:0:0:
256,192,119381,1,8,0:0:0:0:
256,192,119454,12,8,119895,0:0:0:0:
256,192,120043,5,8,0:0:0:0:
256,192,120263,1,0,0:0:0:0:
256,192,120337,1,8,0:0:0:0:
256,192,120484,1,8,0:0:0:0:
256,192,120520,1,8,0:0:0:0:
256,192,120557,1,8,0:0:0:0:
256,192,120631,1,0,0:0:0:0:
256,192,120925,1,0,0:0:0:0:
256,192,120998,1,8,0:0:0:0:
256,192,121072,1,8,0:0:0:0:
256,192,121219,1,0,0:0:0:0:
256,192,121366,1,8,0:0:0:0:
256,192,121513,1,8,0:0:0:0:
256,192,121660,1,0,0:0:0:0:
256,192,121734,1,0,0:0:0:0:
256,192,121807,1,8,0:0:0:0:
256,192,122101,1,8,0:0:0:0:
256,192,122150,1,0,0:0:0:0:
256,192,122199,1,0,0:0:0:0:
256,192,122248,1,8,0:0:0:0:
256,192,122322,1,0,0:0:0:0:
256,192,122395,1,8,0:0:0:0:
256,192,122543,1,0,0:0:0:0:
256,192,122690,1,8,0:0:0:0:
256,192,122763,1,0,0:0:0:0:
256,192,122837,1,8,0:0:0:0:
256,192,122984,1,0,0:0:0:0:
256,192,123131,1,0,0:0:0:0:
256,192,123204,1,8,0:0:0:0:
256,192,123278,1,8,0:0:0:0:
256,192,123315,1,0,0:0:0:0:
256,192,123425,1,0,0:0:0:0:
256,192,123462,1,0,0:0:0:0:
256,192,123572,1,0,0:0:0:0:
256,192,123866,1,0,0:0:0:0:
256,192,124013,1,8,0:0:0:0:
256,192,124087,1,8,0:0:0:0:
256,192,124160,1,8,0:0:0:0:
256,192,124234,1,0,0:0:0:0:
256,192,124307,1,8,0:0:0:0:
256,192,124454,1,0,0:0:0:0:
256,192,124601,1,8,0:0:0:0:
256,192,124638,1,8,0:0:0:0:
256,192,124675,1,0,0:0:0:0:
256,192,124748,1,8,0:0:0:0:
256,192,124895,1,0,0:0:0:0:
256,192,125043,1,8,0:0:0:0:
256,192,125190,1,8,0:0:0:0:
256,192,125263,1,0,0:0:0:0:
256,192,125337,12,0,125778,0:0:0:0:
256,192,125925,5,8,0:0:0:0:
256,192,126219,1,8,0:0:0:0:
256,192,126366,1,8,0:0:0:0:
256,192,126513,1,8,0:0:0:0:
256,192,126660,1,8,0:0:0:0:
256,192,126807,1,8,0:0:0:0:
256,192,127322,1,0,0:0:0:0:
256,192,127469,1,8,0:0:0:0:
256,192,127543,1,0,0:0:0:0:
256,192,127616,1,8,0:0:0:0:
256,192,127690,1,0,0:0:0:0:
256,192,127837,1,0,0:0:0:0:
256,192,127984,1,8,0:0:0:0:
256,192,128131,1,0,0:0:0:0:
256,192,128204,1,8,0:0:0:0:
256,192,128278,1,8,0:0:0:0:
256,192,128351,1,0,0:0:0:0:
256,192,128425,1,8,0:0:0:0:
256,192,128572,1,0,0:0:0:0:
256,192,128621,1,0,0:0:0:0:
256,192,128670,1,0,0:0:0:0:
256,192,128719,1,8,0:0:0:0:
256,192,128793,1,8,0:0:0:0:
256,192,128866,1,0,0:0:0:0:
256,192,129013,1,0,0:0:0:0:
256,192,129087,1,0,0:0:0:0:
256,192,129160,1,8,0:0:0:0:
256,192,129307,1,8,0:0:0:0:
256,192,129381,1,0,0:0:0:0:
256,192,129454,1,8,0:0:0:0:
256,192,129528,1,0,0:0:0:0:
256,192,129601,1,0,0:0:0:0:
256,192,129748,1,8,0:0:0:0:
256,192,129895,1,8,0:0:0:0:
256,192,130043,1,0,0:0:0:0:
256,192,130337,1,8,0:0:0:0:
256,192,130410,1,8,0:0:0:0:
256,192,130484,1,0,0:0:0:0:
256,192,130557,1,0,0:0:0:0:
256,192,130631,1,8,0:0:0:0:
256,192,131219,1,8,0:0:0:0:
256,192,131366,1,0,0:0:0:0:
256,192,131587,1,0,0:0:0:0:
256,192,131807,12,0,132248,0:0:0:0:
256,192,132395,5,8,0:0:0:0:
256,192,132469,1,8,0:0:0:0:
256,192,132543,1,0,0:0:0:0:
256,192,132690,1,8,0:0:0:0:
256,192,132739,1,8,0:0:0:0:
256,192,132788,1,8,0:0:0:0:
256,192,132837,1,0,0:0:0:0:
256,192,132910,1,8,0:0:0:0:
256,192,132984,1,0,0:0:0:0:
256,192,133131,1,8,0:0:0:0:
256,192,133278,1,0,0:0:0:0:
256,192,133351,1,0,0:0:0:0:
256,192,133425,1,8,0:0:0:0:
256,192,133498,1,8,0:0:0:0:
256,192,133572,1,0,0:0:0:0:
256,192,133609,1,0,0:0:0:0:
256,192,133719,1,8,0:0:0:0:
256,192,133756,1,0,0:0:0:0:
256,192,133793,1,8,0:0:0:0:
256,192,133866,1,0,0:0:0:0:
256,192,134013,1,8,0:0:0:0:
256,192,134087,1,8,0:0:0:0:
256,192,134160,1,0,0:0:0:0:
256,192,134307,1,0,0:0:0:0:
256,192,134454,1,8,0:0:0:0:
256,192,134601,1,0,0:0:0:0:
256,192,134675,1,0,0:0:0:0:
256,192,134748,1,8,0:0:0:0:
256,192,134797,1,8,0:0:0:0:
256,192,134846,1,8,0:0:0:0:
256,192,134895,1,0,0:0:0:0:
256,192,135043,1,0,0:0:0:0:
256,192,135190,1,8,0:0:0:0:
256,192,135337,1,0,0:0:0:0:
256,192,135484,1,8,0:0:0:0:
256,192,135631,1,0,0:0:0:0:
256,192,135704,1,8,0:0:0:0:
256,192,135778,1,0,0:0:0:0:
256,192,135925,1,0,0:0:0:0:
256,192,136072,1,0,0:0:0:0:
256,192,136145,1,8,0:0:0:0:
256,192,136219,1,0,0:0:0:0:
256,192,136293,1,0,0:0:0:0:
256,192,136366,1,0,0:0:0:0:
256,192,136513,1,8,0:0:0:0:
256,192,136587,1,8,0:0:0:0:
256,192,136660,1,0,0:0:0:0:
256,192,136709,1,0,0:0:0:0:
256,192,136758,1,0,0:0:0:0:
256,192,136807,1,8,0:0:0:0:
256,192,136954,1,8,0:0:0:0:
256,192,136991,1,8,0:0:0:0:
256,192,137028,1,8,0:0:0:0:
256,192,137248,1,0,0:0:0:0:
256,192,137322,1,0,0:0:0:0:
256,192,137395,1,8,0:0:0:0:
256,192,137469,1,0,0:0:0:0:
256,192,137543,1,8,0:0:0:0:
256,192,137579,1,0,0:0:0:0:
256,192,137690,1,8,0:0:0:0:
256,192,137726,1,0,0:0:0:0:
256,192,137837,1,8,0:0:0:0:
256,192,137873,1,0,0:0:0:0:
256,192,137984,1,8,0:0:0:0:
256,192,138131,1,0,0:0:0:0:
256,192,138204,1,8,0:0:0:0:
256,192,138278,1,0,0:0:0:0:
256,192,138572,1,8,0:0:0:0:
256,192,138719,1,0,0:0:0:0:
256,192,138866,1,8,0:0:0:0:
256,192,139013,1,8,0:0:0:0:
256,192,139087,1,0,0:0:0:0:
256,192,139160,1,0,0:0:0:0:
256,192,139234,1,8,0:0:0:0:
256,192,139307,1,8,0:0:0:0:
256,192,139454,1,0,0:0:0:0:
256,192,139528,1,0,0:0:0:0:
256,192,139601,1,0,0:0:0:0:
256,192,139675,1,0,0:0:0:0:
256,192,139748,1,8,0:0:0:0:
256,192,139895,1,8,0:0:0:0:
256,192,139932,1,8,0:0:0:0:
256,192,140043,1,0,0:0:0:0:
256,192,140190,1,0,0:0:0:0:
256,192,140337,1,8,0:0:0:0:
256,192,140410,1,8,0:0:0:0:
256,192,140484,1,0,0:0:0:0:
256,192,140557,1,8,0:0:0:0:
256,192,140631,1,8,0:0:0:0:
256,192,140778,1,0,0:0:0:0:
256,192,140851,1,0,0:0:0:0:
256,192,140925,1,8,0:0:0:0:
256,192,141072,1,0,0:0:0:0:
256,192,141109,1,0,0:0:0:0:
256,192,141145,1,0,0:0:0:0:
256,192,141219,1,8,0:0:0:0:
256,192,141366,1,8,0:0:0:0:
256,192,141513,1,12,0:0:0:0:
256,192,142101,1,0,0:0:0:0:
256,192,142150,1,0,0:0:0:0:
256,192,142199,1,0,0:0:0:0:
256,192,142248,1,8,0:0:0:0:
256,192,142297,1,8,0:0:0:0:
256,192,142346,1,10,0:0:0:0:
256,192,142395,1,0,0:0:0:0:
256,192,142690,1,0,0:0:0:0:
256,192,142739,1,0,0:0:0:0:
256,192,142788,1,0,0:0:0:0:
256,192,142837,1,8,0:0:0:0:
256,192,142910,1,0,0:0:0:0:
256,192,142984,1,8,0:0:0:0:
256,192,143131,1,8,0:0:0:0:
256,192,143278,1,0,0:0:0:0:
256,192,143327,1,0,0:0:0:0:
256,192,143376,1,0,0:0:0:0:
256,192,143425,1,8,0:0:0:0:
256,192,143498,1,8,0:0:0:0:
256,192,143572,1,0,0:0:0:0:
256,192,143719,1,0,0:0:0:0:
256,192,143793,1,8,0:0:0:0:
256,192,143866,1,0,0:0:0:0:
256,192,143903,1,0,0:0:0:0:
256,192,144013,1,8,0:0:0:0:
256,192,144160,1,0,0:0:0:0:
256,192,144454,1,0,0:0:0:0:
256,192,144528,1,8,0:0:0:0:
256,192,144601,1,0,0:0:0:0:
256,192,144675,1,8,0:0:0:0:
256,192,144748,1,8,0:0:0:0:
256,192,144822,1,8,0:0:0:0:
256,192,144895,1,0,0:0:0:0:
256,192,145043,1,8,0:0:0:0:
256,192,145190,1,8,0:0:0:0:
256,192,145226,1,8,0:0:0:0:
256,192,145263,1,0,0:0:0:0:
256,192,145337,1,8,0:0:0:0:
256,192,145484,1,0,0:0:0:0:
256,192,145631,1,8,0:0:0:0:
256,192,145778,1,8,0:0:0:0:
256,192,145851,1,0,0:0:0:0:
256,192,145925,1,0,0:0:0:0:
256,192,146072,1,0,0:0:0:0:
256,192,146513,1,8,0:0:0:0:
256,192,146807,1,0,0:0:0:0:
256,192,146881,1,8,0:0:0:0:
256,192,146954,1,8,0:0:0:0:
256,192,147028,1,0,0:0:0:0:
256,192,147101,1,8,0:0:0:0:
256,192,147248,1,8,0:0:0:0:
256,192,147395,1,8,0:0:0:0:
256,192,147469,1,0,0:0:0:0:
256,192,147543,1,8,0:0:0:0:
256,192,147690,1,8,0:0:0:0:
256,192,147837,1,0,0:0:0:0:
256,192,147984,1,0,0:0:0:0:
256,192,148057,1,0,0:0:0:0:
256,192,148131,1,8,0:0:0:0:
256,192,148204,1,0,0:0:0:0:
256,192,148278,1,8,0:0:0:0:
256,192,148425,1,0,0:0:0:0:
256,192,148572,1,0,0:0:0:0:
256,192,148645,1,8,0:0:0:0:
256,192,148719,1,0,0:0:0:0:
256,192,148866,1,8,0:0:0:0:
256,192,148940,1,8,0:0:0:0:
256,192,149013,1,0,0:0:0:0:
256,192,149160,1,0,0:0:0:0:
256,192,149307,1,8,0:0:0:0:
256,192,149381,1,8,0:0:0:0:
256,192,149454,1,0,0:0:0:0:
256,192,149601,1,8,0:0:0:0:
256,192,149748,1,8,0:0:0:0:
256,192,149822,1,0,0:0:0:0:
256,192,149895,1,0,0:0:0:0:
256,192,150043,1,0,0:0:0:0:
256,192,150080,1,0,0:0:0:0:
256,192,150190,1,8,0:0:0:0:
256,192,150227,1,0,0:0:0:0:
256,192,150264,1,8,0:0:0:0:
256,192,150337,1,0,0:0:0:0:
256,192,150631,1,0,0:0:0:0:
256,192,150704,1,0,0:0:0:0:
256,192,150778,1,8,0:0:0:0:
256,192,150827,1,0,0:0:0:0:
256,192,150876,1,8,0:0:0:0:
256,192,150925,1,8,0:0:0:0:
256,192,151072,1,0,0:0:0:0:
256,192,151219,1,8,0:0:0:0:
256,192,151293,1,0,0:0:0:0:
256,192,151366,1,8,0:0:0:0:
256,192,151513,1,8,0:0:0:0:
256,192,151660,1,8,0:0:0:0:
256,192,151807,1,8,0:0:0:0:
256,192,151881,1,0,0:0:0:0:
256,192,151954,1,8,0:0:0:0:
256,192,152003,1,8,0:0:0:0:
256,192,152052,1,8,0:0:0:0:
256,192,152101,1,0,0:0:0:0:
256,192,152248,1,0,0:0:0:0:
256,192,152322,1,8,0:0:0:0:
256,192,152395,1,8,0:0:0:0:
256,192,152690,1,0,0:0:0:0:
256,192,152739,1,0,0:0:0:0:
256,192,152788,1,0,0:0:0:0:
256,192,152837,1,8,0:0:0:0:
256,192,152886,1,0,0:0:0:0:
256,192,152935,1,8,0:0:0:0:
256,192,152984,1,8,0:0:0:0:
256,192,153131,1,0,0:0:0:0:
256,192,153204,1,0,0:0:0:0:
256,192,153278,1,8,0:0:0:0:
256,192,153351,1,0,0:0:0:0:
256,192,153425,1,8,0:0:0:0:
256,192,153462,1,8,0:0:0:0:
256,192,153498,1,8,0:0:0:0:
256,192,153572,1,0,0:0:0:0:
256,192,153719,1,0,0:0:0:0:
256,192,153793,1,0,0:0:0:0:
256,192,153866,1,8,0:0:0:0:
256,192,154013,1,8,0:0:0:0:
256,192,154160,1,8,0:0:0:0:
256,192,154307,1,8,0:0:0:0:
256,192,154454,1,8,0:0:0:0:
256,192,154528,1,0,0:0:0:0:
256,192,154601,1,8,0:0:0:0:
256,192,154650,1,8,0:0:0:0:
256,192,154699,1,8,0:0:0:0:
256,192,154748,1,0,0:0:0:0:
256,192,154895,1,0,0:0:0:0:
256,192,155043,1,0,0:0:0:0:
256,192,155141,1,8,0:0:0:0:
256,192,155239,1,8,0:0:0:0:
256,192,155337,1,0,0:0:0:0:
256,192,155410,1,0,0:0:0:0:
256,192,155484,1,8,0:0:0:0:
256,192,155533,1,8,0:0:0:0:
256,192,155582,1,8,0:0:0:0:
256,192,155631,1,0,0:0:0:0:
256,192,155704,1,8,0:0:0:0:
256,192,155778,1,0,0:0:0:0:
256,192,155925,1,8,0:0:0:0:
256,192,155998,1,8,0:0:0:0:
256,192,156072,1,0,0:0:0:0:
256,192,156219,1,0,0:0:0:0:
256,192,156293,1,8,0:0:0:0:
256,192,156366,1,0,0:0:0:0:
256,192,156440,1,8,0:0:0:0:
256,192,156513,1,0,0:0:0:0:
256,192,156807,1,0,0:0:0:0:
256,192,156954,1,8,0:0:0:0:
256,192,157101,1,8,0:0:0:0:
256,192,157248,1,0,0:0:0:0:
256,192,157395,1,8,0:0:0:0:
256,192,157469,1,0,0:0:0:0:
256,192,157543,1,8,0:0:0:0:
256,192,157690,1,0,0:0:0:0:
256,192,157763,1,0,0:0:0:0:
256,192,157837,1,0,0:0:0:0:
256,192,157984,1,0,0:0:0:0:
256,192,158057,1,0,0:0:0:0:
256,192,158131,1,8,0:0:0:0:
256,192,158278,1,0,0:0:0:0:
256,192,158425,1,8,0:0:0:0:
256,192,158572,1,8,0:0:0:0:
256,192,158866,1,0,0:0:0:0:
256,192,159013,1,8,0:0:0:0:
256,192,159160,1,8,0:0:0:0:
256,192,159307,1,8,0:0:0:0:
256,192,159454,1,8,0:0:0:0:
256,192,159601,1,0,0:0:0:0:
256,192,159748,1,0,0:0:0:0:
256,192,159895,1,8,0:0:0:0:
256,192,160043,1,0,0:0:0:0:
256,192,160116,1,0,0:0:0:0:
256,192,160190,1,0,0:0:0:0:
256,192,160263,1,0,0:0:0:0:
256,192,160337,1,0,0:0:0:0:
256,192,160386,1,0,0:0:0:0:
256,192,160435,1,0,0:0:0:0:
256,192,160484,1,0,0:0:0:0:
256,192,160557,1,8,0:0:0:0:
256,192,160631,1,4,0:0:0:0:
256,192,160778,1,0,0:0:0:0:
256,192,160925,1,8,0:0:0:0:
256,192,160998,1,8,0:0:0:0:
256,192,161072,1,0,0:0:0:0:
256,192,161145,1,8,0:0:0:0:
256,192,161219,1,8,0:0:0:0:
256,192,161293,1,8,0:0:0:0:
256,192,161366,1,0,0:0:0:0:
256,192,161513,1,0,0:0:0:0:
256,192,161660,1,0,0:0:0:0:
256,192,161734,1,0,0:0:0:0:
256,192,161807,1,8,0:0:0:0:
256,192,161881,1,8,0:0:0:0:
256,192,161954,1,8,0:0:0:0:
256,192,162028,1,0,0:0:0:0:
256,192,162101,1,8,0:0:0:0:
256,192,162248,1,8,0:0:0:0:
256,192,162322,1,0,0:0:0:0:
256,192,162395,1,0,0:0:0:0:
256,192,162469,1,8,0:0:0:0:
256,192,162543,1,0,0:0:0:0:
256,192,162690,1,8,0:0:0:0:
256,192,162763,1,0,0:0:0:0:
256,192,162837,1,8,0:0:0:0:
256,192,162910,1,8,0:0:0:0:
256,192,162984,1,0,0:0:0:0:
256,192,163131,1,0,0:0:0:0:
256,192,163204,1,8,0:0:0:0:
256,192,163278,1,8,0:0:0:0:
256,192,163351,1,0,0:0:0:0:
256,192,163425,1,0,0:0:0:0:
256,192,163498,1,8,0:0:0:0:
256,192,163572,1,8,0:0:0:0:
256,192,163645,1,8,0:0:0:0:
256,192,163719,1,0,0:0:0:0:
256,192,163866,1,8,0:0:0:0:
256,192,163940,1,8,0:0:0:0:
256,192,164013,1,0,0:0:0:0:
256,192,164160,1,8,0:0:0:0:
256,192,164307,1,8,0:0:0:0:
256,192,164454,1,0,0:0:0:0:
256,192,164528,1,0,0:0:0:0:
256,192,164601,1,0,0:0:0:0:
256,192,164675,1,8,0:0:0:0:
256,192,164748,1,4,0:0:0:0:
256,192,164895,1,0,0:0:0:0:
256,192,164969,1,0,0:0:0:0:
256,192,165043,1,8,0:0:0:0:
256,192,165190,1,8,0:0:0:0:
256,192,165337,1,8,0:0:0:0:
256,192,165484,1,0,0:0:0:0:
256,192,165631,1,8,0:0:0:0:
256,192,165778,1,0,0:0:0:0:
256,192,165851,1,0,0:0:0:0:
256,192,165925,1,8,0:0:0:0:
256,192,165998,1,8,0:0:0:0:
256,192,166072,1,0,0:0:0:0:
256,192,166145,1,8,0:0:0:0:
256,192,166219,1,0,0:0:0:0:
256,192,166293,1,0,0:0:0:0:
256,192,166366,1,8,0:0:0:0:
256,192,166513,1,8,0:0:0:0:
256,192,166660,1,0,0:0:0:0:
256,192,166807,1,8,0:0:0:0:
256,192,166881,1,8,0:0:0:0:
256,192,166954,1,8,0:0:0:0:
256,192,167028,1,8,0:0:0:0:
256,192,167101,1,4,0:0:0:0:
256,192,167248,1,0,0:0:0:0:
256,192,167395,1,8,0:0:0:0:
256,192,167469,1,0,0:0:0:0:
256,192,167543,1,8,0:0:0:0:
256,192,167690,1,8,0:0:0:0:
256,192,167763,1,8,0:0:0:0:
256,192,167837,1,8,0:0:0:0:
256,192,167984,1,8,0:0:0:0:
256,192,168057,1,8,0:0:0:0:
256,192,168131,1,0,0:0:0:0:
256,192,168278,1,0,0:0:0:0:
256,192,168351,1,0,0:0:0:0:
256,192,168425,1,0,0:0:0:0:
256,192,168498,1,0,0:0:0:0:
256,192,168572,1,8,0:0:0:0:
256,192,168621,1,8,0:0:0:0:
256,192,168670,1,8,0:0:0:0:
256,192,168719,1,0,0:0:0:0:
256,192,168793,1,8,0:0:0:0:
256,192,168866,1,4,0:0:0:0:
256,192,169013,1,0,0:0:0:0:
256,192,169087,1,0,0:0:0:0:
256,192,169160,1,8,0:0:0:0:
256,192,169233,1,8,0:0:0:0:
256,192,169307,1,0,0:0:0:0:
256,192,169380,1,8,0:0:0:0:
256,192,169454,1,8,0:0:0:0:
256,192,169528,1,8,0:0:0:0:
256,192,169601,1,0,0:0:0:0:
256,192,169748,1,8,0:0:0:0:
256,192,169822,1,0,0:0:0:0:
256,192,169895,1,0,0:0:0:0:
256,192,169969,1,0,0:0:0:0:
256,192,170042,1,8,0:0:0:0:
256,192,170116,1,8,0:0:0:0:
256,192,170189,1,8,0:0:0:0:
256,192,170263,1,0,0:0:0:0:
256,192,170336,1,8,0:0:0:0:
256,192,170483,1,8,0:0:0:0:
256,192,170557,1,8,0:0:0:0:
256,192,170630,1,0,0:0:0:0:
256,192,170704,1,8,0:0:0:0:
256,192,170778,1,0,0:0:0:0:
256,192,170851,1,0,0:0:0:0:
256,192,170925,1,8,0:0:0:0:
256,192,170998,1,0,0:0:0:0:
256,192,171072,1,8,0:0:0:0:
256,192,171145,1,8,0:0:0:0:
256,192,171219,1,0,0:0:0:0:
256,192,171366,1,0,0:0:0:0:
256,192,171439,1,8,0:0:0:0:
256,192,171513,1,8,0:0:0:0:
256,192,171586,1,0,0:0:0:0:
256,192,171660,1,0,0:0:0:0:
256,192,171733,1,8,0:0:0:0:
256,192,171807,1,8,0:0:0:0:
256,192,171880,1,8,0:0:0:0:
256,192,171954,1,0,0:0:0:0:
256,192,172101,1,8,0:0:0:0:
256,192,172175,1,8,0:0:0:0:
256,192,172248,1,0,0:0:0:0:
256,192,172322,1,0,0:0:0:0:
256,192,172395,1,8,0:0:0:0:
256,192,172469,1,8,0:0:0:0:
256,192,172542,1,8,0:0:0:0:
256,192,172689,1,0,0:0:0:0:
256,192,172763,1,0,0:0:0:0:
256,192,172836,1,0,0:0:0:0:
256,192,172910,1,8,0:0:0:0:
256,192,172983,1,4,0:0:0:0:
256,192,173130,1,0,0:0:0:0:
256,192,173204,1,0,0:0:0:0:
256,192,173278,1,8,0:0:0:0:
256,192,173351,1,0,0:0:0:0:
256,192,173425,1,8,0:0:0:0:
256,192,173572,1,8,0:0:0:0:
256,192,173719,1,0,0:0:0:0:
256,192,173793,1,0,0:0:0:0:
256,192,173866,1,8,0:0:0:0:
256,192,173940,1,0,0:0:0:0:
256,192,174013,1,8,0:0:0:0:
256,192,174086,1,0,0:0:0:0:
256,192,174160,1,8,0:0:0:0:
256,192,174233,1,8,0:0:0:0:
256,192,174307,1,0,0:0:0:0:
256,192,174380,1,8,0:0:0:0:
256,192,174454,1,8,0:0:0:0:
256,192,174528,1,0,0:0:0:0:
256,192,174601,1,8,0:0:0:0:
256,192,174748,1,8,0:0:0:0:
256,192,174895,1,0,0:0:0:0:
256,192,174969,1,0,0:0:0:0:
256,192,175042,1,8,0:0:0:0:
256,192,175116,1,8,0:0:0:0:
256,192,175189,1,8,0:0:0:0:
256,192,175263,1,8,0:0:0:0:
256,192,175336,1,4,0:0:0:0:
256,192,175483,1,0,0:0:0:0:
256,192,175630,1,8,0:0:0:0:
256,192,175925,1,8,0:0:0:0:
256,192,176072,1,8,0:0:0:0:
256,192,176219,1,8,0:0:0:0:
256,192,176513,1,0,0:0:0:0:
256,192,176586,1,0,0:0:0:0:
256,192,176660,1,0,0:0:0:0:
256,192,176733,1,0,0:0:0:0:
256,192,176807,1,0,0:0:0:0:
256,192,176856,1,0,0:0:0:0:
256,192,176905,1,0,0:0:0:0:
256,192,176954,1,0,0:0:0:0:
256,192,177028,1,8,0:0:0:0:
256,192,177101,1,0,0:0:0:0:
256,192,177248,1,0,0:0:0:0:
256,192,177395,1,8,0:0:0:0:
256,192,177543,1,0,0:0:0:0:
256,192,177616,1,8,0:0:0:0:
256,192,177690,1,8,0:0:0:0:
256,192,177763,1,0,0:0:0:0:
256,192,177837,1,8,0:0:0:0:
256,192,177984,1,0,0:0:0:0:
256,192,178131,1,8,0:0:0:0:
256,192,178180,1,0,0:0:0:0:
256,192,178229,1,0,0:0:0:0:
256,192,178278,1,0,0:0:0:0:
256,192,178425,1,8,0:0:0:0:
256,192,178572,1,0,0:0:0:0:
256,192,178645,1,8,0:0:0:0:
256,192,178719,1,8,0:0:0:0:
256,192,178940,1,8,0:0:0:0:
256,192,179013,1,0,0:0:0:0:
256,192,179087,1,0,0:0:0:0:
256,192,179160,1,8,0:0:0:0:
256,192,179234,1,0,0:0:0:0:
256,192,179307,1,8,0:0:0:0:
256,192,179454,1,0,0:0:0:0:
256,192,179503,1,0,0:0:0:0:
256,192,179552,1,0,0:0:0:0:
256,192,179601,1,0,0:0:0:0:
256,192,179675,1,0,0:0:0:0:
256,192,179748,1,8,0:0:0:0:
256,192,179822,1,0,0:0:0:0:
256,192,179895,1,8,0:0:0:0:
256,192,179969,1,8,0:0:0:0:
256,192,180043,1,0,0:0:0:0:
256,192,180092,1,0,0:0:0:0:
256,192,180141,1,0,0:0:0:0:
256,192,180190,1,8,0:0:0:0:
256,192,180263,1,8,0:0:0:0:
256,192,180337,1,0,0:0:0:0:
256,192,180386,1,0,0:0:0:0:
256,192,180435,1,0,0:0:0:0:
256,192,180484,1,8,0:0:0:0:
256,192,180557,1,8,0:0:0:0:
256,192,180631,1,0,0:0:0:0:
256,192,180680,1,0,0:0:0:0:
256,192,180729,1,0,0:0:0:0:
256,192,180778,1,8,0:0:0:0:
256,192,180851,1,8,0:0:0:0:
256,192,180925,1,0,0:0:0:0:
256,192,180974,1,0,0:0:0:0:
256,192,181023,1,8,0:0:0:0:
256,192,181072,1,8,0:0:0:0:
256,192,181145,1,8,0:0:0:0:
256,192,181219,1,4,0:0:0:0:
256,192,181366,1,0,0:0:0:0:
256,192,181440,1,0,0:0:0:0:
256,192,181513,1,8,0:0:0:0:
256,192,181587,1,0,0:0:0:0:
256,192,181660,1,8,0:0:0:0:
256,192,181734,1,0,0:0:0:0:
256,192,181807,1,8,0:0:0:0:
256,192,181856,1,0,0:0:0:0:
256,192,181905,1,0,0:0:0:0:
256,192,181954,1,8,0:0:0:0:
256,192,182003,1,0,0:0:0:0:
256,192,182052,1,0,0:0:0:0:
256,192,182101,1,8,0:0:0:0:
256,192,182175,1,8,0:0:0:0:
256,192,182248,1,8,0:0:0:0:
256,192,182322,1,0,0:0:0:0:
256,192,182395,1,0,0:0:0:0:
256,192,182469,1,0,0:0:0:0:
256,192,182543,1,8,0:0:0:0:
256,192,182579,1,8,0:0:0:0:
256,192,182616,1,8,0:0:0:0:
256,192,182690,1,0,0:0:0:0:
256,192,182739,1,0,0:0:0:0:
256,192,182788,1,0,0:0:0:0:
256,192,182837,1,8,0:0:0:0:
256,192,182984,1,8,0:0:0:0:
256,192,183057,1,8,0:0:0:0:
256,192,183131,1,0,0:0:0:0:
256,192,183278,1,8,0:0:0:0:
256,192,183327,1,8,0:0:0:0:
256,192,183376,1,8,0:0:0:0:
256,192,183425,1,0,0:0:0:0:
256,192,183498,1,8,0:0:0:0:
256,192,183572,1,4,0:0:0:0:
256,192,183719,1,0,0:0:0:0:
256,192,183768,1,0,0:0:0:0:
256,192,183817,1,0,0:0:0:0:
256,192,183866,1,8,0:0:0:0:
256,192,184013,1,0,0:0:0:0:
256,192,184160,1,8,0:0:0:0:
256,192,184209,1,0,0:0:0:0:
256,192,184258,1,0,0:0:0:0:
256,192,184307,1,8,0:0:0:0:
256,192,184381,1,0,0:0:0:0:
256,192,184454,1,8,0:0:0:0:
256,192,184503,1,0,0:0:0:0:
256,192,184552,1,0,0:0:0:0:
256,192,184601,1,8,0:0:0:0:
256,192,184675,1,0,0:0:0:0:
256,192,184748,1,8,0:0:0:0:
256,192,184895,1,8,0:0:0:0:
256,192,185043,1,0,0:0:0:0:
256,192,185092,1,0,0:0:0:0:
256,192,185141,1,0,0:0:0:0:
256,192,185190,1,8,0:0:0:0:
256,192,185263,1,8,0:0:0:0:
256,192,185337,1,4,0:0:0:0:
256,192,185484,1,0,0:0:0:0:
256,192,185557,1,8,0:0:0:0:
256,192,185631,1,8,0:0:0:0:
256,192,185778,1,0,0:0:0:0:
256,192,185851,1,0,0:0:0:0:
256,192,185925,1,8,0:0:0:0:
256,192,185974,1,8,0:0:0:0:
256,192,186023,1,8,0:0:0:0:
256,192,186072,1,0,0:0:0:0:
256,192,186145,1,8,0:0:0:0:
256,192,186219,1,0,0:0:0:0:
256,192,186293,1,8,0:0:0:0:
256,192,186366,1,0,0:0:0:0:
256,192,186403,1,8,0:0:0:0:
256,192,186513,1,8,0:0:0:0:
256,192,186550,1,0,0:0:0:0:
256,192,186587,1,8,0:0:0:0:
256,192,186660,1,0,0:0:0:0:
256,192,186807,1,8,0:0:0:0:
256,192,186856,1,8,0:0:0:0:
256,192,186905,1,8,0:0:0:0:
256,192,186954,1,8,0:0:0:0:
256,192,187028,1,0,0:0:0:0:
256,192,187101,1,8,0:0:0:0:
256,192,187150,1,8,0:0:0:0:
256,192,187199,1,8,0:0:0:0:
256,192,187248,1,8,0:0:0:0:
256,192,187322,1,0,0:0:0:0:
256,192,187395,1,0,0:0:0:0:
256,192,187469,1,0,0:0:0:0:
256,192,187543,1,8,0:0:0:0:
256,192,187579,1,8,0:0:0:0:
256,192,187690,1,4,0:0:0:0:
256,192,187837,1,0,0:0:0:0:
256,192,187910,1,8,0:0:0:0:
256,192,187984,1,8,0:0:0:0:
256,192,188131,1,4,0:0:0:0:
256,192,188278,1,0,0:0:0:0:
256,192,188351,1,8,0:0:0:0:
256,192,188425,1,8,0:0:0:0:
256,192,188572,1,8,0:0:0:0:
256,192,188719,1,0,0:0:0:0:
256,192,188866,1,0,0:0:0:0:
256,192,188915,1,0,0:0:0:0:
256,192,188964,1,0,0:0:0:0:
256,192,189013,1,8,0:0:0:0:
256,192,189087,1,8,0:0:0:0:
256,192,189160,1,0,0:0:0:0:
256,192,189234,1,0,0:0:0:0:
256,192,189307,1,0,0:0:0:0:
256,192,189381,1,8,0:0:0:0:
256,192,189454,1,4,0:0:0:0:
256,192,189601,1,0,0:0:0:0:
256,192,189748,1,8,0:0:0:0:
256,192,189895,1,0,0:0:0:0:
256,192,189932,1,0,0:0:0:0:
256,192,189969,1,0,0:0:0:0:
256,192,190043,1,8,0:0:0:0:
256,192,190190,1,0,0:0:0:0:
256,192,190226,1,0,0:0:0:0:
256,192,190263,1,0,0:0:0:0:
256,192,190300,1,0,0:0:0:0:
256,192,190337,1,8,0:0:0:0:
256,192,190410,1,8,0:0:0:0:
256,192,190484,1,0,0:0:0:0:
256,192,190631,1,8,0:0:0:0:
256,192,190778,1,0,0:0:0:0:
256,192,190851,1,0,0:0:0:0:
256,192,190925,1,8,0:0:0:0:
256,192,191072,1,0,0:0:0:0:
256,192,191219,1,8,0:0:0:0:
256,192,191268,1,8,0:0:0:0:
256,192,191317,1,8,0:0:0:0:
256,192,191366,1,0,0:0:0:0:
256,192,191440,1,0,0:0:0:0:
256,192,191513,1,8,0:0:0:0:
256,192,191562,1,8,0:0:0:0:
256,192,191611,1,8,0:0:0:0:
256,192,191660,1,0,0:0:0:0:
256,192,191807,1,4,0:0:0:0:
256,192,191954,1,0,0:0:0:0:
256,192,192101,1,0,0:0:0:0:
256,192,192138,1,8,0:0:0:0:
256,192,192175,1,8,0:0:0:0:
256,192,192248,1,0,0:0:0:0:
256,192,192395,1,8,0:0:0:0:
256,192,192444,1,8,0:0:0:0:
256,192,192493,1,0,0:0:0:0:
256,192,192543,1,0,0:0:0:0:
256,192,192690,1,0,0:0:0:0:
256,192,192837,1,8,0:0:0:0:
256,192,192910,1,8,0:0:0:0:
256,192,192984,1,8,0:0:0:0:
256,192,193057,1,0,0:0:0:0:
256,192,193131,1,8,0:0:0:0:
256,192,193278,1,8,0:0:0:0:
256,192,193425,1,8,0:0:0:0:
256,192,193572,1,4,0:0:0:0:
256,192,193719,1,0,0:0:0:0:
256,192,193793,1,0,0:0:0:0:
256,192,193866,1,8,0:0:0:0:
256,192,194013,1,8,0:0:0:0:
256,192,194087,1,0,0:0:0:0:
256,192,194160,1,8,0:0:0:0:
256,192,194307,1,0,0:0:0:0:
256,192,194356,1,0,0:0:0:0:
256,192,194405,1,0,0:0:0:0:
256,192,194454,1,8,0:0:0:0:
256,192,194528,1,0,0:0:0:0:
256,192,194601,1,8,0:0:0:0:
256,192,194675,1,8,0:0:0:0:
256,192,194748,1,0,0:0:0:0:
256,192,194895,1,0,0:0:0:0:
256,192,195043,1,0,0:0:0:0:
256,192,195092,1,0,0:0:0:0:
256,192,195141,1,8,0:0:0:0:
256,192,195190,1,8,0:0:0:0:
256,192,195263,1,8,0:0:0:0:
256,192,195337,1,0,0:0:0:0:
256,192,195386,1,0,0:0:0:0:
256,192,195435,1,8,0:0:0:0:
256,192,195484,1,8,0:0:0:0:
256,192,195557,1,8,0:0:0:0:
256,192,195631,1,0,0:0:0:0:
256,192,195680,1,0,0:0:0:0:
256,192,195729,1,0,0:0:0:0:
256,192,195778,1,8,0:0:0:0:
256,192,195925,1,4,0:0:0:0:
256,192,196072,1,0,0:0:0:0:
256,192,196145,1,8,0:0:0:0:
256,192,196219,1,8,0:0:0:0:
256,192,196366,1,4,0:0:0:0:
256,192,196513,1,0,0:0:0:0:
256,192,196660,1,0,0:0:0:0:
256,192,196734,1,0,0:0:0:0:
256,192,196807,1,0,0:0:0:0:
256,192,196881,1,0,0:0:0:0:
256,192,196954,1,8,0:0:0:0:
256,192,197101,1,0,0:0:0:0:
256,192,197175,1,8,0:0:0:0:
256,192,197248,1,8,0:0:0:0:
256,192,197322,1,0,0:0:0:0:
256,192,197395,1,8,0:0:0:0:
256,192,197432,1,8,0:0:0:0:
256,192,197469,1,8,0:0:0:0:
256,192,197506,1,8,0:0:0:0:
256,192,197543,1,0,0:0:0:0:
256,192,197690,1,4,0:0:0:0:
256,192,197837,1,0,0:0:0:0:
256,192,197984,1,8,0:0:0:0:
256,192,198131,1,8,0:0:0:0:
256,192,198204,1,0,0:0:0:0:
256,192,198278,1,8,0:0:0:0:
256,192,198315,1,0,0:0:0:0:
256,192,198425,1,8,0:0:0:0:
256,192,198462,1,0,0:0:0:0:
256,192,198572,1,8,0:0:0:0:
256,192,198719,1,0,0:0:0:0:
256,192,198793,1,0,0:0:0:0:
256,192,198866,1,8,0:0:0:0:
256,192,198915,1,0,0:0:0:0:
256,192,198964,1,0,0:0:0:0:
256,192,199013,1,8,0:0:0:0:
256,192,199160,1,8,0:0:0:0:
256,192,199234,1,8,0:0:0:0:
256,192,199344,1,0,0:0:0:0:
256,192,199454,1,0,0:0:0:0:
256,192,199503,1,0,0:0:0:0:
256,192,199552,1,0,0:0:0:0:
256,192,199601,1,8,0:0:0:0:
256,192,199650,1,8,0:0:0:0:
256,192,199699,1,8,0:0:0:0:
256,192,199748,1,8,0:0:0:0:
256,192,199797,1,0,0:0:0:0:
256,192,199846,1,0,0:0:0:0:
256,192,199895,1,0,0:0:0:0:
256,192,200043,1,4,0:0:0:0:
256,192,200190,1,0,0:0:0:0:
256,192,200337,1,8,0:0:0:0:
256,192,200484,1,8,0:0:0:0:
256,192,200533,1,8,0:0:0:0:
256,192,200582,1,8,0:0:0:0:
256,192,200631,1,0,0:0:0:0:
256,192,200704,1,0,0:0:0:0:
256,192,200778,1,8,0:0:0:0:
256,192,200925,1,8,0:0:0:0:
256,192,200974,1,0,0:0:0:0:
256,192,201023,1,0,0:0:0:0:
256,192,201072,1,0,0:0:0:0:
256,192,201121,1,0,0:0:0:0:
256,192,201170,1,0,0:0:0:0:
256,192,201219,1,8,0:0:0:0:
256,192,201366,1,0,0:0:0:0:
256,192,201440,1,8,0:0:0:0:
256,192,201513,1,0,0:0:0:0:
256,192,201660,1,8,0:0:0:0:
256,192,201709,1,8,0:0:0:0:
256,192,201807,1,4,0:0:0:0:
256,192,201954,1,0,0:0:0:0:
256,192,202101,1,8,0:0:0:0:
256,192,202322,1,8,0:0:0:0:
256,192,202395,1,0,0:0:0:0:
256,192,202469,1,0,0:0:0:0:
256,192,202543,1,8,0:0:0:0:
256,192,202690,1,8,0:0:0:0:
256,192,202763,1,8,0:0:0:0:
256,192,202837,1,0,0:0:0:0:
256,192,202984,1,0,0:0:0:0:
256,192,203033,1,0,0:0:0:0:
256,192,203082,1,0,0:0:0:0:
256,192,203131,1,8,0:0:0:0:
256,192,203278,1,8,0:0:0:0:
256,192,203327,1,8,0:0:0:0:
256,192,203376,1,8,0:0:0:0:
256,192,203425,1,0,0:0:0:0:
256,192,203498,1,0,0:0:0:0:
256,192,203572,1,8,0:0:0:0:
256,192,203621,1,8,0:0:0:0:
256,192,203670,1,8,0:0:0:0:
256,192,203719,1,0,0:0:0:0:
256,192,203793,1,8,0:0:0:0:
256,192,203866,1,8,0:0:0:0:
256,192,203940,1,0,0:0:0:0:
256,192,204013,1,8,0:0:0:0:
256,192,204160,1,4,0:0:0:0:
256,192,204307,1,0,0:0:0:0:
256,192,204381,1,0,0:0:0:0:
256,192,204454,1,8,0:0:0:0:
256,192,204528,1,0,0:0:0:0:
256,192,204601,1,0,0:0:0:0:
256,192,204675,1,0,0:0:0:0:
256,192,204748,1,8,0:0:0:0:
256,192,204895,1,8,0:0:0:0:
256,192,204932,1,8,0:0:0:0:
256,192,204969,1,8,0:0:0:0:
256,192,205043,1,0,0:0:0:0:
256,192,205116,1,0,0:0:0:0:
256,192,205190,1,8,0:0:0:0:
256,192,205337,1,0,0:0:0:0:
256,192,205386,1,0,0:0:0:0:
256,192,205435,1,0,0:0:0:0:
256,192,205484,1,8,0:0:0:0:
256,192,205557,1,8,0:0:0:0:
256,192,205631,1,0,0:0:0:0:
256,192,205680,1,0,0:0:0:0:
256,192,205729,1,0,0:0:0:0:
256,192,205778,1,0,0:0:0:0:
256,192,205925,1,4,0:0:0:0:
256,192,206072,1,0,0:0:0:0:
256,192,206219,1,8,0:0:0:0:
256,192,206293,1,0,0:0:0:0:
256,192,206366,1,8,0:0:0:0:
256,192,206403,1,8,0:0:0:0:
256,192,206440,1,8,0:0:0:0:
256,192,206513,1,0,0:0:0:0:
256,192,206587,1,8,0:0:0:0:
256,192,206660,1,0,0:0:0:0:
256,192,206697,1,0,0:0:0:0:
256,192,206734,1,0,0:0:0:0:
256,192,206770,1,0,0:0:0:0:
256,192,206807,1,8,0:0:0:0:
256,192,206881,1,8,0:0:0:0:
256,192,206954,1,0,0:0:0:0:
256,192,207028,1,0,0:0:0:0:
256,192,207101,1,12,0:0:0:0:
256,192,207322,1,0,0:0:0:0:
256,192,207395,1,8,0:0:0:0:
256,192,207469,1,0,0:0:0:0:
256,192,207543,1,12,0:0:0:0:
256,192,207763,1,0,0:0:0:0:
256,192,207837,1,8,0:0:0:0:
256,192,207910,1,0,0:0:0:0:
256,192,207984,1,0,0:0:0:0:
256,192,208131,1,12,0:0:0:0:
256,192,208278,1,4,0:0:0:0:
256,192,208425,1,0,0:0:0:0:
256,192,208572,1,0,0:0:0:0:
256,192,208609,1,0,0:0:0:0:
256,192,208645,1,8,0:0:0:0:
256,192,208719,1,0,0:0:0:0:
256,192,208866,1,8,0:0:0:0:
256,192,208915,1,8,0:0:0:0:
256,192,208964,1,0,0:0:0:0:
256,192,209013,1,0,0:0:0:0:
256,192,209160,1,8,0:0:0:0:
256,192,209258,1,8,0:0:0:0:
256,192,209356,1,8,0:0:0:0:
256,192,209454,1,0,0:0:0:0:
256,192,210043,1,0,0:0:0:0:
256,192,210337,1,8,0:0:0:0:
256,192,210631,1,8,0:0:0:0:
256,192,210851,1,0,0:0:0:0:
256,192,210925,1,8,0:0:0:0:
256,192,211219,1,8,0:0:0:0:
256,192,211513,1,8,0:0:0:0:
256,192,211734,1,0,0:0:0:0:
256,192,211807,1,8,0:0:0:0:
256,192,212101,1,8,0:0:0:0:
256,192,212395,1,8,0:0:0:0:
256,192,212690,1,8,0:0:0:0:
256,192,212910,1,0,0:0:0:0:
256,192,212984,1,8,0:0:0:0:
256,192,213278,1,8,0:0:0:0:
256,192,213572,1,8,0:0:0:0:
256,192,213719,1,8,0:0:0:0:
256,192,213866,1,0,0:0:0:0:
256,192,214160,1,8,0:0:0:0:
256,192,214454,1,8,0:0:0:0:
256,192,214748,1,8,0:0:0:0:
256,192,214969,1,0,0:0:0:0:
256,192,215043,1,8,0:0:0:0:
256,192,215337,1,8,0:0:0:0:
256,192,215631,1,8,0:0:0:0:
256,192,215851,1,0,0:0:0:0:
256,192,215925,1,8,0:0:0:0:
256,192,216219,1,0,0:0:0:0:
256,192,216513,1,8,0:0:0:0:
256,192,216807,1,8,0:0:0:0:
256,192,217028,1,0,0:0:0:0:
256,192,217101,1,8,0:0:0:0:
256,192,217395,1,8,0:0:0:0:
256,192,217690,1,0,0:0:0:0:
256,192,217984,1,8,0:0:0:0:
256,192,218278,1,8,0:0:0:0:
256,192,218572,1,8,0:0:0:0:
256,192,218866,1,8,0:0:0:0:
256,192,219087,1,0,0:0:0:0:
256,192,219160,1,8,0:0:0:0:
256,192,219454,1,8,0:0:0:0:
256,192,219748,1,8,0:0:0:0:
256,192,219969,1,0,0:0:0:0:
256,192,220042,1,8,0:0:0:0:
256,192,220337,1,8,0:0:0:0:
256,192,220631,1,8,0:0:0:0:
256,192,220925,1,8,0:0:0:0:
256,192,221145,1,0,0:0:0:0:
256,192,221219,1,8,0:0:0:0:
256,192,221513,1,8,0:0:0:0:
256,192,221807,1,8,0:0:0:0:
256,192,222101,1,8,0:0:0:0:
256,192,222395,1,8,0:0:0:0:
256,192,222690,1,8,0:0:0:0:
256,192,222984,1,8,0:0:0:0:
256,192,223205,1,0,0:0:0:0:
256,192,223278,1,8,0:0:0:0:
256,192,223572,1,8,0:0:0:0:
256,192,223866,1,8,0:0:0:0:
256,192,224087,1,0,0:0:0:0:
256,192,224160,1,8,0:0:0:0:
256,192,224454,1,0,0:0:0:0:
256,192,224748,1,8,0:0:0:0:
256,192,224822,1,8,0:0:0:0:
256,192,224895,1,8,0:0:0:0:
256,192,224969,1,8,0:0:0:0:
256,192,225043,1,8,0:0:0:0:
256,192,225116,1,8,0:0:0:0:
256,192,225190,1,8,0:0:0:0:
256,192,225263,1,8,0:0:0:0:
256,192,225337,12,0,225925,0:0:0:0:
256,192,226219,5,8,0:0:0:0:
256,192,226366,1,8,0:0:0:0:
256,192,226513,1,4,0:0:0:0:
256,192,226660,1,0,0:0:0:0:
256,192,226807,1,8,0:0:0:0:
256,192,226954,1,0,0:0:0:0:
256,192,227101,1,8,0:0:0:0:
256,192,227248,1,8,0:0:0:0:
256,192,227395,1,0,0:0:0:0:
256,192,227469,1,0,0:0:0:0:
256,192,227543,1,8,0:0:0:0:
256,192,227690,1,8,0:0:0:0:
256,192,227837,1,8,0:0:0:0:
256,192,227984,1,0,0:0:0:0:
256,192,228131,1,8,0:0:0:0:
256,192,228204,1,8,0:0:0:0:
256,192,228278,1,0,0:0:0:0:
256,192,228425,1,8,0:0:0:0:
256,192,228572,1,0,0:0:0:0:
256,192,228719,1,8,0:0:0:0:
256,192,228866,1,0,0:0:0:0:
256,192,229160,1,8,0:0:0:0:
256,192,229307,1,8,0:0:0:0:
256,192,229381,1,0,0:0:0:0:
256,192,229454,1,8,0:0:0:0:
256,192,229601,1,8,0:0:0:0:
256,192,229638,1,8,0:0:0:0:
256,192,229748,1,0,0:0:0:0:
256,192,229785,1,0,0:0:0:0:
256,192,229895,1,8,0:0:0:0:
256,192,230043,1,0,0:0:0:0:
256,192,230190,1,0,0:0:0:0:
256,192,230337,1,0,0:0:0:0:
256,192,230484,1,8,0:0:0:0:
256,192,230631,1,0,0:0:0:0:
256,192,230778,1,0,0:0:0:0:
256,192,230925,1,8,0:0:0:0:
256,192,231072,1,8,0:0:0:0:
256,192,231219,1,0,0:0:0:0:
256,192,231366,1,0,0:0:0:0:
256,192,231440,1,8,0:0:0:0:
256,192,231513,1,0,0:0:0:0:
256,192,231660,1,0,0:0:0:0:
256,192,231807,1,8,0:0:0:0:
256,192,231954,1,0,0:0:0:0:
256,192,232101,1,8,0:0:0:0:
256,192,232248,1,0,0:0:0:0:
256,192,232322,1,8,0:0:0:0:
256,192,232395,1,8,0:0:0:0:
256,192,232543,1,0,0:0:0:0:
256,192,232616,1,0,0:0:0:0:
256,192,232690,1,8,0:0:0:0:
256,192,232837,1,0,0:0:0:0:
256,192,232984,1,8,0:0:0:0:
256,192,233082,1,8,0:0:0:0:
256,192,233180,1,8,0:0:0:0:
256,192,233278,1,0,0:0:0:0:
256,192,233425,1,8,0:0:0:0:
256,192,233572,1,0,0:0:0:0:
256,192,233719,1,8,0:0:0:0:
256,192,233756,1,8,0:0:0:0:
256,192,233866,1,0,0:0:0:0:
256,192,233903,1,0,0:0:0:0:
256,192,234013,1,0,0:0:0:0:
256,192,234160,1,0,0:0:0:0:
256,192,234307,1,8,0:0:0:0:
256,192,234454,1,8,0:0:0:0:
256,192,234601,1,0,0:0:0:0:
256,192,234748,1,8,0:0:0:0:
256,192,234895,1,8,0:0:0:0:
256,192,235043,1,0,0:0:0:0:
256,192,235190,1,8,0:0:0:0:
256,192,235337,1,8,0:0:0:0:
256,192,235484,1,0,0:0:0:0:
256,192,235557,1,8,0:0:0:0:
256,192,235631,1,8,0:0:0:0:
256,192,235778,1,8,0:0:0:0:
256,192,235925,1,0,0:0:0:0:
256,192,236072,1,0,0:0:0:0:
256,192,236219,1,8,0:0:0:0:
256,192,236317,1,0,0:0:0:0:
256,192,236415,1,0,0:0:0:0:
256,192,236513,1,8,0:0:0:0:
256,192,236709,1,0,0:0:0:0:
256,192,236807,1,8,0:0:0:0:
256,192,236954,1,0,0:0:0:0:
256,192,237101,1,0,0:0:0:0:
256,192,237395,1,8,0:0:0:0:
256,192,237543,1,0,0:0:0:0:
256,192,237690,1,0,0:0:0:0:
256,192,237837,1,8,0:0:0:0:
256,192,237873,1,8,0:0:0:0:
256,192,237984,1,0,0:0:0:0:
256,192,238020,1,0,0:0:0:0:
256,192,238131,1,0,0:0:0:0:
256,192,238278,1,8,0:0:0:0:
256,192,238376,1,8,0:0:0:0:
256,192,238474,1,8,0:0:0:0:
256,192,238572,1,0,0:0:0:0:
256,192,238719,1,8,0:0:0:0:
256,192,238866,1,0,0:0:0:0:
256,192,239013,1,0,0:0:0:0:
256,192,239160,1,8,0:0:0:0:
256,192,239307,1,0,0:0:0:0:
256,192,239454,1,8,0:0:0:0:
256,192,239601,1,8,0:0:0:0:
256,192,239748,1,8,0:0:0:0:
256,192,239895,1,0,0:0:0:0:
256,192,240043,1,8,0:0:0:0:
256,192,240190,1,0,0:0:0:0:
256,192,240337,1,0,0:0:0:0:
256,192,240484,1,8,0:0:0:0:
256,192,240631,1,8,0:0:0:0:
256,192,240827,1,0,0:0:0:0:
256,192,240925,1,8,0:0:0:0:
256,192,241121,1,0,0:0:0:0:
256,192,241219,1,8,0:0:0:0:
256,192,241513,1,8,0:0:0:0:
256,192,241550,1,8,0:0:0:0:
256,192,241660,1,0,0:0:0:0:
256,192,241807,1,0,0:0:0:0:
256,192,241954,1,8,0:0:0:0:
256,192,241991,1,8,0:0:0:0:
256,192,242101,1,0,0:0:0:0:
256,192,242138,1,0,0:0:0:0:
256,192,242248,1,8,0:0:0:0:
256,192,242395,1,0,0:0:0:0:
256,192,242543,1,0,0:0:0:0:
256,192,242690,1,8,0:0:0:0:
256,192,242837,1,8,0:0:0:0:
256,192,242984,1,0,0:0:0:0:
256,192,243131,1,0,0:0:0:0:
256,192,243278,1,8,0:0:0:0:
256,192,243425,1,0,0:0:0:0:
256,192,243572,1,0,0:0:0:0:
256,192,243719,1,8,0:0:0:0:
256,192,243866,1,0,0:0:0:0:
256,192,243940,1,0,0:0:0:0:
256,192,244013,1,8,0:0:0:0:
256,192,244160,1,0,0:0:0:0:
256,192,244307,1,0,0:0:0:0:
256,192,244454,1,8,0:0:0:0:
256,192,244601,1,8,0:0:0:0:
256,192,244748,1,0,0:0:0:0:
256,192,244944,1,0,0:0:0:0:
256,192,245043,1,8,0:0:0:0:
256,192,245190,1,8,0:0:0:0:
256,192,245337,1,0,0:0:0:0:
256,192,245631,1,8,0:0:0:0:
256,192,245778,1,0,0:0:0:0:
256,192,245925,1,0,0:0:0:0:
256,192,246072,1,8,0:0:0:0:
256,192,246109,1,8,0:0:0:0:
256,192,246219,1,0,0:0:0:0:
256,192,246256,1,0,0:0:0:0:
256,192,246366,1,0,0:0:0:0:
256,192,246513,1,0,0:0:0:0:
256,192,246660,1,8,0:0:0:0:
256,192,246807,1,8,0:0:0:0:
256,192,246954,1,8,0:0:0:0:
256,192,247101,1,0,0:0:0:0:
256,192,247248,1,0,0:0:0:0:
256,192,247395,1,8,0:0:0:0:
256,192,247543,1,8,0:0:0:0:
256,192,247690,1,8,0:0:0:0:
256,192,247837,1,0,0:0:0:0:
256,192,247910,1,8,0:0:0:0:
256,192,247984,1,0,0:0:0:0:
256,192,248131,1,0,0:0:0:0:
256,192,248278,1,8,0:0:0:0:
256,192,248425,1,8,0:0:0:0:
256,192,248572,1,8,0:0:0:0:
256,192,248719,1,0,0:0:0:0:
256,192,248866,1,8,0:0:0:0:
256,192,249062,1,0,0:0:0:0:
256,192,249160,1,8,0:0:0:0:
256,192,249307,1,0,0:0:0:0:
256,192,249454,1,8,0:0:0:0:
256,192,249552,1,8,0:0:0:0:
256,192,249650,1,0,0:0:0:0:
256,192,249748,1,8,0:0:0:0:
256,192,249895,1,0,0:0:0:0:
256,192,250043,1,0,0:0:0:0:
256,192,250190,1,8,0:0:0:0:
256,192,250226,1,8,0:0:0:0:
256,192,250337,1,0,0:0:0:0:
256,192,250373,1,0,0:0:0:0:
256,192,250484,1,0,0:0:0:0:
256,192,250631,1,0,0:0:0:0:
256,192,250778,1,8,0:0:0:0:
256,192,250925,1,8,0:0:0:0:
256,192,251072,1,0,0:0:0:0:
256,192,251219,1,8,0:0:0:0:
256,192,251366,1,0,0:0:0:0:
256,192,251513,1,8,0:0:0:0:
256,192,251660,1,0,0:0:0:0:
256,192,251807,1,0,0:0:0:0:
256,192,251954,1,8,0:0:0:0:
256,192,252101,1,0,0:0:0:0:
256,192,252150,1,8,0:0:0:0:
256,192,252199,1,8,0:0:0:0:
256,192,252248,1,0,0:0:0:0:
256,192,252395,1,0,0:0:0:0:
256,192,252543,1,0,0:0:0:0:
256,192,252690,1,8,0:0:0:0:
256,192,252837,1,0,0:0:0:0:
256,192,252984,1,8,0:0:0:0:
256,192,253180,1,0,0:0:0:0:
256,192,253278,1,8,0:0:0:0:
256,192,253425,1,8,0:0:0:0:
256,192,253572,1,0,0:0:0:0:
256,192,253866,1,8,0:0:0:0:
256,192,254013,1,0,0:0:0:0:
256,192,254160,1,0,0:0:0:0:
256,192,254307,1,8,0:0:0:0:
256,192,254344,1,8,0:0:0:0:
256,192,254454,1,0,0:0:0:0:
256,192,254491,1,0,0:0:0:0:
256,192,254601,1,0,0:0:0:0:
256,192,254748,1,8,0:0:0:0:
256,192,254846,1,0,0:0:0:0:
256,192,254944,1,8,0:0:0:0:
256,192,255043,1,0,0:0:0:0:
256,192,255190,1,8,0:0:0:0:
256,192,255337,1,0,0:0:0:0:
256,192,255484,1,0,0:0:0:0:
256,192,255631,1,8,0:0:0:0:
256,192,255778,1,0,0:0:0:0:
256,192,255925,1,8,0:0:0:0:
256,192,256072,1,8,0:0:0:0:
256,192,256219,1,8,0:0:0:0:
256,192,256366,1,0,0:0:0:0:
256,192,256513,1,8,0:0:0:0:
256,192,256660,1,0,0:0:0:0:
256,192,256807,1,0,0:0:0:0:
256,192,256954,1,8,0:0:0:0:
256,192,257101,1,8,0:0:0:0:
256,192,257297,1,8,0:0:0:0:
256,192,257395,1,0,0:0:0:0:
256,192,257592,1,0,0:0:0:0:
256,192,257690,1,8,0:0:0:0:
256,192,257984,1,8,0:0:0:0:
256,192,258131,1,0,0:0:0:0:
256,192,258278,1,0,0:0:0:0:
256,192,258425,1,8,0:0:0:0:
256,192,258462,1,8,0:0:0:0:
256,192,258572,1,0,0:0:0:0:
256,192,258609,1,0,0:0:0:0:
256,192,258719,1,0,0:0:0:0:
256,192,258866,1,0,0:0:0:0:
256,192,259013,1,0,0:0:0:0:
256,192,259160,1,8,0:0:0:0:
256,192,259307,1,0,0:0:0:0:
256,192,259454,1,8,0:0:0:0:
256,192,259601,1,8,0:0:0:0:
256,192,259748,1,0,0:0:0:0:
256,192,259822,1,0,0:0:0:0:
256,192,259896,1,8,0:0:0:0:
256,192,260043,1,8,0:0:0:0:
256,192,260190,1,8,0:0:0:0:
256,192,260337,1,0,0:0:0:0:
256,192,260484,1,8,0:0:0:0:
256,192,260557,1,8,0:0:0:0:
256,192,260631,1,0,0:0:0:0:
256,192,260778,1,8,0:0:0:0:
256,192,260925,1,0,0:0:0:0:
256,192,261072,1,8,0:0:0:0:
256,192,261219,1,0,0:0:0:0:
256,192,261415,1,0,0:0:0:0:
256,192,261513,1,8,0:0:0:0:
256,192,261660,1,8,0:0:0:0:
256,192,261734,1,0,0:0:0:0:
256,192,261807,1,8,0:0:0:0:
256,192,261954,1,0,0:0:0:0:
256,192,262101,1,0,0:0:0:0:
256,192,262248,1,8,0:0:0:0:
256,192,262396,1,0,0:0:0:0:
256,192,262543,1,8,0:0:0:0:
256,192,262579,1,8,0:0:0:0:
256,192,262690,1,0,0:0:0:0:
256,192,262726,1,0,0:0:0:0:
256,192,262837,1,8,0:0:0:0:
256,192,262984,1,0,0:0:0:0:
256,192,263131,1,0,0:0:0:0:
256,192,263278,1,8,0:0:0:0:
256,192,263425,1,8,0:0:0:0:
256,192,263572,1,0,0:0:0:0:
256,192,263719,1,0,0:0:0:0:
256,192,263793,1,8,0:0:0:0:
256,192,263866,1,0,0:0:0:0:
256,192,264013,1,0,0:0:0:0:
256,192,264160,1,8,0:0:0:0:
256,192,264307,1,0,0:0:0:0:
256,192,264454,1,8,0:0:0:0:
256,192,264601,1,0,0:0:0:0:
256,192,264675,1,8,0:0:0:0:
256,192,264748,1,8,0:0:0:0:
256,192,264896,1,0,0:0:0:0:
256,192,264969,1,0,0:0:0:0:
256,192,265043,1,8,0:0:0:0:
256,192,265190,1,0,0:0:0:0:
256,192,265337,1,8,0:0:0:0:
256,192,265435,1,8,0:0:0:0:
256,192,265533,1,8,0:0:0:0:
256,192,265631,1,0,0:0:0:0:
256,192,265778,1,8,0:0:0:0:
256,192,265925,1,0,0:0:0:0:
256,192,266023,1,8,0:0:0:0:
256,192,266121,1,8,0:0:0:0:
256,192,266219,1,0,0:0:0:0:
256,192,266366,1,0,0:0:0:0:
256,192,266513,1,0,0:0:0:0:
256,192,266660,1,8,0:0:0:0:
256,192,266697,1,8,0:0:0:0:
256,192,266807,1,0,0:0:0:0:
256,192,266844,1,0,0:0:0:0:
256,192,266954,1,0,0:0:0:0:
256,192,267101,1,8,0:0:0:0:
256,192,267248,1,8,0:0:0:0:
256,192,267396,1,0,0:0:0:0:
256,192,267543,1,8,0:0:0:0:
256,192,267690,1,8,0:0:0:0:
256,192,267837,1,0,0:0:0:0:
256,192,267910,1,8,0:0:0:0:
256,192,267984,1,8,0:0:0:0:
256,192,268131,1,8,0:0:0:0:
256,192,268278,1,0,0:0:0:0:
256,192,268425,1,0,0:0:0:0:
256,192,268572,1,8,0:0:0:0:
256,192,268670,1,0,0:0:0:0:
256,192,268768,1,0,0:0:0:0:
256,192,268866,1,8,0:0:0:0:
256,192,269062,1,0,0:0:0:0:
256,192,269160,1,8,0:0:0:0:
256,192,269307,1,0,0:0:0:0:
256,192,269454,1,0,0:0:0:0:
256,192,269650,1,0,0:0:0:0:
256,192,269748,1,8,0:0:0:0:
256,192,269944,1,8,0:0:0:0:
256,192,270043,1,0,0:0:0:0:
256,192,270190,1,8,0:0:0:0:
256,192,270337,1,0,0:0:0:0:
256,192,270484,1,0,0:0:0:0:
256,192,270631,1,8,0:0:0:0:
256,192,270729,1,0,0:0:0:0:
256,192,270827,1,8,0:0:0:0:
256,192,270925,1,0,0:0:0:0:
256,192,271072,1,0,0:0:0:0:
256,192,271219,1,8,0:0:0:0:
256,192,271317,1,8,0:0:0:0:
256,192,271415,1,8,0:0:0:0:
256,192,271513,1,0,0:0:0:0:
256,192,271660,1,0,0:0:0:0:
256,192,271807,1,8,0:0:0:0:
256,192,271954,1,8,0:0:0:0:
256,192,272101,1,8,0:0:0:0:
256,192,272248,1,0,0:0:0:0:
256,192,272396,1,8,0:0:0:0:
256,192,272543,1,0,0:0:0:0:
256,192,272690,1,0,0:0:0:0:
256,192,272837,1,8,0:0:0:0:
256,192,272984,1,8,0:0:0:0:
256,192,273131,1,0,0:0:0:0:
256,192,273278,1,8,0:0:0:0:
256,192,273425,1,8,0:0:0:0:
256,192,273572,1,8,0:0:0:0:
256,192,273719,1,0,0:0:0:0:
256,192,273866,1,8,0:0:0:0:
256,192,274013,1,0,0:0:0:0:
256,192,274160,1,0,0:0:0:0:
256,192,274307,1,8,0:0:0:0:
256,192,274454,1,8,0:0:0:0:
256,192,274602,1,0,0:0:0:0:
256,192,274749,1,8,0:0:0:0:
256,192,274895,1,8,0:0:0:0:
256,192,274932,1,8,0:0:0:0:
256,192,275042,1,0,0:0:0:0:
256,192,275079,1,0,0:0:0:0:
256,192,275190,1,8,0:0:0:0:
256,192,275337,1,0,0:0:0:0:
256,192,275484,1,0,0:0:0:0:
256,192,275631,1,8,0:0:0:0:
256,192,275778,1,0,0:0:0:0:
256,192,275925,1,0,0:0:0:0:
256,192,276072,1,8,0:0:0:0:
256,192,276219,1,0,0:0:0:0:
256,192,276293,1,0,0:0:0:0:
256,192,276366,1,8,0:0:0:0:
256,192,276513,1,0,0:0:0:0:
256,192,276660,1,0,0:0:0:0:
256,192,276807,1,8,0:0:0:0:
256,192,276954,1,8,0:0:0:0:
256,192,277101,1,0,0:0:0:0:
256,192,277248,1,0,0:0:0:0:
256,192,277396,1,8,0:0:0:0:
256,192,277543,1,8,0:0:0:0:
256,192,277690,1,0,0:0:0:0:
256,192,277837,1,8,0:0:0:0:
256,192,277984,1,8,0:0:0:0:
256,192,278131,1,8,0:0:0:0:
256,192,278278,1,0,0:0:0:0:
256,192,278572,1,8,0:0:0:0:
256,192,278719,1,0,0:0:0:0:
256,192,278866,1,0,0:0:0:0:
256,192,279013,1,8,0:0:0:0:
256,192,279050,1,8,0:0:0:0:
256,192,279160,1,0,0:0:0:0:
256,192,279197,1,0,0:0:0:0:
256,192,279307,1,8,0:0:0:0:
256,192,279454,1,0,0:0:0:0:
256,192,279601,1,0,0:0:0:0:
256,192,279748,1,8,0:0:0:0:
256,192,279896,1,8,0:0:0:0:
256,192,280043,1,8,0:0:0:0:
256,192,280190,1,0,0:0:0:0:
256,192,280263,1,8,0:0:0:0:
256,192,280337,1,0,0:0:0:0:
256,192,280484,1,0,0:0:0:0:
256,192,280631,1,8,0:0:0:0:
256,192,280778,1,8,0:0:0:0:
256,192,280925,1,8,0:0:0:0:
256,192,281072,1,0,0:0:0:0:
256,192,281219,1,8,0:0:0:0:
256,192,281366,1,0,0:0:0:0:
256,192,281513,1,8,0:0:0:0:
256,192,281660,1,8,0:0:0:0:
256,192,281807,1,8,0:0:0:0:
256,192,281905,1,8,0:0:0:0:
256,192,282003,1,0,0:0:0:0:
256,192,282101,1,8,0:0:0:0:
256,192,282248,1,0,0:0:0:0:
256,192,282396,1,0,0:0:0:0:
256,192,282493,1,8,0:0:0:0:
256,192,282592,1,0,0:0:0:0:
256,192,282690,1,8,0:0:0:0:
256,192,282837,1,0,0:0:0:0:
256,192,282984,1,0,0:0:0:0:
256,192,283131,1,8,0:0:0:0:
256,192,283168,1,8,0:0:0:0:
256,192,283278,1,0,0:0:0:0:
256,192,283315,1,0,0:0:0:0:
256,192,283425,1,8,0:0:0:0:
256,192,283572,1,8,0:0:0:0:
256,192,283719,1,0,0:0:0:0:
256,192,283866,1,8,0:0:0:0:
256,192,284013,1,0,0:0:0:0:
256,192,284160,1,0,0:0:0:0:
256,192,284307,1,8,0:0:0:0:
256,192,284454,1,0,0:0:0:0:
256,192,284601,1,8,0:0:0:0:
256,192,284748,1,0,0:0:0:0:
256,192,284896,1,8,0:0:0:0:
256,192,285043,1,0,0:0:0:0:
256,192,285092,1,8,0:0:0:0:
256,192,285141,1,8,0:0:0:0:
256,192,285190,1,0,0:0:0:0:
256,192,285337,1,8,0:0:0:0:
256,192,285484,1,0,0:0:0:0:
256,192,285631,1,8,0:0:0:0:
256,192,285778,1,8,0:0:0:0:
256,192,285925,1,0,0:0:0:0:
256,192,286121,1,0,0:0:0:0:
256,192,286219,1,8,0:0:0:0:
256,192,286366,1,0,0:0:0:0:
256,192,286513,1,0,0:0:0:0:
256,192,286660,1,8,0:0:0:0:
256,192,286697,1,8,0:0:0:0:
256,192,286807,1,0,0:0:0:0:
256,192,286844,1,0,0:0:0:0:
256,192,286954,1,8,0:0:0:0:
256,192,287101,1,8,0:0:0:0:
256,192,287199,1,0,0:0:0:0:
256,192,287297,1,8,0:0:0:0:
256,192,287396,1,0,0:0:0:0:
256,192,287543,1,8,0:0:0:0:
256,192,287690,1,0,0:0:0:0:
256,192,287788,1,0,0:0:0:0:
256,192,287886,1,8,0:0:0:0:
256,192,287984,1,0,0:0:0:0:
256,192,288131,1,0,0:0:0:0:
256,192,288278,1,8,0:0:0:0:
256,192,288425,1,8,0:0:0:0:
256,192,288572,1,8,0:0:0:0:
256,192,288719,1,0,0:0:0:0:
256,192,288866,1,8,0:0:0:0:
256,192,289013,1,0,0:0:0:0:
256,192,289160,1,0,0:0:0:0:
256,192,289307,1,8,0:0:0:0:
256,192,289454,1,8,0:0:0:0:
256,192,289601,1,0,0:0:0:0:
256,192,289748,1,8,0:0:0:0:
256,192,289895,1,8,0:0:0:0:
256,192,290043,1,0,0:0:0:0:
256,192,290190,1,0,0:0:0:0:
256,192,290337,1,8,0:0:0:0:
256,192,290484,1,8,0:0:0:0:
256,192,290631,1,0,0:0:0:0:
256,192,290778,1,0,0:0:0:0:
256,192,290925,1,8,0:0:0:0:
256,192,290962,1,8,0:0:0:0:
256,192,291072,1,0,0:0:0:0:
256,192,291109,1,0,0:0:0:0:
256,192,291219,1,8,0:0:0:0:
256,192,291366,1,8,0:0:0:0:
256,192,291513,1,0,0:0:0:0:
256,192,291660,1,0,0:0:0:0:
256,192,291807,1,0,0:0:0:0:
256,192,291954,1,0,0:0:0:0:
256,192,292101,1,8,0:0:0:0:
256,192,292248,1,0,0:0:0:0:
256,192,292395,1,0,0:0:0:0:
256,192,293866,1,8,0:0:0:0:
256,192,294160,1,0,0:0:0:0:
256,192,294748,1,0,0:0:0:0:
256,192,295337,1,8,0:0:0:0:
256,192,295631,1,8,0:0:0:0:
256,192,295925,1,0,0:0:0:0:
256,192,296072,1,8,0:0:0:0:
256,192,296218,1,0,0:0:0:0:
256,192,296512,1,0,0:0:0:0:
256,192,297689,1,8,0:0:0:0:
256,192,298277,1,8,0:0:0:0:
256,192,298571,1,0,0:0:0:0:
256,192,298865,1,8,0:0:0:0:
256,192,300042,1,0,0:0:0:0:
256,192,300630,1,8,0:0:0:0:
256,192,302689,1,0,0:0:0:0:
256,192,302787,1,8,0:0:0:0:
256,192,302885,1,8,0:0:0:0:
256,192,302983,1,0,0:0:0:0:
256,192,303571,1,0,0:0:0:0:
256,192,304159,1,8,0:0:0:0:
256,192,304453,1,0,0:0:0:0:
256,192,304747,1,0,0:0:0:0:
256,192,305042,1,0,0:0:0:0:
256,192,305336,1,8,0:0:0:0:
256,192,305630,1,8,0:0:0:0:
256,192,305924,1,8,0:0:0:0:
256,192,306512,1,8,0:0:0:0:
256,192,306806,1,0,0:0:0:0:
256,192,307100,1,8,0:0:0:0:
256,192,307689,12,0,308130,0:0:0:0:
256,192,308277,5,0,0:0:0:0:
256,192,308865,1,8,0:0:0:0:
256,192,310336,1,8,0:0:0:0:
256,192,310630,1,0,0:0:0:0:
256,192,311218,1,0,0:0:0:0:
256,192,312100,1,0,0:0:0:0:
256,192,312395,1,8,0:0:0:0:
256,192,312689,1,0,0:0:0:0:
256,192,312983,1,0,0:0:0:0:
256,192,314159,1,8,0:0:0:0:
256,192,315042,1,0,0:0:0:0:
256,192,315336,1,8,0:0:0:0:
256,192,316512,1,0,0:0:0:0:
256,192,317100,1,8,0:0:0:0:
256,192,319159,1,0,0:0:0:0:
256,192,319257,1,8,0:0:0:0:
256,192,319355,1,8,0:0:0:0:
256,192,319453,1,0,0:0:0:0:
256,192,320042,1,8,0:0:0:0:
256,192,320630,1,8,0:0:0:0:
256,192,320924,1,0,0:0:0:0:
256,192,321218,1,0,0:0:0:0:
256,192,322395,1,8,0:0:0:0:
256,192,322983,1,8,0:0:0:0:
256,192,323277,1,0,0:0:0:0:
256,192,323571,1,8,0:0:0:0:
256,192,324159,12,0,324747,0:0:0:0:
