osu file format v14

[General]
AudioFilename: audio.mp3
AudioLeadIn: 0
PreviewTime: -1
Countdown: 0
SampleSet: None
StackLeniency: 0.5
Mode: 0
LetterboxInBreaks: 0
WidescreenStoryboard: 0

[Editor]
Bookmarks: 39986
DistanceSpacing: 1.2
BeatDivisor: 4
GridSize: 4
TimelineZoom: 2.1

[Metadata]
Title:Still
TitleUnicode:Still
Artist:Rua feat. K
ArtistUnicode:Rua feat. K
Creator:Swell
Version:idk
Source:cytus II
Tags:
BeatmapID:2150826
BeatmapSetID:1028648

[Difficulty]
HPDrainRate:7
CircleSize:4
OverallDifficulty:8
ApproachRate:9
SliderMultiplier:1.6
SliderTickRate:1

[Events]
//Background and Video events
0,0,"yeah.jpg",0,0
//Break Periods
//Storyboard Layer 0 (Background)
//Storyboard Layer 1 (Fail)
//Storyboard Layer 2 (Pass)
//Storyboard Layer 3 (Foreground)
//Storyboard Layer 4 (Overlay)
//Storyboard Sound Samples

[TimingPoints]
3063.58591811414,384.615384615385,4,2,0,40,1,0
4602,-200,4,2,0,40,0,0
6140,-100,4,2,0,40,0,0
7678,-200,4,2,0,40,0,0
8448,-100,4,2,0,40,0,0
10755,-200,4,2,0,40,0,0
12294,-100,4,2,0,40,0,0
15371,-66.6666666666667,4,2,0,40,0,0
15948,-100,4,2,0,40,0,0
16909,-200,4,2,0,40,0,0
18448,-100,4,2,0,40,0,0
19986,-200,4,2,0,40,0,0
21525,-100,4,2,0,40,0,0
23063,-200,4,2,0,40,0,0
23832,-100,4,2,0,40,0,0
24602,-133.333333333333,4,2,0,40,0,0
25755,-200,4,2,0,40,0,0
26140,-80,4,2,0,40,0,0
32294,-100,4,2,0,40,0,0
35371,-200,4,2,0,40,0,0
36332,-100,4,2,0,40,0,0
38448,-200,4,2,0,40,0,0
39986,-66.6666666666667,4,2,0,40,0,0
40371,-80,4,2,0,40,0,0
40948,-66.6666666666667,4,2,0,40,0,0
41332,-80,4,2,0,40,0,0
52871,-100,4,2,0,40,0,0
56140,-80,4,2,0,40,0,0
56525,-66.6666666666667,4,2,0,40,0,0
59217,-200,4,2,0,40,0,0
59986,-80,4,2,0,40,0,0
60755,-66.6666666666667,4,2,0,40,0,0
61909,-80,4,2,0,40,0,0
62296,-66.6666666666667,4,2,0,40,0,0
63255,-80,4,2,0,40,0,0
66909,-57.1428571428571,4,2,0,40,0,0
67294,-66.6666666666667,4,2,0,40,0,0
68448,-57.1428571428571,4,2,0,40,0,0
68832,-80,4,2,0,40,0,0
72294,-200,4,2,0,40,0,0
84602,-80,4,2,0,40,0,0
86140,-200,4,2,0,40,0,0
87678,-80,4,2,0,40,0,0
89217,-200,4,2,0,40,0,0
89986,-80,4,2,0,40,0,0
92294,-200,4,2,0,40,0,0
93832,-80,4,2,0,40,0,0
96909,-133.333333333333,4,2,0,40,0,0
109217,-66.6666666666667,4,2,0,40,0,0
109602,-57.1428571428571,4,2,0,40,0,0
110178,-66.6666666666667,4,2,0,40,0,0
110563,-57.1428571428571,4,2,0,40,0,0
111140,-66.6666666666667,4,2,0,40,0,0

[Colours]
Combo1 : 255,94,55
Combo2 : 173,255,95
Combo3 : 17,254,176
Combo4 : 255,88,100

[HitObjects]
5,79,3063,6,0,P|35:49|161:12,1,160
66,144,3640,2,0,P|112:128|155:138,1,80
142,209,4025,1,0,0:0:0:0:
212,173,4217,1,0,0:0:0:0:
146,237,4409,1,0,0:0:0:0:
236,199,4602,2,0,L|227:240,3,40
316,201,5371,2,0,L|307:161,3,40
450,13,6140,6,0,B|475:74|463:143|463:143|453:128|443:116,1,160
316,38,6717,2,0,P|306:72|314:119,1,80
369,166,7102,1,0,0:0:0:0:
311,246,7294,1,0,0:0:0:0:
369,300,7486,1,0,0:0:0:0:
296,371,7678,2,0,L|347:381,3,40
196,370,8448,2,0,P|151:378|91:378,1,80
15,299,8832,2,0,P|60:307|120:307,1,80
231,203,9217,6,0,P|188:242|170:167,1,160
321,142,9794,2,0,B|313:161|305:177|305:177|300:161|277:146,1,80
213,108,10178,1,0,0:0:0:0:
166,171,10371,1,0,0:0:0:0:
125,85,10563,1,0,0:0:0:0:
136,163,10755,2,0,L|144:219,3,40
45,185,11525,2,0,L|57:143,3,40
20,299,12294,6,0,B|13:328|13:328|82:303|143:325,1,160
287,376,12871,2,0,P|327:383|373:371,1,80
388,304,13255,1,0,0:0:0:0:
443,378,13448,2,0,P|404:385|366:375,1,80
298,312,13832,1,0,0:0:0:0:
362,257,14025,2,0,P|325:271|286:269,1,80
322,168,14409,5,0,0:0:0:0:
440,283,14602,1,0,0:0:0:0:
414,163,14794,1,0,0:0:0:0:
468,53,14986,1,0,0:0:0:0:
440,283,15178,1,0,0:0:0:0:
258,121,15371,6,0,B|257:229|341:302|341:302|328:237,1,240.000009155274
197,355,15948,2,0,P|152:361|100:323,1,80
86,280,16332,1,0,0:0:0:0:
155,250,16525,1,0,0:0:0:0:
81,272,16717,1,0,0:0:0:0:
8,240,16909,2,0,L|16:200,3,40
87,133,17678,2,0,L|100:172,3,40
170,292,18448,6,0,B|172:311|180:328|180:328|182:271|221:192,1,160
344,314,19025,2,0,P|300:334|262:292,1,80
327,236,19409,1,0,0:0:0:0:
275,178,19602,1,0,0:0:0:0:
343,114,19794,1,0,0:0:0:0:
286,61,19986,2,0,L|332:31,3,40
463,138,20755,2,0,L|430:160,1,40
445,254,21140,1,0,0:0:0:0:
310,158,21332,1,0,0:0:0:0:
310,158,21428,1,0,0:0:0:0:
310,158,21525,6,0,B|292:226|323:267|342:276|342:276|347:257|333:238,1,160
361,95,22102,2,0,P|388:63|425:55,1,80
420,151,22486,1,0,0:0:0:0:
420,151,22678,2,0,P|379:176|335:165,1,80
228,56,23063,2,0,P|258:92|261:120,3,40
87,101,23832,2,0,P|104:68|143:34,1,80
148,167,24217,1,0,0:0:0:0:
22,59,24409,1,0,0:0:0:0:
22,59,24505,1,0,0:0:0:0:
22,59,24602,6,0,P|14:135|19:183,1,120.000004577637
89,217,25178,2,0,P|97:293|92:341,1,120.000004577637
59,356,25755,2,0,P|80:339|106:336,1,40
103,346,26044,1,0,0:0:0:0:
105,344,26140,2,0,P|163:343|209:326,1,100
276,274,26525,1,0,0:0:0:0:
362,310,26717,1,0,0:0:0:0:
439,199,26909,1,0,0:0:0:0:
480,284,27102,1,0,0:0:0:0:
361,227,27294,5,0,0:0:0:0:
452,365,27486,1,0,0:0:0:0:
452,365,27582,1,0,0:0:0:0:
452,365,27678,1,0,0:0:0:0:
258,347,27871,1,0,0:0:0:0:
111,200,28063,5,0,0:0:0:0:
223,154,29794,5,0,0:0:0:0:
287,236,29986,1,0,0:0:0:0:
295,241,30082,1,0,0:0:0:0:
305,244,30178,1,0,0:0:0:0:
171,209,30371,1,0,0:0:0:0:
88,268,30563,1,0,0:0:0:0:
14,192,30755,2,0,P|8:244|22:291,1,100
87,149,31140,5,0,0:0:0:0:
99,182,31717,5,0,0:0:0:0:
98,170,31781,1,0,0:0:0:0:
94,158,31845,1,0,0:0:0:0:
87,149,31909,1,0,0:0:0:0:
31,41,32294,6,0,L|22:81,1,40
35,94,32486,2,0,L|51:44,1,40
119,27,32678,1,0,0:0:0:0:
213,114,32871,1,0,0:0:0:0:
222,120,32967,2,0,P|264:103|337:129,1,120
376,189,33448,1,0,0:0:0:0:
295,31,33640,1,0,0:0:0:0:
444,130,33832,1,0,0:0:0:0:
506,88,34025,1,0,0:0:0:0:
306,258,34217,5,0,0:0:0:0:
131,332,35371,6,0,P|103:337|45:308,1,80
55,319,35948,1,0,0:0:0:0:
176,229,36140,1,0,0:0:0:0:
165,243,36236,1,0,0:0:0:0:
146,256,36332,2,0,P|188:267|230:300,1,80
266,338,36717,1,0,0:0:0:0:
27,275,36909,1,0,0:0:0:0:
79,333,37102,1,0,0:0:0:0:
247,175,37294,5,0,0:0:0:0:
255,165,38255,5,0,0:0:0:0:
263,160,38319,1,0,0:0:0:0:
270,158,38384,1,0,0:0:0:0:
279,156,38448,2,0,P|310:183|351:181,1,80
357,167,38928,1,0,0:0:0:0:
382,195,39025,1,0,0:0:0:0:
412,225,39121,1,0,0:0:0:0:
423,264,39217,5,0,0:0:0:0:
273,323,39409,1,0,0:0:0:0:
137,225,39602,1,0,0:0:0:0:
287,179,39794,1,0,0:0:0:0:
136,91,39986,6,0,P|173:79|252:102,1,120.000004577637
34,217,40371,2,0,P|101:205|127:76,1,200
284,170,40948,2,0,P|285:121|227:121,1,120.000004577637
382,66,41332,2,0,P|373:101|473:208,1,200
478,128,41909,2,0,P|428:129|388:158,1,100
335,308,42294,2,0,P|362:265|414:238,1,100
480,253,42678,1,0,0:0:0:0:
260,343,42871,2,0,P|204:330|150:340,1,100
93,358,43255,1,0,0:0:0:0:
270,263,43448,6,0,P|232:222|83:228,1,200
95,219,44025,1,0,0:0:0:0:
276,169,44217,1,0,0:0:0:0:
58,101,44505,1,0,0:0:0:0:
66,103,44602,2,0,P|123:104|201:88,1,100
257,42,44986,2,0,P|306:35|356:36,1,100
366,44,45275,1,0,0:0:0:0:
376,55,45371,1,0,0:0:0:0:
226,155,45563,1,0,0:0:0:0:
411,179,45755,1,0,0:0:0:0:
229,268,45948,1,0,0:0:0:0:
413,313,46140,6,0,P|367:340|308:346,1,100
229,268,46525,2,0,P|167:240|42:292,1,200
20,352,47102,1,0,0:0:0:0:
64,166,47294,2,0,P|98:109|100:64,1,100
179,166,47678,2,0,P|249:194|342:106,1,200
293,60,48255,1,0,0:0:0:0:
476,235,48640,5,0,0:0:0:0:
416,307,48832,2,0,P|357:295|312:277,1,100
233,332,49217,2,0,P|280:347|323:372,1,100
320,280,49602,2,0,P|329:211|416:115,1,200
437,185,50178,1,0,0:0:0:0:
280,142,50371,2,0,P|231:151|172:216,1,100
97,316,50755,2,0,P|49:282|94:165,1,200
267,81,51332,5,0,0:0:0:0:
226,103,51428,1,0,0:0:0:0:
188,111,51525,1,0,0:0:0:0:
146,119,51621,1,0,0:0:0:0:
106,146,51717,1,0,0:0:0:0:
119,183,51813,1,0,0:0:0:0:
129,219,51909,1,0,0:0:0:0:
142,255,52005,1,0,0:0:0:0:
124,295,52102,1,0,0:0:0:0:
89,304,52198,1,0,0:0:0:0:
53,316,52294,6,0,P|109:319|154:350,1,100
209,380,52678,1,0,0:0:0:0:
364,320,52871,2,0,B|267:340|181:278,1,160
387,243,53448,2,0,P|435:231|513:155,1,160
479,89,54025,1,0,0:0:0:0:
289,135,54217,2,0,P|308:205|328:224,1,80
363,45,54602,1,0,0:0:0:0:
218,95,54794,2,0,P|169:105|63:73,1,160
26,9,55371,1,0,0:0:0:0:
243,113,55563,5,0,0:0:0:0:
282,118,55659,1,0,0:0:0:0:
316,128,55755,2,0,P|354:141|404:188,1,80,0|0,2:0|2:0,2:0:0:0:
479,228,56140,2,0,P|466:280|431:325,1,100
307,384,56525,2,0,P|260:356|224:295,1,120.000004577637
224,283,56813,1,0,0:0:0:0:
230,267,56909,1,0,0:0:0:0:
65,346,57102,5,0,0:0:0:0:
94,215,57294,1,0,0:0:0:0:
163,112,57486,1,0,0:0:0:0:
289,79,57678,1,0,0:0:0:0:
417,114,57871,1,0,0:0:0:0:
488,229,58063,1,0,0:0:0:0:
403,334,58255,1,0,0:0:0:0:
276,307,58448,1,0,0:0:0:0:
232,187,58640,1,0,0:0:0:0:
325,86,58832,1,0,0:0:0:0:
321,329,59217,6,0,L|296:349,1,20
252,346,59409,2,0,L|336:352,1,80
43,199,59986,6,0,P|23:145|35:91,1,100
192,28,60371,2,0,P|157:72|114:86,1,100
361,23,60755,2,0,P|412:112|334:247,1,240.000009155274
148,244,61332,2,0,B|75:255|6:305|6:305|61:286|145:284,1,240.000009155274
316,305,61909,2,0,B|345:302|375:320|375:320|346:317|301:335,1,100
145,360,62294,2,0,P|217:284|323:213,1,200
372,249,62871,5,0,0:0:0:0:
151,209,63063,1,0,0:0:0:0:
241,169,63255,2,0,P|177:176|26:11,1,300
407,154,64217,1,0,0:0:0:0:
298,148,64409,2,0,B|295:113|334:92|334:92|365:144|273:215,1,200
265,206,64890,1,0,0:0:0:0:
249,194,64986,1,0,0:0:0:0:
204,75,65178,1,0,0:0:0:0:
180,288,65371,5,0,0:0:0:0:
121,176,65563,1,0,0:0:0:0:
12,137,65755,1,0,0:0:0:0:
114,191,65948,1,0,0:0:0:0:
130,178,66044,1,0,0:0:0:0:
137,162,66140,1,0,0:0:0:0:
14,349,66332,2,0,P|82:361|223:304,1,200
315,188,66909,2,0,P|254:237|173:234,1,140.000001335144
34,67,67294,5,0,0:0:0:0:
14,158,67486,2,0,P|86:157|182:15,1,240.000009155274
174,21,67967,1,0,0:0:0:0:
150,18,68063,1,0,0:0:0:0:
263,137,68255,1,0,0:0:0:0:
411,73,68448,2,0,P|469:116|451:234,1,140.000001335144
320,286,68832,1,0,0:0:0:0:
475,261,69025,5,0,0:0:0:0:
433,341,69217,1,0,0:0:0:0:
267,377,69409,2,0,B|266:304|321:238|321:238|325:269|312:317,1,200
170,356,69986,2,0,P|83:357|-10:262,1,200
32,192,70563,1,0,0:0:0:0:
49,182,70659,1,0,0:0:0:0:
66,175,70755,1,0,0:0:0:0:
207,188,70948,1,0,0:0:0:0:
308,116,71140,1,0,0:0:0:0:
92,237,71332,5,0,0:0:0:0:
92,237,71428,1,0,0:0:0:0:
92,237,71525,1,0,0:0:0:0:
92,237,71621,1,0,0:0:0:0:
71,278,71781,5,0,0:0:0:0:
101,315,71909,1,0,0:0:0:0:
146,291,72037,1,0,0:0:0:0:
198,311,72166,1,0,0:0:0:0:
251,306,72294,6,0,P|274:289|299:285,3,40
344,334,73063,2,0,P|372:332|395:342,3,40
449,375,73832,2,0,P|477:376|500:366,3,40
506,303,74602,2,0,P|493:277|480:264,1,40
418,243,74986,2,0,P|420:207|429:191,1,40
475,144,75371,2,0,P|474:118|465:101,7,40
389,204,76909,6,0,P|366:210|338:203,2,40
395,130,77486,2,0,B|379:107|364:96|364:97,2,40
322,161,78063,2,0,P|293:160|270:144,1,40
243,86,78448,2,0,P|263:72|285:67,2,40
191,143,79025,2,0,P|180:164|175:186,4,40
158,71,79986,6,0,P|135:57|106:56,2,40
112,136,80563,2,0,P|88:146|63:142,2,40
81,67,81140,2,0,P|60:82|49:101,1,40
22,168,81525,2,0,P|15:191|19:218,2,40
100,147,82102,2,0,P|122:155|136:180,2,40
74,220,82678,2,0,P|52:230|28:230,3,40
136,269,83448,2,0,P|162:269|187:277,5,40
186,281,84505,1,0,0:0:0:0:
191,304,84602,6,0,B|192:348|192:348|250:282|383:319,1,200
496,259,85178,2,0,P|447:248|398:255,1,100
314,293,85563,1,0,0:0:0:0:
250,335,85755,1,0,0:0:0:0:
174,278,85948,1,0,0:0:0:0:
126,339,86140,2,0,L|139:383,3,40
55,371,86909,2,0,L|43:332,3,40
173,212,87678,6,0,B|115:131|43:163|43:163|54:192|98:195,1,200
213,108,88255,2,0,P|257:78|321:77,1,100
381,151,88640,2,0,P|324:159|291:191,1,100
388,286,89025,1,0,0:0:0:0:
421,217,89217,2,0,P|396:223|375:232,3,40
267,269,89986,2,0,P|245:300|236:363,1,100
183,249,90371,2,0,P|173:195|141:152,1,100
334,110,90755,6,0,P|310:74|155:41,1,200
33,148,91332,2,0,B|33:163|46:185|46:185|59:141|106:101,1,100
149,103,91716,1,0,0:0:0:0:
98,53,91909,1,0,0:0:0:0:
14,19,92102,1,0,0:0:0:0:
13,90,92294,2,0,L|58:109,3,40
65,185,93063,2,0,L|26:195,3,40
23,308,93832,6,0,P|42:332|214:288,1,200
281,207,94409,2,0,P|277:260|286:328,1,100
385,205,94794,2,0,P|380:260|389:308,1,100
485,368,95178,5,0,0:0:0:0:
498,372,95275,1,0,0:0:0:0:
512,375,95371,1,0,0:0:0:0:
508,209,95563,1,0,0:0:0:0:
350,229,95755,1,0,0:0:0:0:
244,110,95948,1,0,0:0:0:0:
187,314,96909,6,0,B|146:291|88:306|75:329|75:329|79:297|63:272|7:281,1,210.000008010865
6,289,97678,1,0,0:0:0:0:
187,314,97871,6,0,B|254:292|253:360|253:360|310:239|310:239|280:262|253:220,1,300.000011444092
396,108,99121,5,0,0:0:0:0:
409,96,99217,2,0,B|427:70|413:44|413:44|406:54|469:125|519:43,1,180.000006866455
328,31,99986,6,0,B|262:44|208:14|208:14|227:23|232:55|222:73|182:86,1,210.000008010865
183,85,100755,1,0,0:0:0:0:
0,119,100948,6,0,B|63:98|57:45|57:45|71:109|109:174|109:174|106:148|145:132,1,300.000011444092
207,275,102198,5,0,0:0:0:0:
200,287,102294,2,0,B|238:301|234:337|234:337|257:310|288:298|340:308|340:308,1,180.000006866455
270,164,103063,6,0,B|186:125|166:191|166:191|159:149|192:91,1,210.000008010865
194,95,103832,1,0,0:0:0:0:
352,178,104025,6,0,B|358:140|341:59|341:59|306:136|323:176|323:176|293:147|251:171,1,300.000011444092
362,39,105275,5,0,0:0:0:0:
374,35,105371,2,0,B|405:51|432:40|432:40|408:99|401:154|401:154|427:140|468:161,1,240.000009155274
248,166,106525,6,0,P|197:175|145:189,1,90.0000034332277
142,203,106909,1,0,0:0:0:0:
287,255,107102,2,0,P|226:268|170:314,1,120.000004577637
293,28,107678,5,0,0:0:0:0:
257,43,107775,1,0,0:0:0:0:
227,58,107871,1,0,0:0:0:0:
195,73,107967,1,0,0:0:0:0:
171,103,108063,1,0,0:0:0:0:
282,160,108255,5,0,0:0:0:0:
246,175,108352,1,0,0:0:0:0:
216,190,108448,1,0,0:0:0:0:
184,205,108544,1,0,0:0:0:0:
167,235,108640,1,0,0:0:0:0:
318,296,108832,5,0,0:0:0:0:
279,303,108929,1,0,0:0:0:0:
251,328,109025,1,0,0:0:0:0:
227,347,109121,1,0,0:0:0:0:
201,365,109217,6,0,P|161:318|169:235,1,120.000004577637
50,378,109602,2,0,P|30:315|168:173,1,280.000002670288
289,269,110178,2,0,B|328:286|370:277|370:277|333:272|293:243,1,120.000004577637
187,139,110563,6,0,B|106:102|31:116|31:116|107:132|139:164,1,280.000002670288
289,269,111140,2,0,P|327:265|303:198,1,120.000004577637
437,231,111525,2,0,P|464:204|404:166,1,120.000004577637
317,200,111909,1,0,0:0:0:0:
214,154,112102,2,0,P|167:132|95:160,1,120.000004577637
49,209,112486,1,0,0:0:0:0:
214,154,112678,2,0,P|265:148|312:87,1,120.000004577637
