osu file format v14

[General]
AudioFilename: audio.mp3
AudioLeadIn: 0
PreviewTime: 9785
Countdown: 0
SampleSet: Soft
StackLeniency: 0.7
Mode: 0
LetterboxInBreaks: 0
WidescreenStoryboard: 1

[Editor]
Bookmarks: 10679,45357,99397,159596
DistanceSpacing: 1.2
BeatDivisor: 4
GridSize: 32
TimelineZoom: 1

[Metadata]
Title:Lucky feat. Gottmik, Kandy Muse, Rose, & Symone
TitleUnicode:Lucky feat. Gottmik, Kandy Muse, Rosé, & Symone
Artist:RuPaul
ArtistUnicode:RuPaul
Creator:bluirre
Version:K | HARD
Source:RuPaul's Drag Race
Tags:queen rupauls english pop rap rpdr gay lgbt lgbtq lgbtqia+ pride month season world of wonder wow productions inc. logo lesbian transexual kevin candelario reggie gavin ross matthew mccorkel kade gottlieb animestyle -ascended- -_ascended_- ascended andre charles
BeatmapID:3800338
BeatmapSetID:1819793

[Difficulty]
HPDrainRate:4
CircleSize:3.7
OverallDifficulty:7
ApproachRate:7.5
SliderMultiplier:1.55
SliderTickRate:1

[Events]
//Background and Video events
Video,0,"lucky.mp4"
0,0,"Bg-Symone.jpeg",0,0
//Break Periods
2,175391,180739
//Storyboard Layer 0 (Background)
//Storyboard Layer 1 (Fail)
//Storyboard Layer 2 (Pass)
//Storyboard Layer 3 (Foreground)
//Storyboard Layer 4 (Overlay)
//Storyboard Sound Samples

[TimingPoints]
9893,397.350993377483,4,2,1,75,1,0
9893,-80,4,2,1,75,0,1
10191,-80,4,2,1,5,0,1
10290,-80,4,2,1,75,0,1
10886,-80,4,2,1,75,0,1
11085,-80,4,2,1,75,0,1
11283,-80,4,2,1,75,0,1
11482,-80,4,2,1,75,0,1
13369,-80,4,2,1,75,0,1
13469,-80,4,2,1,75,0,1
14065,-80,4,2,1,75,0,1
14263,-80,4,2,1,75,0,1
15952,-80,4,2,1,75,0,1
16051,-80,4,2,1,75,0,1
19429,-80,4,2,1,75,0,0
19628,-80,4,2,1,75,0,0
19826,-80,4,2,1,75,0,0
22012,-80,4,2,1,50,0,0
22210,-80,4,2,1,57,0,0
22409,-80,4,2,1,65,0,0
22608,-90.9090909090909,4,2,1,50,0,0
29859,-90.9090909090909,4,2,1,50,0,0
29959,-90.9090909090909,4,2,1,50,0,0
30853,-90.9090909090909,4,2,1,50,0,0
30952,-90.9090909090909,4,2,1,50,0,0
31449,-90.9090909090909,4,2,1,50,0,0
31548,-90.9090909090909,4,2,1,50,0,0
34032,-90.9090909090909,4,2,1,5,0,0
34131,-90.9090909090909,4,2,1,50,0,0
34628,-90.9090909090909,4,2,1,50,0,0
34727,-90.9090909090909,4,2,1,50,0,0
35323,-90.9090909090909,4,2,1,60,0,0
35919,-90.9090909090909,4,2,1,50,0,0
36217,-90.9090909090909,4,2,1,50,0,0
36316,-90.9090909090909,4,2,1,50,0,0
36912,-90.9090909090909,4,2,1,60,0,0
37508,-90.9090909090909,4,2,1,50,0,0
37806,-90.9090909090909,4,2,1,50,0,0
37906,-90.9090909090909,4,2,1,50,0,0
38502,-90.9090909090909,4,2,1,60,0,0
39098,-90.9090909090909,4,2,1,50,0,0
39396,-90.9090909090909,4,2,1,50,0,0
39495,-90.9090909090909,4,2,1,50,0,0
40091,-90.9090909090909,4,2,1,60,0,0
40687,-90.9090909090909,4,2,1,50,0,0
41681,-90.9090909090909,4,2,1,40,0,0
44263,-90.9090909090909,4,2,1,50,0,0
44462,-90.9090909090909,4,2,1,57,0,0
44661,-90.9090909090909,4,2,1,65,0,0
44859,-90.9090909090909,4,2,1,50,0,0
45058,-90.9090909090909,4,2,1,5,0,0
45257,-90.9090909090909,4,2,1,50,0,0
45853,-90.9090909090909,4,2,1,50,0,0
46051,-90.9090909090909,4,2,1,50,0,0
46250,-90.9090909090909,4,2,1,50,0,0
46449,-90.9090909090909,4,2,1,50,0,0
48237,-90.9090909090909,4,2,1,50,0,0
48436,-90.9090909090909,4,2,1,50,0,0
49826,-133.333333333333,4,2,1,30,0,0
51217,-90.9090909090909,4,2,1,50,0,0
51515,-90.9090909090909,4,2,1,5,0,0
51614,-90.9090909090909,4,2,1,50,0,0
53104,-90.9090909090909,4,2,1,50,0,0
53204,-90.9090909090909,4,2,1,50,0,0
54594,-90.9090909090909,4,2,1,50,0,0
54694,-90.9090909090909,4,2,1,5,0,0
54793,-90.9090909090909,4,2,1,50,0,0
57078,-90.9090909090909,4,2,1,50,0,0
57177,-90.9090909090909,4,2,1,50,0,0
57575,-90.9090909090909,4,2,1,60,0,0
58171,-90.9090909090909,4,2,1,50,0,0
59164,-90.9090909090909,4,2,1,60,0,0
59760,-90.9090909090909,4,2,1,50,0,0
60356,-90.9090909090909,4,2,1,57,0,0
60555,-90.9090909090909,4,2,1,65,0,0
60753,-90.9090909090909,4,2,1,60,0,0
61349,-90.9090909090909,4,2,1,50,0,0
61945,-90.9090909090909,4,2,1,57,0,0
62144,-90.9090909090909,4,2,1,65,0,0
62343,-90.9090909090909,4,2,1,60,0,0
62939,-90.9090909090909,4,2,1,50,0,0
63535,-90.9090909090909,4,2,1,57,0,0
63734,-90.9090909090909,4,2,1,65,0,0
63932,-100,4,2,1,75,0,0
64926,-100,4,2,1,50,0,0
67111,-100,4,2,1,75,0,0
68104,-100,4,2,1,5,0,0
68303,-100,4,2,1,50,0,0
70290,-80,4,2,1,75,0,1
70588,-80,4,2,1,5,0,1
70687,-80,4,2,1,75,0,1
71283,-80,4,2,1,75,0,1
71482,-80,4,2,1,75,0,1
71681,-80,4,2,1,75,0,1
71879,-80,4,2,1,75,0,1
73767,-80,4,2,1,75,0,1
73866,-80,4,2,1,75,0,1
74462,-80,4,2,1,75,0,1
74661,-80,4,2,1,75,0,1
76349,-80,4,2,1,75,0,1
76449,-80,4,2,1,75,0,1
77641,-80,4,2,1,75,0,1
77840,-80,4,2,1,75,0,1
80124,-80,4,2,1,75,0,1
80224,-80,4,2,1,75,0,1
80820,-80,4,2,1,75,0,1
81018,-80,4,2,1,75,0,1
81217,-80,4,2,1,75,0,1
81416,-80,4,2,1,75,0,1
83998,-80,4,2,1,75,0,1
84197,-80,4,2,1,75,0,1
84396,-80,4,2,1,5,0,1
84594,-80,4,2,1,75,0,1
85886,-80,4,2,1,75,0,1
85985,-80,4,2,1,75,0,1
89661,-80,4,2,1,75,0,1
89760,-80,4,2,1,75,0,1
92840,-80,4,2,1,75,0,1
92939,-80,4,2,1,75,0,1
95124,-80,4,2,1,50,0,1
95323,-80,4,2,1,57,0,1
95522,-80,4,2,1,65,0,1
95720,-100,4,2,1,40,0,0
98303,-100,4,2,1,50,0,0
98502,-100,4,2,1,57,0,0
98700,-100,4,2,1,65,0,0
98899,-100,4,2,1,40,0,0
101482,-100,4,2,1,50,0,0
101681,-100,4,2,1,57,0,0
101879,-100,4,2,1,65,0,0
102078,-90.9090909090909,4,2,1,50,0,0
108436,-80,4,2,1,50,0,0
109926,-80,4,2,1,5,0,0
110025,-80,4,2,1,50,0,0
111515,-80,4,2,1,5,0,0
111614,-80,4,2,1,50,0,0
113998,-100,4,2,1,35,0,0
114793,-100,4,2,1,40,0,0
117376,-100,4,2,1,50,0,0
117575,-100,4,2,1,57,0,0
117773,-100,4,2,1,65,0,0
117972,-133.333333333333,4,2,1,40,0,0
118270,-133.333333333333,4,2,1,5,0,0
118369,-133.333333333333,4,2,1,40,0,0
119363,-133.333333333333,4,2,1,40,0,0
119561,-133.333333333333,4,2,1,40,0,0
121449,-133.333333333333,4,2,1,40,0,0
121548,-133.333333333333,4,2,1,40,0,0
124330,-100,4,2,1,50,0,0
124528,-100,4,2,1,5,0,0
124727,-100,4,2,1,50,0,0
127806,-100,4,2,1,5,0,0
127906,-100,4,2,1,50,0,0
133469,-100,4,2,1,57,0,0
133667,-100,4,2,1,65,0,0
133866,-100,4,2,1,50,0,0
134164,-100,4,2,1,50,0,0
134263,-100,4,2,1,50,0,0
135058,-100,4,2,1,57,0,0
135257,-100,4,2,1,65,0,0
135455,-100,4,2,1,50,0,0
136647,-100,4,2,1,57,0,0
136846,-100,4,2,1,65,0,0
137045,-100,4,2,1,75,0,0
138038,-100,4,2,1,50,0,0
140224,-100,4,2,1,75,0,0
141217,-100,4,2,1,5,0,0
141416,-100,4,2,1,50,0,0
143402,-80,4,2,1,75,0,1
143700,-80,4,2,1,5,0,1
143800,-80,4,2,1,75,0,1
144396,-80,4,2,1,75,0,1
144594,-80,4,2,1,75,0,1
144793,-80,4,2,1,75,0,1
144992,-80,4,2,1,75,0,1
146879,-80,4,2,1,75,0,1
146979,-80,4,2,1,75,0,1
147575,-80,4,2,1,75,0,1
147773,-80,4,2,1,75,0,1
147972,-80,4,2,1,75,0,1
148171,-80,4,2,1,75,0,1
149462,-80,4,2,1,75,0,1
149561,-80,4,2,1,75,0,1
153237,-80,4,2,1,75,0,1
153336,-80,4,2,1,75,0,1
153932,-80,4,2,1,75,0,1
154131,-80,4,2,1,75,0,1
154330,-80,4,2,1,75,0,1
154528,-80,4,2,1,75,0,1
157111,-80,4,2,1,75,0,1
157310,-80,4,2,1,75,0,1
157508,-80,4,2,1,75,0,1
157707,-80,4,2,1,75,0,1
158998,-80,4,2,1,75,0,1
159098,-80,4,2,1,75,0,1
160290,-80,4,2,1,75,0,1
160489,-80,4,2,1,75,0,1
162773,-80,4,2,1,75,0,1
162873,-80,4,2,1,75,0,1
165952,-80,4,2,1,75,0,1
166051,-80,4,2,1,75,0,1
169131,-80,4,2,1,75,0,1
169230,-80,4,2,1,75,0,1
172310,-80,4,2,1,75,0,1
172409,-80,4,2,1,75,0,1
175191,-80,4,2,1,75,0,0
175605,397.350993377483,4,2,1,55,1,0
175605,-100,4,2,1,55,0,0
178386,397.350993377483,4,2,1,55,1,0
178386,-100,4,2,1,55,0,0
181564,-100,4,2,1,57,0,0
183154,-100,4,2,1,70,0,0
184743,-80,4,2,1,75,0,1
185041,-80,4,2,1,5,0,1
185140,-80,4,2,1,75,0,1
185736,-80,4,2,1,75,0,1
185935,-80,4,2,1,75,0,1
186134,-80,4,2,1,75,0,1
186333,-80,4,2,1,75,0,1
188915,-80,4,2,1,75,0,1
189114,-80,4,2,1,75,0,1
189313,-80,4,2,1,75,0,1
189511,-80,4,2,1,75,0,1
190803,-80,4,2,1,75,0,1
190902,-80,4,2,1,75,0,1
194578,-80,4,2,1,75,0,1
194677,-80,4,2,1,75,0,1
197756,-80,4,2,1,75,0,1
197856,-80,4,2,1,75,0,1
200935,-80,4,2,1,75,0,1
201035,-80,4,2,1,75,0,1
204114,-80,4,2,1,75,0,1
204213,-80,4,2,1,75,0,1
205405,-117.647058823529,4,2,1,55,0,0

[Colours]
Combo1 : 134,134,134
Combo2 : 220,116,71
Combo3 : 201,88,184
Combo4 : 237,230,90
Combo5 : 122,70,232
Combo6 : 180,180,180
Combo7 : 58,153,83
Combo8 : 136,210,148

[HitObjects]
60,15,9893,86,0,L|238:29,1,145.3125,4|0,3:0|0:0,0:0:0:0:
220,31,10290,2,0,P|244:81|222:142,1,96.875,8|4,2:1|3:0,0:0:0:0:
320,201,10687,2,0,P|351:155|415:143,1,96.875,0|2,3:0|2:0,0:0:0:0:
463,231,11085,2,0,P|431:276|367:288,1,96.875,8|2,2:1|2:0,0:0:0:0:
238,290,11482,5,4,3:0:0:0:
148,361,11681,1,2,2:0:0:0:
148,361,11780,1,2,2:0:0:0:
148,361,11879,2,0,L|140:245,1,96.875,8|4,2:1|3:0,0:0:0:0:
77,165,12277,2,0,B|122:140|122:140|172:146,1,96.875,0|2,3:0|2:0,0:0:0:0:
271,200,12674,2,0,B|316:205|316:205|361:180,1,96.875,8|2,2:1|2:0,0:0:0:0:
294,85,13071,101,4,3:0:0:0:
505,12,13469,2,0,P|497:64|496:129,1,96.875,8|4,2:1|3:0,0:0:0:0:
394,166,13866,2,0,P|402:218|403:283,1,96.875,0|2,3:0|2:0,0:0:0:0:
486,343,14263,1,8,2:1:0:0:
272,249,14661,5,4,3:0:0:0:
188,328,14859,1,2,2:0:0:0:
188,328,14959,1,2,2:0:0:0:
188,328,15058,2,0,L|10:342,1,145.3125,8|2,2:1|2:0,0:0:0:0:
25,340,15455,1,0,3:0:0:0:
28,223,15654,2,0,P|25:174|18:126,1,96.875,2|8,2:0|2:1,0:0:0:0:
96,40,16051,1,2,2:0:0:0:
164,178,16250,102,0,B|285:157|234:234|353:215,1,193.75,4|8,3:0|2:1,0:0:0:0:
445,155,16846,1,4,3:0:0:0:
345,95,17045,2,0,P|347:46|354:-1,1,96.875,0|2,3:0|2:0,0:0:0:0:
241,27,17442,2,0,P|189:19|124:18,1,96.875,8|2,2:1|2:0,0:0:0:0:
39,67,17840,5,4,3:0:0:0:
113,155,18038,1,2,2:0:0:0:
113,155,18138,1,2,2:0:0:0:
113,155,18237,2,0,L|110:273,1,96.875,8|4,2:1|3:0,0:0:0:0:
44,347,18634,2,0,P|94:369|155:348,1,96.875,0|2,3:0|1:0,0:0:0:0:
224,288,19032,1,10,2:1:0:0:
321,350,19230,1,2,1:0:0:0:
419,253,19429,101,4,3:0:0:0:
421,253,22012,101,2,1:0:0:0:
348,210,22210,1,10,1:1:0:0:
263,157,22409,1,2,1:0:0:0:
166,95,22608,102,0,P|148:154|167:206,1,85.25,4|2,3:0|2:0,0:0:0:0:
212,258,23005,2,0,P|214:300|197:339,1,85.25,8|4,2:1|3:0,0:0:0:0:
99,367,23402,1,0,3:0:0:0:
28,292,23601,1,2,2:0:0:0:
28,292,23700,1,2,2:0:0:0:
28,292,23800,2,0,L|17:182,1,85.25,8|2,2:1|2:0,0:0:0:0:
31,61,24197,6,0,B|70:84|70:84|115:78,1,85.25,4|2,3:0|2:0,0:0:0:0:
203,31,24594,2,0,B|242:27|242:27|282:49,1,85.25,8|4,2:1|3:0,0:0:0:0:
373,95,24992,2,0,B|394:208|320:150|338:268,1,170.5,0|8,3:0|2:1,0:0:0:0:
407,328,25588,1,2,2:0:0:0:
498,282,25787,102,0,P|490:230|489:165,1,85.25,4|2,3:0|2:0,0:0:0:0:
459,99,26184,2,0,P|456:50|449:2,1,85.25,8|4,2:1|3:0,0:0:0:0:
348,10,26581,1,0,3:0:0:0:
270,77,26780,1,2,2:0:0:0:
180,26,26979,2,0,P|131:29|83:36,1,85.25,8|2,2:1|2:0,0:0:0:0:
27,154,27376,5,4,3:0:0:0:
27,154,28568,1,8,2:1:0:0:
116,103,28767,1,2,3:2:0:0:
116,103,28866,1,2,3:2:0:0:
116,103,28965,102,0,L|307:123,1,170.5,4|8,3:0|2:1,0:0:0:0:
385,95,29561,2,0,B|364:208|438:150|420:268,1,170.5,4|2,3:0|2:0,0:0:0:0:
363,337,30157,1,8,2:1:0:0:
261,320,30356,1,2,2:0:0:0:
135,366,30555,6,0,B|156:253|82:311|100:193,1,170.5,4|8,3:0|2:1,0:0:0:0:
134,111,31151,2,0,L|303:128,1,170.5,4|2,3:0|2:0,0:0:0:0:
387,70,31747,1,8,2:1:0:0:
457,144,31945,1,2,2:0:0:0:
457,144,32045,1,2,2:0:0:0:
457,144,32144,102,0,L|444:258,1,85.25,4|2,3:0|2:0,0:0:0:0:
366,292,32542,1,8,2:1:0:0:
280,235,32740,1,4,3:0:0:0:
280,235,32840,1,2,2:0:0:0:
280,235,32939,2,0,B|241:258|241:258|196:252,1,85.25,0|2,3:0|2:0,0:0:0:0:
108,205,33336,2,0,B|69:201|69:201|29:223,1,85.25,8|2,2:1|2:0,0:0:0:0:
18,325,33734,6,0,L|157:344,1,127.875,4|0,3:0|0:0,0:0:0:0:
160,346,34131,1,8,2:1:0:0:
246,290,34330,1,4,3:0:0:0:
246,290,34727,1,2,2:0:0:0:
317,362,34926,1,8,2:1:0:0:
417,346,35124,1,2,2:0:0:0:
452,224,35323,102,0,B|450:178|450:178|420:153|420:153|416:78,2,127.875,4|2|4,3:0|2:0|3:0,0:0:0:0:
251,184,36316,1,2,2:0:0:0:
152,210,36515,1,8,2:1:0:0:
81,135,36714,1,2,2:0:0:0:
192,48,36912,6,0,B|237:49|237:49|262:79|262:79|337:83,2,127.875,4|2|4,3:0|2:0|3:0,0:0:0:0:
69,212,37906,1,2,2:0:0:0:
24,303,38104,1,8,2:1:0:0:
101,370,38303,1,2,2:0:0:0:
190,271,38502,102,0,B|188:225|188:225|158:200|158:200|154:125,2,127.875,4|2|4,3:0|2:0|3:0,0:0:0:0:
382,339,39495,1,2,2:0:0:0:
457,269,39694,1,8,2:1:0:0:
423,146,39892,1,2,2:0:0:0:
314,99,40091,6,0,B|268:97|268:97|243:67|243:67|168:63,2,127.875,4|2|4,3:0|2:0|3:0,0:0:0:0:
497,8,41085,1,2,2:0:0:0:
497,8,41283,1,8,2:1:0:0:
314,99,41681,101,4,3:0:0:0:
421,253,44263,5,2,1:0:0:0:
354,213,44462,1,10,1:1:0:0:
285,170,44661,1,2,1:0:0:0:
198,115,44859,86,0,P|180:174|199:226,1,85.25,4|0,3:0|0:0,0:0:0:0:
225,290,45257,1,8,2:1:0:0:
99,321,45455,1,4,3:0:0:0:
9,271,45654,2,0,P|17:219|18:154,1,85.25,0|2,3:0|2:0,0:0:0:0:
99,123,46051,2,0,P|102:74|109:26,1,85.25,8|2,2:1|2:0,0:0:0:0:
205,8,46449,21,4,3:0:0:0:
310,183,46846,1,8,2:1:0:0:
189,231,47045,1,4,3:0:0:0:
226,325,47243,2,0,P|278:317|343:316,1,85.25,0|2,3:0|2:0,0:0:0:0:
383,243,47641,2,0,P|432:240|480:233,1,85.25,8|2,2:1|2:0,0:0:0:0:
509,141,48038,85,4,3:0:0:0:
343,19,48436,1,8,2:1:0:0:
222,67,48634,1,4,3:0:0:0:
302,129,48833,2,0,P|320:188|301:240,1,85.25,0|2,3:0|2:0,0:0:0:0:
254,291,49230,2,0,P|251:333|268:372,1,85.25,8|2,2:1|2:0,0:0:0:0:
371,372,49628,21,4,3:0:0:0:
371,372,49826,1,2,2:0:0:0:
371,372,50025,2,0,L|385:313,1,58.1250000000001,2|2,2:0|2:0,0:0:0:0:
316,274,50422,2,0,L|330:215,1,58.1250000000001,2|2,2:0|2:0,0:0:0:0:
421,180,50820,2,0,L|406:236,1,58.1250000000001,2|2,2:0|2:0,0:0:0:0:
466,354,51217,86,0,L|498:219,1,127.875,4|0,3:0|0:0,0:0:0:0:
500,216,51614,1,8,2:1:0:0:
507,113,51813,2,0,B|404:133|452:60|334:78,1,170.5,4|2,3:0|2:0,0:0:0:0:
245,67,52409,1,8,2:1:0:0:
167,124,52608,1,2,2:0:0:0:
175,270,52806,22,0,B|278:290|230:217|348:235,1,170.5,4|8,3:0|2:1,0:0:0:0:
373,327,53402,2,0,B|270:307|318:380|200:362,1,170.5,4|2,3:0|2:0,0:0:0:0:
112,350,53998,1,8,2:1:0:0:
42,290,54197,1,2,2:0:0:0:
42,290,54296,1,2,2:0:0:0:
42,290,54396,86,0,L|14:154,1,127.875,4|0,3:0|0:0,0:0:0:0:
12,151,54793,1,8,2:1:0:0:
78,37,54992,1,4,3:0:0:0:
158,100,55191,2,0,P|210:108|275:109,1,85.25,0|2,3:0|2:0,0:0:0:0:
306,190,55588,2,0,P|355:192|403:200,1,85.25,8|2,2:1|2:0,0:0:0:0:
470,133,55985,21,4,3:0:0:0:
373,5,56184,1,2,2:0:0:0:
323,101,56383,1,8,2:1:0:0:
390,197,56581,1,4,3:0:0:0:
363,295,56780,2,0,B|260:275|308:348|190:330,1,170.5,0|8,3:0|2:1,0:0:0:0:
136,254,57376,1,2,2:0:0:0:
207,180,57575,86,0,P|215:128|216:63,1,85.25,4|2,3:0|2:0,0:0:0:0:
318,109,57972,2,0,P|312:151|310:193,1,85.25,8|4,2:1|3:0,0:0:0:0:
411,228,58369,1,0,3:0:0:0:
411,228,58568,1,2,2:0:0:0:
497,171,58767,1,8,2:1:0:0:
497,171,58965,1,2,2:0:0:0:
433,41,59164,22,0,P|381:32|316:31,1,85.25,4|2,3:0|2:0,0:0:0:0:
261,85,59561,2,0,P|218:82|176:77,1,85.25,8|4,2:1|3:0,0:0:0:0:
92,17,59959,1,0,3:0:0:0:
30,97,60157,1,2,1:0:0:0:
77,187,60356,1,10,1:1:0:0:
123,277,60555,1,2,1:0:0:0:
180,361,60753,86,0,P|239:379|291:360,1,85.25,4|2,3:0|2:0,0:0:0:0:
300,280,61151,2,0,P|342:278|381:295,1,85.25,8|4,2:1|3:0,0:0:0:0:
466,352,61548,1,0,3:0:0:0:
507,258,61747,1,2,1:0:0:0:
500,155,61945,1,10,1:1:0:0:
493,53,62144,1,2,1:0:0:0:
401,6,62343,21,4,3:0:0:0:
127,0,63336,85,2,1:0:0:0:
110,101,63535,1,10,1:1:0:0:
96,202,63734,1,2,1:0:0:0:
89,294,63932,70,2,B|90:313|128:309|127:290|127:290|125:271|163:268|165:287|165:287|167:306|205:303|203:283|203:283|201:264|240:261|241:280|241:280|243:299|281:296|279:277|279:277|278:258|316:254|318:273,1,310,6|0,1:0|0:0,0:1:0:0:
398,320,64926,1,2,2:0:0:0:
398,320,65124,1,2,2:0:0:0:
398,320,65323,1,2,2:0:0:0:
490,307,65522,70,0,P|493:356|500:404,2,77.5,4|2|8,3:0|2:0|2:1,0:0:0:0:
429,236,66118,2,0,P|432:187|439:139,1,77.5,4|0,3:0|3:0,0:0:0:0:
489,85,66515,1,2,2:0:0:0:
489,85,66714,1,8,2:1:0:0:
489,85,66912,1,2,2:0:0:0:
411,32,67111,38,2,B|408:8|362:12|364:36|364:36|366:59|319:63|317:40|317:40|315:16|269:20|271:44|271:44|273:67|226:71|224:48|224:48|222:25|175:29|177:52|177:52|179:75|133:79|131:56,1,387.5,6|0,1:0|0:0,0:1:0:0:
38,57,68303,1,2,2:0:0:0:
23,149,68502,1,2,2:0:0:0:
23,149,68601,1,2,2:0:0:0:
23,149,68700,70,0,P|20:198|13:246,2,77.5,4|2|8,3:0|2:0|2:1,0:0:0:0:
115,154,69296,2,0,P|118:203|125:251,1,77.5,4|0,3:0|3:0,0:0:0:0:
175,305,69694,1,2,2:0:0:0:
175,305,69892,1,8,2:1:0:0:
175,305,70091,1,2,2:0:0:0:
257,222,70290,6,0,L|435:208,1,145.3125,4|0,3:0|0:0,0:0:0:0:
417,206,70687,2,0,P|441:156|419:95,1,96.875,8|4,2:1|3:0,0:0:0:0:
344,41,71085,2,0,P|288:45|246:94,1,96.875,0|2,3:0|2:0,0:0:0:0:
240,190,71482,2,0,P|271:235|335:247,1,96.875,8|2,2:1|2:0,0:0:0:0:
417,206,71879,5,4,3:0:0:0:
477,317,72078,1,2,2:0:0:0:
477,317,72177,1,2,2:0:0:0:
477,317,72277,2,0,L|361:325,1,96.875,8|4,2:1|3:0,0:0:0:0:
266,348,72674,2,0,B|221:373|221:373|171:367,1,96.875,0|2,3:0|2:0,0:0:0:0:
83,295,73071,2,0,B|128:270|128:270|173:275,1,96.875,8|2,2:1|2:0,0:0:0:0:
289,267,73469,101,4,3:0:0:0:
243,38,73866,2,0,P|191:46|126:47,1,96.875,8|4,2:1|3:0,0:0:0:0:
115,159,74263,2,0,P|63:151|-2:150,1,96.875,0|2,3:0|2:0,0:0:0:0:
2,33,74661,1,8,2:1:0:0:
204,148,75058,5,4,3:0:0:0:
326,173,75257,1,2,2:0:0:0:
326,173,75356,1,2,2:0:0:0:
326,173,75455,2,0,L|340:-5,1,145.3125,8|2,2:1|2:0,0:0:0:0:
342,11,75853,1,0,3:0:0:0:
457,26,76051,2,0,P|460:75|467:123,1,96.875,2|8,2:0|2:1,0:0:0:0:
418,227,76449,1,2,2:0:0:0:
475,352,76647,102,0,B|354:373|405:296|286:315,1,193.75,4|8,3:0|2:1,0:0:0:0:
191,372,77243,1,4,3:0:0:0:
85,322,77442,2,0,P|83:273|76:226,1,96.875,0|2,3:0|2:0,0:0:0:0:
182,178,77840,2,0,P|174:225|172:274,1,96.875,8|2,2:1|2:0,0:0:0:0:
281,315,78237,5,4,3:0:0:0:
376,247,78436,1,2,2:0:0:0:
376,247,78535,1,2,2:0:0:0:
376,247,78634,2,0,L|373:129,1,96.875,8|4,2:1|3:0,0:0:0:0:
435,51,79032,2,0,P|385:29|324:50,1,96.875,0|2,3:0|1:0,0:0:0:0:
255,110,79429,1,10,1:1:0:0:
158,48,79628,1,2,1:0:0:0:
63,154,79826,101,4,3:0:0:0:
63,154,80224,2,0,P|87:204|65:265,1,96.875,8|4,2:1|3:0,0:0:0:0:
162,326,80621,2,0,P|200:297|248:297,1,96.875,0|2,3:0|2:0,0:0:0:0:
298,192,81018,2,0,P|329:237|393:249,1,96.875,8|2,2:1|2:0,0:0:0:0:
400,139,81416,5,4,3:0:0:0:
354,43,81614,1,2,2:0:0:0:
354,43,81714,1,2,2:0:0:0:
354,43,81813,2,0,L|238:35,1,96.875,8|4,2:1|3:0,0:0:0:0:
146,70,82210,2,0,B|121:115|121:115|127:165,1,96.875,0|2,3:0|2:0,0:0:0:0:
237,196,82608,2,0,B|262:151|262:151|257:106,1,96.875,8|2,2:1|2:0,0:0:0:0:
146,70,83005,101,4,3:0:0:0:
146,70,83204,1,2,2:0:0:0:
33,99,83402,2,0,P|41:151|42:216,1,96.875,8|4,2:1|3:0,0:0:0:0:
44,311,83800,2,0,P|92:313|140:320,1,96.875,0|0,3:0|3:0,0:0:0:0:
244,374,84197,2,0,P|292:371|340:364,1,96.875,8|0,2:1|0:0,0:0:0:0:
435,296,84594,5,4,3:0:0:0:
364,218,84793,1,2,2:0:0:0:
364,218,84892,1,2,2:0:0:0:
364,218,84992,2,0,L|350:40,1,145.3125,8|2,2:1|2:0,0:0:0:0:
352,56,85389,1,0,3:0:0:0:
239,26,85588,2,0,P|190:23|142:16,1,96.875,2|8,2:0|2:1,0:0:0:0:
51,88,85985,1,2,2:0:0:0:
157,194,86184,102,0,B|178:315|101:264|120:383,1,193.75,4|8,3:0|2:1,0:0:0:0:
233,355,86780,1,4,3:0:0:0:
297,258,86979,2,0,P|295:209|288:162,1,96.875,0|2,3:0|2:0,0:0:0:0:
394,115,87376,2,0,P|395:66|403:18,1,96.875,8|2,2:1|2:0,0:0:0:0:
510,0,87773,5,4,3:0:0:0:
509,123,87972,1,2,2:0:0:0:
509,123,88071,1,2,2:0:0:0:
509,123,88171,2,0,L|501:240,1,96.875,8|4,2:1|3:0,0:0:0:0:
489,335,88568,2,0,P|439:357|378:336,1,96.875,0|2,3:0|1:0,0:0:0:0:
332,253,88965,1,10,1:1:0:0:
379,147,89164,1,2,1:0:0:0:
288,43,89363,101,4,2:0:0:0:
160,237,89760,2,0,L|179:109,1,96.875,8|4,2:1|3:0,0:0:0:0:
193,29,90157,2,0,L|288:43,1,96.875,0|2,3:0|2:0,0:0:0:0:
403,66,90555,1,8,2:1:0:0:
403,66,90753,6,0,P|383:160|375:257,2,193.75,2|2|4,2:0|2:0|3:0,0:0:0:0:
288,43,91747,2,0,L|160:62,1,96.875,0|2,3:0|2:0,0:0:0:0:
80,76,92144,2,0,L|94:171,1,96.875,8|2,2:1|2:0,0:0:0:0:
117,286,92542,101,4,3:0:0:0:
346,247,92939,2,0,L|327:119,1,96.875,8|4,2:1|3:0,0:0:0:0:
313,39,93336,2,0,L|217:53,1,96.875,0|2,3:0|2:0,0:0:0:0:
103,76,93734,1,8,2:1:0:0:
103,76,93932,1,2,2:0:0:0:
135,187,94131,6,0,P|137:236|144:283,1,96.875,4|2,3:0|2:0,0:0:0:0:
41,338,94528,2,0,P|48:290|49:241,1,96.875,8|4,2:1|3:0,0:0:0:0:
5,133,94926,1,0,3:0:0:0:
124,32,95124,1,2,1:0:0:0:
235,64,95323,1,10,1:1:0:0:
345,101,95522,1,2,1:0:0:0:
431,131,95720,86,0,L|453:380,1,232.5,4|4,3:0|3:0,0:0:0:0:
426,351,97310,38,0,L|447:120,1,232.5,4|4,3:0|3:0,0:0:0:0:
286,25,98303,2,0,P|244:22|205:39,2,77.5,2|2|2,1:0|1:0|1:0,0:0:0:0:
259,114,98899,70,0,L|237:363,1,232.5,4|4,3:0|3:0,0:0:0:0:
239,345,100489,38,0,L|218:113,1,232.5,4|4,3:0|3:0,0:0:0:0:
401,144,101482,70,0,P|443:147|482:130,2,77.5,2|2|2,1:0|1:0|1:0,0:0:0:0:
320,80,102078,70,0,B|298:120|298:120|302:158,1,85.25,4|2,3:0|2:0,0:0:0:0:
350,253,102475,2,0,B|355:292|355:292|332:331,1,85.25,8|4,2:1|3:0,0:0:0:0:
230,344,102873,1,0,3:0:0:0:
230,344,103071,1,2,2:0:0:0:
167,269,103270,1,8,2:1:0:0:
167,269,103469,1,2,2:0:0:0:
221,182,103667,38,0,P|229:130|230:65,1,85.25,4|2,3:0|2:0,0:0:0:0:
190,2,104065,1,8,2:1:0:0:
45,36,104263,2,0,L|29:386,1,341,4|2,3:0|2:0,0:0:0:0:
126,342,105257,70,0,P|168:335|210:332,1,85.25,4|2,3:0|2:0,0:0:0:0:
278,255,105654,2,0,P|320:257|362:264,1,85.25,8|4,2:1|3:0,0:0:0:0:
463,301,106051,1,0,3:0:0:0:
463,301,106250,1,2,2:0:0:0:
510,212,106449,1,8,2:1:0:0:
510,212,106647,1,2,2:0:0:0:
454,125,106846,38,0,L|449:27,2,85.25,4|2|8,3:0|2:0|2:1,0:0:0:0:
340,50,107442,2,2,L|-10:34,1,341,4|2,3:0|2:0,0:1:0:0:
2,151,108436,70,0,B|2:179|2:179|16:199,3,48.4375,4|2|2|2,3:0|2:0|2:0|2:0,0:0:0:0:
46,200,108833,2,0,B|71:213|71:213|95:211,3,48.4375,8|2|4|2,2:1|2:0|3:0|2:0,0:0:0:0:
116,194,109230,2,0,L|244:181,1,96.875,0|2,3:0|2:0,0:0:0:0:
324,149,109628,2,0,P|306:233|299:319,1,145.3125,8|0,2:1|0:0,0:0:0:0:
308,322,110025,38,0,B|332:308|332:308|356:310,3,48.4375,4|2|2|2,3:0|2:0|2:0|2:0,0:0:0:0:
372,336,110422,2,0,B|395:351|395:351|406:372,3,48.4375,8|2|4|2,2:1|2:0|3:0|2:0,0:0:0:0:
432,355,110820,2,0,L|445:227,1,96.875,0|2,3:0|2:0,0:0:0:0:
476,146,111217,2,0,P|403:137|332:121,1,145.3125,8|0,2:1|0:0,0:0:0:0:
314,113,111614,69,4,3:0:0:0:
231,30,111813,1,2,2:0:0:0:
144,108,112012,2,0,P|156:165|163:224,1,96.875,8|4,2:1|3:0,0:0:0:0:
300,109,112409,1,0,3:0:0:0:
232,41,112608,1,2,2:0:0:0:
160,105,112806,2,0,P|170:152|176:200,1,96.875,8|2,2:1|2:0,0:0:0:0:
240,297,113204,38,0,P|181:315|129:296,1,96.875,4|2,3:0|2:0,0:0:0:0:
84,210,113601,2,0,P|143:192|195:211,1,96.875,8|4,2:1|3:0,0:0:0:0:
265,178,113998,2,0,P|295:209|326:178,1,77.5,0|2,3:0|2:0,0:0:0:0:
384,125,114396,2,0,P|354:94|323:125,1,77.5,8|2,2:1|2:0,0:0:0:0:
195,210,114793,69,4,2:0:0:0:
397,47,117376,37,2,1:0:0:0:
418,124,117575,1,2,1:0:0:0:
441,199,117773,1,2,1:0:0:0:
476,277,117972,54,0,P|418:278|375:248,1,87.1875000000002,4|0,2:0|0:0,0:0:0:0:
372,253,118369,2,0,B|223:202|253:342|93:281,1,290.625000000001,8|2,2:1|2:0,0:0:0:0:
104,205,119561,54,0,L|84:126,1,58.1250000000001,4|2,3:0|2:0,0:0:0:0:
159,106,119959,2,0,L|144:49,1,58.1250000000001,8|4,2:1|3:0,0:0:0:0:
206,2,120356,1,0,3:0:0:0:
206,2,120555,1,2,2:0:0:0:
268,45,120753,1,8,2:1:0:0:
236,181,121151,53,4,3:0:0:0:
379,254,121548,2,0,B|366:320|321:279|309:351,1,116.25,8|0,2:1|3:0,0:0:0:0:
232,341,122144,2,0,B|222:278|176:319|163:253,1,116.25,2|2,2:0|2:0,0:0:0:0:
104,205,122740,54,0,L|84:126,1,58.1250000000001,4|2,3:0|2:0,0:0:0:0:
159,106,123138,2,0,L|144:49,1,58.1250000000001,8|4,2:1|3:0,0:0:0:0:
206,2,123535,1,0,3:0:0:0:
277,53,123734,1,2,2:0:0:0:
277,53,123833,1,2,2:0:0:0:
277,53,123932,2,0,L|348:48,1,58.1250000000001,8|2,2:1|2:0,0:0:0:0:
461,89,124330,54,0,P|464:138|471:186,1,77.5,4|0,3:0|0:0,0:0:0:0:
496,254,124727,1,8,2:1:0:0:
422,310,124926,1,4,3:0:0:0:
342,263,125124,2,0,B|303:240|303:240|258:246,1,77.5,0|2,3:0|2:0,0:0:0:0:
188,288,125522,2,0,B|149:292|149:292|109:270,1,77.5,8|2,2:1|2:0,0:0:0:0:
77,142,125919,53,4,3:0:0:0:
77,142,126118,1,2,2:0:0:0:
140,75,126316,1,8,2:1:0:0:
140,75,126515,1,4,3:0:0:0:
10,9,126714,2,0,P|7:58|0:106,1,77.5,0|2,3:0|2:0,0:0:0:0:
77,142,127111,2,0,P|80:191|87:239,1,77.5,8|2,2:1|2:0,0:0:0:0:
93,244,127409,1,2,2:0:0:0:
93,244,127508,54,0,P|149:248|191:297,1,116.25,4|0,3:0|0:0,0:0:0:0:
186,310,127906,1,8,2:1:0:0:
298,364,128104,1,4,3:0:0:0:
298,364,128303,1,0,3:0:0:0:
356,291,128502,2,0,B|445:321|426:237|522:274,1,155,2|2,2:0|2:0,0:0:0:0:
484,176,129098,54,0,P|479:137|477:98,1,77.5,4|2,3:0|2:0,0:0:0:0:
414,30,129495,2,0,P|375:34|336:36,1,77.5,8|4,2:1|3:0,0:0:0:0:
195,0,129892,2,0,P|199:38|201:77,1,77.5,0|2,3:0|2:0,0:0:0:0:
265,146,130290,2,0,P|303:141|342:139,1,77.5,8|2,2:1|2:0,0:0:0:0:
422,90,130687,53,4,3:0:0:0:
499,141,130886,1,2,2:0:0:0:
499,141,130985,1,2,2:0:0:0:
499,141,131085,1,8,2:1:0:0:
455,222,131283,2,0,P|383:227|330:289,2,155,4|2|2,3:0|2:0|2:0,0:0:0:0:
500,328,132277,54,0,P|461:323|422:321,1,77.5,4|2,3:0|2:0,0:0:0:0:
331,287,132674,2,0,P|292:291|253:293,1,77.5,8|4,2:1|3:0,0:0:0:0:
159,248,133071,2,0,P|120:243|81:241,1,77.5,0|2,3:0|1:0,0:0:0:0:
0,171,133469,54,0,P|238:87|513:167,1,542.5,10|2,1:1|1:0,0:0:0:0:
434,277,135058,2,0,P|395:279|356:283,1,77.5,10|2,2:1|1:0,0:0:0:0:
284,225,135455,53,4,3:0:0:0:
284,225,135654,1,2,2:0:0:0:
328,152,135853,1,8,2:1:0:0:
328,152,136051,1,4,3:0:0:0:
263,85,136250,1,0,3:0:0:0:
169,84,136449,1,2,1:0:0:0:
152,175,136647,1,2,1:0:0:0:
140,266,136846,1,2,1:0:0:0:
127,358,137045,38,2,B|128:377|166:373|165:354|165:354|163:335|201:332|203:351|203:351|205:370|243:367|241:347|241:347|239:328|278:325|279:344|279:344|281:363|319:360|317:341|317:341|316:322|354:318|356:337,1,310,6|0,1:0|0:0,0:1:0:0:
437,285,138038,1,2,2:0:0:0:
437,285,138237,1,2,2:0:0:0:
437,285,138436,1,2,2:0:0:0:
473,199,138634,70,0,P|476:150|483:102,2,77.5,4|2|8,3:0|2:0|2:1,0:0:0:0:
384,170,139230,2,0,P|379:131|377:92,1,77.5,4|0,3:0|3:0,0:0:0:0:
322,31,139628,1,2,2:0:0:0:
322,31,139826,1,8,2:1:0:0:
322,31,140025,1,2,2:0:0:0:
236,45,140224,38,2,B|212:48|216:93|240:92|240:92|263:90|267:137|244:139|244:139|220:141|224:187|248:185|248:185|271:183|275:230|252:232|252:232|229:234|233:281|256:279|256:279|279:277|283:323|260:325,1,387.5,6|0,1:0|0:0,0:1:0:0:
178,360,141416,1,2,2:0:0:0:
104,322,141614,1,2,2:0:0:0:
104,322,141714,1,0,0:0:0:0:
104,322,141813,70,0,P|55:319|7:312,2,77.5,4|2|8,3:0|2:0|2:1,0:0:0:0:
142,237,142409,2,0,P|137:198|135:159,1,77.5,4|0,3:0|3:0,0:0:0:0:
60,124,142806,1,2,2:0:0:0:
60,124,143005,1,8,2:1:0:0:
60,124,143204,1,2,2:0:0:0:
168,47,143402,6,0,L|346:61,1,145.3125,4|0,3:0|0:0,0:0:0:0:
334,60,143800,2,0,P|358:110|336:171,1,96.875,8|4,2:1|3:0,0:0:0:0:
310,262,144197,2,0,P|348:233|396:233,1,96.875,0|2,3:0|2:0,0:0:0:0:
509,205,144594,2,0,P|465:186|439:146,1,96.875,8|2,2:1|2:0,0:0:0:0:
489,40,144992,5,4,3:0:0:0:
383,18,145191,1,2,2:0:0:0:
383,18,145290,1,2,2:0:0:0:
383,18,145389,2,0,L|267:26,1,96.875,8|4,2:1|3:0,0:0:0:0:
171,45,145787,2,0,B|146:90|146:90|152:140,1,96.875,0|2,3:0|2:0,0:0:0:0:
262,171,146184,2,0,B|267:216|267:216|242:261,1,96.875,8|2,2:1|2:0,0:0:0:0:
145,325,146581,101,4,3:0:0:0:
55,144,146979,2,0,P|107:136|172:135,1,96.875,8|4,2:1|3:0,0:0:0:0:
220,40,147376,2,0,P|171:37|123:30,1,96.875,0|2,3:0|2:0,0:0:0:0:
10,55,147773,1,8,2:1:0:0:
172,221,148171,5,4,3:0:0:0:
281,174,148369,1,2,2:0:0:0:
281,174,148469,1,2,2:0:0:0:
281,174,148568,2,0,L|267:-4,1,145.3125,8|2,2:1|2:0,0:0:0:0:
269,12,148965,1,0,3:0:0:0:
372,65,149164,2,0,P|421:68|469:75,1,96.875,2|8,2:0|2:1,0:0:0:0:
496,187,149561,1,2,2:0:0:0:
408,288,149760,102,0,B|287:267|338:344|219:325,1,193.75,4|8,3:0|2:1,0:0:0:0:
125,266,150356,1,4,3:0:0:0:
188,168,150555,2,0,P|186:119|179:72,1,96.875,0|2,3:0|2:0,0:0:0:0:
66,76,150952,2,0,P|58:123|56:172,1,96.875,8|2,2:1|2:0,0:0:0:0:
125,266,151349,5,4,3:0:0:0:
196,176,151548,1,2,2:0:0:0:
196,176,151647,1,2,2:0:0:0:
196,176,151747,2,0,L|314:179,1,96.875,8|4,2:1|3:0,0:0:0:0:
392,117,152144,2,0,P|414:167|393:228,1,96.875,0|2,3:0|1:0,0:0:0:0:
323,289,152542,1,10,1:1:0:0:
292,178,152740,1,2,1:0:0:0:
253,37,152939,101,4,3:0:0:0:
253,37,153336,2,0,P|221:82|157:94,1,96.875,8|4,2:1|3:0,0:0:0:0:
201,212,153734,2,0,P|256:216|298:265,1,96.875,0|2,3:0|2:0,0:0:0:0:
382,173,154131,2,0,P|358:123|380:62,1,96.875,8|2,2:1|2:0,0:0:0:0:
476,114,154528,5,4,3:0:0:0:
499,237,154727,1,2,2:0:0:0:
499,237,154826,1,2,2:0:0:0:
499,237,154926,2,0,L|507:353,1,96.875,8|4,2:1|3:0,0:0:0:0:
389,346,155323,2,0,B|344:371|344:371|294:365,1,96.875,0|2,3:0|2:0,0:0:0:0:
244,262,155720,2,0,B|199:257|199:257|154:282,1,96.875,8|2,2:1|2:0,0:0:0:0:
82,374,156118,101,4,3:0:0:0:
82,374,156316,1,2,2:0:0:0:
10,282,156515,2,0,P|18:230|19:165,1,96.875,8|4,2:1|3:0,0:0:0:0:
21,70,156912,2,0,P|69:68|117:61,1,96.875,0|0,3:0|3:0,0:0:0:0:
221,8,157310,2,0,P|269:11|317:18,1,96.875,8|2,2:1|2:0,0:0:0:0:
448,121,157707,5,4,3:0:0:0:
351,182,157906,1,2,2:0:0:0:
351,182,158005,1,2,2:0:0:0:
351,182,158104,2,0,L|365:360,1,145.3125,8|2,2:1|2:0,0:0:0:0:
363,344,158502,1,0,3:0:0:0:
472,306,158700,2,0,P|475:257|482:209,1,96.875,2|8,2:0|2:1,0:0:0:0:
448,121,159098,1,2,2:0:0:0:
351,182,159296,102,0,B|230:203|281:126|162:145,1,193.75,4|8,3:0|2:1,0:0:0:0:
78,217,159892,1,4,3:0:0:0:
8,123,160091,2,0,P|6:74|-1:27,1,96.875,0|2,3:0|2:0,0:0:0:0:
114,2,160489,2,0,P|113:51|105:99,1,96.875,8|2,2:1|2:0,0:0:0:0:
78,217,160886,5,4,3:0:0:0:
175,298,161085,1,2,2:0:0:0:
175,298,161184,1,2,2:0:0:0:
175,298,161283,2,0,L|183:181,1,96.875,8|4,2:1|3:0,0:0:0:0:
127,122,161681,2,0,P|177:100|238:121,1,96.875,0|2,3:0|1:0,0:0:0:0:
301,188,162078,1,10,1:1:0:0:
407,142,162277,1,2,1:0:0:0:
496,234,162475,101,4,3:0:0:0:
310,375,162873,2,0,L|182:356,1,96.875,8|4,2:1|3:0,0:0:0:0:
102,342,163270,2,0,L|116:247,1,96.875,0|2,3:0|2:0,0:0:0:0:
139,132,163667,1,8,2:1:0:0:
139,132,163866,6,0,P|233:152|330:160,2,193.75,2|2|4,2:0|2:0|3:0,0:0:0:0:
116,246,164859,2,0,L|97:374,1,96.875,0|2,3:0|2:0,0:0:0:0:
214,360,165257,2,0,L|309:374,1,96.875,8|2,2:1|2:0,0:0:0:0:
410,313,165654,101,4,3:0:0:0:
203,206,166051,2,0,L|222:78,1,96.875,8|4,2:1|3:0,0:0:0:0:
236,0,166449,2,0,L|332:14,1,96.875,0|2,3:0|2:0,0:0:0:0:
446,35,166846,1,8,2:1:0:0:
446,35,167045,1,2,2:0:0:0:
432,150,167243,6,0,P|434:199|441:246,1,96.875,4|2,3:0|2:0,0:0:0:0:
324,244,167641,2,0,P|331:196|332:147,1,96.875,8|4,2:1|3:0,0:0:0:0:
256,58,168038,1,0,3:0:0:0:
256,58,168237,1,2,1:0:0:0:
230,143,168436,1,10,1:1:0:0:
200,238,168634,1,2,1:0:0:0:
168,344,168833,101,4,3:0:0:0:
399,331,169230,2,0,L|380:203,1,96.875,8|4,2:1|3:0,0:0:0:0:
366,123,169628,2,0,L|271:137,1,96.875,0|2,3:0|2:0,0:0:0:0:
156,160,170025,1,8,2:1:0:0:
156,160,170224,6,0,P|176:254|184:351,2,193.75,2|2|4,2:0|2:0|3:0,0:0:0:0:
270,137,171217,2,0,L|398:118,1,96.875,0|2,3:0|2:0,0:0:0:0:
384,235,171614,2,0,L|398:330,1,96.875,8|2,2:1|2:0,0:0:0:0:
282,346,172012,101,4,3:0:0:0:
270,137,172409,2,0,L|398:118,1,96.875,8|4,2:1|3:0,0:0:0:0:
480,102,172806,2,0,L|466:6,1,96.875,0|2,3:0|2:0,0:0:0:0:
353,24,173204,1,8,2:1:0:0:
353,24,173402,1,2,2:0:0:0:
239,51,173601,6,0,P|190:49|143:42,1,96.875,4|2,3:0|2:0,0:0:0:0:
145,159,173998,2,0,P|193:152|242:151,1,96.875,8|4,2:1|3:0,0:0:0:0:
331,227,174396,1,0,3:0:0:0:
331,227,174594,1,2,1:0:0:0:
219,260,174793,1,10,1:1:0:0:
106,290,174992,1,2,1:0:0:0:
24,373,175191,101,4,2:0:0:0:
256,192,181564,5,4,2:0:0:0:
256,192,181763,12,0,183948,3:0:0:0:
168,47,184743,102,0,L|346:61,1,145.3125,4|0,3:0|0:0,0:0:0:0:
334,60,185140,2,0,P|358:110|336:171,1,96.875,8|4,2:1|3:0,0:0:0:0:
180,183,185538,2,0,P|218:154|266:154,1,96.875,0|2,3:0|2:0,0:0:0:0:
380,281,185935,2,0,P|336:262|310:222,1,96.875,8|2,2:1|2:0,0:0:0:0:
334,60,186333,5,4,3:0:0:0:
454,97,186531,1,2,2:0:0:0:
454,97,186631,1,2,2:0:0:0:
454,97,186730,2,0,L|462:213,1,96.875,8|4,2:1|3:0,0:0:0:0:
494,305,187127,2,0,B|449:330|449:330|399:324,1,96.875,0|2,3:0|2:0,0:0:0:0:
288,304,187525,2,0,B|243:299|243:299|198:324,1,96.875,8|2,2:1|2:0,0:0:0:0:
96,381,187922,101,4,3:0:0:0:
142,152,188319,2,0,P|150:204|151:269,1,96.875,8|4,2:1|3:0,0:0:0:0:
257,198,188717,2,0,P|260:149|267:101,1,96.875,0|0,3:0|3:0,0:0:0:0:
342,13,189114,1,8,2:1:0:0:
486,195,189511,5,4,3:0:0:0:
390,254,189710,1,2,2:0:0:0:
390,254,189809,1,2,2:0:0:0:
390,254,189909,2,0,L|404:76,1,145.3125,8|2,2:1|2:0,0:0:0:0:
402,92,190306,1,0,3:0:0:0:
305,26,190505,2,0,P|256:23|208:16,1,96.875,2|8,2:0|2:1,0:0:0:0:
129,101,190902,1,2,2:0:0:0:
262,170,191101,102,0,B|283:291|206:240|225:359,1,193.75,4|8,3:0|2:1,0:0:0:0:
339,339,191697,1,4,3:0:0:0:
449,375,191895,2,0,P|451:326|458:279,1,96.875,0|2,3:0|2:0,0:0:0:0:
383,189,192293,2,0,P|381:140|373:92,1,96.875,8|2,2:1|2:0,0:0:0:0:
469,27,192690,5,4,3:0:0:0:
490,149,192889,1,2,2:0:0:0:
490,149,192988,1,0,0:0:0:0:
490,149,193087,2,0,L|493:267,1,96.875,8|4,2:1|3:0,0:0:0:0:
444,352,193485,2,0,P|396:358|353:337,1,96.875,0|2,3:0|1:0,0:0:0:0:
260,266,193882,1,10,1:1:0:0:
291,155,194081,1,2,1:0:0:0:
330,20,194280,101,4,3:0:0:0:
260,266,194677,2,0,L|132:247,1,96.875,8|4,2:1|3:0,0:0:0:0:
48,240,195074,2,0,L|62:145,1,96.875,0|2,3:0|2:0,0:0:0:0:
90,33,195472,1,8,2:1:0:0:
90,33,195670,6,0,P|184:53|281:61,2,193.75,2|2|4,2:0|2:0|3:0,0:0:0:0:
62,144,196664,2,0,L|43:272,1,96.875,0|2,3:0|2:0,0:0:0:0:
160,258,197061,2,0,L|255:272,1,96.875,8|2,2:1|2:0,0:0:0:0:
371,288,197458,101,4,3:0:0:0:
289,70,197856,2,0,L|417:89,1,96.875,8|4,2:1|3:0,0:0:0:0:
495,103,198253,2,0,L|481:199,1,96.875,0|2,3:0|2:0,0:0:0:0:
460,313,198650,1,8,2:1:0:0:
460,313,198849,1,2,2:0:0:0:
344,299,199048,6,0,P|346:250|353:203,1,96.875,4|2,3:0|2:0,0:0:0:0:
240,148,199445,2,0,P|246:195|248:244,1,96.875,8|4,2:1|3:0,0:0:0:0:
174,335,199842,1,0,3:0:0:0:
174,335,200041,1,2,1:0:0:0:
148,250,200240,1,10,1:1:0:0:
118,155,200438,1,2,1:0:0:0:
86,48,200637,101,4,3:0:0:0:
304,6,201035,2,0,L|432:25,1,96.875,8|4,2:1|3:0,0:0:0:0:
512,39,201432,2,0,L|498:134,1,96.875,0|2,3:0|2:0,0:0:0:0:
475,249,201829,1,8,2:1:0:0:
475,249,202028,6,0,P|381:229|284:221,2,193.75,2|2|4,2:0|2:0|3:0,0:0:0:0:
414,349,203021,2,0,L|286:368,1,96.875,0|2,3:0|2:0,0:0:0:0:
202,378,203419,2,0,L|188:283,1,96.875,8|2,2:1|2:0,0:0:0:0:
170,166,203816,101,4,3:0:0:0:
170,166,204213,2,0,L|298:147,1,96.875,8|4,2:1|3:0,0:0:0:0:
381,136,204611,2,0,L|395:232,1,96.875,0|2,3:0|2:0,0:0:0:0:
512,218,205008,1,8,2:1:0:0:
512,218,205207,1,2,2:0:0:0:
395,242,205405,102,0,P|360:243|327:248,1,65.8750000000002,4|2,3:0|2:0,0:0:0:0:
337,326,205803,2,0,P|370:321|405:320,1,65.8750000000002,8|4,2:1|3:0,0:0:0:0:
479,305,206200,2,0,P|474:271|473:236,2,65.8750000000002,0|2|8,3:0|2:0|2:1,0:0:0:0:
456,378,206796,37,2,2:0:0:0:
