osu file format v14

[General]
AudioFilename: audio.ogg
AudioLeadIn: 0
PreviewTime: 47992
Countdown: 0
SampleSet: Normal
StackLeniency: 0.7
Mode: 1
LetterboxInBreaks: 0
WidescreenStoryboard: 1

[Editor]
Bookmarks: 479,10079,19679,29279,48479,65279,74879,84479,94079,103679,113279,132479,149279,158879,166079
DistanceSpacing: 0.1
BeatDivisor: 4
GridSize: 32
TimelineZoom: 1.1

[Metadata]
Title:Bad End Donuts feat. tug
TitleUnicode:バッドエンドーナツ feat. つぐ
Artist:RuLu
ArtistUnicode:RuLu
Creator:gaston_2199
Version:Muzukashii
Source:
Tags:負け犬 Mekeinu tsugu rock japanese jrock j-rock female vocal
BeatmapID:3964807
BeatmapSetID:1920175

[Difficulty]
HPDrainRate:6
CircleSize:2
OverallDifficulty:5
ApproachRate:10
SliderMultiplier:1.4
SliderTickRate:1

[Events]
//Background and Video events
0,0,"BG.jpg",0,60
//Break Periods
//Storyboard Layer 0 (Background)
//Storyboard Layer 1 (Fail)
//Storyboard Layer 2 (Pass)
//Storyboard Layer 3 (Foreground)
//Storyboard Layer 4 (Overlay)
//Storyboard Sound Samples

[TimingPoints]
480,300,4,1,0,80,1,0
480,-100,4,1,0,80,0,0
10230,-111.111111111111,4,1,0,70,0,0
18330,-111.111111111111,4,1,0,80,0,0
18702,-109.090909090909,4,1,0,80,0,0
18777,-107.142857142857,4,1,0,80,0,0
18852,-105.263157894737,4,1,0,80,0,0
18927,-103.448275862069,4,1,0,80,0,0
19002,-101.694915254237,4,1,0,80,0,0
19077,-100,4,1,0,80,0,0
28077,-83.3333333333333,4,1,0,80,0,0
28227,-86.9565217391304,4,1,0,80,0,0
28377,-90.9090909090909,4,1,0,80,0,0
28527,-95.2380952380952,4,1,0,80,0,0
28677,-100,4,1,0,80,0,0
29280,-125,4,1,0,80,0,0
38880,-111.111111111111,4,1,0,70,0,0
46077,-100,4,1,0,80,0,0
46227,-99.1735537190083,4,1,0,80,0,0
46377,-98.3606557377049,4,1,0,80,0,0
46527,-97.5609756097561,4,1,0,80,0,0
46602,-89.8876404494382,4,1,0,80,0,0
46677,-96.7741935483871,4,1,0,80,0,0
46827,-96,4,1,0,80,0,0
46977,-95.2380952380952,4,1,0,80,0,0
47052,-96.3855421686747,4,1,0,80,0,0
47127,-94.488188976378,4,1,0,80,0,0
47277,-93.75,4,1,0,80,0,0
47427,-93.0232558139535,4,1,0,80,0,0
47502,-92.6640926640926,4,1,0,80,0,0
47577,-92.3076923076923,4,1,0,80,0,0
47727,-91.6030534351145,4,1,0,80,0,0
47877,-90.9090909090909,4,1,0,80,0,0
48480,-100,4,1,0,90,0,1
62880,-90.9090909090909,4,1,0,90,0,1
65280,-100,4,1,0,80,0,0
73680,-142.857142857143,4,1,0,70,0,0
74880,-111.111111111111,4,1,0,80,0,0
84477,-100,4,1,0,80,0,0
92868,-83.3333333333333,4,1,0,80,0,0
93018,-86.9565217391304,4,1,0,80,0,0
93168,-90.9090909090909,4,1,0,80,0,0
93318,-95.2380952380952,4,1,0,80,0,0
93468,-100,4,1,0,80,0,0
94080,-142.857142857143,4,1,0,80,0,1
98430,-142.857142857143,4,1,0,80,0,0
98880,-142.857142857143,4,1,0,80,0,1
103680,-125,4,1,0,80,0,1
112077,-100,4,1,0,80,0,1
112277,-103.448275862069,4,1,0,80,0,1
112477,-107.142857142857,4,1,0,80,0,1
112577,-109.090909090909,4,1,0,80,0,1
112677,-111.111111111111,4,1,0,80,0,1
112877,-115.384615384615,4,1,0,80,0,1
113077,-120,4,1,0,80,0,1
113177,-122.448979591837,4,1,0,80,0,1
113280,-125,4,1,0,80,0,0
122880,-111.111111111111,4,1,0,70,0,0
130077,-100,4,1,0,80,0,0
130227,-99.3788819875776,4,1,0,80,0,0
130377,-98.7654320987654,4,1,0,80,0,0
130527,-98.159509202454,4,1,0,80,0,0
130602,-89.8876404494382,4,1,0,80,0,0
130677,-97.5609756097561,4,1,0,80,0,0
130827,-96.969696969697,4,1,0,80,0,0
130977,-96.3855421686747,4,1,0,80,0,0
131052,-96.3855421686747,4,1,0,80,0,0
131127,-95.8083832335329,4,1,0,80,0,0
131277,-95.2380952380952,4,1,0,80,0,0
131427,-94.6745562130177,4,1,0,80,0,0
131502,-94.3952802359882,4,1,0,80,0,0
131577,-94.1176470588235,4,1,0,80,0,0
131727,-93.5672514619883,4,1,0,80,0,0
131877,-93.0232558139535,4,1,0,80,0,0
132027,-88.8888888888889,4,1,0,80,0,0
132102,-87.9120879120879,4,1,0,80,0,0
132177,-91.9540229885057,4,1,0,80,0,0
132252,-91.6905444126074,4,1,0,80,0,0
132327,-91.4285714285714,4,1,0,80,0,0
132402,-84.2105263157895,4,1,0,80,0,0
132477,-90.9090909090909,4,1,0,80,0,0
132630,-125,4,1,0,60,0,0
142077,-111.111111111111,4,1,0,70,0,0
142377,-111.888111888112,4,1,0,70,0,0
142677,-112.676056338028,4,1,0,70,0,0
142977,-113.475177304965,4,1,0,70,0,0
143277,-114.285714285714,4,1,0,70,0,0
143577,-115.107913669065,4,1,0,70,0,0
143877,-115.942028985507,4,1,0,70,0,0
144177,-116.788321167883,4,1,0,70,0,0
144477,-117.647058823529,4,1,0,70,0,0
144777,-118.518518518519,4,1,0,70,0,0
145077,-119.402985074627,4,1,0,70,0,0
145377,-120.300751879699,4,1,0,70,0,0
145677,-121.212121212121,4,1,0,70,0,0
145977,-122.137404580153,4,1,0,70,0,0
146277,-123.076923076923,4,1,0,70,0,0
146577,-124.031007751938,4,1,0,70,0,0
146877,-111.111111111111,4,1,0,70,0,0
148077,-100,4,1,0,80,0,0
149280,-100,4,1,0,90,0,1
164127,-103.896103896104,4,1,0,90,0,1
164577,-108.108108108108,4,1,0,90,0,1
164877,-111.111111111111,4,1,0,90,0,1
165177,-108.108108108108,4,1,0,90,0,1
165477,-105.263157894737,4,1,0,90,0,1
165777,-102.564102564103,4,1,0,90,0,1
166080,-100,4,1,0,80,0,0
180477,-90.9090909090909,4,1,0,80,0,0
180777,-90.1639344262295,4,1,0,80,0,0
181077,-89.4308943089431,4,1,0,80,0,0
181377,-88.7096774193548,4,1,0,80,0,0
181677,-88,4,1,0,80,0,0
181977,-87.3015873015873,4,1,0,80,0,0
182277,-86.6141732283465,4,1,0,80,0,0
182577,-85.9375,4,1,0,80,0,0
182877,-85.2713178294574,4,1,0,80,0,0
183027,-84.9420849420849,4,1,0,80,0,0
183177,-84.6153846153846,4,1,0,80,0,0
183327,-84.2911877394636,4,1,0,80,0,0
183477,-83.969465648855,4,1,0,80,0,0
183627,-83.6501901140685,4,1,0,80,0,0
183777,-83.3333333333333,4,1,0,80,0,0

[HitObjects]
256,192,480,5,12,0:0:0:0:
256,192,780,1,8,0:0:0:0:
256,192,930,1,0,0:0:0:0:
256,192,1230,1,8,0:0:0:0:
256,192,1530,1,8,0:0:0:0:
256,192,1830,1,0,0:0:0:0:
256,192,1980,1,8,0:0:0:0:
256,192,2130,1,8,0:0:0:0:
256,192,2280,1,0,0:0:0:0:
256,192,2880,1,0,0:0:0:0:
256,192,3180,1,8,0:0:0:0:
256,192,3330,1,0,0:0:0:0:
256,192,3630,1,8,0:0:0:0:
256,192,3930,1,0,0:0:0:0:
256,192,4230,1,0,0:0:0:0:
256,192,4380,1,8,0:0:0:0:
256,192,4530,1,0,0:0:0:0:
256,192,4605,1,0,0:0:0:0:
256,192,4680,1,0,0:0:0:0:
256,192,4830,1,8,0:0:0:0:
256,192,4980,1,8,0:0:0:0:
256,192,5280,1,8,0:0:0:0:
256,192,5580,1,8,0:0:0:0:
256,192,5730,1,0,0:0:0:0:
256,192,6030,1,8,0:0:0:0:
256,192,6330,1,8,0:0:0:0:
256,192,6630,1,0,0:0:0:0:
256,192,6780,1,8,0:0:0:0:
256,192,6930,1,8,0:0:0:0:
256,192,7080,1,0,0:0:0:0:
256,192,7680,1,0,0:0:0:0:
256,192,7980,1,8,0:0:0:0:
256,192,8130,1,0,0:0:0:0:
256,192,8430,1,8,0:0:0:0:
256,192,8730,1,0,0:0:0:0:
256,192,9030,1,8,0:0:0:0:
256,192,9180,1,8,0:0:0:0:
256,192,9330,1,0,0:0:0:0:
256,192,9480,1,8,0:0:0:0:
256,192,9630,1,8,0:0:0:0:
256,192,9705,1,8,0:0:0:0:
256,192,9780,1,8,0:0:0:0:
256,192,10080,1,12,0:0:0:0:
256,192,10380,1,8,0:0:0:0:
256,192,10530,1,8,0:0:0:0:
256,192,10830,1,0,0:0:0:0:
256,192,10980,1,8,0:0:0:0:
256,192,11280,1,0,0:0:0:0:
256,192,11430,1,0,0:0:0:0:
256,192,11580,1,8,0:0:0:0:
256,192,11730,1,8,0:0:0:0:
220,171,12030,1,0,0:0:0:0:
256,192,12180,1,8,0:0:0:0:
256,192,12480,1,0,0:0:0:0:
256,192,12780,1,8,0:0:0:0:
256,192,12930,1,8,0:0:0:0:
256,192,13230,1,0,0:0:0:0:
256,192,13380,1,8,0:0:0:0:
256,192,13830,1,0,0:0:0:0:
256,192,13980,1,8,0:0:0:0:
256,192,14130,1,8,0:0:0:0:
256,192,14280,1,0,0:0:0:0:
256,192,14430,1,0,0:0:0:0:
256,192,14580,1,8,0:0:0:0:
256,192,14880,1,4,0:0:0:0:
256,192,15180,1,8,0:0:0:0:
256,192,15330,1,8,0:0:0:0:
256,192,15630,1,0,0:0:0:0:
256,192,15780,1,8,0:0:0:0:
256,192,16080,1,0,0:0:0:0:
256,192,16230,1,0,0:0:0:0:
256,192,16380,1,8,0:0:0:0:
256,192,16530,1,8,0:0:0:0:
256,192,16830,1,0,0:0:0:0:
256,192,16980,1,8,0:0:0:0:
256,192,17130,1,0,0:0:0:0:
256,192,17580,1,8,0:0:0:0:
256,192,17730,1,8,0:0:0:0:
256,192,18030,1,0,0:0:0:0:
256,192,18180,1,8,0:0:0:0:
256,192,18330,1,4,0:0:0:0:
256,192,18630,1,8,0:0:0:0:
256,192,18780,1,0,0:0:0:0:
256,192,18855,1,0,0:0:0:0:
256,192,18930,1,0,0:0:0:0:
256,192,19080,1,8,0:0:0:0:
256,192,19680,1,4,0:0:0:0:
256,192,19980,1,8,0:0:0:0:
256,192,20130,1,0,0:0:0:0:
256,192,20430,1,0,0:0:0:0:
256,192,20580,1,8,0:0:0:0:
256,192,21030,1,0,0:0:0:0:
256,192,21180,1,8,0:0:0:0:
250,188,21330,1,8,0:0:0:0:
256,192,21480,1,0,0:0:0:0:
250,188,21780,1,8,0:0:0:0:
250,188,22080,1,0,0:0:0:0:
250,188,22530,1,0,0:0:0:0:
250,188,22680,1,8,0:0:0:0:
250,188,22980,1,8,0:0:0:0:
250,188,23130,1,0,0:0:0:0:
250,188,23580,1,8,0:0:0:0:
250,188,23730,1,8,0:0:0:0:
250,188,23880,1,0,0:0:0:0:
250,188,24030,1,0,0:0:0:0:
250,188,24180,1,8,0:0:0:0:
256,192,24480,1,4,0:0:0:0:
256,192,24780,1,8,0:0:0:0:
256,192,24930,1,0,0:0:0:0:
256,192,25230,1,0,0:0:0:0:
256,192,25380,1,8,0:0:0:0:
256,192,25830,1,0,0:0:0:0:
256,192,25980,1,8,0:0:0:0:
250,188,26130,1,8,0:0:0:0:
256,192,26280,1,0,0:0:0:0:
250,188,26580,1,8,0:0:0:0:
250,188,26880,1,0,0:0:0:0:
250,188,27180,1,8,0:0:0:0:
250,188,27330,1,8,0:0:0:0:
250,188,27480,1,0,0:0:0:0:
250,188,27780,1,8,0:0:0:0:
256,192,28080,1,12,0:0:0:0:
250,188,28380,1,12,0:0:0:0:
250,188,28680,1,12,0:0:0:0:
250,188,29280,1,4,0:0:0:0:
250,188,29580,1,8,0:0:0:0:
250,188,30030,1,8,0:0:0:0:
256,192,30480,1,0,0:0:0:0:
256,192,30630,1,8,0:0:0:0:
256,192,30930,1,8,0:0:0:0:
216,112,31080,1,0,0:0:0:0:
256,192,31380,1,8,0:0:0:0:
256,192,31680,1,0,0:0:0:0:
256,192,31980,1,8,0:0:0:0:
256,192,32430,1,8,0:0:0:0:
256,192,32880,1,0,0:0:0:0:
256,192,33030,1,8,0:0:0:0:
256,192,33180,1,0,0:0:0:0:
256,192,33330,1,8,0:0:0:0:
256,192,33780,1,8,0:0:0:0:
256,192,34080,1,0,0:0:0:0:
256,192,34380,1,8,0:0:0:0:
256,192,34830,1,8,0:0:0:0:
256,192,35280,1,0,0:0:0:0:
256,192,35430,1,8,0:0:0:0:
256,192,35730,1,8,0:0:0:0:
256,192,35880,1,0,0:0:0:0:
256,192,36180,1,8,0:0:0:0:
256,192,36480,1,0,0:0:0:0:
256,192,36780,1,8,0:0:0:0:
256,192,37230,1,8,0:0:0:0:
256,192,37680,1,0,0:0:0:0:
256,192,37830,1,8,0:0:0:0:
256,192,37980,1,0,0:0:0:0:
256,192,38130,1,8,0:0:0:0:
256,192,38430,1,8,0:0:0:0:
256,192,38880,1,4,0:0:0:0:
256,192,39180,1,8,0:0:0:0:
256,192,39780,1,8,0:0:0:0:
256,192,40380,1,8,0:0:0:0:
256,192,40980,1,8,0:0:0:0:
256,192,41130,1,0,0:0:0:0:
256,192,41280,1,0,0:0:0:0:
256,192,41580,1,8,0:0:0:0:
256,192,42180,1,8,0:0:0:0:
256,192,42780,1,8,0:0:0:0:
256,192,43380,1,8,0:0:0:0:
256,192,43680,1,0,0:0:0:0:
256,192,43980,1,8,0:0:0:0:
256,192,44580,1,8,0:0:0:0:
256,192,45180,1,8,0:0:0:0:
256,192,45780,1,8,0:0:0:0:
256,192,46080,1,0,0:0:0:0:
256,192,46230,1,8,0:0:0:0:
256,192,46380,1,8,0:0:0:0:
256,192,46680,1,8,0:0:0:0:
256,192,46830,1,8,0:0:0:0:
256,192,47130,1,8,0:0:0:0:
256,192,47280,1,0,0:0:0:0:
256,192,47430,1,8,0:0:0:0:
255,189,47505,1,8,0:0:0:0:
256,192,47580,1,8,0:0:0:0:
257,179,47730,1,0,0:0:0:0:
256,192,47880,1,8,0:0:0:0:
256,192,48480,1,4,0:0:0:0:
256,192,48780,1,8,0:0:0:0:
256,192,48930,1,0,0:0:0:0:
256,192,49080,1,8,0:0:0:0:
256,192,49380,1,8,0:0:0:0:
256,192,49530,1,0,0:0:0:0:
256,192,49680,1,8,0:0:0:0:
256,192,49980,1,8,0:0:0:0:
256,192,50130,1,0,0:0:0:0:
256,192,50205,1,0,0:0:0:0:
256,192,50280,1,0,0:0:0:0:
256,192,50430,1,0,0:0:0:0:
256,192,50580,1,8,0:0:0:0:
261,181,50730,1,8,0:0:0:0:
256,192,50880,1,0,0:0:0:0:
256,192,51180,1,8,0:0:0:0:
256,192,51480,1,8,0:0:0:0:
256,192,51630,1,0,0:0:0:0:
256,192,51780,1,8,0:0:0:0:
256,192,51930,1,8,0:0:0:0:
256,192,52080,1,0,0:0:0:0:
256,192,52380,1,8,0:0:0:0:
256,192,52680,1,0,0:0:0:0:
256,192,52830,1,0,0:0:0:0:
256,192,52980,1,8,0:0:0:0:
256,192,53280,1,0,0:0:0:0:
256,192,53580,1,8,0:0:0:0:
256,192,53880,1,0,0:0:0:0:
256,192,54030,1,0,0:0:0:0:
256,192,54180,1,8,0:0:0:0:
256,192,54330,1,8,0:0:0:0:
256,192,54480,1,0,0:0:0:0:
256,192,54780,1,8,0:0:0:0:
256,192,54855,1,8,0:0:0:0:
256,192,54930,1,8,0:0:0:0:
256,192,55080,1,0,0:0:0:0:
256,192,55680,1,8,0:0:0:0:
256,192,55830,1,0,0:0:0:0:
256,192,55980,1,8,0:0:0:0:
256,192,56130,1,0,0:0:0:0:
256,192,56280,1,8,0:0:0:0:
261,181,56430,1,0,0:0:0:0:
256,192,56580,1,8,0:0:0:0:
256,192,56730,1,0,0:0:0:0:
256,192,57030,1,8,0:0:0:0:
256,192,57180,1,8,0:0:0:0:
252,188,57330,1,0,0:0:0:0:
252,188,57630,1,8,0:0:0:0:
256,192,57705,1,8,0:0:0:0:
252,188,57780,1,8,0:0:0:0:
252,188,57930,1,8,0:0:0:0:
256,192,58080,1,4,0:0:0:0:
256,192,58380,1,8,0:0:0:0:
256,192,58530,1,0,0:0:0:0:
256,192,58680,1,8,0:0:0:0:
256,192,58980,1,8,0:0:0:0:
256,192,59130,1,0,0:0:0:0:
256,192,59205,1,0,0:0:0:0:
256,192,59280,1,0,0:0:0:0:
256,192,59430,1,0,0:0:0:0:
256,192,59580,1,8,0:0:0:0:
256,192,59880,1,8,0:0:0:0:
256,192,60030,1,0,0:0:0:0:
256,192,60180,1,8,0:0:0:0:
263,175,60330,1,8,0:0:0:0:
256,192,60480,1,0,0:0:0:0:
256,192,60780,1,8,0:0:0:0:
256,192,61080,1,0,0:0:0:0:
256,192,61230,1,0,0:0:0:0:
256,192,61380,1,8,0:0:0:0:
256,192,61530,1,8,0:0:0:0:
256,192,61680,1,0,0:0:0:0:
256,192,61980,1,8,0:0:0:0:
262,174,62280,1,0,0:0:0:0:
256,192,62430,1,0,0:0:0:0:
256,192,62580,1,8,0:0:0:0:
256,192,62880,1,12,0:0:0:0:
256,192,63180,1,12,0:0:0:0:
256,192,63480,1,12,0:0:0:0:
256,192,63780,1,12,0:0:0:0:
256,192,64230,1,12,0:0:0:0:
256,192,64380,1,12,0:0:0:0:
256,192,64680,1,12,0:0:0:0:
256,192,65280,5,12,0:0:0:0:
256,192,65580,1,8,0:0:0:0:
256,192,65730,1,0,0:0:0:0:
256,192,66030,1,8,0:0:0:0:
256,192,66330,1,8,0:0:0:0:
256,192,66630,1,0,0:0:0:0:
256,192,66780,1,8,0:0:0:0:
256,192,66930,1,8,0:0:0:0:
256,192,67080,1,0,0:0:0:0:
256,192,67680,1,0,0:0:0:0:
256,192,67980,1,8,0:0:0:0:
256,192,68130,1,0,0:0:0:0:
256,192,68430,1,8,0:0:0:0:
256,192,68730,1,0,0:0:0:0:
256,192,69030,1,0,0:0:0:0:
256,192,69180,1,8,0:0:0:0:
256,192,69330,1,0,0:0:0:0:
256,192,69405,1,0,0:0:0:0:
256,192,69480,1,0,0:0:0:0:
256,192,69630,1,8,0:0:0:0:
256,192,69780,1,8,0:0:0:0:
256,192,70080,1,8,0:0:0:0:
256,192,70380,1,8,0:0:0:0:
256,192,70530,1,0,0:0:0:0:
256,192,70830,1,8,0:0:0:0:
256,192,71130,1,8,0:0:0:0:
256,192,71430,1,0,0:0:0:0:
256,192,71580,1,8,0:0:0:0:
256,192,71730,1,8,0:0:0:0:
256,192,71880,1,0,0:0:0:0:
256,192,72480,1,0,0:0:0:0:
256,128,74430,1,0,0:0:0:0:
256,128,74580,1,8,0:0:0:0:
256,128,74880,1,4,0:0:0:0:
256,128,75180,1,8,0:0:0:0:
256,128,75330,1,0,0:0:0:0:
256,128,75630,1,0,0:0:0:0:
256,128,75780,1,8,0:0:0:0:
256,128,76230,1,8,0:0:0:0:
256,128,76380,1,8,0:0:0:0:
256,128,76530,1,8,0:0:0:0:
256,128,76680,1,0,0:0:0:0:
256,128,76980,1,8,0:0:0:0:
256,128,77280,1,0,0:0:0:0:
256,128,77580,1,8,0:0:0:0:
256,128,77730,1,0,0:0:0:0:
256,128,78030,1,0,0:0:0:0:
256,128,78180,1,8,0:0:0:0:
224,128,78630,1,0,0:0:0:0:
224,128,78780,1,8,0:0:0:0:
224,128,78930,1,8,0:0:0:0:
224,128,79080,1,0,0:0:0:0:
224,128,79230,1,0,0:0:0:0:
224,128,79380,1,8,0:0:0:0:
224,128,79680,1,8,0:0:0:0:
224,128,79980,1,8,0:0:0:0:
224,128,80130,1,0,0:0:0:0:
224,128,80430,1,0,0:0:0:0:
224,128,80580,1,8,0:0:0:0:
224,128,81030,1,8,0:0:0:0:
224,128,81180,1,8,0:0:0:0:
224,128,81330,1,8,0:0:0:0:
224,128,81480,1,0,0:0:0:0:
224,128,81780,1,8,0:0:0:0:
224,128,81930,1,8,0:0:0:0:
224,128,82230,1,0,0:0:0:0:
224,128,82380,1,8,0:0:0:0:
224,128,82680,1,0,0:0:0:0:
224,128,82830,1,8,0:0:0:0:
224,128,82980,1,8,0:0:0:0:
224,128,83280,1,8,0:0:0:0:
224,128,83680,1,8,0:0:0:0:
232,138,83880,1,0,0:0:0:0:
224,128,84080,1,8,0:0:0:0:
256,192,84480,1,4,0:0:0:0:
256,192,84780,1,8,0:0:0:0:
256,192,84930,1,8,0:0:0:0:
256,192,85230,1,0,0:0:0:0:
256,192,85380,1,8,0:0:0:0:
256,192,85830,1,0,0:0:0:0:
256,192,85980,1,8,0:0:0:0:
250,188,86130,1,8,0:0:0:0:
256,192,86280,1,0,0:0:0:0:
250,188,86580,1,8,0:0:0:0:
250,188,86880,1,0,0:0:0:0:
250,188,87180,1,8,0:0:0:0:
250,188,87330,1,0,0:0:0:0:
250,188,87480,1,0,0:0:0:0:
250,188,87780,1,8,0:0:0:0:
250,188,88230,1,0,0:0:0:0:
250,188,88380,1,8,0:0:0:0:
250,188,88530,1,8,0:0:0:0:
250,188,88680,1,0,0:0:0:0:
250,188,88830,1,0,0:0:0:0:
250,188,88980,1,8,0:0:0:0:
256,192,89280,1,0,0:0:0:0:
256,192,89580,1,8,0:0:0:0:
256,192,89730,1,0,0:0:0:0:
256,192,90030,1,0,0:0:0:0:
256,192,90180,1,8,0:0:0:0:
256,192,90630,1,0,0:0:0:0:
256,192,90780,1,8,0:0:0:0:
250,188,90930,1,8,0:0:0:0:
256,192,91080,1,0,0:0:0:0:
250,188,91380,1,8,0:0:0:0:
250,188,91680,1,0,0:0:0:0:
250,188,91980,1,8,0:0:0:0:
250,188,92130,1,8,0:0:0:0:
250,188,92280,1,0,0:0:0:0:
250,188,92430,1,8,0:0:0:0:
256,192,92505,1,8,0:0:0:0:
250,188,92580,1,8,0:0:0:0:
256,192,92880,1,12,0:0:0:0:
250,188,93180,1,12,0:0:0:0:
250,188,93480,1,12,0:0:0:0:
250,188,94080,1,4,0:0:0:0:
250,188,94380,1,0,0:0:0:0:
250,188,94680,1,8,0:0:0:0:
250,188,94830,1,0,0:0:0:0:
250,188,95280,1,0,0:0:0:0:
250,188,95430,1,8,0:0:0:0:
248,202,95730,1,0,0:0:0:0:
250,188,95880,1,8,0:0:0:0:
235,184,96180,1,0,0:0:0:0:
250,188,96330,1,8,0:0:0:0:
250,188,96480,1,0,0:0:0:0:
250,188,96930,1,0,0:0:0:0:
250,188,97080,1,8,0:0:0:0:
244,161,97380,1,0,0:0:0:0:
250,188,97530,1,8,0:0:0:0:
250,188,97830,1,8,0:0:0:0:
250,188,97980,1,0,0:0:0:0:
250,188,98280,1,8,0:0:0:0:
250,188,98880,1,8,0:0:0:0:
250,188,99180,1,0,0:0:0:0:
250,188,99480,1,8,0:0:0:0:
250,188,99630,1,0,0:0:0:0:
256,160,100080,1,0,0:0:0:0:
256,160,100230,1,8,0:0:0:0:
212,179,100530,1,0,0:0:0:0:
256,160,100680,1,8,0:0:0:0:
240,152,100980,1,0,0:0:0:0:
256,160,101130,1,8,0:0:0:0:
256,160,101280,1,0,0:0:0:0:
256,160,101730,1,0,0:0:0:0:
256,160,101880,1,8,0:0:0:0:
256,160,102330,1,8,0:0:0:0:
256,160,102480,1,0,0:0:0:0:
256,160,102630,1,8,0:0:0:0:
256,160,102780,1,0,0:0:0:0:
256,160,103080,1,8,0:0:0:0:
256,160,103230,1,8,0:0:0:0:
256,160,103380,1,8,0:0:0:0:
256,160,103530,1,8,0:0:0:0:
250,188,103680,1,4,0:0:0:0:
250,188,103980,1,0,0:0:0:0:
256,192,104130,1,0,0:0:0:0:
250,188,104280,1,8,0:0:0:0:
250,188,104730,1,8,0:0:0:0:
250,188,104880,1,0,0:0:0:0:
250,188,105030,1,8,0:0:0:0:
250,188,105180,1,0,0:0:0:0:
250,188,105480,1,8,0:0:0:0:
250,188,105780,1,0,0:0:0:0:
250,188,105930,1,8,0:0:0:0:
250,188,106380,1,8,0:0:0:0:
250,188,106530,1,0,0:0:0:0:
250,188,106680,1,8,0:0:0:0:
250,188,106980,1,8,0:0:0:0:
250,188,107280,1,0,0:0:0:0:
250,188,107580,1,8,0:0:0:0:
256,192,107880,1,0,0:0:0:0:
236,159,107980,1,0,0:0:0:0:
236,159,108080,1,0,0:0:0:0:
250,188,108180,1,0,0:0:0:0:
250,188,108480,1,8,0:0:0:0:
250,188,108780,1,8,0:0:0:0:
256,192,108930,1,0,0:0:0:0:
250,188,109080,1,8,0:0:0:0:
250,188,109530,1,8,0:0:0:0:
250,188,109680,1,0,0:0:0:0:
250,188,109830,1,8,0:0:0:0:
250,188,109980,1,0,0:0:0:0:
250,188,110280,1,8,0:0:0:0:
250,188,110580,1,0,0:0:0:0:
250,188,110730,1,8,0:0:0:0:
250,188,110880,1,0,0:0:0:0:
250,188,111180,1,0,0:0:0:0:
250,188,111480,1,8,0:0:0:0:
250,188,112080,1,8,0:0:0:0:
250,188,112280,1,0,0:0:0:0:
250,188,112480,1,8,0:0:0:0:
256,192,112680,1,0,0:0:0:0:
250,188,112880,1,0,0:0:0:0:
250,188,113280,1,4,0:0:0:0:
250,188,113580,1,8,0:0:0:0:
250,188,114030,1,8,0:0:0:0:
256,192,114480,1,0,0:0:0:0:
256,192,114630,1,8,0:0:0:0:
256,192,114930,1,8,0:0:0:0:
216,112,115080,1,0,0:0:0:0:
256,192,115380,1,8,0:0:0:0:
262,200,115680,1,0,0:0:0:0:
256,192,115980,1,8,0:0:0:0:
256,192,116430,1,8,0:0:0:0:
256,192,116880,1,0,0:0:0:0:
256,192,117030,1,8,0:0:0:0:
256,192,117180,1,0,0:0:0:0:
256,192,117330,1,8,0:0:0:0:
256,192,117780,1,8,0:0:0:0:
256,192,118080,1,0,0:0:0:0:
256,192,118380,1,8,0:0:0:0:
256,192,118830,1,8,0:0:0:0:
256,192,119280,1,0,0:0:0:0:
256,192,119430,1,8,0:0:0:0:
256,192,119730,1,8,0:0:0:0:
256,192,119880,1,0,0:0:0:0:
256,192,120180,1,8,0:0:0:0:
265,197,120480,1,0,0:0:0:0:
256,192,120780,1,8,0:0:0:0:
256,192,121230,1,8,0:0:0:0:
256,192,121680,1,0,0:0:0:0:
256,192,121830,1,8,0:0:0:0:
256,192,121980,1,0,0:0:0:0:
256,192,122130,1,8,0:0:0:0:
256,192,122430,1,8,0:0:0:0:
256,192,122880,5,4,0:0:0:0:
256,192,123180,1,8,0:0:0:0:
256,192,123780,1,8,0:0:0:0:
256,192,124380,1,8,0:0:0:0:
256,192,124980,1,8,0:0:0:0:
256,192,125130,1,0,0:0:0:0:
256,192,125280,1,0,0:0:0:0:
256,192,125580,1,8,0:0:0:0:
256,192,126180,1,8,0:0:0:0:
256,192,126780,1,8,0:0:0:0:
270,190,127230,1,0,0:0:0:0:
256,192,127380,1,8,0:0:0:0:
249,161,127530,1,0,0:0:0:0:
256,192,127680,1,0,0:0:0:0:
256,192,127980,1,8,0:0:0:0:
256,192,128580,1,8,0:0:0:0:
256,192,129180,1,8,0:0:0:0:
256,192,129780,1,8,0:0:0:0:
256,192,130080,1,0,0:0:0:0:
256,192,130230,1,8,0:0:0:0:
256,192,130380,1,8,0:0:0:0:
256,192,130680,1,8,0:0:0:0:
256,192,130830,1,8,0:0:0:0:
256,192,131130,1,8,0:0:0:0:
256,192,131280,1,0,0:0:0:0:
256,192,131430,1,8,0:0:0:0:
255,189,131505,1,8,0:0:0:0:
256,192,131580,1,8,0:0:0:0:
256,192,131730,1,0,0:0:0:0:
256,192,131880,1,8,0:0:0:0:
249,161,132180,1,8,0:0:0:0:
249,161,132255,1,8,0:0:0:0:
249,161,132330,1,8,0:0:0:0:
249,161,132480,1,4,0:0:0:0:
256,192,132780,5,0,0:0:0:0:
256,192,133380,1,0,0:0:0:0:
256,192,133980,1,0,0:0:0:0:
256,192,134580,1,0,0:0:0:0:
256,192,135180,1,0,0:0:0:0:
256,192,135780,1,0,0:0:0:0:
256,192,136380,1,0,0:0:0:0:
256,192,136980,1,0,0:0:0:0:
256,192,137580,1,0,0:0:0:0:
256,192,138180,1,0,0:0:0:0:
256,192,138780,1,0,0:0:0:0:
256,192,139380,1,0,0:0:0:0:
256,192,139980,1,0,0:0:0:0:
256,192,140580,1,0,0:0:0:0:
256,192,141180,1,0,0:0:0:0:
256,192,141780,1,0,0:0:0:0:
256,192,142080,1,12,0:0:0:0:
256,192,142380,1,0,0:0:0:0:
256,192,142680,1,8,0:0:0:0:
256,192,142980,1,0,0:0:0:0:
256,192,143280,1,8,0:0:0:0:
256,192,143580,1,0,0:0:0:0:
256,192,143880,1,8,0:0:0:0:
256,192,144180,1,0,0:0:0:0:
256,192,144480,1,8,0:0:0:0:
256,192,144780,1,0,0:0:0:0:
256,192,145080,1,8,0:0:0:0:
256,192,145380,1,0,0:0:0:0:
256,192,145680,1,8,0:0:0:0:
256,192,145980,1,0,0:0:0:0:
256,192,146280,1,8,0:0:0:0:
256,192,146580,1,0,0:0:0:0:
256,192,146880,1,8,0:0:0:0:
256,192,147180,1,8,0:0:0:0:
256,192,147480,1,8,0:0:0:0:
256,192,147780,1,8,0:0:0:0:
256,192,148080,1,8,0:0:0:0:
256,192,148230,1,0,0:0:0:0:
256,192,148380,1,8,0:0:0:0:
256,192,148680,1,8,0:0:0:0:
256,192,148830,1,0,0:0:0:0:
256,192,148980,1,8,0:0:0:0:
256,192,149055,1,8,0:0:0:0:
256,192,149130,1,8,0:0:0:0:
256,192,149280,1,4,0:0:0:0:
256,192,149580,1,8,0:0:0:0:
256,192,149730,1,0,0:0:0:0:
256,192,149880,1,8,0:0:0:0:
256,192,150180,1,8,0:0:0:0:
256,192,150330,1,0,0:0:0:0:
256,192,150480,1,8,0:0:0:0:
256,192,150780,1,8,0:0:0:0:
256,192,150930,1,0,0:0:0:0:
256,192,151005,1,0,0:0:0:0:
256,192,151080,1,0,0:0:0:0:
256,192,151230,1,0,0:0:0:0:
256,192,151380,1,8,0:0:0:0:
261,181,151530,1,8,0:0:0:0:
256,192,151680,1,0,0:0:0:0:
256,192,151980,1,8,0:0:0:0:
256,192,152280,1,8,0:0:0:0:
256,192,152430,1,0,0:0:0:0:
256,192,152580,1,8,0:0:0:0:
256,192,152730,1,8,0:0:0:0:
256,192,152880,1,0,0:0:0:0:
256,192,153180,1,8,0:0:0:0:
262,174,153480,1,0,0:0:0:0:
256,192,153630,1,0,0:0:0:0:
256,192,153780,1,8,0:0:0:0:
256,192,154080,1,0,0:0:0:0:
256,192,154380,1,8,0:0:0:0:
256,192,154680,1,0,0:0:0:0:
256,192,154830,1,0,0:0:0:0:
256,192,154980,1,8,0:0:0:0:
256,192,155130,1,8,0:0:0:0:
256,192,155280,1,0,0:0:0:0:
256,192,155580,1,8,0:0:0:0:
256,192,155655,1,8,0:0:0:0:
256,192,155730,1,8,0:0:0:0:
256,192,155880,1,0,0:0:0:0:
256,192,156480,1,8,0:0:0:0:
256,192,156630,1,0,0:0:0:0:
256,192,156780,1,8,0:0:0:0:
256,192,156930,1,0,0:0:0:0:
256,192,157080,1,8,0:0:0:0:
262,174,157230,1,0,0:0:0:0:
256,192,157380,1,8,0:0:0:0:
256,192,157530,1,0,0:0:0:0:
256,192,157830,1,8,0:0:0:0:
256,192,157980,1,8,0:0:0:0:
252,188,158130,1,0,0:0:0:0:
252,188,158430,1,8,0:0:0:0:
256,192,158505,1,8,0:0:0:0:
252,188,158580,1,8,0:0:0:0:
252,188,158730,1,8,0:0:0:0:
256,192,158880,1,4,0:0:0:0:
256,192,159180,1,8,0:0:0:0:
256,192,159330,1,0,0:0:0:0:
256,192,159480,1,8,0:0:0:0:
256,192,159780,1,8,0:0:0:0:
256,192,159930,1,0,0:0:0:0:
256,192,160005,1,0,0:0:0:0:
256,192,160080,1,0,0:0:0:0:
256,192,160230,1,0,0:0:0:0:
256,192,160380,1,8,0:0:0:0:
256,192,160680,1,8,0:0:0:0:
256,192,160830,1,0,0:0:0:0:
256,192,160980,1,8,0:0:0:0:
262,174,161130,1,8,0:0:0:0:
256,192,161280,1,0,0:0:0:0:
256,192,161580,1,8,0:0:0:0:
256,192,161880,1,0,0:0:0:0:
256,192,162030,1,0,0:0:0:0:
256,192,162180,1,8,0:0:0:0:
256,192,162330,1,8,0:0:0:0:
256,192,162480,1,0,0:0:0:0:
256,192,162780,1,8,0:0:0:0:
262,174,163080,1,0,0:0:0:0:
256,192,163230,1,0,0:0:0:0:
256,192,163380,1,8,0:0:0:0:
256,192,163680,1,4,0:0:0:0:
259,157,164130,1,4,0:0:0:0:
259,157,164580,1,4,0:0:0:0:
256,192,164880,1,8,0:0:0:0:
256,192,165180,1,0,0:0:0:0:
256,192,165480,1,8,0:0:0:0:
225,187,165780,1,8,0:0:0:0:
256,192,166080,5,4,0:0:0:0:
256,192,166380,1,8,0:0:0:0:
256,192,166530,1,0,0:0:0:0:
256,192,166830,1,0,0:0:0:0:
256,192,166980,1,8,0:0:0:0:
256,192,167130,1,0,0:0:0:0:
256,192,167430,1,0,0:0:0:0:
256,192,167580,1,8,0:0:0:0:
256,192,167730,1,8,0:0:0:0:
256,192,167880,1,0,0:0:0:0:
256,192,168480,1,0,0:0:0:0:
256,192,168780,1,8,0:0:0:0:
256,192,168930,1,0,0:0:0:0:
256,192,169230,1,0,0:0:0:0:
256,192,169380,1,8,0:0:0:0:
256,192,169530,1,0,0:0:0:0:
256,192,169830,1,0,0:0:0:0:
256,192,169980,1,8,0:0:0:0:
256,192,170280,1,8,0:0:0:0:
256,192,170430,1,0,0:0:0:0:
256,192,170580,1,8,0:0:0:0:
256,192,170880,1,8,0:0:0:0:
256,192,171030,1,0,0:0:0:0:
256,192,171180,1,8,0:0:0:0:
256,192,171330,1,8,0:0:0:0:
256,192,171480,1,0,0:0:0:0:
256,192,171780,1,8,0:0:0:0:
256,192,171930,1,8,0:0:0:0:
256,192,172080,1,0,0:0:0:0:
256,192,172530,1,8,0:0:0:0:
256,192,172605,1,8,0:0:0:0:
256,192,172680,1,8,0:0:0:0:
256,192,172830,1,0,0:0:0:0:
256,192,172980,1,8,0:0:0:0:
256,192,173280,1,0,0:0:0:0:
256,192,173580,1,8,0:0:0:0:
256,192,173730,1,0,0:0:0:0:
256,192,174030,1,0,0:0:0:0:
256,192,174180,1,8,0:0:0:0:
256,192,174480,1,0,0:0:0:0:
256,192,174780,1,8,0:0:0:0:
256,192,174930,1,0,0:0:0:0:
256,192,175080,1,8,0:0:0:0:
256,192,175230,1,0,0:0:0:0:
256,192,175305,1,0,0:0:0:0:
256,192,175380,1,0,0:0:0:0:
256,192,175530,1,0,0:0:0:0:
256,192,175680,5,12,0:0:0:0:
256,192,175980,1,8,0:0:0:0:
256,192,176130,1,0,0:0:0:0:
256,192,176430,1,0,0:0:0:0:
256,192,176580,1,8,0:0:0:0:
256,192,176730,1,0,0:0:0:0:
256,192,177030,1,0,0:0:0:0:
256,192,177180,1,8,0:0:0:0:
256,192,177330,1,8,0:0:0:0:
256,192,177480,1,0,0:0:0:0:
256,192,178080,1,0,0:0:0:0:
256,192,178380,1,8,0:0:0:0:
256,192,178530,1,0,0:0:0:0:
256,192,178830,1,0,0:0:0:0:
256,192,178980,1,8,0:0:0:0:
256,192,179130,1,0,0:0:0:0:
256,192,179430,1,0,0:0:0:0:
256,192,179580,1,8,0:0:0:0:
256,192,179880,1,8,0:0:0:0:
256,192,180030,1,0,0:0:0:0:
256,192,180180,1,8,0:0:0:0:
256,192,180480,1,12,0:0:0:0:
256,192,180780,1,12,0:0:0:0:
256,192,181080,1,12,0:0:0:0:
256,192,181380,1,12,0:0:0:0:
256,192,181680,1,12,0:0:0:0:
256,192,181980,1,12,0:0:0:0:
256,192,182280,1,12,0:0:0:0:
256,192,182580,1,12,0:0:0:0:
256,192,182880,1,12,0:0:0:0:
256,192,183180,1,12,0:0:0:0:
256,192,183480,1,12,0:0:0:0:
256,192,183780,1,12,0:0:0:0:
