osu file format v14

[General]
AudioFilename: Ryksopp feat. Susanne Sundfr - Running to the Sea.mp3
AudioLeadIn: 0
PreviewTime: 31230
Countdown: 0
SampleSet: Soft
StackLeniency: 0.7
Mode: 0
LetterboxInBreaks: 0
WidescreenStoryboard: 1

[Editor]
Bookmarks: 15620,31230,46840,78059,93669,109279,140498,171718,202937,218547,234157,261474,280986
DistanceSpacing: 1.5
BeatDivisor: 4
GridSize: 32
TimelineZoom: 1.3

[Metadata]
Title:Running to the Sea
TitleUnicode:Running to the Sea
Artist:Royksopp feat. Susanne Sundfor
ArtistUnicode:Röyksopp feat. Susanne Sundfør
Creator:ErunamoJAZZ
Version:Advanced
Source:
Tags:The Inevitable End Norway -Bakari- Bakari
BeatmapID:968062
BeatmapSetID:382643

[Difficulty]
HPDrainRate:4
CircleSize:4.5
OverallDifficulty:5
ApproachRate:5.5
SliderMultiplier:1
SliderTickRate:1

[Events]
//Background and Video events
0,0,"umi-desu.jpg",0,0
//Break Periods
//Storyboard Layer 0 (Background)
//Storyboard Layer 1 (Fail)
//Storyboard Layer 2 (Pass)
//Storyboard Layer 3 (Foreground)
//Storyboard Sound Samples

[TimingPoints]
11,487.80487804878,4,2,1,20,1,0
15620,-125,4,2,1,20,0,0
31230,-125,4,2,1,20,0,0
35132,-125,4,2,1,20,0,0
37571,-125,4,2,1,17,0,0
38059,-125,4,2,1,14,0,0
38547,-125,4,2,1,11,0,0
39035,-125,4,2,1,20,0,0
46840,-111.111111111111,4,2,1,20,0,0
50742,-100,4,2,1,20,0,0
78059,-95.2380952380952,4,2,1,30,0,0
93669,-90.9090909090909,4,2,1,35,0,0
109279,-86.9565217391304,4,2,1,30,0,0
140498,-83.3333333333333,4,2,1,35,0,0
202937,-83.3333333333333,4,2,1,35,0,1
265376,-83.3333333333333,4,2,1,30,0,1
277084,-83.3333333333333,4,2,1,25,0,1
280986,-100,4,2,1,20,0,0
285010,-100,4,2,1,15,0,0
286840,-100,4,2,1,10,0,0
287815,-100,4,2,1,5,0,0

[Colours]
Combo1 : 73,91,152
Combo2 : 133,198,250
Combo3 : 155,123,28

[HitObjects]
54,99,15620,6,0,P|91:106|134:138,1,80,0|0,3:2|0:0,0:0:0:0:
155,190,16352,1,0,0:0:0:0:
125,255,16596,1,0,0:0:0:0:
125,255,16840,2,0,P|91:277|53:284,2,80,0|2|0,0:0|0:0|0:0,0:0:0:0:
233,172,18303,2,0,P|267:191|294:221,1,80
347,346,19279,1,0,0:0:0:0:
347,346,19523,6,0,P|424:256|336:92,2,320,0|2|0,3:0|3:2|3:0,2:2:0:0:
292,220,23913,6,0,L|268:164,2,40
318,282,24645,1,0,0:0:0:0:
184,304,25132,1,0,0:0:0:0:
184,304,25376,2,0,L|137:193,1,120,2|0,3:2|0:0,0:0:0:0:
84,68,26596,1,0,0:0:0:0:
217,86,27084,1,0,0:0:0:0:
217,86,27328,6,0,L|298:51,1,80,0|0,3:2|0:0,2:2:0:0:
276,183,28303,2,0,L|202:214,1,80
318,282,29279,2,0,P|376:224|368:132,1,160,2|2,2:2|2:2,2:2:0:0:
284,48,30742,1,0,2:0:0:0:
172,124,31230,6,0,L|164:172,1,40,2|0,0:0|0:0,0:0:0:0:
96,164,31718,2,0,L|115:65,1,80,0|0,0:0|0:0,0:0:0:0:
172,56,32450,1,0,0:0:0:0:
236,175,32937,1,0,0:0:0:0:
256,239,33181,2,0,L|245:290,2,40,2|0|0,0:2|0:0|0:0,0:0:0:0:
324,244,33913,2,0,B|315:284|315:284|327:326,2,80
392,248,35132,6,0,L|408:170,3,80,2|0|0|0,0:2|0:0|0:0|0:0,0:0:0:0:
316,68,37084,1,2,0:2:0:0:
256,192,37571,1,2,0:2:0:0:
196,316,38059,1,2,2:2:0:0:
105,216,38547,1,2,2:2:0:0:
105,216,39035,6,0,L|121:138,1,80,2|0,0:2|0:0,0:0:0:0:
80,84,39767,1,0,0:0:0:0:
80,84,40010,2,0,P|116:68|168:88,1,80,0|0,0:0|0:0,0:0:0:0:
263,159,40986,2,0,P|301:167|337:151,1,80,2|0,0:2|0:0,0:0:0:0:
393,112,41718,2,0,P|419:148|437:200,1,80,0|0,0:0|0:0,0:0:0:0:
382,307,42693,1,0,0:0:0:0:
382,307,42937,6,0,P|332:306|287:325,1,80,2|0,0:2|0:2,0:0:0:0:
174,358,43913,2,0,P|136:341|115:298,1,80,0|0,0:0|0:0,0:0:0:0:
114,172,44889,2,0,L|81:117,2,40,2|2|2,0:2|0:2|2:2,0:0:0:0:
185,287,45864,1,2,2:2:0:0:
202,152,46352,1,2,2:2:0:0:
298,271,46840,6,0,P|339:290|390:279,1,89.9999972534181,8|8,0:2|0:2,0:0:0:0:
420,229,47571,1,0,0:2:0:0:
398,165,47815,2,0,P|356:145|305:156,1,89.9999972534181,8|8,0:2|0:2,0:0:0:0:
269,203,48547,1,2,0:2:0:0:
230,258,48791,2,0,L|198:299,2,44.999998626709,8|0|8,0:2|0:2|0:2,0:0:0:0:
177,216,49523,2,0,L|144:260,1,44.999998626709,2|8,0:2|0:2,0:0:0:0:
108,305,50010,2,0,P|68:331|3:321,1,89.9999972534181,2|2,0:2|0:2,0:0:0:0:
49,259,50742,6,0,L|69:196,1,50,10|0,0:2|0:2,0:0:0:0:
129,172,51230,2,0,L|86:122,1,50,10|0,0:2|0:2,0:0:0:0:
21,123,51718,2,0,L|41:60,1,50,10|0,0:2|0:2,0:0:0:0:
97,32,52206,1,10,0:2:0:0:
159,73,52450,2,0,L|174:120,2,50,2|8|0,0:2|0:2|0:2,0:0:0:0:
213,21,53181,1,10,0:2:0:0:
283,47,53425,1,0,0:2:0:0:
352,74,53669,2,0,L|408:55,1,50,10|0,0:2|0:2,0:0:0:0:
448,115,54157,2,0,L|400:131,1,50,10|0,0:2|0:2,0:0:0:0:
352,189,54645,6,0,P|386:228|437:239,1,100,8|8,0:2|0:2,0:0:0:0:
481,183,55376,1,0,0:2:0:0:
448,115,55620,1,10,0:2:0:0:
509,251,56108,1,10,0:2:0:0:
486,322,56352,2,0,P|444:339|370:319,1,100,2|2,0:2|0:2,0:0:0:0:
254,268,57328,2,0,P|205:260|158:277,2,100,2|2|2,0:2|0:2|0:2,0:0:0:0:
324,240,58547,6,0,L|336:176,1,50,8|0,0:2|0:0,0:0:0:0:
404,164,59035,2,0,L|416:100,1,50,8|0,0:2|0:0,0:0:0:0:
356,68,59523,2,0,L|368:4,2,50,8|0|8,0:2|0:0|0:2,0:0:0:0:
304,124,60254,2,0,P|256:136|200:120,1,100,2|0,0:2|0:2,0:0:0:0:
168,60,60986,1,10,0:2:0:0:
124,124,61230,2,0,L|88:184,2,50,2|8|2,0:2|0:2|0:2,0:0:0:0:
68,72,61962,2,0,L|40:114,1,50,8|2,0:2|0:2,0:0:0:0:
24,188,62450,6,0,P|52:228|112:240,1,100,8|8,0:2|0:2,0:0:0:0:
176,244,63181,1,0,0:2:0:0:
252,236,63425,2,0,L|316:228,2,50,8|0|8,0:2|0:2|0:2,0:0:0:0:
244,312,64157,2,0,L|346:299,1,100,2|2,0:2|0:2,0:0:0:0:
376,232,64889,1,8,0:2:0:0:
448,212,65132,2,0,L|460:109,1,100,2|2,0:2|0:2,0:0:0:0:
432,44,65864,1,8,0:2:0:0:
368,80,66108,1,2,0:2:0:0:
304,120,66352,6,0,L|216:181,1,100,10|10,0:2|0:2,0:0:0:0:
192,248,67084,1,0,0:2:0:0:
160,316,67328,2,0,P|104:312|65:284,1,100,10|10,0:2|0:2,0:0:0:0:
84,216,68059,1,2,0:2:0:0:
152,184,68303,2,0,P|152:132|112:80,1,100,8|10,0:2|0:2,0:0:0:0:
52,104,69035,1,0,0:2:0:0:
127,92,69279,2,0,P|148:80|168:52,1,50,10|0,0:2|0:2,0:0:0:0:
239,60,69767,2,0,P|251:81|279:101,1,50,10|0,0:2|0:2,0:0:0:0:
345,97,70254,6,0,P|368:80|380:56,2,50,8|0|8,0:2|0:2|0:2,0:0:0:0:
308,32,70986,1,0,0:2:0:0:
239,60,71230,2,0,P|232:108|264:176,1,100,10|10,0:2|0:2,0:0:0:0:
324,168,71962,1,2,0:2:0:0:
345,97,72206,1,8,0:2:0:0:
416,80,72450,2,0,P|444:120|452:184,1,100,2|2,0:2|0:2,0:0:0:0:
364,292,73425,2,0,P|315:298|254:276,1,100,2|2,0:2|0:2,0:0:0:0:
212,232,74157,6,0,P|184:216|152:208,1,50,10|0,0:0|0:0,0:0:0:0:
200,144,74645,2,0,P|168:135|135:136,1,50,10|0,0:0|0:0,0:0:0:0:
116,68,75132,2,0,P|140:60|168:60,2,50,10|0|10,0:0|0:0|0:0,0:0:0:0:
72,128,75864,1,2,0:0:0:0:
68,204,76108,2,0,P|76:252|104:296,1,100,8|10,0:0|0:0,0:0:0:0:
172,320,76840,2,0,P|212:292|280:288,1,100,2|2,0:0|0:0,0:0:0:0:
316,336,77571,1,10,0:2:0:0:
376,288,77815,1,2,0:2:0:0:
296,216,78059,5,10,0:2:0:0:
292,212,78181,1,0,0:2:0:0:
288,208,78303,1,0,0:2:0:0:
236,148,78547,2,0,P|252:128|268:88,1,52.4999983978272,10|0,0:2|0:2,0:0:0:0:
340,124,79035,2,0,P|356:100|364:64,1,52.4999983978272,10|0,0:2|0:2,0:0:0:0:
416,20,79523,1,10,0:2:0:0:
488,52,79767,2,0,L|500:8,2,26.2499991989136,2|0|8,0:2|0:2|0:2,0:0:0:0:
476,128,80254,1,2,0:2:0:0:
404,168,80498,1,8,0:0:0:0:
408,248,80742,2,0,P|436:248|476:264,1,52.4999983978272,2|0,0:2|0:2,0:0:0:0:
500,324,81230,1,2,0:2:0:0:
424,348,81474,1,10,0:2:0:0:
356,308,81718,1,0,0:2:0:0:
320,208,81962,6,0,P|296:159|242:102,1,104.999996795654,10|10,0:2|0:2,0:0:0:0:
200,68,82693,1,0,0:0:0:0:
121,81,82937,2,0,P|94:65|71:24,2,52.4999983978272,8|0|10,0:2|0:0|0:2,0:0:0:0:
200,68,83669,1,2,0:2:0:0:
188,147,83913,2,0,L|176:225,1,52.4999983978272,10|0,0:2|0:2,0:0:0:0:
143,268,84401,1,8,0:2:0:0:
220,292,84645,2,0,L|212:360,2,52.4999983978272,2|10|0,0:2|0:2|0:2,0:0:0:0:
143,268,85376,1,10,0:2:0:0:
67,251,85620,1,0,0:2:0:0:
32,152,85864,6,0,P|44:104|92:60,1,104.999996795654,10|10,0:2|0:2,0:0:0:0:
160,48,86596,1,0,0:2:0:0:
236,36,86840,2,0,L|304:24,2,52.4999983978272,10|0|10,0:2|0:2|0:2,0:0:0:0:
160,48,87571,1,2,0:2:0:0:
208,112,87815,2,0,P|244:148|308:164,1,104.999996795654,8|8,0:2|0:2,0:0:0:0:
360,120,88547,2,0,P|409:135|446:171,1,104.999996795654,2|2,0:2|0:2,0:0:0:0:
456,252,89279,1,8,0:2:0:0:
412,316,89523,1,2,0:2:0:0:
336,340,89767,6,0,P|308:328|288:312,1,52.4999983978272,10|0,0:2|0:2,0:0:0:0:
268,240,90254,1,10,0:2:0:0:
292,164,90498,1,0,0:2:0:0:
360,120,90742,2,0,P|371:97|372:56,1,52.4999983978272,10|0,0:2|0:2,0:0:0:0:
294,75,91230,1,10,0:2:0:0:
216,74,91474,2,0,P|218:48|230:24,2,52.4999983978272,2|10|0,0:2|0:2|0:0,0:0:0:0:
256,144,92206,1,8,0:2:0:0:
256,224,92450,2,0,P|232:280|188:304,1,104.999996795654,2|0,0:2|0:0,0:0:0:0:
116,304,93181,1,10,0:2:0:0:
56,252,93425,1,0,0:0:0:0:
52,144,93669,6,2,B|83:126|83:126|123:117|123:117|151:101,1,110.000003356934,10|8,0:2|0:2,0:0:0:0:
224,60,94401,1,2,0:2:0:0:
296,24,94645,2,0,B|336:64|336:64|396:80,1,110.000003356934,10|8,0:2|0:2,0:0:0:0:
468,100,95376,1,2,0:2:0:0:
408,156,95620,2,0,L|388:224,1,55.0000016784668,8|2,0:2|0:2,0:0:0:0:
448,272,96108,1,8,0:2:0:0:
368,288,96352,2,0,L|300:268,1,55.0000016784668,2|8,0:2|0:2,0:0:0:0:
292,192,96840,1,2,0:2:0:0:
236,256,97084,2,0,L|216:324,1,55.0000016784668,8|2,0:2|0:2,0:0:0:0:
256,192,97571,12,8,100010,0:2:0:0:
256,256,101474,6,2,L|256:132,1,110.000003356934,8|8,0:2|0:2,0:0:0:0:
256,64,102206,1,0,0:2:0:0:
184,104,102450,2,0,L|132:72,1,55.0000016784668,8|0,0:2|0:2,0:0:0:0:
76,128,102937,1,8,0:2:0:0:
48,48,103181,2,0,L|76:1,2,55.0000016784668,2|8|2,0:2|0:2|0:2,0:0:0:0:
4,120,103913,1,8,0:2:0:0:
36,196,104157,2,0,P|52:224|76:248,1,55.0000016784668,2|8,0:2|0:2,0:0:0:0:
148,232,104645,2,0,P|166:252|179:276,1,55.0000016784668,2|8,0:2|0:2,0:0:0:0:
156,356,105132,1,2,0:2:0:0:
240,364,105376,6,0,P|264:356|304:332,1,55.0000016784668,8|0,0:2|0:0,0:0:0:0:
304,260,105864,2,0,P|284:236|280:192,2,55.0000016784668,2|0|0,0:0|0:0|0:0,0:0:0:0:
360,196,106596,1,0,0:0:0:0:
312,128,106840,1,0,0:0:0:0:
228,132,107084,1,2,0:0:0:0:
160,180,107328,2,0,P|104:180|56:144,2,110.000003356934,2|0|0,0:0|0:0|0:0,0:0:0:0:
160,180,108791,1,0,0:0:0:0:
252,36,109279,6,0,L|323:24,1,57.5000010967255,8|0,0:2|0:2,0:0:0:0:
350,19,109645,1,0,0:2:0:0:
350,19,109767,1,10,0:2:0:0:
396,92,110010,2,0,L|277:110,1,115.000002193451,0|0,0:2|0:2,0:0:0:0:
238,117,110620,1,0,0:2:0:0:
238,117,110742,1,10,0:2:0:0:
224,204,110986,2,0,L|346:184,1,115.000002193451,2|0,0:2|0:0,0:0:0:0:
380,179,111596,1,0,0:2:0:0:
380,179,111718,1,10,0:2:0:0:
460,208,111962,1,0,0:2:0:0:
433,290,112206,2,0,P|400:292|376:300,1,57.5000010967255,8|0,0:2|0:0,0:0:0:0:
352,332,112571,1,0,0:2:0:0:
324,364,112693,2,0,P|296:372|267:373,1,57.5000010967255,10|0,0:2|0:2,0:0:0:0:
228,296,113181,6,0,P|240:256|228:188,1,86.2500016450882,8|0,0:2|0:2,0:0:0:0:
216,176,113669,2,0,P|236:152|264:136,1,57.5000010967255,10|0,0:2|0:2,0:0:0:0:
340,108,114157,1,8,0:2:0:0:
280,48,114401,1,0,0:0:0:0:
276,44,114523,1,0,0:2:0:0:
272,40,114645,2,0,P|240:28|212:24,1,57.5000010967255,10|0,0:2|0:2,0:0:0:0:
136,56,115132,1,8,0:2:0:0:
56,84,115376,2,0,L|16:52,2,28.7500005483627,0|0|10,0:2|0:2|0:2,0:0:0:0:
52,172,115864,1,0,0:2:0:0:
51,261,116108,2,0,P|79:258|104:244,1,57.5000010967255,8|0,0:2|0:2,0:0:0:0:
120,228,116474,1,0,0:2:0:0:
132,208,116596,1,10,0:2:0:0:
174,133,116840,1,0,0:2:0:0:
212,241,117084,6,0,P|230:279|274:314,1,86.2500016450882,8|0,0:2|0:2,0:0:0:0:
304,297,117571,2,0,P|332:294|371:308,1,57.5000010967255,10|0,0:2|0:2,0:0:0:0:
428,356,118059,1,8,0:2:0:0:
456,276,118303,1,0,0:0:0:0:
459,271,118425,1,0,0:2:0:0:
462,266,118547,2,0,P|463:231|450:196,1,57.5000010967255,10|0,0:2|0:2,0:0:0:0:
392,156,119035,2,0,P|361:165|333:163,1,57.5000010967255,8|0,0:2|0:2,0:0:0:0:
314,156,119401,1,0,0:2:0:0:
296,144,119523,1,10,0:2:0:0:
352,76,119767,2,0,L|387:52,2,28.7500005483627,0|0|8,0:2|0:0|0:2,0:0:0:0:
276,32,120254,1,0,0:2:0:0:
270,32,120376,1,0,0:2:0:0:
263,32,120498,2,0,P|228:41|204:58,1,57.5000010967255,10|0,0:2|0:2,0:0:0:0:
152,120,120986,6,0,P|153:155|164:182,1,57.5000010967255,8|0,0:2|0:0,0:0:0:0:
174,194,121352,1,0,0:2:0:0:
193,206,121474,1,10,0:2:0:0:
281,205,121718,2,0,L|294:169,2,28.7500005483627,0|0|8,0:2|0:0|0:2,0:0:0:0:
321,282,122206,2,0,L|310:308,2,28.7500005483627,0|0|10,0:2|0:2|0:2,0:0:0:0:
388,228,122693,1,0,0:2:0:0:
412,310,122937,2,0,P|439:294|466:259,1,57.5000010967255,8|0,0:2|0:2,0:0:0:0:
471,236,123303,1,0,0:2:0:0:
467,194,123425,2,0,P|451:169|429:151,1,57.5000010967255,10|0,0:2|0:2,0:0:0:0:
352,116,123913,2,0,P|320:120|280:104,1,57.5000010967255,8|0,0:2|0:2,0:0:0:0:
268,80,124279,1,0,0:2:0:0:
244,44,124401,2,0,P|216:37|187:41,1,57.5000010967255,10|0,0:2|0:2,0:0:0:0:
204,156,124889,6,0,P|199:183|174:215,1,57.5000010967255,8|0,0:2|0:2,0:0:0:0:
166,223,125255,1,0,0:2:0:0:
144,232,125377,1,10,0:2:0:0:
124,148,125620,2,0,P|100:100|40:80,1,115.000002193451,0|0,0:2|0:2,0:0:0:0:
24,88,126230,1,0,0:2:0:0:
8,104,126352,1,10,0:2:0:0:
0,200,126596,2,0,P|12:246|61:296,1,115.000002193451,2|0,0:2|0:0,0:0:0:0:
78,299,127206,1,0,0:2:0:0:
100,296,127328,1,10,0:2:0:0:
184,272,127571,1,0,0:2:0:0:
264,244,127815,2,0,P|292:236|328:244,1,57.5000010967255,8|0,0:2|0:0,0:0:0:0:
356,264,128181,1,0,0:2:0:0:
388,292,128303,2,0,P|420:312|460:308,1,57.5000010967255,10|0,0:2|0:2,0:0:0:0:
448,228,128791,6,0,P|440:184|452:132,1,86.2500016450882,8|0,0:2|0:2,0:0:0:0:
464,104,129279,2,0,P|440:84|408:72,1,57.5000010967255,10|0,0:2|0:2,0:0:0:0:
328,72,129767,1,8,0:2:0:0:
296,152,130011,1,0,0:2:0:0:
292,156,130133,1,0,0:2:0:0:
288,160,130255,2,0,P|256:156|232:144,1,57.5000010967255,10|0,0:2|0:2,0:0:0:0:
184,76,130742,1,8,0:2:0:0:
104,108,130986,2,0,L|88:72,2,28.7500005483627,0|0|10,0:2|0:2|0:2,0:0:0:0:
156,176,131474,1,0,0:2:0:0:
128,256,131718,2,0,P|124:288|104:320,1,57.5000010967255,8|0,0:2|0:2,0:0:0:0:
100,328,132084,1,0,0:2:0:0:
80,340,132206,1,10,0:2:0:0:
36,268,132450,1,0,0:2:0:0:
88,172,132694,6,0,P|80:128|48:88,1,86.2500016450882,8|0,0:2|0:2,0:0:0:0:
28,60,133181,2,0,P|44:36|76:12,1,57.5000010967255,10|0,0:2|0:2,0:0:0:0:
152,8,133669,1,8,0:2:0:0:
210,68,133913,1,0,0:0:0:0:
213,72,134035,1,0,0:2:0:0:
216,76,134157,2,0,P|220:108|212:152,1,57.5000010967255,10|0,0:2|0:2,0:0:0:0:
180,212,134645,2,0,P|160:233|150:259,1,57.5000010967255,8|0,0:2|0:2,0:0:0:0:
156,284,135011,1,0,0:2:0:0:
172,300,135133,1,10,0:2:0:0:
248,344,135377,2,0,L|260:384,2,28.7500005483627,0|0|8,0:2|0:0|0:2,0:0:0:0:
296,272,135864,1,0,0:2:0:0:
300,268,135986,1,0,0:2:0:0:
304,264,136108,2,0,P|328:244|368:228,1,57.5000010967255,10|0,0:2|0:2,0:0:0:0:
412,292,136596,6,0,P|406:321|386:360,1,57.5000010967255,8|0,0:2|0:2,0:0:0:0:
376,360,136962,1,0,0:2:0:0:
352,368,137084,1,10,0:2:0:0:
268,352,137328,2,0,L|236:388,2,28.7500005483627,0|0|8,0:2|0:0|0:2,0:0:0:0:
252,268,137815,2,0,L|271:246,2,28.7500005483627,0|0|10,0:2|0:2|0:2,0:0:0:0:
164,272,138303,1,0,0:2:0:0:
76,272,138547,2,0,B|52:256|52:256|36:232,1,57.5000010967255,8|0,0:2|0:2,0:0:0:0:
20,192,138913,1,0,0:2:0:0:
36,152,139035,2,0,B|52:128|52:128|76:112,1,57.5000010967255,10|0,0:2|0:2,0:0:0:0:
72,192,139401,5,0,0:0:0:0:
104,192,139523,2,0,L|172:192,1,57.5000010967255,10|0,0:2|0:2,0:0:0:0:
204,192,139889,1,0,0:2:0:0:
247,192,140011,2,0,L|312:192,1,57.5000010967255,10|2,0:2|0:2,0:0:0:0:
316,304,140498,6,0,P|364:288|412:208,1,119.999996337891,10|10,0:0|0:0,0:0:0:0:
432,148,141230,1,2,0:0:0:0:
476,68,141474,2,0,P|450:56|408:59,1,59.9999981689454,10|2,0:0|0:0,0:0:0:0:
347,112,141962,1,8,0:0:0:0:
304,192,142206,1,2,0:0:0:0:
213,192,142450,2,0,P|180:192|144:168,1,59.9999981689454,8|2,0:0|0:0,0:0:0:0:
112,100,142937,1,8,0:0:0:0:
200,96,143181,2,0,P|172:32|104:12,1,119.999996337891,2|2,0:0|0:0,0:0:0:0:
112,100,143913,1,8,0:0:0:0:
36,52,144157,1,2,0:0:0:0:
36,168,144401,6,0,B|35:229|4:283|4:283|54:313|119:288|119:288|162:342|220:341|220:341|221:308|229:277,1,419.999987182618,10|2,0:0|0:0,0:0:0:0:
412,280,146596,1,2,0:0:0:0:
412,280,147084,1,2,0:0:0:0:
460,204,147328,2,0,L|496:144,2,59.9999981689454,10|0|10,0:0|0:0|0:0,0:0:0:0:
368,204,148059,1,0,0:0:0:0:
368,113,148303,6,0,L|263:54,1,119.999996337891,8|10,0:0|0:0,0:0:0:0:
180,16,149035,1,0,0:0:0:0:
172,104,149279,2,0,L|237:142,1,59.9999981689454,8|2,0:0|0:0,0:0:0:0:
368,23,150010,1,2,0:0:0:0:
368,204,150498,1,2,0:0:0:0:
187,204,150986,1,2,0:0:0:0:
187,23,151474,1,2,0:0:0:0:
276,180,151962,1,2,0:0:0:0:
288,268,152206,6,0,P|268:298|236:318,1,59.9999981689454,8|0,0:0|0:0,0:0:0:0:
164,278,152693,2,0,P|184:248|216:228,1,59.9999981689454,10|0,0:0|0:0,0:0:0:0:
276,180,153181,2,0,P|284:148|272:104,1,59.9999981689454,8|0,0:0|0:0,0:0:0:0:
228,48,153669,1,10,0:0:0:0:
160,140,153913,2,0,P|72:136|32:40,1,179.999994506836,2|10,0:0|0:0,0:0:0:0:
120,60,154889,2,0,L|52:180,1,119.999996337891,2|2,0:0|0:0,0:0:0:0:
96,248,155620,2,8,L|136:176,1,59.9999981689454,10|2,0:0|0:0,0:0:0:0:
208,116,156108,6,0,B|237:102|266:104|266:104|299:106|325:93,1,119.999996337891,8|10,0:0|0:0,0:0:0:0:
392,36,156840,1,2,0:0:0:0:
392,124,157084,2,0,P|392:160|408:200,1,59.9999981689454,10|2,0:0|0:0,0:0:0:0:
424,272,157572,1,8,0:0:0:0:
476,196,157816,1,2,0:0:0:0:
512,280,158059,2,0,P|504:312|476:348,1,59.9999981689454,8|2,0:0|0:0,0:0:0:0:
424,272,158547,1,8,0:0:0:0:
340,240,158791,2,0,P|282:223|211:236,1,119.999996337891,2|2,0:0|0:0,0:0:0:0:
150,285,159523,1,8,0:0:0:0:
132,374,159767,1,2,0:0:0:0:
219,348,160010,6,0,P|312:309|288:134,1,299.999990844727,10|0,0:0|0:0,0:0:0:0:
217,88,161474,1,0,0:0:0:0:
292,138,161718,2,0,P|364:137|425:97,1,119.999996337891,2|2,0:0|0:0,0:0:0:0:
454,39,162450,1,0,0:0:0:0:
405,116,162694,1,2,0:0:0:0:
456,188,162938,2,0,L|504:260,2,59.9999981689454,10|0|10,0:0|0:0|0:0,0:0:0:0:
405,116,163669,1,2,0:0:0:0:
360,220,163913,6,0,P|300:240|232:220,1,119.999996337891,10|10,0:2|0:0,0:0:0:0:
168,184,164645,1,0,0:0:0:0:
212,104,164889,2,0,P|200:68|172:40,1,59.9999981689454,10|2,0:0|0:0,0:0:0:0:
40,156,165620,1,2,0:0:0:0:
164,288,166108,1,2,0:0:0:0:
284,152,166596,1,2,0:0:0:0:
408,284,167084,1,2,0:0:0:0:
508,136,167572,1,2,0:0:0:0:
428,92,167816,6,0,L|484:40,1,59.9999981689454,10|0,0:0|0:0,0:0:0:0:
384,36,168303,2,0,L|340:76,1,59.9999981689454,10|0,0:0|0:0,0:0:0:0:
248,68,168791,2,0,L|304:16,1,59.9999981689454,10|0,0:0|0:0,0:0:0:0:
204,12,169279,1,10,0:0:0:0:
204,128,169523,2,0,P|128:152|76:120,1,119.999996337891,2|0,0:0|0:0,0:0:0:0:
68,52,170254,1,10,0:0:0:0:
94,137,170499,2,0,P|80:220|32:248,1,119.999996337891,2|2,0:0|0:0,0:0:0:0:
140,276,171230,2,0,P|168:288|200:320,1,59.9999981689454,10|0,0:0|0:0,0:0:0:0:
256,368,171718,5,2,0:3:0:0:
256,188,172206,2,0,L|232:107,1,59.9999981689454,10|0,0:0|0:0,0:0:0:0:
214,41,172693,1,10,0:0:0:0:
296,80,172937,2,0,L|314:145,1,59.9999981689454,2|8,0:0|0:0,0:0:0:0:
313,229,173425,1,2,0:0:0:0:
400,204,173669,2,0,L|465:185,2,59.9999981689454,8|2|8,0:0|0:0|0:0,0:0:0:0:
358,283,174401,1,2,0:0:0:0:
443,263,174645,2,0,L|523:239,2,59.9999981689454,8|2|8,0:0|0:0|0:0,0:0:0:0:
358,283,175376,1,2,0:0:0:0:
250,322,175620,6,0,P|193:304|142:239,1,119.999996337891,10|10,0:0|0:0,0:0:0:0:
261,61,176596,2,0,P|318:79|369:144,1,119.999996337891,8|10,0:0|0:0,0:0:0:0:
316,228,177328,1,0,0:0:0:0:
216,168,177571,2,0,B|186:154|169:130|169:130|152:106|122:92,1,119.999996337891,8|10,0:0|0:0,0:0:0:0:
40,124,178303,1,0,0:0:0:0:
44,214,178547,2,0,B|69:234|98:238|98:238|127:242|152:262,1,119.999996337891,8|10,0:0|0:0,0:0:0:0:
300,367,179523,6,0,P|352:340|384:290,1,119.999996337891,8|8,0:0|0:0,0:0:0:0:
420,208,180254,1,2,0:0:0:0:
448,123,180498,2,0,P|456:94|458:64,1,59.9999981689454,10|2,0:0|0:0,0:0:0:0:
368,80,180986,1,8,0:0:0:0:
368,80,181230,2,0,P|344:168|328:208,1,119.999996337891,2|2,0:0|0:0,0:0:0:0:
256,360,182206,1,2,0:0:0:0:
178,194,182693,2,0,P|158:138|144:80,1,119.999996337891,2|2,0:0|0:0,0:0:0:0:
53,64,183425,6,0,P|56:96|64:124,1,59.9999981689454,8|0,0:0|0:0,0:0:0:0:
8,196,183913,2,0,P|25:221|46:241,1,59.9999981689454,10|0,0:0|0:0,0:0:0:0:
32,332,184401,2,0,P|60:345|88:352,1,59.9999981689454,8|0,0:0|0:0,0:0:0:0:
168,308,184889,1,10,0:0:0:0:
132,228,185132,1,2,0:0:0:0:
216,196,185376,2,0,P|196:166|177:150,2,59.9999981689454,10|0|10,0:0|0:0|0:0,0:0:0:0:
248,280,186108,1,0,0:0:0:0:
300,204,186352,1,8,0:0:0:0:
256,28,186840,1,10,0:0:0:0:
300,204,187328,6,0,P|380:268|477:192,1,239.999992675781,8|10,0:0|0:0,0:0:0:0:
476,196,188791,1,10,0:0:0:0:
484,104,189035,2,0,L|460:48,2,59.9999981689454,2|8|2,0:0|0:0|0:0,0:0:0:0:
400,140,189767,1,8,0:0:0:0:
376,56,190010,2,0,L|320:80,1,59.9999981689454,2|8,0:0|0:0,0:0:0:0:
316,168,190498,2,0,L|363:278,1,119.999996337891,2|2,0:0|0:0,0:0:0:0:
256,192,191230,12,0,193913,0:0:0:0:
288,280,195132,6,0,L|324:360,2,59.9999981689454,10|2|10,0:0|0:0|0:0,0:0:0:0:
252,196,195864,1,0,0:0:0:0:
220,112,196108,2,0,L|282:84,1,59.9999981689454,10|2,0:0|0:0,0:0:0:0:
148,216,196840,2,0,P|157:276|116:340,1,119.999996337891,2|2,0:0|0:0,0:0:0:0:
32,176,197815,2,0,P|22:115|64:52,1,119.999996337891,2|2,0:0|0:0,0:0:0:0:
208,148,198791,1,2,0:0:0:0:
236,232,199035,6,0,P|273:281|353:287,1,119.999996337891,8|2,0:0|0:0,0:0:0:0:
321,203,199767,1,0,0:0:0:0:
404,236,200010,2,0,P|411:208|398:160,1,59.9999981689454,0|0,0:0|0:0,0:0:0:0:
343,112,200498,2,0,P|314:108|268:128,1,59.9999981689454,2|2,0:0|0:0,0:0:0:0:
200,149,200986,2,0,P|136:143|88:78,1,119.999996337891,2|0,0:0|0:0,0:0:0:0:
60,24,201718,1,0,0:0:0:0:
98,106,201962,2,0,P|75:172|22:208,1,119.999996337891,0|8,0:0|0:0,0:0:0:0:
136,352,202937,5,12,0:0:0:0:
204,236,203303,2,0,L|236:236,1,29.9999990844727,4|12,0:0|0:0,0:0:0:0:
296,356,203791,2,0,L|332:356,1,29.9999990844727,4|12,0:0|0:0,0:0:0:0:
416,356,204157,2,0,L|442:263,1,89.9999972534181,4|4,0:0|0:0,0:0:0:0:
453,225,204645,1,4,0:0:0:0:
436,136,204889,2,0,P|391:125|358:93,1,89.9999972534181,12|4,0:0|0:0,0:0:0:0:
358,52,205376,2,0,P|324:20|278:14,1,89.9999972534181,12|4,0:0|0:0,0:0:0:0:
243,37,205864,2,0,P|222:57|190:67,1,59.9999981689454,12|4,0:0|0:0,0:0:0:0:
108,32,206352,2,0,L|136:0,2,29.9999990844727,0|4|4,0:0|0:0|0:0,0:0:0:0:
48,100,206840,6,0,P|28:140|36:200,1,89.9999972534181,12|4,0:0|0:0,0:0:0:0:
44,228,207328,1,12,0:0:0:0:
68,360,207694,2,0,L|91:341,1,29.9999990844727,4|12,0:0|0:0,0:0:0:0:
160,284,208060,2,0,P|200:268|244:284,1,89.9999972534181,4|4,0:0|0:0,0:0:0:0:
276,316,208548,1,4,0:0:0:0:
352,364,208792,2,0,P|388:336|400:280,1,89.9999972534181,12|4,0:0|0:0,0:0:0:0:
380,256,209279,2,0,P|348:228|336:176,1,89.9999972534181,12|4,0:0|0:0,0:0:0:0:
344,140,209767,2,0,P|360:112|396:92,1,59.9999981689454,12|4,0:0|0:0,0:0:0:0:
472,92,210255,2,0,L|484:52,2,29.9999990844727,0|4|4,0:0|0:0|0:0,0:0:0:0:
436,176,210742,6,0,P|400:212|352:224,1,89.9999972534181,12|4,0:0|0:0,0:0:0:0:
320,220,211230,2,0,P|272:220|224:248,1,89.9999972534181,12|4,0:0|0:0,0:0:0:0:
224,280,211718,2,0,P|236:312|232:348,1,59.9999981689454,12|4,0:0|0:0,0:0:0:0:
144,328,212206,2,0,L|144:288,2,29.9999990844727,0|4|4,0:0|0:0|0:0,0:0:0:0:
56,336,212693,2,0,P|56:288|28:240,1,89.9999972534181,12|4,0:0|0:0,0:0:0:0:
24,208,213181,2,0,P|48:176|100:160,1,89.9999972534181,12|4,0:0|0:0,0:0:0:0:
140,156,213669,2,0,P|164:136|176:108,1,59.9999981689454,12|4,0:0|0:0,0:0:0:0:
112,44,214157,2,0,L|64:52,2,29.9999990844727,0|4|4,0:0|0:0|0:0,0:0:0:0:
204,24,214645,5,14,0:0:0:0:
204,24,214767,2,0,P|233:37|254:63,1,59.9999981689454,2|6,0:0|0:0,0:0:0:0:
259,102,215132,2,0,P|236:134|234:188,1,89.9999972534181,14|6,0:0|0:0,0:0:0:0:
253,223,215620,1,14,0:0:0:0:
315,287,215864,1,4,0:0:0:0:
385,343,216108,2,0,L|350:360,2,29.9999990844727,0|4|4,0:0|0:0|0:0,0:0:0:0:
468,308,216596,2,0,P|492:272|496:224,1,89.9999972534181,14|6,0:0|0:0,0:0:0:0:
476,184,217084,2,0,P|440:184|412:164,1,59.9999981689454,14|2,0:0|0:0,0:0:0:0:
404,128,217450,1,4,0:0:0:0:
404,128,217571,2,0,P|396:92|376:56,1,59.9999981689454,12|6,0:0|0:0,0:0:0:0:
356,40,217937,2,0,P|320:24|288:20,1,59.9999981689454,0|4,0:0|0:0,0:0:0:0:
256,24,218303,1,4,0:0:0:0:
256,140,218547,6,0,P|224:172|168:184,1,89.9999972534181,14|4,0:0|0:0,0:0:0:0:
140,172,219035,2,0,P|124:128|80:100,1,89.9999972534181,12|4,0:0|0:0,0:0:0:0:
56,136,219523,2,0,P|32:152|0:156,1,59.9999981689454,12|4,0:0|0:0,0:0:0:0:
4,68,220010,2,0,L|0:32,2,29.9999990844727,8|4|6,0:0|0:0|0:0,0:0:0:0:
88,36,220498,2,0,L|180:24,1,89.9999972534181,14|4,0:0|0:0,0:0:0:0:
200,64,220986,2,0,P|248:68|296:52,1,89.9999972534181,12|4,0:0|0:0,0:0:0:0:
328,36,221474,2,0,P|356:52|380:80,1,59.9999981689454,12|4,0:0|0:0,0:0:0:0:
440,136,221962,2,0,L|464:92,2,29.9999990844727,8|4|6,0:0|0:0|0:0,0:0:0:0:
400,216,222450,6,0,P|412:256|448:296,1,89.9999972534181,14|4,0:0|0:0,0:0:0:0:
460,332,222938,2,0,P|424:364|384:368,1,89.9999972534181,12|4,0:0|0:0,0:0:0:0:
340,368,223426,2,0,P|316:344|284:332,1,59.9999981689454,12|4,0:0|0:0,0:0:0:0:
204,336,223913,2,0,L|224:380,2,29.9999990844727,8|4|6,0:0|0:0|0:0,0:0:0:0:
160,256,224401,2,0,P|168:220|208:176,1,89.9999972534181,14|4,0:0|0:0,0:0:0:0:
244,168,224889,2,0,P|280:176|324:216,1,89.9999972534181,12|4,0:0|0:0,0:0:0:0:
348,244,225377,2,0,P|376:240|400:216,1,59.9999981689454,12|4,0:0|0:0,0:0:0:0:
464,160,225864,2,0,L|484:204,2,29.9999990844727,8|4|4,0:0|0:0|0:0,0:0:0:0:
424,80,226352,6,0,L|328:64,1,89.9999972534181,14|4,0:0|0:0,0:0:0:0:
304,32,226840,1,12,0:0:0:0:
204,120,227206,1,4,0:0:0:0:
204,120,227328,2,0,P|176:112|152:88,1,59.9999981689454,12|4,0:0|0:0,0:0:0:0:
84,36,227815,2,0,L|92:0,2,29.9999990844727,8|4|6,0:0|0:0|0:0,0:0:0:0:
60,124,228303,2,0,P|78:158|132:188,1,89.9999972534181,14|4,0:0|0:0,0:0:0:0:
151,221,228791,2,0,P|112:239|55:227,1,89.9999972534181,12|4,0:0|0:0,0:0:0:0:
24,250,229279,2,0,L|56:307,1,59.9999981689454,12|4,0:0|0:0,0:0:0:0:
88,384,229766,2,0,L|56:384,2,29.9999990844727,8|4|6,0:0|0:0|0:0,0:0:0:0:
164,336,230255,6,0,P|192:324|228:292,1,59.9999981689454,14|0,0:0|0:0,0:0:0:0:
224,264,230620,1,4,0:0:0:0:
224,264,230743,2,0,P|268:280|308:308,1,89.9999972534181,12|4,0:0|0:0,0:0:0:0:
316,348,231231,2,0,P|348:336|372:312,1,59.9999981689454,12|4,0:0|0:0,0:0:0:0:
452,284,231718,1,8,0:0:0:0:
453,278,231840,1,4,0:0:0:0:
453,272,231962,2,0,P|435:247|407:230,1,59.9999981689454,6|14,0:0|0:0,0:0:0:0:
338,174,232450,2,0,L|373:151,2,29.9999990844727,0|4|14,0:0|0:0|0:0,0:0:0:0:
250,199,232937,2,0,P|229:184|204:136,2,59.9999981689454,2|12|4,0:0|0:0|0:0,0:0:0:0:
294,120,233669,2,0,L|339:90,2,29.9999990844727,8|4|4,0:0|0:0|0:0,0:0:0:0:
188,76,234157,6,0,P|156:44|109:23,1,89.9999972534181,14|4,0:0|0:0,0:0:0:0:
80,52,234645,2,0,P|104:92|116:140,1,89.9999972534181,12|4,0:0|0:0,0:0:0:0:
84,168,235133,2,0,P|52:132|24:116,1,59.9999981689454,12|4,0:0|0:0,0:0:0:0:
12,212,235620,2,0,L|0:244,2,29.9999990844727,8|4|6,0:0|0:0|0:0,0:0:0:0:
88,260,236108,2,0,P|112:296|112:360,1,89.9999972534181,14|4,0:0|0:0,0:0:0:0:
162,341,236596,2,0,P|174:297|206:253,1,89.9999972534181,12|4,0:0|0:0,0:0:0:0:
244,248,237084,2,0,P|264:268|308:280,1,59.9999981689454,12|4,0:0|0:0,0:0:0:0:
384,272,237571,2,0,P|384:288|376:320,2,29.9999990844727,8|4|6,0:0|0:0|0:0,0:0:0:0:
396,184,238060,6,0,P|356:204|304:196,1,89.9999972534181,14|4,0:0|0:0,0:0:0:0:
276,176,238548,2,0,P|224:172|180:204,1,89.9999972534181,12|4,0:0|0:0,0:0:0:0:
172,232,239036,2,0,P|164:268|144:292,1,59.9999981689454,12|4,0:0|0:0,0:0:0:0:
68,324,239523,2,0,L|56:368,2,29.9999990844727,8|4|6,0:0|0:0|0:0,0:0:0:0:
76,232,240011,2,0,P|72:192|40:144,1,89.9999972534181,14|4,0:0|0:0,0:0:0:0:
28,108,240499,2,0,P|68:84|104:32,1,89.9999972534181,12|4,0:0|0:0,0:0:0:0:
132,24,240987,2,0,P|148:52|188:76,1,59.9999981689454,12|4,0:0|0:0,0:0:0:0:
256,36,241474,2,0,L|244:0,2,29.9999990844727,8|4|4,0:0|0:0|0:0,0:0:0:0:
292,120,241962,6,0,P|332:140|384:136,1,89.9999972534181,14|4,0:0|0:0,0:0:0:0:
408,108,242450,1,12,0:0:0:0:
356,36,242693,1,0,0:0:0:0:
448,36,242938,2,0,P|472:56|488:100,1,59.9999981689454,12|4,0:0|0:0,0:0:0:0:
500,172,243425,2,0,L|496:220,2,29.9999990844727,8|4|6,0:0|0:0|0:0,0:0:0:0:
412,196,243913,2,0,P|376:220|352:276,1,89.9999972534181,14|4,0:0|0:0,0:0:0:0:
356,304,244401,2,0,P|380:340|436:364,1,89.9999972534181,12|4,0:0|0:0,0:0:0:0:
464,360,244889,2,0,P|492:340|508:304,1,59.9999981689454,12|4,0:0|0:0,0:0:0:0:
495,231,245376,2,0,L|497:201,2,29.9999990844727,8|4|6,0:0|0:0|0:0,0:0:0:0:
380,212,245865,6,0,P|308:200|268:160,1,119.999996337891,14|12,0:0|0:0,0:0:0:0:
364,96,246596,1,0,0:0:0:0:
252,68,246840,2,0,P|220:80|188:112,1,59.9999981689454,12|4,0:0|0:0,0:0:0:0:
168,208,247328,2,0,L|136:174,2,29.9999990844727,8|4|6,0:0|0:0|0:0,0:0:0:0:
84,284,247815,2,0,P|140:320|192:320,1,119.999996337891,14|12,0:0|0:0,0:0:0:0:
252,224,248547,1,0,0:0:0:0:
252,224,248792,2,0,L|328:236,1,59.9999981689454,12|4,0:0|0:0,0:0:0:0:
400,240,249279,2,0,L|404:200,2,29.9999990844727,8|4|4,0:0|0:0|0:0,0:0:0:0:
352,344,249767,6,0,L|249:327,1,89.9999972534181,14|4,0:0|0:0,0:0:0:0:
236,280,250254,2,0,P|192:264|148:268,1,89.9999972534181,12|4,0:0|0:0,0:0:0:0:
116,312,250743,2,0,P|84:296|68:264,1,59.9999981689454,12|4,0:0|0:0,0:0:0:0:
20,172,251230,2,0,L|-4:152,2,29.9999990844727,8|4|6,0:0|0:0|0:0,0:0:0:0:
137,176,251718,2,0,P|181:168|229:140,1,89.9999972534181,14|4,0:0|0:0,0:0:0:0:
244,92,252206,2,0,P|192:92|140:72,1,89.9999972534181,12|4,0:0|0:0,0:0:0:0:
144,24,252694,2,0,P|172:16|212:16,1,59.9999981689454,12|4,0:0|0:0,0:0:0:0:
316,44,253181,2,0,L|344:16,2,29.9999990844727,8|4|6,0:0|0:0|0:0,0:0:0:0:
352,128,253670,6,0,P|368:168|408:196,1,89.9999972534181,14|4,0:0|0:0,0:0:0:0:
440,224,254158,2,0,P|452:276|432:328,1,89.9999972534181,12|4,0:0|0:0,0:0:0:0:
408,340,254645,1,12,0:0:0:0:
348,272,254889,1,4,0:0:0:0:
292,340,255133,2,0,L|328:368,2,29.9999990844727,8|4|6,0:0|0:0|0:0,0:0:0:0:
232,272,255621,2,0,P|212:232|220:180,1,89.9999972534181,14|4,0:0|0:0,0:0:0:0:
244,152,256108,1,12,0:0:0:0:
332,160,256352,1,0,0:0:0:0:
300,76,256597,2,0,P|248:48|176:52,1,119.999996337891,12|8,0:0|0:0,0:0:0:0:
148,64,257206,1,4,0:0:0:0:
148,64,257328,1,4,0:0:0:0:
144,176,257571,6,0,P|132:218|99:248,1,89.9999972534181,14|4,0:0|0:0,0:0:0:0:
53,248,258059,2,0,P|20:218|8:175,1,89.9999972534181,12|4,0:0|0:0,0:0:0:0:
32,136,258547,2,0,P|56:108|64:64,1,59.9999981689454,12|4,0:0|0:0,0:0:0:0:
107,7,259035,2,0,L|72:0,2,29.9999990844727,8|4|6,0:0|0:0|0:0,0:0:0:0:
196,30,259523,2,0,P|248:38|307:30,1,89.9999972534181,14|4,0:0|0:0,0:0:0:0:
328,52,260010,2,0,P|360:84|420:116,1,89.9999972534181,12|4,0:0|0:0,0:0:0:0:
432,140,260498,2,0,P|436:168|452:200,1,59.9999981689454,12|4,0:0|0:0,0:0:0:0:
472,284,260986,2,0,L|516:320,2,29.9999990844727,8|4|6,0:0|0:0|0:0,0:0:0:0:
396,332,261474,6,0,P|348:328|300:292,1,89.9999972534181,14|4,0:0|0:0,0:0:0:0:
308,260,261962,2,0,P|320:216|312:172,1,89.9999972534181,12|4,0:0|0:0,0:0:0:0:
280,144,262450,1,12,0:0:0:0:
223,212,262693,2,0,P|167:227|112:205,1,119.999996337891,4|6,0:0|0:0,0:0:0:0:
58,281,263425,6,0,B|0:240|-12:140|72:88|136:106|172:134|172:134|177:86|205:53|251:38,1,419.999987182618,14|4,0:0|0:0,0:0:0:0:
256,192,265376,12,12,269279,0:0:0:0:
263,133,269767,6,0,P|311:97|329:25,1,119.999996337891,12|12,0:0|0:0,0:0:0:0:
236,41,270498,1,4,0:0:0:0:
142,40,270742,2,0,L|101:40,2,29.9999990844727,8|4|4,0:0|0:0|0:0,0:0:0:0:
156,128,271230,6,0,P|132:172|88:192,1,89.9999972534181,12|4,0:0|0:0,0:0:0:0:
52,188,271718,1,12,0:0:0:0:
28,320,272084,1,4,0:0:0:0:
28,320,272206,2,0,L|96:348,1,59.9999981689454,12|4,0:0|0:0,0:0:0:0:
160,296,272693,2,0,L|174:261,2,29.9999990844727,8|4|6,0:0|0:0|0:0,0:0:0:0:
232,348,273181,6,0,P|296:364|360:320,2,119.999996337891,12|12|12,0:0|0:0|0:0,0:0:0:0:
284,276,274401,2,0,L|300:136,1,119.999996337891,4|4,0:0|0:0,0:0:0:0:
300,68,275132,2,0,P|260:76|208:148,2,119.999996337891,12|12|12,0:0|0:0|0:0,0:0:0:0:
372,120,276352,1,4,0:0:0:0:
444,176,276596,2,0,L|480:152,2,29.9999990844727,8|4|4,0:0|0:0|0:0,0:0:0:0:
380,240,277084,6,0,B|328:268|264:240|264:240|256:312|212:344|212:344|144:356|72:324|44:260,1,419.999987182618,12|4,0:0|0:0,0:0:0:0:
88,192,279035,2,0,B|112:240|136:260|176:268|176:268|196:232|196:192|192:152|192:152|236:100|312:88|376:140,1,419.999987182618,12|4,0:0|0:0,0:0:0:0:
412,172,280986,5,8,0:0:0:0:
120,104,282937,1,2,0:0:0:0:
320,328,284889,1,0,0:0:0:0:
256,192,285010,12,0,288791,0:0:0:0:
