osu file format v14

[General]
AudioFilename: audio.mp3
AudioLeadIn: 0
PreviewTime: 29182
Countdown: 0
SampleSet: Soft
StackLeniency: 0.2
Mode: 0
LetterboxInBreaks: 0
EpilepsyWarning: 1
WidescreenStoryboard: 1

[Editor]
DistanceSpacing: 1
BeatDivisor: 4
GridSize: 16
TimelineZoom: 2.3

[Metadata]
Title:Underwear
TitleUnicode:Underwear
Artist:Royal Republic
ArtistUnicode:Royal Republic
Creator:HALLO EVERINYAN
Version:Harrassment
Source:
Tags:royal republic worstpolackeu smokelind reform itswinter woey hectique rolniczy ioexception deadcode snownino_ onlybiscuit kalibe mbmasher venix scubdomino stunterletsplay FrenZ396 FoxyGrandpa greenhue J1_ brotarks Coppertine
BeatmapID:3983342
BeatmapSetID:891966

[Difficulty]
HPDrainRate:5
CircleSize:4
OverallDifficulty:9.6
ApproachRate:9.7
SliderMultiplier:2
SliderTickRate:1

[Events]
//Background and Video events
0,0,"bg.png",0,0
//Break Periods
//Storyboard Layer 0 (Background)
//Storyboard Layer 1 (Fail)
//Storyboard Layer 2 (Pass)
//Storyboard Layer 3 (Foreground)
Sprite,Foreground,Centre,"sb\f\c\_019.png",0,0 S,0,5190,,0.3 MY,0,5190,,213.96 F,0,5190,5440,0,1 MX,0,5190,5440,400,325 MX,0,5440,7340,325,300 F,0,7340,7590,1,0 MX,0,7340,7590,300,250
Sprite,Foreground,Centre,"sb\f\c\_01a.png",0,0 S,0,5190,,0.3 MY,0,5190,,266.04 F,0,5190,5440,0,1 MX,0,5190,5440,250,300 MX,0,5440,7340,300,325 F,0,7340,7590,1,0 MX,0,7340,7590,325,400
Sprite,Foreground,Centre,"sb\pl.png",0,0 M,0,9390,,115,409 F,0,9390,,1 C,0,9390,,128,64,64 S,0,9390,9490,0,1 F,0,9390,9590,1,0 M,0,9615,,227,414 F,0,9615,,1 C,0,9615,,128,64,64 S,0,9615,9715,0,1 F,0,9615,9815,1,0 M,0,9840,,339,420 F,0,9840,,1 C,0,9840,,128,64,64 S,0,9840,9940,0,1 F,0,9840,10040,1,0 M,0,28582,,303,381 F,0,28582,,1 C,0,28582,,128,64,64 S,0,28582,28682,0,1 F,0,28582,28782,1,0 M,0,28882,,303,381 F,0,28882,,1 C,0,28882,,128,64,64 M,0,28882,28957,303,381,297.4294,356.6285 S,0,28882,28982,0,1 F,0,28919,29119,1,0 M,0,52582,,199,333 F,0,52582,,1 C,0,52582,,255,0,128 S,0,52582,52682,0,1 F,0,52582,52782,1,0 M,0,52882,,295,359 F,0,52882,,1 C,0,52882,,255,128,255 S,0,52882,52982,0,1 F,0,52882,53082,1,0 M,0,53107,,367,379 F,0,53107,,1 C,0,53107,,255,128,255 S,0,53107,53207,0,1 F,0,53107,53307,1,0 M,0,60382,,262,306 F,0,60382,,1 C,0,60382,,255,0,0 S,0,60382,60482,0,1 F,0,60382,60582,1,0 M,0,60682,,262,306 F,0,60682,,1 C,0,60682,,255,0,0 S,0,60682,60782,0,1 F,0,60682,60882,1,0 M,0,60982,,262,306 F,0,60982,,1 C,0,60982,,255,0,0 S,0,60982,61082,0,1 F,0,60982,61182,1,0 M,0,61282,,262,306 F,0,61282,,1 C,0,61282,,255,0,0 S,0,61282,61382,0,1 F,0,61282,61482,1,0 M,0,61582,,378,190 F,0,61582,,1 C,0,61582,,128,64,64 S,0,61582,61682,0,1 F,0,61582,61782,1,0 M,0,61882,,378,190 F,0,61882,,1 C,0,61882,,128,64,64 S,0,61882,61982,0,1 F,0,61882,62082,1,0 M,0,62182,,378,190 F,0,62182,,1 C,0,62182,,128,64,64 S,0,62182,62282,0,1 F,0,62182,62382,1,0 M,0,62482,,378,190 F,0,62482,,1 C,0,62482,,128,64,64 S,0,62482,62582,0,1 F,0,62482,62682,1,0 M,0,62782,,378,306 F,0,62782,,1 C,0,62782,,255,0,128 S,0,62782,62882,0,1 F,0,62782,62982,1,0 M,0,63082,,378,306 F,0,63082,,1 C,0,63082,,255,0,128 S,0,63082,63182,0,1 F,0,63082,63282,1,0 M,0,63382,,378,306 F,0,63382,,1 C,0,63382,,255,0,128 S,0,63382,63482,0,1 F,0,63382,63582,1,0 M,0,63682,,378,306 F,0,63682,,1 C,0,63682,,255,0,128 S,0,63682,63782,0,1 F,0,63682,63882,1,0 M,0,63982,,262,190 F,0,63982,,1 C,0,63982,,255,128,255 S,0,63982,64082,0,1 F,0,63982,64182,1,0 M,0,64282,,262,190 F,0,64282,,1 C,0,64282,,255,128,255 S,0,64282,64382,0,1 F,0,64282,64482,1,0 M,0,64582,,262,190 F,0,64582,,1 C,0,64582,,255,128,255 S,0,64582,64682,0,1 F,0,64582,64782,1,0 M,0,64882,,152,302 F,0,64882,,1 C,0,64882,,255,0,0 S,0,64882,64982,0,1 F,0,64882,65082,1,0 M,0,65182,,192,140 F,0,65182,,1 C,0,65182,,255,0,0 M,0,65182,65257,192,140,134.6302,109.5781 S,0,65182,65282,0,1 M,0,65257,65332,134.6302,109.5781,73.49158,87.69837 F,0,65331,65531,1,0 M,0,65632,,149,249 F,0,65632,,1 C,0,65632,,128,64,64 S,0,65632,65732,0,1 F,0,65632,65832,1,0 M,0,66082,,338,129 F,0,66082,,1 C,0,66082,,255,0,128 S,0,66082,66182,0,1 F,0,66082,66282,1,0 M,0,66382,,265,93 F,0,66382,,1 C,0,66382,,255,128,255 S,0,66382,66482,0,1 F,0,66382,66582,1,0 M,0,66682,,192,57 F,0,66682,,1 C,0,66682,,255,0,0 S,0,66682,66782,0,1 F,0,66682,66882,1,0 M,0,66907,,192,218 F,0,66907,,1 C,0,66907,,255,0,0 S,0,66907,67007,0,1 F,0,66907,67107,1,0 M,0,67132,,281,326 F,0,67132,,1 C,0,67132,,128,64,64 S,0,67132,67232,0,1 F,0,67132,67332,1,0 M,0,67357,,402,266 F,0,67357,,1 C,0,67357,,128,64,64 S,0,67357,67457,0,1 F,0,67357,67557,1,0 M,0,67582,,488,290 F,0,67582,,1 C,0,67582,,255,0,128 S,0,67582,67682,0,1 F,0,67582,67782,1,0
Sprite,Foreground,Centre,"sb\pl.png",0,0 M,0,9465,,152,410 F,0,9465,,1 C,0,9465,,128,64,64 S,0,9465,9565,0,1 F,0,9465,9665,1,0 M,0,9690,,264,416 F,0,9690,,1 C,0,9690,,128,64,64 S,0,9690,9790,0,1 F,0,9690,9890,1,0 M,0,9915,,377,422 F,0,9915,,1 C,0,9915,,128,64,64 S,0,9915,10015,0,1 F,0,9915,10115,1,0 M,0,52657,,199,333 F,0,52657,,1 C,0,52657,,255,0,128 S,0,52657,52757,0,1 F,0,52657,52857,1,0 M,0,52957,,319,365 F,0,52957,,1 C,0,52957,,255,128,255 S,0,52957,53057,0,1 F,0,52957,53157,1,0 M,0,53182,,389,385 F,0,53182,,1 C,0,53182,,255,0,0 M,0,53182,53257,389,385,438.8408,388.9873 S,0,53182,53282,0,1 M,0,53257,53332,438.8408,388.9873,488.6815,392.9745 M,0,53332,53407,488.6815,392.9745 F,0,53332,53532,1,0 M,0,65032,,392,234 F,0,65032,,1 C,0,65032,,255,0,0 S,0,65032,65132,0,1 F,0,65032,65232,1,0 M,0,65482,,397,361 F,0,65482,,1 C,0,65482,,128,64,64 S,0,65482,65582,0,1 F,0,65482,65682,1,0 M,0,65782,,393,159 F,0,65782,,1 C,0,65782,,128,64,64 M,0,65782,65857,393,159,448.8899,134.0426 S,0,65782,65882,0,1 M,0,65857,65932,448.8899,134.0426,507.9417,121.0194 F,0,65931,66131,1,0 M,0,66232,,305,379 F,0,66232,,1 C,0,66232,,255,0,128 S,0,66232,66332,0,1 F,0,66232,66432,1,0 M,0,66532,,304,400 F,0,66532,,1 C,0,66532,,255,128,255 S,0,66532,66632,0,1 F,0,66532,66732,1,0 M,0,66757,,192,110 F,0,66757,,1 C,0,66757,,255,0,0 S,0,66757,66857,0,1 F,0,66757,66957,1,0 M,0,66982,,192,273 F,0,66982,,1 C,0,66982,,128,64,64 S,0,66982,67082,0,1 F,0,66982,67182,1,0 M,0,67207,,333,317 F,0,67207,,1 C,0,67207,,128,64,64 S,0,67207,67307,0,1 F,0,67207,67407,1,0 M,0,67432,,434,260 F,0,67432,,1 C,0,67432,,128,64,64 S,0,67432,67532,0,1 F,0,67432,67632,1,0
Sprite,Foreground,Centre,"sb\pl.png",0,0 M,0,9540,,189,412 F,0,9540,,1 C,0,9540,,128,64,64 S,0,9540,9640,0,1 F,0,9540,9740,1,0 M,0,9765,,302,418 F,0,9765,,1 C,0,9765,,128,64,64 S,0,9765,9865,0,1 F,0,9765,9965,1,0 M,0,9990,,414,424 F,0,9990,,1 C,0,9990,,255,0,128 M,0,9990,10065,414,424,463.8246,419.8163 S,0,9990,10090,0,1 M,0,10065,10140,463.8246,419.8163,513.6493,415.6325 M,0,10140,10215,513.6493,415.6325 F,0,10140,10340,1,0 M,0,52732,,199,333 F,0,52732,,1 C,0,52732,,255,0,128 M,0,52732,52807,199,333,150.6581,320.2304 S,0,52732,52832,0,1 M,0,52807,52882,150.6581,320.2304 F,0,52807,53007,1,0 M,0,53032,,343,372 F,0,53032,,1 C,0,53032,,255,128,255 S,0,53032,53132,0,1 F,0,53032,53232,1,0 M,0,66832,,192,165 F,0,66832,,1 C,0,66832,,255,0,0 S,0,66832,66932,0,1 F,0,66832,67032,1,0 M,0,67057,,230,310 F,0,67057,,1 C,0,67057,,128,64,64 S,0,67057,67157,0,1 F,0,67057,67257,1,0 M,0,67282,,378,286 F,0,67282,,1 C,0,67282,,128,64,64 S,0,67282,67382,0,1 F,0,67282,67482,1,0 M,0,67507,,464,269 F,0,67507,,1 C,0,67507,,128,64,64 S,0,67507,67607,0,1 F,0,67507,67707,1,0
Sprite,Foreground,Centre,"sb\pp.png",0,0 M,19,33982,34982,490,66,421.6001,-17.57906 F,0,33982,34982,1,0 M,19,35032,36032,226,316,192.8406,136.0293 F,0,35032,36032,1,0 M,19,36082,37082,325,61,291.5287,104.6426 F,0,36082,37082,1,0 M,19,41182,42182,368,141,209.6905,32.36248 F,0,41182,42182,1,0 M,19,42232,43232,252,379,238.724,463.9691 F,0,42232,43232,1,0 M,19,43582,44582,255,126,294.5775,272.757 F,0,43582,44582,1,0 M,19,44632,45632,355,338,230.7021,455.4353 F,0,44632,45632,1,0 M,19,45682,46682,223,399,141.9595,343.8962 F,0,45682,46682,1,0 M,19,46732,47732,254,124,322.0861,164.0659 F,0,46732,47732,1,0 M,19,47782,48782,198,246,74.27885,184.8683 F,0,47782,48782,1,0 M,19,48982,49982,401,386,383.2303,491.5142 F,0,48982,49982,1,0 M,19,50182,51182,331,231,412.2538,299.0721 F,0,50182,51182,1,0 M,19,51232,52232,397,259,374.3857,137.0796 F,0,51232,52232,1,0 M,19,52432,53432,510,304,355.5275,207.7594 F,0,52432,53432,1,0 M,19,53482,54482,437,286,483.6864,465.0122 F,0,53482,54482,1,0 M,19,54682,55682,262,311,229.8775,489.1268 F,0,54682,55682,1,0 M,19,55882,56882,183,310,36.82919,343.6763 F,0,55882,56882,1,0 M,19,57082,58082,450,322,488.6068,416.4114 F,0,57082,58082,1,0 M,19,58282,59282,209,98,102.7089,-26.89278 F,0,58282,59282,1,0 M,19,59482,60482,161,211,134.4538,18.82483 F,0,59482,60482,1,0 M,19,67582,68582,488,290,334.9076,368.401 F,0,67582,68582,1,0 M,19,68782,69782,93,105,167.8392,86.88657 F,0,68782,69782,1,0 M,19,69982,70982,519,93,617.9205,242.1835 F,0,69982,70982,1,0 M,19,71182,72182,499,382,599.4659,364.3762 F,0,71182,72182,1,0 M,19,72232,73232,208,419,228.7249,575.6348 F,0,72232,73232,1,0 M,19,73282,74282,554,225,675.5844,178.9866 F,0,73282,74282,1,0 M,19,74482,75482,576,129,628.9446,15.76632 F,0,74482,75482,1,0 M,19,75532,76532,126,170,136.6262,68.55502 F,0,75532,76532,1,0
Sprite,Foreground,Centre,"sb\pp.png",0,0 M,19,33982,34982,490,66,417.8128,224.3193 F,0,33982,34982,1,0 M,19,35032,36032,226,316,220.2887,226.1814 F,0,35032,36032,1,0 M,19,36082,37082,325,61,137.1525,40.15953 F,0,36082,37082,1,0 M,19,41182,42182,368,141,261.2436,88.42565 F,0,41182,42182,1,0 M,19,42232,43232,252,379,195.0663,194.5886 F,0,42232,43232,1,0 M,19,43582,44582,255,126,124.2628,150.4294 F,0,43582,44582,1,0 M,19,44632,45632,355,338,382.4543,443.4858 F,0,44632,45632,1,0 M,19,45682,46682,223,399,337.7376,264.225 F,0,45682,46682,1,0 M,19,46732,47732,254,124,196.8527,308.3453 F,0,46732,47732,1,0 M,19,47782,48782,198,246,144.4147,239.3207 F,0,47782,48782,1,0 M,19,48982,49982,401,386,426.8169,331.8383 F,0,48982,49982,1,0 M,19,50182,51182,331,231,149.9546,204.325 F,0,50182,51182,1,0 M,19,51232,52232,397,259,341.204,189.6617 F,0,51232,52232,1,0 M,19,52432,53432,510,304,507.9372,373.9696 F,0,52432,53432,1,0 M,19,53482,54482,437,286,308.5376,147.3696 F,0,53482,54482,1,0 M,19,54682,55682,262,311,314.9615,313.0186 F,0,54682,55682,1,0 M,19,55882,56882,183,310,139.1974,348.0175 F,0,55882,56882,1,0 M,19,57082,58082,450,322,387.8079,487.714 F,0,57082,58082,1,0 M,19,58282,59282,209,98,79.11033,-44.75038 F,0,58282,59282,1,0 M,19,59482,60482,161,211,100.3107,256.7473 F,0,59482,60482,1,0 M,19,67582,68582,488,290,444.8801,170.5443 F,0,67582,68582,1,0 M,19,68782,69782,93,105,144.4094,-14.40298 F,0,68782,69782,1,0 M,19,69982,70982,519,93,558.1968,24.40986 F,0,69982,70982,1,0 M,19,71182,72182,499,382,587.2144,292.0321 F,0,71182,72182,1,0 M,19,72232,73232,208,419,288.0231,485.4251 F,0,72232,73232,1,0 M,19,73282,74282,554,225,595.7416,413.432 F,0,73282,74282,1,0 M,19,74482,75482,576,129,503.4298,9.277117 F,0,74482,75482,1,0 M,19,75532,76532,126,170,-22.52403,217.7139 F,0,75532,76532,1,0
Sprite,Foreground,Centre,"sb\pp.png",0,0 M,19,33982,34982,490,66,379.9731,45.06947 F,0,33982,34982,1,0 M,19,35032,36032,226,316,344.0423,285.1776 F,0,35032,36032,1,0 M,19,36082,37082,325,61,287.3011,180.1797 F,0,36082,37082,1,0 M,19,41182,42182,368,141,224.13,147.1174 F,0,41182,42182,1,0 M,19,42232,43232,252,379,235.0188,434.4584 F,0,42232,43232,1,0 M,19,43582,44582,255,126,222.1051,63.08 F,0,43582,44582,1,0 M,19,44632,45632,355,338,215.0051,464.9741 F,0,44632,45632,1,0 M,19,45682,46682,223,399,137.4823,389.9044 F,0,45682,46682,1,0 M,19,46732,47732,254,124,359.2367,189.5838 F,0,46732,47732,1,0 M,19,47782,48782,198,246,179.6849,58.89426 F,0,47782,48782,1,0 M,19,48982,49982,401,386,351.5461,332.3035 F,0,48982,49982,1,0 M,19,50182,51182,331,231,149.6213,246.025 F,0,50182,51182,1,0 M,19,51232,52232,397,259,434.294,116.8094 F,0,51232,52232,1,0 M,19,52432,53432,510,304,519.3818,416.6099 F,0,52432,53432,1,0 M,19,53482,54482,437,286,331.0886,246.6075 F,0,53482,54482,1,0 M,19,54682,55682,262,311,349.6014,152.6113 F,0,54682,55682,1,0 M,19,55882,56882,183,310,74.24957,386.5659 F,0,55882,56882,1,0 M,19,57082,58082,450,322,504.8223,261.0204 F,0,57082,58082,1,0 M,19,58282,59282,209,98,161.5803,113.8548 F,0,58282,59282,1,0 M,19,59482,60482,161,211,154.0093,336.8059 F,0,59482,60482,1,0 M,19,67582,68582,488,290,522.3732,383.9068 F,0,67582,68582,1,0 M,19,68782,69782,93,105,223.459,152.9734 F,0,68782,69782,1,0 M,19,69982,70982,519,93,490.8363,135.5183 F,0,69982,70982,1,0 M,19,71182,72182,499,382,352.6839,466.5731 F,0,71182,72182,1,0 M,19,72232,73232,208,419,102.0758,360.5102 F,0,72232,73232,1,0 M,19,73282,74282,554,225,637.1004,262.0854 F,0,73282,74282,1,0 M,19,74482,75482,576,129,672.8248,203.2224 F,0,74482,75482,1,0 M,19,75532,76532,126,170,271.4012,50.82583 F,0,75532,76532,1,0
Sprite,Foreground,Centre,"sb\pp.png",0,0 M,19,33982,34982,490,66,519.3395,117.1878 F,0,33982,34982,1,0 M,19,35032,36032,226,316,94.41539,465.2866 F,0,35032,36032,1,0 M,19,36082,37082,325,61,385.1729,-73.12018 F,0,36082,37082,1,0 M,19,41182,42182,368,141,424.307,60.79078 F,0,41182,42182,1,0 M,19,42232,43232,252,379,392.1502,437.8381 F,0,42232,43232,1,0 M,19,43582,44582,255,126,342.1195,0.225606 F,0,43582,44582,1,0 M,19,44632,45632,355,338,473.3635,492.968 F,0,44632,45632,1,0 M,19,45682,46682,223,399,144.2207,404.9005 F,0,45682,46682,1,0 M,19,46732,47732,254,124,106.8752,36.84906 F,0,46732,47732,1,0 M,19,47782,48782,198,246,168.3386,317.0577 F,0,47782,48782,1,0 M,19,48982,49982,401,386,244.3411,303.6168 F,0,48982,49982,1,0 M,19,50182,51182,331,231,370.6777,188.6954 F,0,50182,51182,1,0 M,19,51232,52232,397,259,447.6921,264.5954 F,0,51232,52232,1,0 M,19,52432,53432,510,304,430.437,178.0209 F,0,52432,53432,1,0 M,19,53482,54482,437,286,350.6474,392.359 F,0,53482,54482,1,0 M,19,54682,55682,262,311,405.6833,433.7848 F,0,54682,55682,1,0 M,19,55882,56882,183,310,149.1616,162.8404 F,0,55882,56882,1,0 M,19,57082,58082,450,322,502.5583,334.3948 F,0,57082,58082,1,0 M,19,58282,59282,209,98,54.84118,59.06343 F,0,58282,59282,1,0 M,19,59482,60482,161,211,87.42245,225.5377 F,0,59482,60482,1,0 M,19,67582,68582,488,290,656.2807,305.5758 F,0,67582,68582,1,0 M,19,68782,69782,93,105,147.7334,66.35741 F,0,68782,69782,1,0 M,19,69982,70982,519,93,450.1562,205.6256 F,0,69982,70982,1,0 M,19,71182,72182,499,382,335.38,415.429 F,0,71182,72182,1,0 M,19,72232,73232,208,419,360.9937,528.2563 F,0,72232,73232,1,0 M,19,73282,74282,554,225,618.915,381.0354 F,0,73282,74282,1,0 M,19,74482,75482,576,129,502.7568,168.0439 F,0,74482,75482,1,0 M,19,75532,76532,126,170,126.2761,65.00037 F,0,75532,76532,1,0
Sprite,Foreground,Centre,"sb\pp.png",0,0 M,19,33982,34982,490,66,578.9686,35.65887 F,0,33982,34982,1,0 M,19,35032,36032,226,316,333.8691,245.2522 F,0,35032,36032,1,0 M,19,36082,37082,325,61,243.8562,-83.81603 F,0,36082,37082,1,0 M,19,41182,42182,368,141,258.2158,306.9772 F,0,41182,42182,1,0 M,19,42232,43232,252,379,171.9983,430.2321 F,0,42232,43232,1,0 M,19,43582,44582,255,126,386.9728,22.04242 F,0,43582,44582,1,0 M,19,44632,45632,355,338,425.6051,345.478 F,0,44632,45632,1,0 M,19,45682,46682,223,399,218.0435,266.0924 F,0,45682,46682,1,0 M,19,46732,47732,254,124,359.5099,86.42793 F,0,46732,47732,1,0 M,19,47782,48782,198,246,100.6759,366.6359 F,0,47782,48782,1,0 M,19,48982,49982,401,386,302.1642,516.872 F,0,48982,49982,1,0 M,19,50182,51182,331,231,238.2731,259.4733 F,0,50182,51182,1,0 M,19,51232,52232,397,259,302.1119,94.39061 F,0,51232,52232,1,0 M,19,52432,53432,510,304,392.3546,195.5584 F,0,52432,53432,1,0 M,19,53482,54482,437,286,450.2195,350.6625 F,0,53482,54482,1,0 M,19,54682,55682,262,311,192.345,289.1555 F,0,54682,55682,1,0 M,19,55882,56882,183,310,207.4283,379.8517 F,0,55882,56882,1,0 M,19,57082,58082,450,322,424.6411,247.1807 F,0,57082,58082,1,0 M,19,58282,59282,209,98,85.81229,-57.01223 F,0,58282,59282,1,0 M,19,59482,60482,161,211,297.5279,133.4814 F,0,59482,60482,1,0 M,19,67582,68582,488,290,591.4913,249.8684 F,0,67582,68582,1,0 M,19,68782,69782,93,105,32.54293,189.6223 F,0,68782,69782,1,0 M,19,69982,70982,519,93,531.9864,197.1938 F,0,69982,70982,1,0 M,19,71182,72182,499,382,568.8879,385.9597 F,0,71182,72182,1,0 M,19,72232,73232,208,419,333.1076,383.6716 F,0,72232,73232,1,0 M,19,73282,74282,554,225,490.7554,280.2822 F,0,73282,74282,1,0 M,19,74482,75482,576,129,502.2723,88.74802 F,0,74482,75482,1,0 M,19,75532,76532,126,170,21.50682,222.6324 F,0,75532,76532,1,0
Sprite,Foreground,Centre,"sb\pp.png",0,0 M,19,33982,34982,490,66,533.3061,166.0279 F,0,33982,34982,1,0 M,19,35032,36032,226,316,294.264,440.5152 F,0,35032,36032,1,0 M,19,36082,37082,325,61,298.583,149.1257 F,0,36082,37082,1,0 M,19,41182,42182,368,141,294.1425,73.5829 F,0,41182,42182,1,0 M,19,42232,43232,252,379,144.2287,506.571 F,0,42232,43232,1,0 M,19,43582,44582,255,126,226.2299,-4.875053 F,0,43582,44582,1,0 M,19,44632,45632,355,338,316.1407,452.5904 F,0,44632,45632,1,0 M,19,45682,46682,223,399,128.5046,516.7778 F,0,45682,46682,1,0 M,19,46732,47732,254,124,209.7176,243.0297 F,0,46732,47732,1,0 M,19,47782,48782,198,246,178.9071,355.3456 F,0,47782,48782,1,0 M,19,48982,49982,401,386,235.1207,321.4394 F,0,48982,49982,1,0 M,19,50182,51182,331,231,225.8544,158.004 F,0,50182,51182,1,0 M,19,51232,52232,397,259,365.7905,344.4808 F,0,51232,52232,1,0 M,19,52432,53432,510,304,575.972,302.0777 F,0,52432,53432,1,0 M,19,53482,54482,437,286,565.0341,342.6327 F,0,53482,54482,1,0 M,19,54682,55682,262,311,167.6535,254.4426 F,0,54682,55682,1,0 M,19,55882,56882,183,310,167.7012,177.8828 F,0,55882,56882,1,0 M,19,57082,58082,450,322,450.649,159.0013 F,0,57082,58082,1,0 M,19,58282,59282,209,98,84.96221,160.7346 F,0,58282,59282,1,0 M,19,59482,60482,161,211,242.4843,39.35995 F,0,59482,60482,1,0 M,19,67582,68582,488,290,458.6036,361.1678 F,0,67582,68582,1,0 M,19,68782,69782,93,105,68.80817,-12.53619 F,0,68782,69782,1,0 M,19,69982,70982,519,93,525.9272,-17.78364 F,0,69982,70982,1,0 M,19,71182,72182,499,382,436.3036,271.5547 F,0,71182,72182,1,0 M,19,72232,73232,208,419,191.2608,370.8253 F,0,72232,73232,1,0 M,19,73282,74282,554,225,397.7641,338.3108 F,0,73282,74282,1,0 M,19,74482,75482,576,129,558.0825,46.93319 F,0,74482,75482,1,0 M,19,75532,76532,126,170,87.52214,16.75688 F,0,75532,76532,1,0
Sprite,Foreground,Centre,"sb\pp.png",0,0 M,19,33982,34982,490,66,473.3123,121.5475 F,0,33982,34982,1,0 M,19,35032,36032,226,316,179.5748,288.4191 F,0,35032,36032,1,0 M,19,36082,37082,325,61,458.8589,54.8526 F,0,36082,37082,1,0 M,19,41182,42182,368,141,311.4679,153.9662 F,0,41182,42182,1,0 M,19,42232,43232,252,379,63.15806,339.1538 F,0,42232,43232,1,0 M,19,43882,44882,80,264,134.6585,106.1981 F,0,43882,44882,1,0 M,19,45082,46082,549,301,482.0565,298.2496 F,0,45082,46082,1,0 M,19,46282,47282,155,136,27.30216,160.357 F,0,46282,47282,1,0 M,19,47482,48482,420,333,325.8203,436.5865 F,0,47482,48482,1,0 M,19,48682,49682,442,97,360.5039,231.1916 F,0,48682,49682,1,0 M,19,49882,50882,125,146,132.0592,209.6095 F,0,49882,50882,1,0 M,19,51082,52082,434,397,440.3419,335.3252 F,0,51082,52082,1,0 M,19,52132,53132,171,168,347.8728,129.5683 F,0,52132,53132,1,0 M,19,53482,54482,437,286,506.669,108.1595 F,0,53482,54482,1,0 M,19,54682,55682,262,311,350.2741,396.6545 F,0,54682,55682,1,0 M,19,55882,56882,183,310,52.25198,301.8788 F,0,55882,56882,1,0 M,19,57082,58082,450,322,417.1919,169.4889 F,0,57082,58082,1,0 M,19,58282,59282,209,98,153.1144,248.9894 F,0,58282,59282,1,0 M,19,59482,60482,161,211,219.9593,213.1901 F,0,59482,60482,1,0 M,19,67732,68732,128,139,95.98776,248.4131 F,0,67732,68732,1,0 M,19,68932,69932,393,172,492.8214,287.9512 F,0,68932,69932,1,0 M,19,69982,70982,519,93,609.4853,142.2079 F,0,69982,70982,1,0 M,19,71182,72182,499,382,569.9642,384.2534 F,0,71182,72182,1,0 M,19,72232,73232,208,419,350.1469,553.9454 F,0,72232,73232,1,0 M,19,73282,74282,554,225,689.6064,284.2865 F,0,73282,74282,1,0 M,19,74482,75482,576,129,627.3625,-57.04002 F,0,74482,75482,1,0 M,19,75532,76532,126,170,-43.21365,153.6677 F,0,75532,76532,1,0
Sprite,Foreground,Centre,"sb\pp.png",0,0 M,19,34132,35132,461,315,303.6359,280.9773 F,0,34132,35132,1,0 M,19,35182,36182,79,114,164.5849,86.15715 F,0,35182,36182,1,0 M,19,36382,37382,157,217,205.1193,291.8701 F,0,36382,37382,1,0 M,19,41182,42182,368,141,331.108,-42.32478 F,0,41182,42182,1,0 M,19,42232,43232,252,379,355.6772,292.5359 F,0,42232,43232,1,0 M,19,43882,44882,80,264,40.52716,182.0067 F,0,43882,44882,1,0 M,19,45082,46082,549,301,485.7521,145.3603 F,0,45082,46082,1,0 M,19,46282,47282,155,136,39.38441,145.4358 F,0,46282,47282,1,0 M,19,47482,48482,420,333,470.8819,343.7252 F,0,47482,48482,1,0 M,19,48682,49682,442,97,342.746,-59.12059 F,0,48682,49682,1,0 M,19,49882,50882,125,146,97.24181,80.65106 F,0,49882,50882,1,0 M,19,51082,52082,434,397,384.3604,425.0162 F,0,51082,52082,1,0 M,19,52132,53132,171,168,216.0375,106.7822 F,0,52132,53132,1,0 M,19,53482,54482,437,286,385.3418,462.5996 F,0,53482,54482,1,0 M,19,54682,55682,262,311,192.6726,398.9643 F,0,54682,55682,1,0 M,19,55882,56882,183,310,148.4569,251.4272 F,0,55882,56882,1,0 M,19,57082,58082,450,322,356.1264,317.1262 F,0,57082,58082,1,0 M,19,58282,59282,209,98,237.6843,-23.66433 F,0,58282,59282,1,0 M,19,60082,61082,382,86,307.332,-15.49234 F,0,60082,61082,1,0 M,19,67732,68732,128,139,70.31151,104.926 F,0,67732,68732,1,0 M,19,68932,69932,393,172,406.045,69.82941 F,0,68932,69932,1,0 M,19,69982,70982,519,93,429.7633,41.5625 F,0,69982,70982,1,0 M,19,71182,72182,499,382,483.3678,444.0615 F,0,71182,72182,1,0 M,19,72232,73232,208,419,396.2869,357.7459 F,0,72232,73232,1,0 M,19,73282,74282,554,225,607.919,156.7231 F,0,73282,74282,1,0 M,19,74482,75482,576,129,524.6251,277.3564 F,0,74482,75482,1,0 M,19,75532,76532,126,170,6.737381,40.56883 F,0,75532,76532,1,0
Sprite,Foreground,Centre,"sb\pp.png",0,0 M,19,34132,35132,461,315,387.7698,344.6369 F,0,34132,35132,1,0 M,19,35182,36182,79,114,50.54504,30.72746 F,0,35182,36182,1,0 M,19,36382,37382,157,217,205.0063,114.7044 F,0,36382,37382,1,0 M,19,41182,42182,368,141,433.6691,147.6003 F,0,41182,42182,1,0 M,19,42232,43232,252,379,317.7915,373.7581 F,0,42232,43232,1,0 M,19,43882,44882,80,264,94.84019,423.3103 F,0,43882,44882,1,0 M,19,45082,46082,549,301,614.156,275.413 F,0,45082,46082,1,0 M,19,46282,47282,155,136,138.3184,217.3064 F,0,46282,47282,1,0 M,19,47482,48482,420,333,394.1878,383.8206 F,0,47482,48482,1,0 M,19,48682,49682,442,97,452.0212,-72.70438 F,0,48682,49682,1,0 M,19,49882,50882,125,146,12.32516,41.02201 F,0,49882,50882,1,0 M,19,51082,52082,434,397,438.1021,542.9424 F,0,51082,52082,1,0 M,19,52132,53132,171,168,133.2705,214.6528 F,0,52132,53132,1,0 M,19,53482,54482,437,286,476.5692,336.3019 F,0,53482,54482,1,0 M,19,54682,55682,262,311,247.8643,455.3093 F,0,54682,55682,1,0 M,19,55882,56882,183,310,310.8865,436.669 F,0,55882,56882,1,0 M,19,57082,58082,450,322,429.1497,414.6837 F,0,57082,58082,1,0 M,19,58282,59282,209,98,100.7325,48.61232 F,0,58282,59282,1,0 M,19,60082,61082,382,86,527.6427,221.6068 F,0,60082,61082,1,0 M,19,67732,68732,128,139,68.97704,227.0471 F,0,67732,68732,1,0 M,19,68932,69932,393,172,290.0173,294.4523 F,0,68932,69932,1,0 M,19,69982,70982,519,93,636.3524,148.9322 F,0,69982,70982,1,0 M,19,71182,72182,499,382,621.161,460.1133 F,0,71182,72182,1,0 M,19,72232,73232,208,419,177.2361,465.793 F,0,72232,73232,1,0 M,19,73282,74282,554,225,590.5463,84.6812 F,0,73282,74282,1,0 M,19,74482,75482,576,129,613.8447,-4.748938 F,0,74482,75482,1,0 M,19,75532,76532,126,170,0.9657446,209.0824 F,0,75532,76532,1,0
Sprite,Foreground,Centre,"sb\pp.png",0,0 M,19,34132,35132,461,315,468.726,409.6853 F,0,34132,35132,1,0 M,19,35182,36182,79,114,-6.903383,59.00355 F,0,35182,36182,1,0 M,19,36382,37382,157,217,188.9277,168.5787 F,0,36382,37382,1,0 M,19,41182,42182,368,141,452.3226,-32.605 F,0,41182,42182,1,0 M,19,42382,43382,444,131,535.9474,286.9059 F,0,42382,43382,1,0 M,19,43882,44882,80,264,-21.95497,183.3453 F,0,43882,44882,1,0 M,19,45082,46082,549,301,673.2322,400.2339 F,0,45082,46082,1,0 M,19,46282,47282,155,136,152.4366,86.06575 F,0,46282,47282,1,0 M,19,47482,48482,420,333,368.5423,146.9863 F,0,47482,48482,1,0 M,19,48682,49682,442,97,497.5376,116.9141 F,0,48682,49682,1,0 M,19,49882,50882,125,146,173.9292,299.3849 F,0,49882,50882,1,0 M,19,51082,52082,434,397,404.1159,568.4146 F,0,51082,52082,1,0 M,19,52132,53132,171,168,126.5564,4.948578 F,0,52132,53132,1,0 M,19,53482,54482,437,286,528.2231,315.9055 F,0,53482,54482,1,0 M,19,54682,55682,262,311,242.6387,430.4409 F,0,54682,55682,1,0 M,19,56482,57482,389,335,388.7196,384.9992 F,0,56482,57482,1,0 M,19,57682,58682,196,388,208.269,442.6395 F,0,57682,58682,1,0 M,19,58882,59882,355,94,435.494,84.96074 F,0,58882,59882,1,0 M,19,60082,61082,382,86,409.5721,5.596127 F,0,60082,61082,1,0 M,19,67732,68732,128,139,142.3605,206.4891 F,0,67732,68732,1,0 M,19,68932,69932,393,172,279.1619,165.9259 F,0,68932,69932,1,0 M,19,69982,70982,519,93,453.9745,-1.850878 F,0,69982,70982,1,0 M,19,71332,72332,340,75,197.0507,-1.220125 F,0,71332,72332,1,0 M,19,72382,73382,504,232,439.4908,268.2568 F,0,72382,73382,1,0 M,19,73432,74432,93,248,51.07006,393.0616 F,0,73432,74432,1,0 M,19,74482,75482,576,129,433.0761,90.57147 F,0,74482,75482,1,0 M,19,75532,76532,126,170,238.3127,150.4589 F,0,75532,76532,1,0
Sprite,Foreground,Centre,"sb\pp.png",0,0 M,19,34132,35132,461,315,509.8943,335.4534 F,0,34132,35132,1,0 M,19,35182,36182,79,114,-32.71063,36.43238 F,0,35182,36182,1,0 M,19,36382,37382,157,217,60.26648,249.3516 F,0,36382,37382,1,0 M,19,41182,42182,368,141,383.1263,55.32506 F,0,41182,42182,1,0 M,19,42382,43382,444,131,538.0975,111.9829 F,0,42382,43382,1,0 M,19,43882,44882,80,264,-21.99168,159.5314 F,0,43882,44882,1,0 M,19,45082,46082,549,301,740.4996,287.1469 F,0,45082,46082,1,0 M,19,46282,47282,155,136,250.3778,268.182 F,0,46282,47282,1,0 M,19,47482,48482,420,333,585.3176,289.2837 F,0,47482,48482,1,0 M,19,48682,49682,442,97,367.7397,268.6229 F,0,48682,49682,1,0 M,19,49882,50882,125,146,196.7919,296.7811 F,0,49882,50882,1,0 M,19,51082,52082,434,397,502.9177,292.715 F,0,51082,52082,1,0 M,19,52132,53132,171,168,334.628,247.6861 F,0,52132,53132,1,0 M,19,54082,55082,208,307,291.3214,323.8088 F,0,54082,55082,1,0 M,19,55282,56282,380,198,513.7377,163.9674 F,0,55282,56282,1,0 M,19,56482,57482,389,335,415.335,272.3065 F,0,56482,57482,1,0 M,19,57682,58682,196,388,370.7204,469.9865 F,0,57682,58682,1,0 M,19,58882,59882,355,94,409.9389,273.7935 F,0,58882,59882,1,0 M,19,60082,61082,382,86,463.3739,160.0154 F,0,60082,61082,1,0 M,19,67732,68732,128,139,80.64015,325.0673 F,0,67732,68732,1,0 M,19,68932,69932,393,172,581.8235,123.3103 F,0,68932,69932,1,0 M,19,69982,70982,519,93,492.3668,137.6618 F,0,69982,70982,1,0 M,19,71332,72332,340,75,425.4692,15.74623 F,0,71332,72332,1,0 M,19,72382,73382,504,232,419.3324,299.0477 F,0,72382,73382,1,0 M,19,73432,74432,93,248,21.12583,385.3285 F,0,73432,74432,1,0 M,19,74782,75782,196,439,142.0199,545.0526 F,0,74782,75782,1,0 M,19,75982,76982,85,417,263.5471,429.7252 F,0,75982,76982,1,0
Sprite,Foreground,Centre,"sb\pp.png",0,0 M,19,34132,35132,461,315,570.2961,256.4307 F,0,34132,35132,1,0 M,19,35182,36182,79,114,147.2406,103.7912 F,0,35182,36182,1,0 M,19,36382,37382,157,217,6.879474,86.36758 F,0,36382,37382,1,0 M,19,41332,42332,345,397,325.0956,346.8022 F,0,41332,42332,1,0 M,19,42382,43382,444,131,554,131.002 F,0,42382,43382,1,0 M,19,43882,44882,80,264,-18.67021,95.80609 F,0,43882,44882,1,0 M,19,45082,46082,549,301,458.7451,253.4811 F,0,45082,46082,1,0 M,19,46282,47282,155,136,254.6677,37.68241 F,0,46282,47282,1,0 M,19,47482,48482,420,333,491.0625,188.5316 F,0,47482,48482,1,0 M,19,48682,49682,442,97,599.8006,116.4926 F,0,48682,49682,1,0 M,19,49882,50882,125,146,60.58926,218.5276 F,0,49882,50882,1,0 M,19,51082,52082,434,397,491.2254,332.803 F,0,51082,52082,1,0 M,19,52132,53132,171,168,11.44526,112.2928 F,0,52132,53132,1,0 M,19,54082,55082,208,307,59.11667,281.8056 F,0,54082,55082,1,0 M,19,55282,56282,380,198,340.102,121.815 F,0,55282,56282,1,0 M,19,56482,57482,389,335,523.8757,470.2388 F,0,56482,57482,1,0 M,19,57682,58682,196,388,294.1356,285.3676 F,0,57682,58682,1,0 M,19,58882,59882,355,94,298.6255,169.2191 F,0,58882,59882,1,0 M,19,60082,61082,382,86,399.9041,-91.09727 F,0,60082,61082,1,0 M,19,67732,68732,128,139,92.94776,55.02179 F,0,67732,68732,1,0 M,19,68932,69932,393,172,446.4825,194.4415 F,0,68932,69932,1,0 M,19,70132,71132,499,382,569.9651,559.3272 F,0,70132,71132,1,0 M,19,71332,72332,340,75,391.5011,91.23687 F,0,71332,72332,1,0 M,19,72382,73382,504,232,516.9815,284.4164 F,0,72382,73382,1,0 M,19,73432,74432,93,248,17.48249,153.4585 F,0,73432,74432,1,0 M,19,74782,75782,196,439,83.88781,459.6605 F,0,74782,75782,1,0 M,19,75982,76982,85,417,133.2217,304.9345 F,0,75982,76982,1,0
Sprite,Foreground,Centre,"sb\pp.png",0,0 M,19,34132,35132,461,315,374.0109,364.3243 F,0,34132,35132,1,0 M,19,35182,36182,79,114,219.8797,-14.97253 F,0,35182,36182,1,0 M,19,36382,37382,157,217,266.9085,114.921 F,0,36382,37382,1,0 M,19,41332,42332,345,397,275.1451,212.801 F,0,41332,42332,1,0 M,19,42382,43382,444,131,248.3933,161.6921 F,0,42382,43382,1,0 M,19,43882,44882,80,264,170.5937,116.6169 F,0,43882,44882,1,0 M,19,45082,46082,549,301,362.3315,312.13 F,0,45082,46082,1,0 M,19,46282,47282,155,136,166.642,82.24627 F,0,46282,47282,1,0 M,19,47482,48482,420,333,524.8439,358.9182 F,0,47482,48482,1,0 M,19,48682,49682,442,97,373.411,48.50716 F,0,48682,49682,1,0 M,19,49882,50882,125,146,2.177023,139.4033 F,0,49882,50882,1,0 M,19,51082,52082,434,397,584.0684,521.517 F,0,51082,52082,1,0 M,19,52132,53132,171,168,168.3613,219.933 F,0,52132,53132,1,0 M,19,54082,55082,208,307,38.3255,328.25 F,0,54082,55082,1,0 M,19,55282,56282,380,198,458.4724,188.8855 F,0,55282,56282,1,0 M,19,56482,57482,389,335,507.229,186.2657 F,0,56482,57482,1,0 M,19,57682,58682,196,388,343,387.9565 F,0,57682,58682,1,0 M,19,58882,59882,355,94,345.8453,-3.571468 F,0,58882,59882,1,0 M,19,60082,61082,382,86,286.2201,29.90002 F,0,60082,61082,1,0 M,19,67732,68732,128,139,196.8907,-24.04314 F,0,67732,68732,1,0 M,19,68932,69932,393,172,274.3233,21.07005 F,0,68932,69932,1,0 M,19,70132,71132,499,382,418.1715,408.3013 F,0,70132,71132,1,0 M,19,71332,72332,340,75,522.8809,41.07951 F,0,71332,72332,1,0 M,19,72382,73382,504,232,484.0388,305.3318 F,0,72382,73382,1,0 M,19,73432,74432,93,248,87.33147,79.09509 F,0,73432,74432,1,0 M,19,74782,75782,196,439,30.63793,351.6823 F,0,74782,75782,1,0 M,19,75982,76982,85,417,47.92246,274.7528 F,0,75982,76982,1,0
Sprite,Foreground,Centre,"sb\pp.png",0,0 M,19,34132,35132,461,315,407.5684,252.7982 F,0,34132,35132,1,0 M,19,35182,36182,79,114,151.6948,30.11638 F,0,35182,36182,1,0 M,19,41332,42332,345,397,467.8415,341.0092 F,0,41332,42332,1,0 M,19,42382,43382,444,131,314.4176,105.8525 F,0,42382,43382,1,0 M,19,43882,44882,80,264,66.32228,149.8163 F,0,43882,44882,1,0 M,19,45082,46082,549,301,619.3777,194.0843 F,0,45082,46082,1,0 M,19,46282,47282,155,136,75.27332,165.473 F,0,46282,47282,1,0 M,19,47482,48482,420,333,310.2058,232.2715 F,0,47482,48482,1,0 M,19,48682,49682,442,97,633.0206,77.63168 F,0,48682,49682,1,0 M,19,50182,51182,331,231,244.4953,199.6802 F,0,50182,51182,1,0 M,19,51232,52232,397,259,492.6393,204.6574 F,0,51232,52232,1,0 M,19,52432,53432,510,304,461.2271,252.4034 F,0,52432,53432,1,0 M,19,54082,55082,208,307,54.66251,214.6495 F,0,54082,55082,1,0 M,19,55282,56282,380,198,379.2843,130.0038 F,0,55282,56282,1,0 M,19,56482,57482,389,335,422.4637,211.4517 F,0,56482,57482,1,0 M,19,57682,58682,196,388,244.3634,211.5064 F,0,57682,58682,1,0 M,19,58882,59882,355,94,243.4635,-20.71539 F,0,58882,59882,1,0 M,19,67732,68732,128,139,166.3477,21.07861 F,0,67732,68732,1,0 M,19,68932,69932,393,172,366.829,292.1835 F,0,68932,69932,1,0 M,19,70132,71132,499,382,351.6037,395.3542 F,0,70132,71132,1,0 M,19,71332,72332,340,75,301.0257,-27.864 F,0,71332,72332,1,0 M,19,72382,73382,504,232,487.9454,325.6336 F,0,72382,73382,1,0 M,19,73432,74432,93,248,31.50346,230.275 F,0,73432,74432,1,0 M,19,74782,75782,196,439,206.5811,487.8676 F,0,74782,75782,1,0 M,19,75982,76982,85,417,190.3693,451.9044 F,0,75982,76982,1,0
Sprite,Foreground,Centre,"sb\pp.png",0,0 M,19,34132,35132,461,315,474.231,178.6404 F,0,34132,35132,1,0 M,19,35182,36182,79,114,102.5536,58.81641 F,0,35182,36182,1,0 M,19,41332,42332,345,397,358.8447,448.1598 F,0,41332,42332,1,0 M,19,42382,43382,444,131,425.8968,226.2957 F,0,42382,43382,1,0 M,19,43882,44882,80,264,162.531,369.5681 F,0,43882,44882,1,0 M,19,45082,46082,549,301,568.0489,349.3853 F,0,45082,46082,1,0 M,19,46282,47282,155,136,151.8656,238.9523 F,0,46282,47282,1,0 M,19,47482,48482,420,333,447.2976,191.611 F,0,47482,48482,1,0 M,19,48682,49682,442,97,487.9452,130.7348 F,0,48682,49682,1,0 M,19,50182,51182,331,231,249.4995,333.5605 F,0,50182,51182,1,0 M,19,51232,52232,397,259,466.258,80.99906 F,0,51232,52232,1,0 M,19,52432,53432,510,304,456.6907,494.6885 F,0,52432,53432,1,0 M,19,54082,55082,208,307,167.492,264.1036 F,0,54082,55082,1,0 M,19,55282,56282,380,198,247.5647,185.7569 F,0,55282,56282,1,0 M,19,56482,57482,389,335,230.3518,439.5502 F,0,56482,57482,1,0 M,19,57682,58682,196,388,246.7481,294.9375 F,0,57682,58682,1,0 M,19,58882,59882,355,94,362.4227,194.7269 F,0,58882,59882,1,0 M,19,67882,68882,499,204,314.4273,138.0536 F,0,67882,68882,1,0 M,19,68932,69932,393,172,443.5982,165.6107 F,0,68932,69932,1,0 M,19,70132,71132,499,382,539.0796,207.5448 F,0,70132,71132,1,0 M,19,71332,72332,340,75,394.3398,100.44 F,0,71332,72332,1,0 M,19,72382,73382,504,232,533.2201,302.1583 F,0,72382,73382,1,0 M,19,73432,74432,93,248,-22.05713,262.76 F,0,73432,74432,1,0 M,19,74782,75782,196,439,285.9473,518.4323 F,0,74782,75782,1,0 M,19,75982,76982,85,417,1.208016,284.2299 F,0,75982,76982,1,0
Sprite,Foreground,Centre,"sb\pp.png",0,0 M,19,34132,35132,461,315,575.8329,452.3113 F,0,34132,35132,1,0 M,19,35332,36332,226,316,155.8155,396.7659 F,0,35332,36332,1,0 M,19,41332,42332,345,397,485.8679,403.1016 F,0,41332,42332,1,0 M,19,42382,43382,444,131,387.6575,247.0453 F,0,42382,43382,1,0 M,19,43882,44882,80,264,20.66689,178.5858 F,0,43882,44882,1,0 M,19,45082,46082,549,301,635.2548,340.8135 F,0,45082,46082,1,0 M,19,46582,47582,477,95,428.1641,39.40275 F,0,46582,47582,1,0 M,19,47782,48782,198,246,303.4317,283.791 F,0,47782,48782,1,0 M,19,48982,49982,401,386,475.8991,309.5859 F,0,48982,49982,1,0 M,19,50182,51182,331,231,386.0208,42.88111 F,0,50182,51182,1,0 M,19,51232,52232,397,259,414.2004,332.001 F,0,51232,52232,1,0 M,19,52432,53432,510,304,552.2074,339.2638 F,0,52432,53432,1,0 M,19,54082,55082,208,307,242.7967,234.964 F,0,54082,55082,1,0 M,19,55282,56282,380,198,266.5198,93.89314 F,0,55282,56282,1,0 M,19,56482,57482,389,335,268.6624,476.8269 F,0,56482,57482,1,0 M,19,57682,58682,196,388,171.7191,336.4302 F,0,57682,58682,1,0 M,19,58882,59882,355,94,407.7319,22.30378 F,0,58882,59882,1,0 M,19,67882,68882,499,204,546.6046,255.3206 F,0,67882,68882,1,0 M,19,68932,69932,393,172,408.9461,334.2181 F,0,68932,69932,1,0 M,19,70132,71132,499,382,426.5619,305.9886 F,0,70132,71132,1,0 M,19,71332,72332,340,75,262.0113,87.60005 F,0,71332,72332,1,0 M,19,72382,73382,504,232,393.4339,375.3044 F,0,72382,73382,1,0 M,19,73432,74432,93,248,96.47388,343.9371 F,0,73432,74432,1,0 M,19,74782,75782,196,439,86.72456,426.3953 F,0,74782,75782,1,0 M,19,75982,76982,85,417,-11.76233,356.7252 F,0,75982,76982,1,0
Sprite,Foreground,Centre,"sb\pp.png",0,0 M,19,34132,35132,461,315,285.8946,340.8282 F,0,34132,35132,1,0 M,19,35332,36332,226,316,288.5886,235.4602 F,0,35332,36332,1,0 M,19,41332,42332,345,397,210.0816,523.5781 F,0,41332,42332,1,0 M,19,43882,44882,80,264,-67.8704,157.8947 F,0,43882,44882,1,0 M,19,45082,46082,549,301,474.0099,247.7038 F,0,45082,46082,1,0 M,19,46582,47582,477,95,551.0203,122.6044 F,0,46582,47582,1,0 M,19,47782,48782,198,246,90.98592,123.0489 F,0,47782,48782,1,0 M,19,48982,49982,401,386,412.1783,323.9996 F,0,48982,49982,1,0 M,19,50182,51182,331,231,429.4565,248.5022 F,0,50182,51182,1,0 M,19,51232,52232,397,259,338.2069,387.1576 F,0,51232,52232,1,0 M,19,52432,53432,510,304,536.0854,365.7135 F,0,52432,53432,1,0 M,19,54082,55082,208,307,268.7628,327.0967 F,0,54082,55082,1,0 M,19,55282,56282,380,198,506.5495,178.7847 F,0,55282,56282,1,0 M,19,56482,57482,389,335,539.4323,302.0437 F,0,56482,57482,1,0 M,19,57682,58682,196,388,325.759,405.9886 F,0,57682,58682,1,0 M,19,58882,59882,355,94,468.9899,142.8089 F,0,58882,59882,1,0 M,19,67882,68882,499,204,367.2016,196.7071 F,0,67882,68882,1,0 M,19,68932,69932,393,172,451.2802,214.2779 F,0,68932,69932,1,0 M,19,70132,71132,499,382,375.7515,416.5515 F,0,70132,71132,1,0 M,19,71482,72482,198,299,274.8763,267.7106 F,0,71482,72482,1,0 M,19,72532,73532,105,188,39.02224,186.2866 F,0,72532,73532,1,0 M,19,73582,74582,456,421,315.2313,334.9234 F,0,73582,74582,1,0 M,19,74782,75782,196,439,124.6398,555.9475 F,0,74782,75782,1,0 M,19,75982,76982,85,417,276.3287,400.9588 F,0,75982,76982,1,0
Sprite,Foreground,Centre,"sb\pp.png",0,0 M,19,34132,35132,461,315,350.7278,203.2456 F,0,34132,35132,1,0 M,19,35332,36332,226,316,167.401,328.8901 F,0,35332,36332,1,0 M,19,41482,42482,283,123,465.9771,103.6252 F,0,41482,42482,1,0 M,19,44182,45182,255,126,262.8736,176.3885 F,0,44182,45182,1,0 M,19,45382,46382,344,409,246.9148,290.7483 F,0,45382,46382,1,0 M,19,46582,47582,477,95,298.3538,156.6972 F,0,46582,47582,1,0 M,19,47782,48782,198,246,197.1418,55.00192 F,0,47782,48782,1,0 M,19,48982,49982,401,386,526.7203,290.3005 F,0,48982,49982,1,0 M,19,50332,51332,434,397,432.4595,308.0133 F,0,50332,51332,1,0 M,19,51532,52532,321,352,188.9921,436.9878 F,0,51532,52532,1,0 M,19,54682,55682,262,311,258.3211,392.9174 F,0,54682,55682,1,0 M,19,56482,57482,389,335,519.7236,343.5061 F,0,56482,57482,1,0 M,19,58282,59282,209,98,257.4556,119.4721 F,0,58282,59282,1,0 M,19,67882,68882,499,204,508.5857,73.35118 F,0,67882,68882,1,0 M,19,68932,69932,393,172,458.8145,-0.897217 F,0,68932,69932,1,0 M,19,70132,71132,499,382,572.2867,246.5561 F,0,70132,71132,1,0 M,19,71482,72482,198,299,303.7915,374.5523 F,0,71482,72482,1,0 M,19,72532,73532,105,188,163.9961,262.4611 F,0,72532,73532,1,0 M,19,73582,74582,456,421,469.8442,481.4346 F,0,73582,74582,1,0 M,19,74782,75782,196,439,104.5177,455.7327 F,0,74782,75782,1,0 M,19,75982,76982,85,417,26.48213,595.6607 F,0,75982,76982,1,0
Sprite,Foreground,Centre,"sb\pp.png",0,0 M,19,34132,35132,461,315,347.0263,450.4216 F,0,34132,35132,1,0 M,19,35332,36332,226,316,135.1322,267.5022 F,0,35332,36332,1,0 M,19,41482,42482,283,123,473.6075,164.1556 F,0,41482,42482,1,0 M,19,44182,45182,255,126,348.8822,130.7052 F,0,44182,45182,1,0 M,19,45382,46382,344,409,231.2744,425.9985 F,0,45382,46382,1,0 M,19,46582,47582,477,95,513.5453,37.65508 F,0,46582,47582,1,0 M,19,47782,48782,198,246,196.1785,352.9845 F,0,47782,48782,1,0 M,19,48982,49982,401,386,300.8459,455.6646 F,0,48982,49982,1,0 M,19,50332,51332,434,397,563.3103,383.6264 F,0,50332,51332,1,0 M,19,51532,52532,321,352,357.8414,304.6428 F,0,51532,52532,1,0 M,19,56482,57482,389,335,428.5143,210.1015 F,0,56482,57482,1,0 M,19,58282,59282,209,98,252.5234,214.1108 F,0,58282,59282,1,0 M,19,67882,68882,499,204,505.4691,266.667 F,0,67882,68882,1,0 M,19,68932,69932,393,172,502.6081,195.023 F,0,68932,69932,1,0 M,19,70132,71132,499,382,386.231,325.7936 F,0,70132,71132,1,0 M,19,71482,72482,198,299,193.1438,487.9376 F,0,71482,72482,1,0 M,19,72532,73532,105,188,137.6805,85.06322 F,0,72532,73532,1,0 M,19,73582,74582,456,421,571.7462,517.9733 F,0,73582,74582,1,0 M,19,74782,75782,196,439,28.90771,421.5596 F,0,74782,75782,1,0 M,19,75982,76982,85,417,241.2542,321.7444 F,0,75982,76982,1,0
Sprite,Foreground,Centre,"sb\pp.png",0,0 M,19,34132,35132,461,315,452.2945,422.6486 F,0,34132,35132,1,0 M,19,35332,36332,226,316,302.9064,273.2284 F,0,35332,36332,1,0 M,19,41482,42482,283,123,190.3417,253.4394 F,0,41482,42482,1,0 M,19,44182,45182,255,126,191.3627,258.5115 F,0,44182,45182,1,0 M,19,45382,46382,344,409,323.8403,502.8594 F,0,45382,46382,1,0 M,19,46582,47582,477,95,526.0363,-17.80269 F,0,46582,47582,1,0 M,19,47782,48782,198,246,212.4008,418.3996 F,0,47782,48782,1,0 M,19,49132,50132,427,195,459.2815,0.6629121 F,0,49132,50132,1,0 M,19,50332,51332,434,397,294.1109,269.9093 F,0,50332,51332,1,0 M,19,51532,52532,321,352,383.5335,205.8133 F,0,51532,52532,1,0 M,19,57082,58082,450,322,494.4171,193.4577 F,0,57082,58082,1,0 M,19,58282,59282,209,98,305.9256,101.798 F,0,58282,59282,1,0 M,19,67882,68882,499,204,546.2664,289.8481 F,0,67882,68882,1,0 M,19,69082,70082,123,264,203.0896,420.7216 F,0,69082,70082,1,0 M,19,70132,71132,499,382,510.0764,233.4123 F,0,70132,71132,1,0 M,19,71482,72482,198,299,257.396,239.6021 F,0,71482,72482,1,0 M,19,72532,73532,105,188,60.8284,81.82152 F,0,72532,73532,1,0 M,19,73582,74582,456,421,466.464,323.5602 F,0,73582,74582,1,0 M,19,74782,75782,196,439,230.7681,401.6881 F,0,74782,75782,1,0 M,19,75982,76982,85,417,116.5149,480.6224 F,0,75982,76982,1,0
Sprite,Foreground,Centre,"sb\pp.png",0,0 M,19,34132,35132,461,315,414.6747,375.2492 F,0,34132,35132,1,0 M,19,35332,36332,226,316,144.6987,349.6763 F,0,35332,36332,1,0 M,19,41482,42482,283,123,187.2957,-49.19087 F,0,41482,42482,1,0 M,19,44182,45182,255,126,180.7732,109.6787 F,0,44182,45182,1,0 M,19,45382,46382,344,409,149.1448,416.5127 F,0,45382,46382,1,0 M,19,46582,47582,477,95,594.4792,-49.20346 F,0,46582,47582,1,0 M,19,47782,48782,198,246,262.1768,331.6174 F,0,47782,48782,1,0 M,19,49132,50132,427,195,344.3811,31.71153 F,0,49132,50132,1,0 M,19,50332,51332,434,397,464.8694,511.9264 F,0,50332,51332,1,0 M,19,51532,52532,321,352,367.8723,277.5219 F,0,51532,52532,1,0 M,19,57082,58082,450,322,399.6337,418.6656 F,0,57082,58082,1,0 M,19,58882,59882,355,94,209.494,226.8044 F,0,58882,59882,1,0 M,19,67882,68882,499,204,601.4305,296.4769 F,0,67882,68882,1,0 M,19,69082,70082,123,264,224.0523,324.9298 F,0,69082,70082,1,0 M,19,70132,71132,499,382,447.9499,255.9449 F,0,70132,71132,1,0 M,19,71482,72482,198,299,232.1666,460.4238 F,0,71482,72482,1,0 M,19,72532,73532,105,188,85.06319,104.3428 F,0,72532,73532,1,0 M,19,73582,74582,456,421,314.5404,532.3067 F,0,73582,74582,1,0 M,19,74782,75782,196,439,35.15566,372.6291 F,0,74782,75782,1,0 M,19,75982,76982,85,417,53.64989,328.3819 F,0,75982,76982,1,0
Sprite,Foreground,Centre,"sb\pp.png",0,0 M,19,34282,35282,402,66,562.9822,68.39356 F,0,34282,35282,1,0 M,19,35332,36332,226,316,237.8997,395.11 F,0,35332,36332,1,0 M,19,41482,42482,283,123,374.0631,164.3221 F,0,41482,42482,1,0 M,19,44182,45182,255,126,435.1024,205.8255 F,0,44182,45182,1,0 M,19,45382,46382,344,409,359.8381,331.6039 F,0,45382,46382,1,0 M,19,46582,47582,477,95,541.6012,70.75773 F,0,46582,47582,1,0 M,19,47932,48932,99,397,59.18993,540.5833 F,0,47932,48932,1,0 M,19,49132,50132,427,195,448.5331,365.6468 F,0,49132,50132,1,0 M,19,50332,51332,434,397,524.7043,306.6854 F,0,50332,51332,1,0 M,19,51532,52532,321,352,379.6734,326.4377 F,0,51532,52532,1,0 M,19,57082,58082,450,322,316.7814,231.5909 F,0,57082,58082,1,0 M,19,58882,59882,355,94,307.1526,163.0407 F,0,58882,59882,1,0 M,19,67882,68882,499,204,421.1166,199.7366 F,0,67882,68882,1,0 M,19,69082,70082,123,264,219.7562,412.2135 F,0,69082,70082,1,0 M,19,70132,71132,499,382,627.9923,383.4115 F,0,70132,71132,1,0 M,19,71482,72482,198,299,318.6369,186.4312 F,0,71482,72482,1,0 M,19,72532,73532,105,188,149.3374,132.5455 F,0,72532,73532,1,0 M,19,73582,74582,456,421,617.2116,405.0367 F,0,73582,74582,1,0 M,19,74782,75782,196,439,305.6103,289.9679 F,0,74782,75782,1,0 M,19,75982,76982,85,417,247.14,392.3703 F,0,75982,76982,1,0
Sprite,Foreground,Centre,"sb\pp.png",0,0 M,19,34282,35282,402,66,307.8752,158.5447 F,0,34282,35282,1,0 M,19,35332,36332,226,316,303.0017,277.7019 F,0,35332,36332,1,0 M,19,41482,42482,283,123,231.1957,261.6374 F,0,41482,42482,1,0 M,19,44182,45182,255,126,337.4828,206.1348 F,0,44182,45182,1,0 M,19,45382,46382,344,409,326.68,484.0268 F,0,45382,46382,1,0 M,19,46582,47582,477,95,490.0735,166.8198 F,0,46582,47582,1,0 M,19,47932,48932,99,397,177.8461,401.9286 F,0,47932,48932,1,0 M,19,49132,50132,427,195,455.1248,65.00771 F,0,49132,50132,1,0 M,19,50332,51332,434,397,397.4684,463.6442 F,0,50332,51332,1,0 M,19,51532,52532,321,352,468.9895,401.3468 F,0,51532,52532,1,0 M,19,58882,59882,355,94,257.1494,-19.68936 F,0,58882,59882,1,0 M,19,67882,68882,499,204,482.2643,103.3823 F,0,67882,68882,1,0 M,19,69082,70082,123,264,74.84595,415.5328 F,0,69082,70082,1,0 M,19,70282,71282,340,75,378.0582,154.3447 F,0,70282,71282,1,0 M,19,71482,72482,198,299,248.4602,329.574 F,0,71482,72482,1,0 M,19,72532,73532,105,188,2.151731,141.1894 F,0,72532,73532,1,0 M,19,73582,74582,456,421,441.4908,322.0582 F,0,73582,74582,1,0 M,19,74782,75782,196,439,180.6312,276.7262 F,0,74782,75782,1,0 M,19,75982,76982,85,417,270.1812,379.199 F,0,75982,76982,1,0
Sprite,Foreground,Centre,"sb\pp.png",0,0 M,19,34282,35282,402,66,574.9874,39.53569 F,0,34282,35282,1,0 M,19,35332,36332,226,316,223.2456,170.026 F,0,35332,36332,1,0 M,19,41482,42482,283,123,171.0117,-16.64108 F,0,41482,42482,1,0 M,19,44182,45182,255,126,243.3875,45.83673 F,0,44182,45182,1,0 M,19,45382,46382,344,409,272.4048,289.8567 F,0,45382,46382,1,0 M,19,46732,47732,254,124,262.1792,44.41922 F,0,46732,47732,1,0 M,19,47932,48932,99,397,169.851,434.1502 F,0,47932,48932,1,0 M,19,49132,50132,427,195,278.2,316.3366 F,0,49132,50132,1,0 M,19,50332,51332,434,397,422.0536,330.0576 F,0,50332,51332,1,0 M,19,51532,52532,321,352,434.0743,281.9772 F,0,51532,52532,1,0 M,19,58882,59882,355,94,342.1238,235.415 F,0,58882,59882,1,0 M,19,67882,68882,499,204,446.6942,260.5076 F,0,67882,68882,1,0 M,19,69082,70082,123,264,152.799,208.493 F,0,69082,70082,1,0 M,19,70282,71282,340,75,475.9821,41.70018 F,0,70282,71282,1,0 M,19,71482,72482,198,299,141.7501,281.197 F,0,71482,72482,1,0 M,19,72532,73532,105,188,144.8868,135.4163 F,0,72532,73532,1,0 M,19,73582,74582,456,421,383.8342,394.1466 F,0,73582,74582,1,0 M,19,75082,76082,371,94,271.235,-42.41091 F,0,75082,76082,1,0 M,19,76132,77132,551,83,487.8707,63.74667 F,0,76132,77132,1,0
Sprite,Foreground,Centre,"sb\pp.png",0,0 M,19,34282,35282,402,66,252.8753,149.6828 F,0,34282,35282,1,0 M,19,35332,36332,226,316,151.0314,179.1946 F,0,35332,36332,1,0 M,19,41482,42482,283,123,341.5941,183.1891 F,0,41482,42482,1,0 M,19,44182,45182,255,126,346.7273,170.6106 F,0,44182,45182,1,0 M,19,45382,46382,344,409,179.0099,410.8038 F,0,45382,46382,1,0 M,19,46732,47732,254,124,274.7753,229.983 F,0,46732,47732,1,0 M,19,47932,48932,99,397,39.70732,568.0128 F,0,47932,48932,1,0 M,19,49132,50132,427,195,471.4377,129.6831 F,0,49132,50132,1,0 M,19,50332,51332,434,397,586.6506,329.2742 F,0,50332,51332,1,0 M,19,51532,52532,321,352,263.266,379.6185 F,0,51532,52532,1,0 M,19,58882,59882,355,94,245.4302,163.9604 F,0,58882,59882,1,0 M,19,67882,68882,499,204,309.0842,209.6561 F,0,67882,68882,1,0 M,19,69082,70082,123,264,171.1343,200.101 F,0,69082,70082,1,0 M,19,70282,71282,340,75,393.2903,20.81382 F,0,70282,71282,1,0 M,19,71782,72782,447,382,508.6331,308.3973 F,0,71782,72782,1,0 M,19,72832,73832,315,77,255.8297,-44.342 F,0,72832,73832,1,0 M,19,73882,74882,140,416,149.0122,283.3057 F,0,73882,74882,1,0 M,19,75082,76082,371,94,361.7902,-93.77428 F,0,75082,76082,1,0 M,19,76132,77132,551,83,373.0624,129.8423 F,0,76132,77132,1,0
Sprite,Foreground,Centre,"sb\pp.png",0,0 M,19,34282,35282,402,66,410.4635,-6.507717 F,0,34282,35282,1,0 M,19,35482,36482,226,66,252.8528,160.2493 F,0,35482,36482,1,0 M,19,41482,42482,283,123,251.4872,3.071097 F,0,41482,42482,1,0 M,19,44182,45182,255,126,102.5871,92.73882 F,0,44182,45182,1,0 M,19,45382,46382,344,409,465.0871,282.6555 F,0,45382,46382,1,0 M,19,46732,47732,254,124,187.3072,188.8157 F,0,46732,47732,1,0 M,19,47932,48932,99,397,60.91942,445.9272 F,0,47932,48932,1,0 M,19,49132,50132,427,195,365.1716,39.86701 F,0,49132,50132,1,0 M,19,50332,51332,434,397,438.5279,222.0586 F,0,50332,51332,1,0 M,19,51532,52532,321,352,266.8268,361.5005 F,0,51532,52532,1,0 M,19,58882,59882,355,94,283.006,94.931 F,0,58882,59882,1,0 M,19,67882,68882,499,204,409.6536,303.866 F,0,67882,68882,1,0 M,19,69082,70082,123,264,148.4922,165.2369 F,0,69082,70082,1,0 M,19,70282,71282,340,75,200.3514,10.08253 F,0,70282,71282,1,0 M,19,71782,72782,447,382,307.1036,420.1313 F,0,71782,72782,1,0 M,19,72832,73832,315,77,354.953,-14.67202 F,0,72832,73832,1,0 M,19,73882,74882,140,416,211.256,338.8794 F,0,73882,74882,1,0 M,19,75082,76082,371,94,211.0475,-22.70129 F,0,75082,76082,1,0 M,19,76132,77132,551,83,390.3084,73.03891 F,0,76132,77132,1,0
Sprite,Foreground,Centre,"sb\pp.png",0,0 M,19,34282,35282,402,66,371.6177,160.2227 F,0,34282,35282,1,0 M,19,35482,36482,226,66,376.5095,-51.59205 F,0,35482,36482,1,0 M,19,41632,42632,252,379,433.5451,349.0437 F,0,41632,42632,1,0 M,19,44182,45182,255,126,163.5801,74.35305 F,0,44182,45182,1,0 M,19,45382,46382,344,409,227.1842,402.4377 F,0,45382,46382,1,0 M,19,46732,47732,254,124,98.62564,218.7777 F,0,46732,47732,1,0 M,19,47932,48932,99,397,174.651,544.7597 F,0,47932,48932,1,0 M,19,49132,50132,427,195,256.2868,98.70361 F,0,49132,50132,1,0 M,19,50332,51332,434,397,408.2284,211.7844 F,0,50332,51332,1,0 M,19,51532,52532,321,352,465.9513,462.0597 F,0,51532,52532,1,0 M,19,68032,69032,123,264,128.3435,434.9165 F,0,68032,69032,1,0 M,19,69082,70082,123,264,260.6418,404.9388 F,0,69082,70082,1,0 M,19,70282,71282,340,75,411.6168,29.21749 F,0,70282,71282,1,0 M,19,71782,72782,447,382,495.9489,240.2114 F,0,71782,72782,1,0 M,19,72832,73832,315,77,262.6662,96.92915 F,0,72832,73832,1,0 M,19,73882,74882,140,416,94.7504,390.3783 F,0,73882,74882,1,0 M,19,75082,76082,371,94,462.1809,141.9066 F,0,75082,76082,1,0 M,19,76132,77132,551,83,652.6355,17.34012 F,0,76132,77132,1,0
Sprite,Foreground,Centre,"sb\pp.png",0,0 M,19,34282,35282,402,66,409.603,-50.75271 F,0,34282,35282,1,0 M,19,35482,36482,226,66,130.0337,68.54369 F,0,35482,36482,1,0 M,19,41632,42632,252,379,145.3477,258.392 F,0,41632,42632,1,0 M,19,44182,45182,255,126,402.8375,132.9339 F,0,44182,45182,1,0 M,19,45382,46382,344,409,265.5413,320.8624 F,0,45382,46382,1,0 M,19,46882,47882,477,178,584.9219,182.1078 F,0,46882,47882,1,0 M,19,47932,48932,99,397,260.4795,329.5509 F,0,47932,48932,1,0 M,19,49132,50132,427,195,334.0062,196.0726 F,0,49132,50132,1,0 M,19,50332,51332,434,397,306.3884,430.7531 F,0,50332,51332,1,0 M,19,51532,52532,321,352,377.0086,228.0684 F,0,51532,52532,1,0 M,19,68032,69032,123,264,-0.5848826,147.2662 F,0,68032,69032,1,0 M,19,69082,70082,123,264,46.59785,313.4339 F,0,69082,70082,1,0 M,19,70282,71282,340,75,395.5635,68.02199 F,0,70282,71282,1,0 M,19,71782,72782,447,382,479.8754,297.146 F,0,71782,72782,1,0 M,19,72832,73832,315,77,354.946,108.7068 F,0,72832,73832,1,0 M,19,73882,74882,140,416,34.08218,332.2957 F,0,73882,74882,1,0 M,19,75082,76082,371,94,323.4892,200.9193 F,0,75082,76082,1,0 M,19,76132,77132,551,83,577.5721,10.73022 F,0,76132,77132,1,0
Sprite,Foreground,Centre,"sb\pp.png",0,0 M,19,34282,35282,402,66,314.3474,102.6336 F,0,34282,35282,1,0 M,19,35482,36482,226,66,295.6013,123.0583 F,0,35482,36482,1,0 M,19,41632,42632,252,379,267.4051,534.2375 F,0,41632,42632,1,0 M,19,44182,45182,255,126,162.8304,189.6299 F,0,44182,45182,1,0 M,19,45532,46532,296,220,251.3733,60.11111 F,0,45532,46532,1,0 M,19,46882,47882,477,178,620.6512,296.1538 F,0,46882,47882,1,0 M,19,47932,48932,99,397,106.9452,335.5112 F,0,47932,48932,1,0 M,19,49132,50132,427,195,517.6913,148.3192 F,0,49132,50132,1,0 M,19,50482,51482,449,201,427.8699,252.8605 F,0,50482,51482,1,0 M,19,51682,52682,284,214,376.7778,111.8419 F,0,51682,52682,1,0 M,19,68032,69032,123,264,173.2872,384.9636 F,0,68032,69032,1,0 M,19,69082,70082,123,264,157.6705,312.9689 F,0,69082,70082,1,0 M,19,70282,71282,340,75,382.7603,178.516 F,0,70282,71282,1,0 M,19,71782,72782,447,382,436.2924,524.5986 F,0,71782,72782,1,0 M,19,72832,73832,315,77,238.4336,183.2948 F,0,72832,73832,1,0 M,19,73882,74882,140,416,57.5181,382.5674 F,0,73882,74882,1,0 M,19,75082,76082,371,94,417.0984,33.57701 F,0,75082,76082,1,0 M,19,76132,77132,551,83,504.6025,-102.2789 F,0,76132,77132,1,0
Sprite,Foreground,Centre,"sb\pp.png",0,0 M,19,34282,35282,402,66,266.3745,11.94715 F,0,34282,35282,1,0 M,19,35482,36482,226,66,71.53481,13.94711 F,0,35482,36482,1,0 M,19,41632,42632,252,379,406.9911,377.3413 F,0,41632,42632,1,0 M,19,44332,45332,269,294,332.045,278.1784 F,0,44332,45332,1,0 M,19,45532,46532,296,220,240.2911,242.2828 F,0,45532,46532,1,0 M,19,46882,47882,477,178,435.2704,132.1454 F,0,46882,47882,1,0 M,19,47932,48932,99,397,-30.14729,411.8654 F,0,47932,48932,1,0 M,19,49282,50282,323,375,232.1206,201.3425 F,0,49282,50282,1,0 M,19,50482,51482,449,201,380.204,315.9918 F,0,50482,51482,1,0 M,19,51682,52682,284,214,110.3111,159.6293 F,0,51682,52682,1,0 M,19,68032,69032,123,264,221.7191,293.3861 F,0,68032,69032,1,0 M,19,69082,70082,123,264,265.3837,291.4205 F,0,69082,70082,1,0 M,19,70432,71432,398,399,296.2636,445.8371 F,0,70432,71432,1,0 M,19,71782,72782,447,382,472.0391,211.8323 F,0,71782,72782,1,0 M,19,72832,73832,315,77,315.7018,-96.99859 F,0,72832,73832,1,0 M,19,73882,74882,140,416,41.71387,557.1518 F,0,73882,74882,1,0 M,19,75082,76082,371,94,511.0596,52.77748 F,0,75082,76082,1,0 M,19,76132,77132,551,83,664.3723,2.5778 F,0,76132,77132,1,0
Sprite,Foreground,Centre,"sb\pp.png",0,0 M,19,34282,35282,402,66,509.8574,224.842 F,0,34282,35282,1,0 M,19,35482,36482,226,66,413.2462,98.23148 F,0,35482,36482,1,0 M,19,41632,42632,252,379,145.0193,254.6974 F,0,41632,42632,1,0 M,19,44332,45332,269,294,75.01048,291.9844 F,0,44332,45332,1,0 M,19,45532,46532,296,220,299.9734,270.845 F,0,45532,46532,1,0 M,19,46882,47882,477,178,631.8815,213.9545 F,0,46882,47882,1,0 M,19,48082,49082,106,237,37.30007,321.6246 F,0,48082,49082,1,0 M,19,49282,50282,323,375,477.2665,453.2997 F,0,49282,50282,1,0 M,19,50482,51482,449,201,521.3622,154.5273 F,0,50482,51482,1,0 M,19,51682,52682,284,214,340.0801,271.0528 F,0,51682,52682,1,0 M,19,68032,69032,123,264,95.3857,206.264 F,0,68032,69032,1,0 M,19,69082,70082,123,264,43.08411,409.4973 F,0,69082,70082,1,0 M,19,70432,71432,398,399,347.8511,374.0784 F,0,70432,71432,1,0 M,19,71782,72782,447,382,582.2195,414.1975 F,0,71782,72782,1,0 M,19,72832,73832,315,77,241.3503,-12.61989 F,0,72832,73832,1,0 M,19,73882,74882,140,416,210.6788,510.4908 F,0,73882,74882,1,0 M,19,75082,76082,371,94,322.6729,-84.57628 F,0,75082,76082,1,0 M,19,76132,77132,551,83,427.6366,57.35891 F,0,76132,77132,1,0
Sprite,Foreground,Centre,"sb\pp.png",0,0 M,19,34432,35432,381,315,484.2307,339.071 F,0,34432,35432,1,0 M,19,35482,36482,226,66,338.3268,46.54033 F,0,35482,36482,1,0 M,19,41632,42632,252,379,332.3775,319.5067 F,0,41632,42632,1,0 M,19,44332,45332,269,294,379.9778,213.6698 F,0,44332,45332,1,0 M,19,45532,46532,296,220,194.9236,206.3044 F,0,45532,46532,1,0 M,19,46882,47882,477,178,536.9001,136.275 F,0,46882,47882,1,0 M,19,48082,49082,106,237,57.13287,334.432 F,0,48082,49082,1,0 M,19,49282,50282,323,375,488.585,479.8695 F,0,49282,50282,1,0 M,19,50482,51482,449,201,518.0894,237.203 F,0,50482,51482,1,0 M,19,51682,52682,284,214,233.0439,309.2233 F,0,51682,52682,1,0 M,19,68032,69032,123,264,33.49717,349.821 F,0,68032,69032,1,0 M,19,69082,70082,123,264,205.4952,191.2364 F,0,69082,70082,1,0 M,19,70432,71432,398,399,466.353,438.6089 F,0,70432,71432,1,0 M,19,71782,72782,447,382,479.3937,456.2404 F,0,71782,72782,1,0 M,19,72832,73832,315,77,311.0627,254.9565 F,0,72832,73832,1,0 M,19,73882,74882,140,416,325.0164,467.312 F,0,73882,74882,1,0 M,19,75082,76082,371,94,328.3682,32.29482 F,0,75082,76082,1,0 M,19,76132,77132,551,83,509.9261,135.9333 F,0,76132,77132,1,0
Sprite,Foreground,Centre,"sb\pp.png",0,0 M,19,34432,35432,381,315,315.6941,278.1199 F,0,34432,35432,1,0 M,19,35482,36482,226,66,322.5896,-84.70317 F,0,35482,36482,1,0 M,19,41632,42632,252,379,378.8933,342.6394 F,0,41632,42632,1,0 M,19,44332,45332,269,294,81,294.0448 F,0,44332,45332,1,0 M,19,45532,46532,296,220,166.0224,203.6651 F,0,45532,46532,1,0 M,19,46882,47882,477,178,541.5052,164.0331 F,0,46882,47882,1,0 M,19,48082,49082,106,237,253.9457,367.0811 F,0,48082,49082,1,0 M,19,49282,50282,323,375,185.3408,236.8879 F,0,49282,50282,1,0 M,19,50482,51482,449,201,362.08,41.09721 F,0,50482,51482,1,0 M,19,51682,52682,284,214,240.6133,129.4861 F,0,51682,52682,1,0 M,19,68032,69032,123,264,283.0996,311.5092 F,0,68032,69032,1,0 M,19,69382,70382,289,256,405.8635,94.92884 F,0,69382,70382,1,0 M,19,70432,71432,398,399,314.9857,549.6407 F,0,70432,71432,1,0 M,19,72082,73082,357,89,298.8114,-41.62573 F,0,72082,73082,1,0 M,19,73432,74432,93,248,23.25318,422.5834 F,0,73432,74432,1,0 M,19,75082,76082,371,94,358.9667,228.4626 F,0,75082,76082,1,0 M,19,76132,77132,551,83,474.0752,-92.91637 F,0,76132,77132,1,0
Sprite,Foreground,Centre,"sb\pp.png",0,0 M,19,34432,35432,381,315,316.1235,319.0052 F,0,34432,35432,1,0 M,19,35482,36482,226,66,160.4357,93.24557 F,0,35482,36482,1,0 M,19,41632,42632,252,379,220.9427,464.5362 F,0,41632,42632,1,0 M,19,44332,45332,269,294,274.8837,407.8481 F,0,44332,45332,1,0 M,19,45532,46532,296,220,427.975,217.4291 F,0,45532,46532,1,0 M,19,46882,47882,477,178,562.0972,8.122221 F,0,46882,47882,1,0 M,19,48082,49082,106,237,34.34934,282.7295 F,0,48082,49082,1,0 M,19,49282,50282,323,375,269.0804,335.2296 F,0,49282,50282,1,0 M,19,50482,51482,449,201,371.9359,100.0538 F,0,50482,51482,1,0 M,19,51682,52682,284,214,422.986,287.0198 F,0,51682,52682,1,0 M,19,68032,69032,123,264,-16.41122,355.943 F,0,68032,69032,1,0 M,19,69382,70382,289,256,240.7546,269.1295 F,0,69382,70382,1,0 M,19,70432,71432,398,399,438.4026,499.158 F,0,70432,71432,1,0 M,19,72082,73082,357,89,453.2971,70.81002 F,0,72082,73082,1,0 M,19,73432,74432,93,248,8.019819,186.3285 F,0,73432,74432,1,0 M,19,75232,76232,511,371,446.6663,289.286 F,0,75232,76232,1,0
Sprite,Foreground,Centre,"sb\pp.png",0,0 M,19,34432,35432,381,315,487.3933,207.8484 F,0,34432,35432,1,0 M,19,35482,36482,226,66,346.5728,163.4022 F,0,35482,36482,1,0 M,19,41632,42632,252,379,246.7988,453.8194 F,0,41632,42632,1,0 M,19,44332,45332,269,294,303.6419,345.4192 F,0,44332,45332,1,0 M,19,45532,46532,296,220,377.4671,79.97461 F,0,45532,46532,1,0 M,19,46882,47882,477,178,327.0287,302.6339 F,0,46882,47882,1,0 M,19,48082,49082,106,237,44.44024,112.375 F,0,48082,49082,1,0 M,19,49282,50282,323,375,275.452,222.2283 F,0,49282,50282,1,0 M,19,50482,51482,449,201,404.2648,162.5324 F,0,50482,51482,1,0 M,19,51682,52682,284,214,138.6446,261.7578 F,0,51682,52682,1,0 M,19,68032,69032,123,264,189.3221,344.1085 F,0,68032,69032,1,0 M,19,69382,70382,289,256,234.6958,363.0096 F,0,69382,70382,1,0 M,19,70432,71432,398,399,247.4861,339.0869 F,0,70432,71432,1,0 M,19,72082,73082,357,89,455.2188,239.8412 F,0,72082,73082,1,0 M,19,73432,74432,93,248,172.7396,295.8602 F,0,73432,74432,1,0 M,19,75232,76232,511,371,691.6732,292.4747 F,0,75232,76232,1,0
Sprite,Foreground,Centre,"sb\pp.png",0,0 M,19,34432,35432,381,315,324.3345,484.7941 F,0,34432,35432,1,0 M,19,35482,36482,226,66,254.9375,-32.85152 F,0,35482,36482,1,0 M,19,41782,42782,198,105,139.2299,-0.7689668 F,0,41782,42782,1,0 M,19,44332,45332,269,294,354.0718,416.3265 F,0,44332,45332,1,0 M,19,45532,46532,296,220,413.0726,365.8184 F,0,45532,46532,1,0 M,19,46882,47882,477,178,590.4551,50.05884 F,0,46882,47882,1,0 M,19,48082,49082,106,237,17.22721,128.7439 F,0,48082,49082,1,0 M,19,49282,50282,323,375,393.7126,305.7127 F,0,49282,50282,1,0 M,19,50482,51482,449,201,496.5387,88.64311 F,0,50482,51482,1,0 M,19,51982,52982,208,307,154.4296,255.9489 F,0,51982,52982,1,0 M,19,68032,69032,123,264,108.501,404.2526 F,0,68032,69032,1,0 M,19,69382,70382,289,256,426.3024,299.4057 F,0,69382,70382,1,0 M,19,70432,71432,398,399,472.4272,242.8284 F,0,70432,71432,1,0 M,19,72082,73082,357,89,307.7158,-4.845955 F,0,72082,73082,1,0 M,19,73432,74432,93,248,5.750567,292.6266 F,0,73432,74432,1,0 M,19,75232,76232,511,371,385.1505,334.6282 F,0,75232,76232,1,0
Sprite,Foreground,Centre,"sb\pp.png",0,0 M,19,34432,35432,381,315,466.2709,365.2978 F,0,34432,35432,1,0 M,19,35482,36482,226,66,158.6816,91.53893 F,0,35482,36482,1,0 M,19,41782,42782,198,105,86.1764,127.1694 F,0,41782,42782,1,0 M,19,44332,45332,269,294,132.8694,316.6377 F,0,44332,45332,1,0 M,19,45682,46682,223,399,222.825,480.9998 F,0,45682,46682,1,0 M,19,46882,47882,477,178,607.8266,106.688 F,0,46882,47882,1,0 M,19,48232,49232,186,359,47.30109,264.2023 F,0,48232,49232,1,0 M,19,49282,50282,323,375,353.9133,259.0501 F,0,49282,50282,1,0 M,19,50482,51482,449,201,468.9293,354.7134 F,0,50482,51482,1,0 M,19,51982,52982,208,307,275.8271,319.6685 F,0,51982,52982,1,0 M,19,68182,69182,511,112,378.7253,90.56599 F,0,68182,69182,1,0 M,19,69382,70382,289,256,164.5686,131.5298 F,0,69382,70382,1,0 M,19,70432,71432,398,399,560.3116,336.3029 F,0,70432,71432,1,0 M,19,72082,73082,357,89,287.1277,101.604 F,0,72082,73082,1,0 M,19,73432,74432,93,248,288.2547,265.0766 F,0,73432,74432,1,0 M,19,75232,76232,511,371,546.9432,460.0174 F,0,75232,76232,1,0
Sprite,Foreground,Centre,"sb\pp.png",0,0 M,19,34432,35432,381,315,501.8622,393.2836 F,0,34432,35432,1,0 M,19,35632,36632,79,268,15.5718,341.3885 F,0,35632,36632,1,0 M,19,41782,42782,198,105,210.2926,-60.54423 F,0,41782,42782,1,0 M,19,44332,45332,269,294,262.9504,203.2013 F,0,44332,45332,1,0 M,19,45682,46682,223,399,174.6878,505.5595 F,0,45682,46682,1,0 M,19,46882,47882,477,178,413.2283,51.12537 F,0,46882,47882,1,0 M,19,48232,49232,186,359,211.584,312.5838 F,0,48232,49232,1,0 M,19,49282,50282,323,375,340.4391,422.9258 F,0,49282,50282,1,0 M,19,50482,51482,449,201,488.1693,168.3387 F,0,50482,51482,1,0 M,19,51982,52982,208,307,289.8559,189.7455 F,0,51982,52982,1,0 M,19,68182,69182,511,112,612.0082,164.852 F,0,68182,69182,1,0 M,19,69382,70382,289,256,459.9454,309.0913 F,0,69382,70382,1,0 M,19,70432,71432,398,399,399.0812,283.005 F,0,70432,71432,1,0 M,19,72082,73082,357,89,306.2309,114.9133 F,0,72082,73082,1,0 M,19,73432,74432,93,248,73.79134,129.5474 F,0,73432,74432,1,0 M,19,75232,76232,511,371,631.1733,316.3889 F,0,75232,76232,1,0
Sprite,Foreground,Centre,"sb\pp.png",0,0 M,19,34432,35432,381,315,257.001,384.1971 F,0,34432,35432,1,0 M,19,35632,36632,79,268,90.02716,77.31858 F,0,35632,36632,1,0 M,19,41782,42782,198,105,140.7239,184.5201 F,0,41782,42782,1,0 M,19,44332,45332,269,294,143.8216,272.5673 F,0,44332,45332,1,0 M,19,45682,46682,223,399,149.3428,421.4415 F,0,45682,46682,1,0 M,19,46882,47882,477,178,557.8044,327.5682 F,0,46882,47882,1,0 M,19,48232,49232,186,359,129.384,456.7938 F,0,48232,49232,1,0 M,19,49432,50432,356,132,214.0399,29.66558 F,0,49432,50432,1,0 M,19,50632,51632,321,352,421.7001,290.4899 F,0,50632,51632,1,0 M,19,51982,52982,208,307,178.8999,242.2375 F,0,51982,52982,1,0 M,19,68182,69182,511,112,685.4493,76.62412 F,0,68182,69182,1,0 M,19,69382,70382,289,256,255.674,187.6964 F,0,69382,70382,1,0 M,19,70432,71432,398,399,238.8498,293.3959 F,0,70432,71432,1,0 M,19,72082,73082,357,89,505.2155,55.29289 F,0,72082,73082,1,0 M,19,73732,74732,223,64,96.40039,82.88223 F,0,73732,74732,1,0 M,19,75232,76232,511,371,445.2639,365.1042 F,0,75232,76232,1,0
Sprite,Foreground,Centre,"sb\pp.png",0,0 M,19,34432,35432,381,315,274.6484,268.6823 F,0,34432,35432,1,0 M,19,35632,36632,79,268,127.4641,299.8627 F,0,35632,36632,1,0 M,19,41782,42782,198,105,239.7463,137.6534 F,0,41782,42782,1,0 M,19,44332,45332,269,294,199.0321,179.7175 F,0,44332,45332,1,0 M,19,45682,46682,223,399,138.9594,319.0427 F,0,45682,46682,1,0 M,19,46882,47882,477,178,430.1125,261.7709 F,0,46882,47882,1,0 M,19,48232,49232,186,359,31.30986,279.3322 F,0,48232,49232,1,0 M,19,49432,50432,356,132,305.1309,142.7856 F,0,49432,50432,1,0 M,19,50632,51632,321,352,359.1778,522.7849 F,0,50632,51632,1,0 M,19,51982,52982,208,307,217.1568,389.4933 F,0,51982,52982,1,0 M,19,68182,69182,511,112,606.9327,115.5947 F,0,68182,69182,1,0 M,19,69382,70382,289,256,455.8812,262.2993 F,0,69382,70382,1,0 M,19,70582,71582,170,123,364.3317,97.48163 F,0,70582,71582,1,0 M,19,72232,73232,208,419,294.827,585.7485 F,0,72232,73232,1,0 M,19,73732,74732,223,64,318.5205,152.1807 F,0,73732,74732,1,0 M,19,75682,76682,523,106,452.6688,67.87495 F,0,75682,76682,1,0
Sprite,Foreground,Centre,"sb\pp.png",0,0 M,19,34582,35582,314,66,414.2435,0.03611898 F,0,34582,35582,1,0 M,19,35632,36632,79,268,15.18853,99.69048 F,0,35632,36632,1,0 M,19,41782,42782,198,105,149.7713,33.7961 F,0,41782,42782,1,0 M,19,44482,45482,338,123,256.771,134.2184 F,0,44482,45482,1,0 M,19,45832,46832,389,296,491.4434,166.6541 F,0,45832,46832,1,0 M,19,47032,48032,343,194,462.5536,84.67972 F,0,47032,48032,1,0 M,19,48232,49232,186,359,85.94371,195.1319 F,0,48232,49232,1,0 M,19,49432,50432,356,132,399.1009,91.70959 F,0,49432,50432,1,0 M,19,50632,51632,321,352,406.8001,222.9135 F,0,50632,51632,1,0 M,19,51982,52982,208,307,241.2073,360.5376 F,0,51982,52982,1,0 M,19,68182,69182,511,112,468.9047,230.7602 F,0,68182,69182,1,0 M,19,69382,70382,289,256,281.6186,318.5661 F,0,69382,70382,1,0 M,19,70582,71582,170,123,219.9681,25.00415 F,0,70582,71582,1,0 M,19,72382,73382,504,232,451.7198,209.2891 F,0,72382,73382,1,0 M,19,73732,74732,223,64,402.7296,35.34249 F,0,73732,74732,1,0 M,19,75682,76682,523,106,418.239,150.9571 F,0,75682,76682,1,0
Sprite,Foreground,Centre,"sb\pp.png",0,0 M,19,34582,35582,314,66,352.9213,33.04348 F,0,34582,35582,1,0 M,19,35632,36632,79,268,-53.29103,148.9073 F,0,35632,36632,1,0 M,19,41782,42782,198,105,209.2869,184.1998 F,0,41782,42782,1,0 M,19,44482,45482,338,123,294.3021,-28.83705 F,0,44482,45482,1,0 M,19,45832,46832,389,296,309.7931,307.2369 F,0,45832,46832,1,0 M,19,47032,48032,343,194,431.9292,342.3934 F,0,47032,48032,1,0 M,19,48232,49232,186,359,233.159,290.699 F,0,48232,49232,1,0 M,19,49432,50432,356,132,473.6088,12.03265 F,0,49432,50432,1,0 M,19,50632,51632,321,352,334.2727,414.6086 F,0,50632,51632,1,0 M,19,51982,52982,208,307,160.8731,328.9785 F,0,51982,52982,1,0 M,19,68182,69182,511,112,381.1091,106.6755 F,0,68182,69182,1,0 M,19,69682,70682,462,261,416.032,372.9283 F,0,69682,70682,1,0 M,19,70732,71732,285,433,280.2412,596.9309 F,0,70732,71732,1,0 M,19,72382,73382,504,232,475.0691,388.3458 F,0,72382,73382,1,0 M,19,73732,74732,223,64,203.9961,-45.36111 F,0,73732,74732,1,0 M,19,75682,76682,523,106,573.1332,74.89277 F,0,75682,76682,1,0
Sprite,Foreground,Centre,"sb\pp.png",0,0 M,19,34582,35582,314,66,329.3537,-50.99685 F,0,34582,35582,1,0 M,19,35632,36632,79,268,68.48164,92.31459 F,0,35632,36632,1,0 M,19,41782,42782,198,105,169.2496,156.521 F,0,41782,42782,1,0 M,19,44482,45482,338,123,154.0992,181.5618 F,0,44482,45482,1,0 M,19,45832,46832,389,296,484.4252,428.1478 F,0,45832,46832,1,0 M,19,47032,48032,343,194,246.2572,201.0592 F,0,47032,48032,1,0 M,19,48232,49232,186,359,21.91348,304.1856 F,0,48232,49232,1,0 M,19,49432,50432,356,132,487.1007,232.1879 F,0,49432,50432,1,0 M,19,50632,51632,321,352,289.8867,248.5787 F,0,50632,51632,1,0 M,19,51982,52982,208,307,217.8319,209.4944 F,0,51982,52982,1,0 M,19,68182,69182,511,112,447.2459,88.34809 F,0,68182,69182,1,0 M,19,69682,70682,462,261,493.6555,156.6979 F,0,69682,70682,1,0 M,19,70732,71732,285,433,353.8807,321.5709 F,0,70732,71732,1,0 M,19,72382,73382,504,232,514.7661,135.5993 F,0,72382,73382,1,0 M,19,73732,74732,223,64,202.5557,-15.41052 F,0,73732,74732,1,0 M,19,75682,76682,523,106,642.9551,187.4602 F,0,75682,76682,1,0
Sprite,Foreground,Centre,"sb\pp.png",0,0 M,19,34582,35582,314,66,142.0441,-25.95748 F,0,34582,35582,1,0 M,19,35632,36632,79,268,0.2412431,357.2079 F,0,35632,36632,1,0 M,19,41782,42782,198,105,67.8399,69.17616 F,0,41782,42782,1,0 M,19,44482,45482,338,123,375.0142,256.9812 F,0,44482,45482,1,0 M,19,45832,46832,389,296,445.054,202.5177 F,0,45832,46832,1,0 M,19,47032,48032,343,194,276.87,320.7905 F,0,47032,48032,1,0 M,19,48232,49232,186,359,302.7034,335.7337 F,0,48232,49232,1,0 M,19,49432,50432,356,132,432.1324,254.2287 F,0,49432,50432,1,0 M,19,50632,51632,321,352,392.2234,469.0309 F,0,50632,51632,1,0 M,19,51982,52982,208,307,168.3803,352.0586 F,0,51982,52982,1,0 M,19,68182,69182,511,112,417.442,102.8947 F,0,68182,69182,1,0 M,19,69682,70682,462,261,315.0089,262.6218 F,0,69682,70682,1,0 M,19,70732,71732,285,433,206.8144,399.6532 F,0,70732,71732,1,0 M,19,72382,73382,504,232,394.0377,305.0226 F,0,72382,73382,1,0 M,19,73732,74732,223,64,215.9462,238.8578 F,0,73732,74732,1,0 M,19,75682,76682,523,106,538.7693,46.03894 F,0,75682,76682,1,0
Sprite,Foreground,Centre,"sb\pp.png",0,0 M,19,34582,35582,314,66,372.5952,-30.62088 F,0,34582,35582,1,0 M,19,35632,36632,79,268,-84.86884,313.2438 F,0,35632,36632,1,0 M,19,41782,42782,198,105,128.4531,-18.8032 F,0,41782,42782,1,0 M,19,44482,45482,338,123,473.2188,267.637 F,0,44482,45482,1,0 M,19,45832,46832,389,296,495.5248,336.6013 F,0,45832,46832,1,0 M,19,47032,48032,343,194,402.6708,217.1386 F,0,47032,48032,1,0 M,19,48232,49232,186,359,62.94123,494.4457 F,0,48232,49232,1,0 M,19,49432,50432,356,132,271.1398,216.8454 F,0,49432,50432,1,0 M,19,50632,51632,321,352,299.0346,524.608 F,0,50632,51632,1,0 M,19,51982,52982,208,307,233.5915,234.3772 F,0,51982,52982,1,0 M,19,68182,69182,511,112,539.3069,66.01391 F,0,68182,69182,1,0 M,19,69682,70682,462,261,276.2415,232.0553 F,0,69682,70682,1,0 M,19,70732,71732,285,433,273.7026,358.8558 F,0,70732,71732,1,0 M,19,72532,73532,105,188,216.4579,285.3711 F,0,72532,73532,1,0 M,19,73732,74732,223,64,172.4623,57.1487 F,0,73732,74732,1,0 M,19,75682,76682,523,106,645.7169,-5.788009 F,0,75682,76682,1,0
Sprite,Foreground,Centre,"sb\pp.png",0,0 M,19,34582,35582,314,66,154.7005,-19.9341 F,0,34582,35582,1,0 M,19,35632,36632,79,268,-27.53517,358.8309 F,0,35632,36632,1,0 M,19,41932,42932,159,361,8.925709,279.0323 F,0,41932,42932,1,0 M,19,44482,45482,338,123,226.0043,122.0218 F,0,44482,45482,1,0 M,19,45832,46832,389,296,415.1914,224.6557 F,0,45832,46832,1,0 M,19,47032,48032,343,194,258.9035,118.523 F,0,47032,48032,1,0 M,19,48232,49232,186,359,276.5512,496.9329 F,0,48232,49232,1,0 M,19,49432,50432,356,132,242.9011,63.93654 F,0,49432,50432,1,0 M,19,50632,51632,321,352,395.453,320.0978 F,0,50632,51632,1,0 M,19,51982,52982,208,307,300.152,401.5093 F,0,51982,52982,1,0 M,19,68182,69182,511,112,395.8675,126.1599 F,0,68182,69182,1,0 M,19,69682,70682,462,261,557.9646,229.5072 F,0,69682,70682,1,0 M,19,70732,71732,285,433,259.5452,240.6772 F,0,70732,71732,1,0 M,19,72532,73532,105,188,-41.32719,242.0773 F,0,72532,73532,1,0 M,19,73732,74732,223,64,345.0774,4.057432 F,0,73732,74732,1,0 M,19,75682,76682,523,106,610.1274,-30.57532 F,0,75682,76682,1,0
Sprite,Foreground,Centre,"sb\pp.png",0,0 M,19,34582,35582,314,66,465.9994,66.43871 F,0,34582,35582,1,0 M,19,35632,36632,79,268,6.240923,439.1786 F,0,35632,36632,1,0 M,19,41932,42932,159,361,254.5252,386.9988 F,0,41932,42932,1,0 M,19,44482,45482,338,123,324.3903,276.3975 F,0,44482,45482,1,0 M,19,45832,46832,389,296,264.7265,399.9235 F,0,45832,46832,1,0 M,19,47032,48032,343,194,345.414,258.9552 F,0,47032,48032,1,0 M,19,48232,49232,186,359,47.56704,408.4501 F,0,48232,49232,1,0 M,19,49432,50432,356,132,182.5459,161.8272 F,0,49432,50432,1,0 M,19,50632,51632,321,352,188.0119,353.7767 F,0,50632,51632,1,0 M,19,52132,53132,171,168,278.4099,29.84025 F,0,52132,53132,1,0 M,19,68332,69332,118,389,282.9445,316.9354 F,0,68332,69332,1,0 M,19,69682,70682,462,261,553.1575,273.4218 F,0,69682,70682,1,0 M,19,70732,71732,285,433,108.9715,470.6025 F,0,70732,71732,1,0 M,19,72532,73532,105,188,212.6185,93.83389 F,0,72532,73532,1,0 M,19,73882,74882,140,416,237.6128,470.9157 F,0,73882,74882,1,0 M,19,75682,76682,523,106,449.4099,57.74544 F,0,75682,76682,1,0
Sprite,Foreground,Centre,"sb\pp.png",0,0 M,19,34732,35732,301,315,290.3003,368.9492 F,0,34732,35732,1,0 M,19,35782,36782,301,173,230.4689,48.604 F,0,35782,36782,1,0 M,19,41932,42932,159,361,174.4035,515.2327 F,0,41932,42932,1,0 M,19,44482,45482,338,123,212.4141,133.2066 F,0,44482,45482,1,0 M,19,45832,46832,389,296,301.5889,140.941 F,0,45832,46832,1,0 M,19,47032,48032,343,194,316.2197,84.21925 F,0,47032,48032,1,0 M,19,48232,49232,186,359,45.19032,351.6765 F,0,48232,49232,1,0 M,19,49432,50432,356,132,448.8188,46.79048 F,0,49432,50432,1,0 M,19,50782,51782,510,304,583.5016,216.8592 F,0,50782,51782,1,0 M,19,52132,53132,171,168,140.8379,117.2925 F,0,52132,53132,1,0 M,19,68332,69332,118,389,188.7626,267.0424 F,0,68332,69332,1,0 M,19,69682,70682,462,261,635.4006,275.4303 F,0,69682,70682,1,0 M,19,70732,71732,285,433,237.5257,468.0313 F,0,70732,71732,1,0 M,19,72532,73532,105,188,-45.28231,267.4684 F,0,72532,73532,1,0 M,19,73882,74882,140,416,114.0433,372.0995 F,0,73882,74882,1,0 M,19,75682,76682,523,106,606.2619,200.5698 F,0,75682,76682,1,0
Sprite,Foreground,Centre,"sb\pp.png",0,0 M,19,34732,35732,301,315,185.7683,289.5902 F,0,34732,35732,1,0 M,19,35782,36782,301,173,321.6758,19.38519 F,0,35782,36782,1,0 M,19,41932,42932,159,361,280.9999,361.138 F,0,41932,42932,1,0 M,19,44482,45482,338,123,349.7568,-29.54763 F,0,44482,45482,1,0 M,19,45832,46832,389,296,358.1137,474.3453 F,0,45832,46832,1,0 M,19,47182,48182,477,261,541.912,318.926 F,0,47182,48182,1,0 M,19,48382,49382,285,247,214.0656,217.0449 F,0,48382,49382,1,0 M,19,49432,50432,356,132,481.5999,14.48975 F,0,49432,50432,1,0 M,19,50782,51782,510,304,530.9891,460.5997 F,0,50782,51782,1,0 M,19,52132,53132,171,168,281.8137,198.7462 F,0,52132,53132,1,0 M,19,68332,69332,118,389,185.2851,398.8346 F,0,68332,69332,1,0 M,19,69682,70682,462,261,452.9686,193.6024 F,0,69682,70682,1,0 M,19,70732,71732,285,433,122.7172,476.4545 F,0,70732,71732,1,0 M,19,72682,73682,385,415,496.1525,440.3203 F,0,72682,73682,1,0 M,19,73882,74882,140,416,-42.94263,357.7249 F,0,73882,74882,1,0 M,19,75682,76682,523,106,597.9977,105.4084 F,0,75682,76682,1,0
Sprite,Foreground,Centre,"sb\pp.png",0,0 M,19,34732,35732,301,315,302.5897,248.0189 F,0,34732,35732,1,0 M,19,35782,36782,301,173,150.3744,223.9209 F,0,35782,36782,1,0 M,19,41932,42932,159,361,330.4258,346.9577 F,0,41932,42932,1,0 M,19,44482,45482,338,123,296.0309,165.8789 F,0,44482,45482,1,0 M,19,45832,46832,389,296,263.54,376.379 F,0,45832,46832,1,0 M,19,47182,48182,477,261,363.6143,404.6408 F,0,47182,48182,1,0 M,19,48382,49382,285,247,339.5853,269.3931 F,0,48382,49382,1,0 M,19,49432,50432,356,132,446.4034,76.65361 F,0,49432,50432,1,0 M,19,50782,51782,510,304,496.2997,376.7207 F,0,50782,51782,1,0 M,19,52432,53432,510,304,452.6807,436.1003 F,0,52432,53432,1,0 M,19,68332,69332,118,389,-34.62185,361.9524 F,0,68332,69332,1,0 M,19,69682,70682,462,261,435.3818,85.0015 F,0,69682,70682,1,0 M,19,70732,71732,285,433,174.7718,534.7337 F,0,70732,71732,1,0 M,19,72682,73682,385,415,449.9022,448.4171 F,0,72682,73682,1,0 M,19,74032,75032,463,103,477.4049,25.3244 F,0,74032,75032,1,0 M,19,75682,76682,523,106,630.9573,44.99817 F,0,75682,76682,1,0
Sprite,Foreground,Centre,"sb\pp.png",0,0 M,19,34732,35732,301,315,290.0614,232.724 F,0,34732,35732,1,0 M,19,35782,36782,301,173,435.0459,254.7355 F,0,35782,36782,1,0 M,19,41932,42932,159,361,76.06921,390.4361 F,0,41932,42932,1,0 M,19,44482,45482,338,123,391.7603,35.14316 F,0,44482,45482,1,0 M,19,45832,46832,389,296,523.0721,193.1133 F,0,45832,46832,1,0 M,19,47182,48182,477,261,528.7945,104.3401 F,0,47182,48182,1,0 M,19,48382,49382,285,247,225.854,286.2779 F,0,48382,49382,1,0 M,19,49432,50432,356,132,303.0737,245.2422 F,0,49432,50432,1,0 M,19,50782,51782,510,304,478.8276,250.4063 F,0,50782,51782,1,0 M,19,68332,69332,118,389,133.4764,295.2691 F,0,68332,69332,1,0 M,19,69682,70682,462,261,507.617,192.8598 F,0,69682,70682,1,0 M,19,70882,71882,64,259,114.5551,146.8698 F,0,70882,71882,1,0 M,19,72682,73682,385,415,308.9039,505.1853 F,0,72682,73682,1,0 M,19,74032,75032,463,103,549.6866,110.3782 F,0,74032,75032,1,0 M,19,75682,76682,523,106,661.9219,200.4707 F,0,75682,76682,1,0
Sprite,Foreground,Centre,"sb\pp.png",0,0 M,19,34732,35732,301,315,366.9077,492.136 F,0,34732,35732,1,0 M,19,35782,36782,301,173,169.3613,57.69057 F,0,35782,36782,1,0 M,19,41932,42932,159,361,101.9708,307.7866 F,0,41932,42932,1,0 M,19,44482,45482,338,123,479.8011,-7.925318 F,0,44482,45482,1,0 M,19,45982,46982,179,274,99.5611,401.2378 F,0,45982,46982,1,0 M,19,47182,48182,477,261,613.3775,310.2562 F,0,47182,48182,1,0 M,19,48382,49382,285,247,168.4482,189.4181 F,0,48382,49382,1,0 M,19,49432,50432,356,132,437.5498,155.9713 F,0,49432,50432,1,0 M,19,50782,51782,510,304,482.114,253.1436 F,0,50782,51782,1,0 M,19,68332,69332,118,389,42.50607,397.756 F,0,68332,69332,1,0 M,19,69682,70682,462,261,531.5334,433.5141 F,0,69682,70682,1,0 M,19,70882,71882,64,259,9.631454,73.81614 F,0,70882,71882,1,0 M,19,72682,73682,385,415,508.1518,429.4785 F,0,72682,73682,1,0 M,19,74032,75032,463,103,505.1106,26.87054 F,0,74032,75032,1,0 M,19,76132,77132,551,83,460.9891,-2.287967 F,0,76132,77132,1,0
Sprite,Foreground,Centre,"sb\pp.png",0,0 M,19,34732,35732,301,315,329.4925,203.5856 F,0,34732,35732,1,0 M,19,35782,36782,301,173,345.9666,-20.85304 F,0,35782,36782,1,0 M,19,41932,42932,159,361,209.1416,340.9545 F,0,41932,42932,1,0 M,19,44632,45632,355,338,509.7558,329.3019 F,0,44632,45632,1,0 M,19,45982,46982,179,274,347.5458,361.7058 F,0,45982,46982,1,0 M,19,47182,48182,477,261,496.8315,205.4328 F,0,47182,48182,1,0 M,19,48382,49382,285,247,286.1367,61.00347 F,0,48382,49382,1,0 M,19,49432,50432,356,132,270.9395,-25.49831 F,0,49432,50432,1,0 M,19,50782,51782,510,304,553.9596,240.7817 F,0,50782,51782,1,0 M,19,68332,69332,118,389,165.0318,330.579 F,0,68332,69332,1,0 M,19,70582,71582,170,123,263.6052,139.2196 F,0,70582,71582,1,0 M,19,72682,73682,385,415,255.4249,449.151 F,0,72682,73682,1,0 M,19,74032,75032,463,103,314.233,-16.78892 F,0,74032,75032,1,0
Sprite,Foreground,Centre,"sb\pp.png",0,0 M,19,34732,35732,301,315,351.4545,347.4707 F,0,34732,35732,1,0 M,19,35782,36782,301,173,405.7907,103.0364 F,0,35782,36782,1,0 M,19,41932,42932,159,361,100.0166,456.2101 F,0,41932,42932,1,0 M,19,44632,45632,355,338,406.5295,318.7722 F,0,44632,45632,1,0 M,19,45982,46982,179,274,110.8559,263.166 F,0,45982,46982,1,0 M,19,47182,48182,477,261,440.8411,337.9255 F,0,47182,48182,1,0 M,19,48382,49382,285,247,362.3057,274.3465 F,0,48382,49382,1,0 M,19,49582,50582,236,333,264.8607,512.6971 F,0,49582,50582,1,0 M,19,50782,51782,510,304,520.0452,251.9607 F,0,50782,51782,1,0 M,19,68332,69332,118,389,302.3091,452.6801 F,0,68332,69332,1,0 M,19,70582,71582,170,123,238.108,166.844 F,0,70582,71582,1,0 M,19,72682,73682,385,415,576.092,396.3492 F,0,72682,73682,1,0 M,19,74032,75032,463,103,455.0461,155.3998 F,0,74032,75032,1,0
Sprite,Foreground,Centre,"sb\pp.png",0,0 M,19,34732,35732,301,315,302.4683,243.015 F,0,34732,35732,1,0 M,19,35782,36782,301,173,231.8356,245.2239 F,0,35782,36782,1,0 M,19,41932,42932,159,361,318.1565,281.293 F,0,41932,42932,1,0 M,19,44632,45632,355,338,516.6533,423.7742 F,0,44632,45632,1,0 M,19,45982,46982,179,274,48.61854,390.7291 F,0,45982,46982,1,0 M,19,47182,48182,477,261,384.0504,416.3105 F,0,47182,48182,1,0 M,19,48382,49382,285,247,215.7662,176.2351 F,0,48382,49382,1,0 M,19,49582,50582,236,333,165.5616,519.1167 F,0,49582,50582,1,0 M,19,51232,52232,397,259,456.2002,223.5552 F,0,51232,52232,1,0 M,19,68482,69482,392,65,387.4609,117.8053 F,0,68482,69482,1,0 M,19,70582,71582,170,123,133.9155,164.5079 F,0,70582,71582,1,0 M,19,72682,73682,385,415,268.8918,253.3835 F,0,72682,73682,1,0 M,19,74032,75032,463,103,369.6148,-56.70037 F,0,74032,75032,1,0
Sprite,Foreground,Centre,"sb\pp.png",0,0 M,19,34882,35882,226,66,178.5545,99.36047 F,0,34882,35882,1,0 M,19,36082,37082,325,61,403.8262,-28.14839 F,0,36082,37082,1,0 M,19,41932,42932,159,361,219.823,401.3679 F,0,41932,42932,1,0 M,19,44632,45632,355,338,296.2455,400.8005 F,0,44632,45632,1,0 M,19,45982,46982,179,274,89.29925,349.1184 F,0,45982,46982,1,0 M,19,47182,48182,477,261,335.4281,208.4795 F,0,47182,48182,1,0 M,19,48382,49382,285,247,216.9039,263.2148 F,0,48382,49382,1,0 M,19,49582,50582,236,333,134.8798,219.5156 F,0,49582,50582,1,0 M,19,51232,52232,397,259,457.7166,174.5637 F,0,51232,52232,1,0 M,19,68482,69482,392,65,294.3777,131.2864 F,0,68482,69482,1,0 M,19,70582,71582,170,123,305.8756,164.2531 F,0,70582,71582,1,0 M,19,72682,73682,385,415,528.5696,441.5289 F,0,72682,73682,1,0 M,19,74032,75032,463,103,325.3118,167.3891 F,0,74032,75032,1,0
Sprite,Foreground,Centre,"sb\pp.png",0,0 M,19,34882,35882,226,66,161.0834,-53.50664 F,0,34882,35882,1,0 M,19,36082,37082,325,61,363.6166,169.3225 F,0,36082,37082,1,0 M,19,41932,42932,159,361,318.1163,336.4437 F,0,41932,42932,1,0 M,19,44632,45632,355,338,355.3357,391.999 F,0,44632,45632,1,0 M,19,45982,46982,179,274,63.30369,383.0659 F,0,45982,46982,1,0 M,19,47482,48482,420,333,491.4671,377.1413 F,0,47482,48482,1,0 M,19,48682,49682,442,97,526.4673,23.4522 F,0,48682,49682,1,0 M,19,68482,69482,392,65,305.8324,117.6891 F,0,68482,69482,1,0 M,19,70582,71582,170,123,86.49622,132.1169 F,0,70582,71582,1,0 M,19,72832,73832,315,77,217.6832,-37.14658 F,0,72832,73832,1,0 M,19,74032,75032,463,103,434.6111,-35.11252 F,0,74032,75032,1,0
Sprite,Foreground,Centre,"sb\pp.png",0,0 M,19,34882,35882,226,66,59.00127,65.34825 F,0,34882,35882,1,0 M,19,36082,37082,325,61,349.4599,-84.96477 F,0,36082,37082,1,0 M,19,42082,43082,113,87,186.3374,77.11979 F,0,42082,43082,1,0 M,19,44632,45632,355,338,343.7125,391.8293 F,0,44632,45632,1,0 M,19,45982,46982,179,274,265.6118,305.0224 F,0,45982,46982,1,0 M,19,48382,49382,285,247,350.93,378.3858 F,0,48382,49382,1,0 M,19,49582,50582,236,333,327.6844,340.6134 F,0,49582,50582,1,0 M,19,68482,69482,392,65,263.7437,194.1291 F,0,68482,69482,1,0 M,19,70582,71582,170,123,91.57745,67.6294 F,0,70582,71582,1,0 M,19,72832,73832,315,77,353.4579,129.4022 F,0,72832,73832,1,0 M,19,74032,75032,463,103,507.6454,-84.76524 F,0,74032,75032,1,0
Sprite,Foreground,Centre,"sb\pp.png",0,0 M,19,34882,35882,226,66,290.4813,221.1327 F,0,34882,35882,1,0 M,19,36082,37082,325,61,319.1225,156.8199 F,0,36082,37082,1,0 M,19,42082,43082,113,87,282.6376,98.09383 F,0,42082,43082,1,0 M,19,44782,45782,422,121,372.1904,125.3593 F,0,44782,45782,1,0 M,19,45982,46982,179,274,249.684,447.1265 F,0,45982,46982,1,0 M,19,48382,49382,285,247,336.9224,302.4983 F,0,48382,49382,1,0 M,19,49582,50582,236,333,311.9433,330.0643 F,0,49582,50582,1,0 M,19,68482,69482,392,65,328.4731,-56.38092 F,0,68482,69482,1,0 M,19,70582,71582,170,123,33.27032,131.6021 F,0,70582,71582,1,0 M,19,72832,73832,315,77,482.8571,83.92902 F,0,72832,73832,1,0 M,19,74032,75032,463,103,507.218,77.58801 F,0,74032,75032,1,0
Sprite,Foreground,Centre,"sb\pp.png",0,0 M,19,34882,35882,226,66,75.46003,87.01708 F,0,34882,35882,1,0 M,19,42082,43082,113,87,143.3588,189.6028 F,0,42082,43082,1,0 M,19,44782,45782,422,121,490.5005,192.4751 F,0,44782,45782,1,0 M,19,45982,46982,179,274,209.4278,368.208 F,0,45982,46982,1,0 M,19,48682,49682,442,97,409.7957,289.3224 F,0,48682,49682,1,0 M,19,68482,69482,392,65,220.8274,48.14975 F,0,68482,69482,1,0 M,19,70582,71582,170,123,231.1328,-2.947551 F,0,70582,71582,1,0 M,19,72982,73982,82,441,32.51258,448.1411 F,0,72982,73982,1,0 M,19,74182,75182,86,299,29.29276,245.4436 F,0,74182,75182,1,0
Sprite,Foreground,Centre,"sb\pp.png",0,0 M,19,34882,35882,226,66,171.0544,-123.1824 F,0,34882,35882,1,0 M,19,42082,43082,113,87,258.4093,160.6556 F,0,42082,43082,1,0 M,19,44782,45782,422,121,314.1187,90.9066 F,0,44782,45782,1,0 M,19,45982,46982,179,274,175.4422,210.099 F,0,45982,46982,1,0 M,19,48682,49682,442,97,373.1223,135.6893 F,0,48682,49682,1,0 M,19,68482,69482,392,65,338.9053,27.50391 F,0,68482,69482,1,0 M,19,70882,71882,64,259,114.7275,243.6467 F,0,70882,71882,1,0 M,19,72982,73982,82,441,-43.62107,287.9531 F,0,72982,73982,1,0 M,19,74182,75182,86,299,-85.0767,316.7979 F,0,74182,75182,1,0
Sprite,Foreground,Centre,"sb\pp.png",0,0 M,19,34882,35882,226,66,233.2553,215.8244 F,0,34882,35882,1,0 M,19,42082,43082,113,87,207.5808,184.7265 F,0,42082,43082,1,0 M,19,44782,45782,422,121,524.7058,154.3994 F,0,44782,45782,1,0 M,19,45982,46982,179,274,309.214,222.577 F,0,45982,46982,1,0 M,19,48682,49682,442,97,377.2078,38.93995 F,0,48682,49682,1,0 M,19,70882,71882,64,259,118.2325,426.4361 F,0,70882,71882,1,0 M,19,72982,73982,82,441,210.3383,488.9404 F,0,72982,73982,1,0 M,19,74182,75182,86,299,130.0355,178.8132 F,0,74182,75182,1,0
Sprite,Foreground,Centre,"sb\pp.png",0,0 M,19,34882,35882,226,66,238.7771,180.288 F,0,34882,35882,1,0 M,19,42082,43082,113,87,305.9988,86.3261 F,0,42082,43082,1,0 M,19,44782,45782,422,121,537.379,160.6446 F,0,44782,45782,1,0 M,19,45982,46982,179,274,221.5646,321.7939 F,0,45982,46982,1,0 M,19,48682,49682,442,97,355.3604,177.1098 F,0,48682,49682,1,0 M,19,70882,71882,64,259,126.0432,281.5088 F,0,70882,71882,1,0 M,19,72982,73982,82,441,-104.2697,491.5233 F,0,72982,73982,1,0 M,19,74182,75182,86,299,3.426035,211.928 F,0,74182,75182,1,0
Sprite,Foreground,Centre,"sb\pp.png",0,0 M,19,34882,35882,226,66,339.4125,133.5396 F,0,34882,35882,1,0 M,19,42082,43082,113,87,6.624331,-41.73701 F,0,42082,43082,1,0 M,19,44782,45782,422,121,522.3428,97.75529 F,0,44782,45782,1,0 M,19,45982,46982,179,274,230.0129,235.3519 F,0,45982,46982,1,0 M,19,49582,50582,236,333,368.9946,331.7994 F,0,49582,50582,1,0 M,19,70882,71882,64,259,-65.98456,256.9962 F,0,70882,71882,1,0 M,19,72982,73982,82,441,-30.79392,356.3919 F,0,72982,73982,1,0 M,19,74182,75182,86,299,35.60723,374.7731 F,0,74182,75182,1,0
Sprite,Foreground,Centre,"sb\pp.png",0,0 M,19,34882,35882,226,66,64.7459,-41.85691 F,0,34882,35882,1,0 M,19,42082,43082,113,87,59.7225,-92.24985 F,0,42082,43082,1,0 M,19,44782,45782,422,121,269.0959,185.6247 F,0,44782,45782,1,0 M,19,45982,46982,179,274,96.05158,276.9257 F,0,45982,46982,1,0 M,19,49582,50582,236,333,431.8172,324.5373 F,0,49582,50582,1,0 M,19,70882,71882,64,259,-43.12383,200.6178 F,0,70882,71882,1,0 M,19,72982,73982,82,441,87.20219,590.9098 F,0,72982,73982,1,0 M,19,74182,75182,86,299,141.6232,365.8959 F,0,74182,75182,1,0
Sprite,Foreground,Centre,"sb\pp.png",0,0 M,19,34882,35882,226,66,46.79226,34.24178 F,0,34882,35882,1,0 M,19,42082,43082,113,87,50.21762,251.4213 F,0,42082,43082,1,0 M,19,45082,46082,549,301,473.4493,399.3265 F,0,45082,46082,1,0 M,19,49582,50582,236,333,275.3055,434.6665 F,0,49582,50582,1,0 M,19,70882,71882,64,259,200.917,386.3685 F,0,70882,71882,1,0 M,19,72982,73982,82,441,225.9972,441.8952 F,0,72982,73982,1,0 M,19,74182,75182,86,299,-0.01645559,425.5313 F,0,74182,75182,1,0
Sprite,Foreground,Centre,"sb\pp.png",0,0 M,19,34882,35882,226,66,223.1321,9.072193 F,0,34882,35882,1,0 M,19,42082,43082,113,87,194.714,32.89991 F,0,42082,43082,1,0 M,19,49582,50582,236,333,273.0677,275.9914 F,0,49582,50582,1,0 M,19,70882,71882,64,259,81.32644,314.3516 F,0,70882,71882,1,0 M,19,72982,73982,82,441,-56.67069,512.4594 F,0,72982,73982,1,0 M,19,74182,75182,86,299,-69.17623,282.9894 F,0,74182,75182,1,0
Sprite,Foreground,Centre,"sb\pp.png",0,0 M,19,34882,35882,226,66,198.6989,-47.77017 F,0,34882,35882,1,0 M,19,42082,43082,113,87,172.8472,91.27972 F,0,42082,43082,1,0 M,19,72982,73982,82,441,147.3211,574.9185 F,0,72982,73982,1,0 M,19,74182,75182,86,299,213.8415,350.9668 F,0,74182,75182,1,0
Sprite,Foreground,Centre,"sb\pp.png",0,0 M,19,35032,36032,226,316,370.173,220.3802 F,0,35032,36032,1,0 M,19,42082,43082,113,87,94.96977,-2.195916 F,0,42082,43082,1,0 M,19,74182,75182,86,299,99.76247,390.976 F,0,74182,75182,1,0
Sprite,Foreground,Centre,"sb\pp.png",0,0 M,19,35032,36032,226,316,126.2739,160.1805 F,0,35032,36032,1,0 M,19,42082,43082,113,87,63.75195,29.11537 F,0,42082,43082,1,0 M,19,74182,75182,86,299,159.5884,254.4944 F,0,74182,75182,1,0
Sprite,Foreground,Centre,"sb\pp.png",0,0 M,19,35032,36032,226,316,213.2899,172.562 F,0,35032,36032,1,0 M,19,42082,43082,113,87,249.1394,195.3608 F,0,42082,43082,1,0 M,19,74182,75182,86,299,-7.101605,268.4044 F,0,74182,75182,1,0
Sprite,Foreground,Centre,"sb\pp.png",0,0 M,19,35032,36032,226,316,355.8555,309.8732 F,0,35032,36032,1,0 M,19,42082,43082,113,87,152.908,-5.781221 F,0,42082,43082,1,0 M,19,74182,75182,86,299,153.2585,187.7512 F,0,74182,75182,1,0
Sprite,Foreground,Centre,"sb\pp.png",0,0 M,19,35632,36632,79,268,187.1847,356.8598 F,0,35632,36632,1,0 M,19,42082,43082,113,87,44.66361,230.5658 F,0,42082,43082,1,0 M,19,74182,75182,86,299,25.2751,278.7889 F,0,74182,75182,1,0
Sprite,Foreground,Centre,"sb\pp.png",0,0 M,19,35632,36632,79,268,57.72624,133.6742 F,0,35632,36632,1,0 M,19,42082,43082,113,87,119.4933,159.7106 F,0,42082,43082,1,0 M,19,74182,75182,86,299,142.2733,289.9273 F,0,74182,75182,1,0
Sprite,Foreground,Centre,"sb\pp.png",0,0 M,19,35782,36782,301,173,313.689,103.1431 F,0,35782,36782,1,0 M,19,42082,43082,113,87,72.85094,138.118 F,0,42082,43082,1,0 M,19,74182,75182,86,299,-2.835519,304.4084 F,0,74182,75182,1,0
Sprite,Foreground,Centre,"sb\pp.png",0,0 M,19,35782,36782,301,173,223.7982,128.7181 F,0,35782,36782,1,0
Sprite,Foreground,Centre,"sb\pp.png",0,0 M,19,35782,36782,301,173,372.4914,115.0951 F,0,35782,36782,1,0
Sprite,Foreground,Centre,"sb\pp.png",0,0 M,19,35782,36782,301,173,340.9403,108.3411 F,0,35782,36782,1,0
Sprite,Foreground,Centre,"sb\pp.png",0,0 M,19,35782,36782,301,173,150.1202,147.6175 F,0,35782,36782,1,0
Sprite,Foreground,Centre,"sb\r.png",0,0 M,0,9990,,414,424 F,0,9990,10940,1,0 S,19,9990,10940,0,0.5 M,0,19590,,120,70 F,0,19590,20540,1,0 S,19,19590,20540,0,0.5 M,0,28882,,303,381 F,0,28882,29832,1,0 S,19,28882,29832,0,0.5 M,0,31582,,324,79 F,0,31582,32532,1,0 S,19,31582,32532,0,0.5 M,0,33982,,490,66 F,0,33982,34932,1,0 S,19,33982,34932,0,0.5 M,0,35182,,79,114 F,0,35182,36132,1,0 S,19,35182,36132,0,0.5 M,0,36382,,157,217 F,0,36382,37332,1,0 S,19,36382,37332,0,0.5 M,0,38782,,492,119 F,0,38782,39732,1,0 S,19,38782,39732,0,0.5 M,0,41182,,368,141 F,0,41182,42132,1,0 S,19,41182,42132,0,0.5 M,0,42382,,444,131 F,0,42382,43332,1,0 S,19,42382,43332,0,0.5 M,0,43582,,255,126 F,0,43582,44532,1,0 S,19,43582,44532,0,0.5 M,0,44782,,422,121 F,0,44782,45732,1,0 S,19,44782,45732,0,0.5 M,0,45982,,179,274 F,0,45982,46932,1,0 S,19,45982,46932,0,0.5 M,0,47182,,477,261 F,0,47182,48132,1,0 S,19,47182,48132,0,0.5 M,0,48382,,285,247 F,0,48382,49332,1,0 S,19,48382,49332,0,0.5 M,0,49582,,236,333 F,0,49582,50532,1,0 S,19,49582,50532,0,0.5 M,0,50782,,510,304 F,0,50782,51732,1,0 S,19,50782,51732,0,0.5 M,0,51982,,208,307 F,0,51982,52932,1,0 S,19,51982,52932,0,0.5 M,0,53182,,389,385 F,0,53182,54132,1,0 S,19,53182,54132,0,0.5 M,0,54382,,437,286 F,0,54382,55332,1,0 S,19,54382,55332,0,0.5 M,0,55582,,346,276 F,0,55582,56532,1,0 S,19,55582,56532,0,0.5 M,0,56782,,425,155 F,0,56782,57732,1,0 S,19,56782,57732,0,0.5 M,0,57982,,161,211 F,0,57982,58932,1,0 S,19,57982,58932,0,0.5 M,0,59182,,209,98 F,0,59182,60132,1,0 S,19,59182,60132,0,0.5 M,0,67582,,488,290 F,0,67582,68532,1,0 S,19,67582,68532,0,0.5
Sprite,Foreground,Centre,"sb\r.png",0,0 M,0,34282,,402,66 F,0,34282,35232,1,0 S,19,34282,35232,0,0.5 M,0,35482,,226,66 F,0,35482,36432,1,0 S,19,35482,36432,0,0.5 M,0,41482,,283,123 F,0,41482,42432,1,0 S,19,41482,42432,0,0.5 M,0,42682,,429,350 F,0,42682,43632,1,0 S,19,42682,43632,0,0.5
Sprite,Foreground,Centre,"sb\r.png",0,0 M,0,34582,,314,66 F,0,34582,35532,1,0 S,19,34582,35532,0,0.5 M,0,35782,,301,173 F,0,35782,36732,1,0 S,19,35782,36732,0,0.5 M,0,41782,,198,105 F,0,41782,42732,1,0 S,19,41782,42732,0,0.5 M,0,42982,,225,407 F,0,42982,43932,1,0 S,19,42982,43932,0,0.5
Sprite,Foreground,Centre,"sb\r.png",0,0 M,0,34882,,226,66 F,0,34882,35832,1,0 S,19,34882,35832,0,0.5 M,0,36082,,325,61 F,0,36082,37032,1,0 S,19,36082,37032,0,0.5 M,0,42082,,113,87 F,0,42082,43032,1,0 S,19,42082,43032,0,0.5 M,0,43282,,104,297 F,0,43282,44232,1,0 S,19,43282,44232,0,0.5
//Storyboard Layer 4 (Overlay)
//Storyboard Sound Samples

[TimingPoints]
390,300,4,2,1,85,1,0
9990,-100,4,2,2,100,0,0
18390,-66.6666666666667,4,2,2,100,0,0
18990,-303.030303030303,4,2,2,100,0,0
19590,-100,4,2,2,100,0,0
20782,300,4,2,2,100,1,0
22582,-100,4,2,2,100,0,0
28882,-27.7777777777778,4,2,1,100,0,0
29182,-80,4,2,1,100,0,1
30382,-100,4,2,2,100,0,1
32482,-80,4,2,2,100,0,1
32782,-100,4,2,2,100,0,1
37582,-66.6666666666667,4,2,2,100,0,1
38182,-100,4,2,2,100,0,1
39682,-66.6666666666667,4,2,2,100,0,1
43582,-100,4,2,1,100,0,0
60082,-50,4,2,1,100,0,0
60382,-55.5555555555556,4,2,3,100,0,0
65182,-55.5555555555556,4,2,3,100,0,0
65782,-30.3030303030303,4,2,3,100,0,0
66082,-76.9230769230769,4,2,3,100,0,0
66682,-76.9230769230769,4,2,1,100,0,1
67282,-76.9230769230769,4,2,2,100,0,0
67582,-66.6666666666667,4,2,1,100,0,1
68482,-57.1428571428571,4,2,2,100,0,0
69082,-66.6666666666667,4,2,2,100,0,0
70882,-38.4615384615385,4,2,2,100,0,1
71182,-45.4545454545455,4,2,2,100,0,0
75682,-36.3636363636364,4,2,2,100,0,0
76132,-100,4,2,1,100,0,0
79432,-100,4,2,1,15,0,0
79732,-100,4,2,1,5,0,0
79807,-100,4,2,2,50,0,0
80332,-100,4,2,1,5,0,0
80432,-100,4,2,1,5,0,0

[Colours]
Combo1 : 128,64,64
Combo2 : 255,0,128
Combo3 : 255,128,255
Combo4 : 255,0,0

[HitObjects]
106,79,390,6,0,L|212:98,1,100,6|2,0:0|0:1,0:0:0:0:
446,221,690,2,0,L|340:240,1,100,8|2,0:0|0:1,0:0:0:0:
146,236,990,5,2,0:0:0:0:
305,90,1140,1,2,0:1:0:0:
259,296,1290,1,8,0:0:0:0:
166,43,1440,1,2,0:1:0:0:
408,257,1590,6,0,L|466:348,1,100,2|2,0:0|0:1,0:0:0:0:
347,37,1890,2,0,L|245:52,1,100,8|2,0:0|0:1,0:0:0:0:
139,121,2190,5,2,0:0:0:0:
222,301,2340,1,2,0:1:0:0:
301,85,2490,1,8,0:0:0:0:
183,210,2640,1,2,0:1:0:0:
378,152,2790,6,0,L|423:59,1,100,2|2,0:0|0:1,0:0:0:0:
124,288,3090,2,0,P|173:286|221:300,1,100,8|2,0:0|0:1,0:0:0:0:
351,322,3390,5,2,0:0:0:0:
378,152,3540,1,2,0:1:0:0:
439,247,3690,1,8,0:0:0:0:
454,139,3840,1,2,0:1:0:0:
304,182,3990,6,0,L|285:307,1,100,2|2,0:0|0:1,0:0:0:0:
100,270,4290,2,0,L|89:124,1,100,8|2,0:0|0:1,0:0:0:0:
399,32,4590,5,2,0:0:0:0:
279,92,4740,1,2,0:1:0:0:
213,172,4890,1,8,0:1:0:0:
194,257,5040,1,2,0:0:0:0:
203,340,5190,6,0,P|143:344|101:351,1,100,2|2,0:0|0:1,0:0:0:0:
182,81,5490,2,0,P|240:86|283:93,1,100,8|2,0:0|0:1,0:0:0:0:
437,116,5790,5,2,0:0:0:0:
326,255,5940,1,2,0:1:0:0:
321,77,6090,1,8,0:0:0:0:
450,278,6240,1,2,0:1:0:0:
248,177,6390,6,0,P|196:173|145:191,1,100,2|2,0:0|0:1,0:0:0:0:
80,316,6690,2,0,P|132:320|183:302,1,100,8|2,0:0|0:1,0:0:0:0:
346,142,6990,5,2,0:0:0:0:
119,214,7140,1,2,0:1:0:0:
284,326,7290,1,8,0:0:0:0:
248,177,7440,1,2,0:1:0:0:
385,91,7590,6,0,P|437:90|487:105,1,100,2|2,0:0|0:1,0:0:0:0:
349,284,7890,2,0,P|295:289|247:270,1,100,8|2,0:0|0:1,0:0:0:0:
129,26,8190,5,2,0:0:0:0:
137,214,8340,1,2,0:1:0:0:
10,149,8490,1,8,0:0:0:0:
50,233,8640,1,2,0:1:0:0:
100,136,8790,6,0,P|152:126|220:172,1,100,2|2,0:0|0:1,0:0:0:0:
304,252,9090,2,0,L|158:263,1,100,8|2,0:0|0:1,0:0:0:0:
51,353,9390,5,8,0:1:0:0:
88,354,9465,1,8,0:1:0:0:
125,356,9540,1,8,0:1:0:0:
163,358,9615,1,8,0:1:0:0:
200,360,9690,1,8,0:1:0:0:
238,362,9765,1,8,0:1:0:0:
275,364,9840,1,8,0:1:0:0:
313,366,9915,1,8,0:1:0:0:
350,368,9990,6,0,L|481:357,1,100,6|0,0:0|0:0,0:0:0:0:
488,267,10290,2,0,L|357:256,1,100,8|0,0:0|0:0,0:0:0:0:
326,159,10590,2,0,L|429:151,1,100,2|2,0:1|0:0,0:0:0:0:
367,50,10890,2,0,L|236:39,1,100,8|0,0:0|0:0,0:0:0:0:
461,24,11190,5,2,0:3:0:0:
388,258,11340,1,0,0:0:0:0:
367,50,11490,5,8,0:0:0:0:
388,233,11640,1,0,0:0:0:0:
267,41,11790,6,0,L|138:30,1,100,2|2,0:1|0:0,0:0:0:0:
97,161,12090,2,0,L|197:153,1,100,8|0,0:0|0:0,0:0:0:0:
24,267,12390,5,2,0:3:0:0:
273,250,12540,1,0,0:0:0:0:
24,267,12690,6,0,L|13:136,1,100,8|0,0:0|0:0,0:0:0:0:
138,94,12990,2,0,L|130:193,1,100,2|2,0:1|0:0,0:0:0:0:
57,23,13290,5,8,0:0:0:0:
107,299,13440,1,0,0:0:0:0:
302,79,13590,6,0,B|321:57|348:52|377:59|396:85|393:114|374:138|349:145|313:141|299:116,1,200,2|8,0:3|0:0,0:0:0:0:
62,108,14040,1,0,0:0:0:0:
404,233,14190,6,0,B|348:258|305:237|305:237|261:214|212:243,1,200,2|8,0:1|0:0,0:0:0:0:
447,152,14640,1,0,0:0:0:0:
117,235,14790,5,2,0:3:0:0:
265,313,14940,1,0,0:0:0:0:
117,235,15090,6,0,L|128:133,1,100,8|0,0:0|0:0,0:0:0:0:
296,106,15390,2,0,L|286:206,1,100,2|2,0:1|0:0,0:0:0:0:
455,177,15690,2,0,L|466:75,1,100,8|0,0:0|0:0,0:0:0:0:
440,339,15990,5,2,0:3:0:0:
465,77,16140,1,0,0:0:0:0:
440,339,16290,6,0,L|428:237,1,100,8|0,0:0|0:0,0:0:0:0:
263,172,16590,2,0,L|274:272,1,100,2|2,0:1|0:0,0:0:0:0:
109,206,16890,2,0,L|97:104,1,100,8|0,0:0|0:0,0:0:0:0:
88,26,17190,5,2,0:3:0:0:
120,316,17340,1,0,0:0:0:0:
88,26,17490,6,0,L|187:18,1,100,8|0,0:0|0:0,0:0:0:0:
272,164,17790,2,0,B|172:172,1,100,2|2,0:1|0:0,0:0:0:0:
264,327,18090,2,0,B|288:333|321:329|295:322|337:310|363:319,1,100,8|0,0:0|0:0,0:0:0:0:
487,229,18390,6,0,B|473:207|477:179|489:192|498:134|466:84|417:115|427:146|460:154,1,150,2|0,0:3|0:0,0:0:0:0:
275,168,18690,2,0,B|276:153|242:151|224:206|281:224|334:202|319:193|346:183|370:191,1,150,8|0,0:3|0:0,0:0:0:0:
189,279,18990,5,2,0:1:0:0:
111,293,19140,1,2,0:0:0:0:
91,313,19290,1,2,0:0:0:0:
41,17,19590,5,6,0:0:0:0:
91,313,19740,1,2,0:0:0:0:
165,15,19890,6,0,L|167:127,1,100,8|0,0:0|0:0,0:0:0:0:
183,298,20190,2,0,L|180:185,1,100,2|2,0:1|0:0,0:0:0:0:
288,17,20490,6,0,P|300:69|279:130,1,100,8|2,0:0|0:0,0:0:0:0:
284,290,20782,2,0,P|274:237|294:171,1,100,2|0,0:3|0:0,0:0:0:0:
409,19,21082,6,0,P|435:72|371:112,1,100,8|0,0:0|0:0,0:0:0:0:
374,287,21382,2,0,P|347:233|411:193,1,100,2|2,0:1|0:0,0:0:0:0:
508,17,21682,6,0,P|536:57|498:71,1,100,8|0,0:0|0:0,0:0:0:0:
131,111,21982,5,2,0:1:0:0:
351,205,22132,1,2,0:0:0:0:
138,287,22282,2,0,P|94:256|59:223,1,100,8|2,0:0|0:0,0:0:0:0:
381,111,22582,5,2,0:1:0:0:
161,205,22732,1,2,0:0:0:0:
374,287,22882,2,0,P|418:256|453:223,1,100,8|2,0:0|0:0,0:0:0:0:
173,319,23182,6,0,P|128:344|69:333,1,100,2|0,0:3|0:0,0:0:0:0:
156,143,23482,2,0,P|203:130|249:148,1,100,8|0,0:0|0:0,0:0:0:0:
60,158,23782,6,0,P|42:109|63:53,1,100,2|2,0:1|0:0,0:0:0:0:
333,122,24082,2,0,P|345:169|327:215,1,100,8|0,0:0|0:0,0:0:0:0:
213,10,24382,5,2,0:0:0:0:
407,101,24532,1,2,0:0:0:0:
213,10,24682,2,0,P|170:25|101:32,1,100,8|0,0:0|0:0,0:0:0:0:
19,115,24982,6,0,P|62:130|131:137,1,100,2|2,0:1|0:0,0:0:0:0:
195,222,25282,2,0,P|152:237|83:244,1,100,8|2,0:0|0:0,0:0:0:0:
229,105,25582,6,0,P|275:87|324:79,1,100,2|0,0:3|0:0,0:0:0:0:
409,198,25882,2,0,P|361:183|311:179,1,100,8|0,0:0|0:0,0:0:0:0:
53,139,26182,5,2,0:1:0:0:
312,179,26332,1,2,0:0:0:0:
78,299,26482,1,8,0:0:0:0:
198,65,26632,1,0,0:0:0:0:
239,325,26782,1,2,0:3:0:0:
251,299,28582,5,2,0:1:0:0:
251,299,28882,2,0,P|244:270|246:303,1,89.9999972534181,8|8,0:1|0:1,0:0:0:0:
227,57,29182,5,0,0:0:0:0:
125,180,29332,1,0,0:0:0:0:
362,108,29482,1,0,0:0:0:0:
125,61,29632,5,0,0:0:0:0:
229,303,29782,1,0,0:0:0:0:
303,50,29932,1,0,0:0:0:0:
362,302,30082,2,0,P|411:281|486:258,1,125
362,108,30382,5,0,0:0:0:0:
229,303,30532,1,0,0:0:0:0:
75,197,30682,2,0,B|124:175|124:175|182:184,1,100
357,318,30982,2,0,P|274:331|147:371,1,200
412,228,31432,1,0,0:0:0:0:
285,57,31582,5,0,0:0:0:0:
299,266,31732,1,0,0:0:0:0:
146,55,31882,1,0,0:0:0:0:
406,44,32032,5,0,0:0:0:0:
158,178,32182,1,0,0:0:0:0:
412,228,32332,1,0,0:0:0:0:
150,302,32482,2,0,P|101:281|26:258,1,125
150,108,32782,5,0,0:0:0:0:
283,303,32932,1,0,0:0:0:0:
437,197,33082,2,0,B|388:175|388:175|330:184,1,100
155,318,33382,2,0,P|238:331|358:366,1,187.5
158,178,33832,1,0,0:0:0:0:
426,10,33982,5,14,0:0:0:0:
370,260,34132,1,0,0:0:0:0:
338,10,34282,5,14,0:0:0:0:
317,259,34432,1,0,0:0:0:0:
250,10,34582,5,14,0:0:0:0:
262,261,34732,1,0,0:0:0:0:
162,10,34882,5,14,0:0:0:0:
197,260,35032,1,0,0:0:0:0:
200,279,35107,1,0,0:0:0:0:
202,297,35182,1,0,0:0:0:0:
26,114,35332,5,14,0:0:0:0:
197,260,35482,1,0,0:0:0:0:
82,13,35632,1,14,0:0:0:0:
7,257,35782,6,0,L|13:382,1,100
229,81,36082,1,0,0:0:0:0:
227,327,36232,1,0,0:0:0:0:
227,327,36307,1,0,0:0:0:0:
227,327,36382,5,0,0:0:0:0:
123,124,36532,1,0,0:0:0:0:
307,301,36682,1,0,0:0:0:0:
72,272,36832,5,0,0:0:0:0:
229,81,36982,1,0,0:0:0:0:
227,327,37132,1,0,0:0:0:0:
404,133,37282,2,0,L|309:166,1,100
134,321,37582,5,0,0:0:0:0:
387,226,37732,1,0,0:0:0:0:
123,124,37882,2,0,B|90:158|90:158|197:146,1,150
366,65,38182,2,0,B|317:95|241:56|312:31|247:-6|156:15,1,200
412,156,38632,1,0,0:0:0:0:
227,327,38782,5,0,0:0:0:0:
123,124,38932,1,0,0:0:0:0:
307,301,39082,1,0,0:0:0:0:
72,272,39232,5,0,0:0:0:0:
229,81,39382,1,0,0:0:0:0:
227,327,39532,1,0,0:0:0:0:
404,133,39682,2,0,P|374:180|417:147,1,150
134,321,39982,5,0,0:0:0:0:
392,254,40132,1,0,0:0:0:0:
123,124,40282,2,0,B|90:158|90:158|197:146,1,150
432,72,40582,2,0,B|426:-3|332:-7|238:25|258:106|278:136|326:137,1,300.000011444092
31,211,41032,1,0,0:0:0:0:
365,256,41182,5,0,0:0:0:0:
201,110,41332,1,0,0:0:0:0:
226,309,41482,5,0,0:0:0:0:
346,96,41632,1,0,0:0:0:0:
119,172,41782,5,0,0:0:0:0:
377,263,41932,1,0,0:0:0:0:
236,42,42082,5,0,0:0:0:0:
295,304,42232,1,0,0:0:0:0:
380,75,42382,5,14,0:0:0:0:
87,263,42532,1,0,0:0:0:0:
365,294,42682,5,14,0:0:0:0:
131,32,42832,1,0,0:0:0:0:
161,351,42982,5,14,0:0:0:0:
318,0,43132,1,0,0:0:0:0:
40,241,43282,5,14,0:0:0:0:
452,122,43432,1,0,0:0:0:0:
191,70,43582,6,0,P|138:71|68:78,1,100,10|0,0:0|0:0,0:0:0:0:
40,241,43882,2,0,P|85:264|150:219,1,100,10|0,0:0|0:0,0:0:0:0:
275,68,44182,5,10,0:0:0:0:
289,236,44332,1,0,0:0:0:0:
358,65,44482,1,10,0:0:0:0:
375,280,44632,1,0,0:0:0:0:
448,64,44782,6,0,L|475:189,1,100,10|0,0:0|0:0,0:0:0:0:
348,376,45082,2,0,L|380:259,1,100,10|0,0:0|0:0,0:0:0:0:
233,187,45382,5,10,0:0:0:0:
218,381,45532,1,0,0:0:0:0:
115,218,45682,1,10,0:0:0:0:
296,290,45832,1,0,0:0:0:0:
115,218,45982,6,0,B|8:207,1,100,10|0,0:0|0:0,0:0:0:0:
91,80,46282,2,0,B|190:69,1,100,10|0,0:0|0:0,0:0:0:0:
413,39,46582,5,10,0:0:0:0:
190,68,46732,1,0,0:0:0:0:
413,122,46882,1,10,0:0:0:0:
279,138,47032,1,0,0:0:0:0:
413,205,47182,6,0,P|463:213|517:227,1,100,10|0,0:0|0:0,0:0:0:0:
296,290,47482,2,0,P|241:282|198:269,1,100,10|0,0:0|0:0,0:0:0:0:
134,190,47782,5,10,0:0:0:0:
35,341,47932,1,0,0:0:0:0:
42,181,48082,1,10,0:0:0:0:
112,292,48232,1,8,0:0:0:0:
196,124,48382,6,0,L|214:4,1,100,14|0,0:0|0:0,0:0:0:0:
371,82,48682,2,0,L|353:202,1,100,10|0,0:0|0:0,0:0:0:0:
362,338,48982,5,10,0:0:0:0:
277,162,49132,1,0,0:0:0:0:
267,283,49282,1,10,0:0:0:0:
444,147,49432,1,0,0:0:0:0:
154,126,49582,6,0,L|60:89,1,100,10|0,0:0|0:0,0:0:0:0:
79,240,49882,2,0,L|172:277,1,100,10|0,0:0|0:0,0:0:0:0:
277,162,50182,5,10,0:0:0:0:
380,328,50332,1,0,0:0:0:0:
395,132,50482,1,10,0:0:0:0:
267,283,50632,1,0,0:0:0:0:
446,247,50782,6,0,P|466:202|483:155,1,100,10|0,0:0|0:0,0:0:0:0:
380,328,51082,1,10,0:0:0:0:
334,103,51232,2,0,P|331:152|333:203,1,100,0|10,0:0|0:0,0:0:0:0:
257,296,51532,1,0,0:0:0:0:
187,63,51682,2,0,P|201:111|220:158,1,100,10|0,0:0|0:0,0:0:0:0:
144,251,51982,1,10,0:0:0:0:
44,34,52132,2,0,P|82:76|107:112,1,100,0|10,0:0|0:0,0:0:0:0:
332,202,52432,1,10,0:0:0:0:
144,251,52582,5,8,0:1:0:0:
144,251,52657,1,8,0:1:0:0:
144,251,52732,2,0,L|89:247,1,50,8|8,0:1|0:1,0:0:0:0:
225,320,52882,5,8,0:3:0:0:
249,321,52957,1,8,0:3:0:0:
273,323,53032,1,8,0:3:0:0:
298,326,53107,1,8,0:3:0:0:
325,329,53182,6,0,L|425:337,1,100,6|0,0:0|0:0,0:0:0:0:
144,251,53482,2,0,L|44:243,1,100,8|0,0:0|0:0,0:0:0:0:
185,154,53782,5,2,0:0:0:0:
403,144,53932,1,0,0:0:0:0:
144,251,54082,1,8,0:0:0:0:
261,26,54232,1,0,0:0:0:0:
402,239,54382,6,0,P|416:293|426:346,1,100,2|0,0:0|0:0,0:0:0:0:
144,251,54682,2,0,P|164:197|187:150,1,100,8|0,0:0|0:0,0:0:0:0:
388,72,54982,5,2,0:0:0:0:
122,89,55132,1,0,0:0:0:0:
354,150,55282,1,8,0:0:0:0:
183,159,55432,1,0,0:0:0:0:
282,220,55582,6,0,L|386:227,1,100,2|0,0:0|0:0,0:0:0:0:
119,254,55882,2,0,L|15:247,1,100,8|0,0:0|0:0,0:0:0:0:
220,336,56182,5,2,0:0:0:0:
361,99,56332,1,0,0:0:0:0:
325,279,56482,1,8,0:0:0:0:
220,165,56632,1,0,0:0:0:0:
361,99,56782,6,0,P|413:86|480:83,1,100,2|0,0:0|0:0,0:0:0:0:
386,266,57082,2,0,P|334:279|267:282,1,100,8|0,0:0|0:0,0:0:0:0:
71,245,57382,5,2,0:0:0:0:
287,282,57532,1,0,0:0:0:0:
132,332,57682,1,8,0:0:0:0:
259,290,57832,1,0,0:0:0:0:
97,155,57982,6,0,L|-9:150,1,100,2|0,0:0|0:0,0:0:0:0:
169,219,58282,2,0,P|222:219|264:173,1,100,8|0,0:0|0:0,0:0:0:0:
388,43,58582,5,2,0:0:0:0:
372,210,58732,1,0,0:0:0:0:
291,38,58882,1,8,0:0:0:0:
270,261,59032,1,0,0:0:0:0:
145,42,59182,6,0,L|26:21,1,100,2|0,0:0|0:0,0:0:0:0:
93,293,59482,2,0,L|211:273,1,100,8|0,0:0|0:0,0:0:0:0:
372,210,59782,5,2,0:0:0:0:
100,130,59932,1,0,0:0:0:0:
368,75,60082,2,0,P|429:38|379:98,1,200
198,250,60382,5,0,0:0:0:0:
188,262,60682,1,0,0:0:0:0:
178,274,60982,1,0,0:0:0:0:
168,286,61282,1,0,0:0:0:0:
314,134,61582,5,0,0:0:0:0:
324,122,61882,1,0,0:0:0:0:
334,110,62182,1,0,0:0:0:0:
344,98,62482,1,0,0:0:0:0:
314,250,62782,5,0,0:0:0:0:
324,262,63082,1,0,0:0:0:0:
334,274,63382,1,0,0:0:0:0:
344,286,63682,1,0,0:0:0:0:
198,134,63982,5,0,0:0:0:0:
188,122,64282,1,0,0:0:0:0:
178,110,64582,1,0,0:0:0:0:
168,98,64882,5,0,0:0:0:0:
346,189,65032,1,0,0:0:0:0:
109,32,65182,2,0,P|56:49|49:163,1,179.999994506836
286,251,65482,5,0,0:0:0:0:
46,160,65632,1,0,0:0:0:0:
357,108,65782,2,0,B|365:96|378:85|378:85|391:90|403:102|403:102|415:89|428:88|428:88|440:97|436:111|436:111|451:115|461:120|461:120|463:132|452:149|452:149|465:150|476:156|476:156|464:172|450:185|450:185|463:194|462:214|462:214|443:215|435:231|435:231|422:237|410:235|400:232,1,330.000003147125
275,74,66082,5,0,0:0:0:0:
242,313,66232,1,0,0:0:0:0:
201,37,66382,5,0,0:0:0:0:
241,334,66532,1,0,0:0:0:0:
126,6,66682,5,8,0:1:0:0:
80,86,66757,5,8,0:1:0:0:
72,164,66832,5,8,0:1:0:0:
94,234,66907,5,8,0:1:0:0:
141,281,66982,5,8,0:3:0:0:
187,317,67057,1,8,0:3:0:0:
241,334,67132,1,8,0:3:0:0:
293,319,67207,1,8,0:3:0:0:
333,283,67282,1,2,0:0:0:0:
355,260,67357,1,2,0:0:0:0:
385,250,67432,1,2,0:0:0:0:
416,255,67507,1,2,0:0:0:0:
448,267,67582,5,14,0:0:0:0:
61,300,67732,1,0,0:0:0:0:
462,151,67882,5,10,0:0:0:0:
29,146,68032,1,0,0:0:0:0:
494,67,68182,5,10,0:0:0:0:
31,11,68332,1,0,0:0:0:0:
447,265,68482,2,0,B|446:291|426:281|426:281|422:305|405:292|405:292|400:315|382:296|382:296|374:317|357:296|357:296|349:313|334:294|334:294|322:305,1,175.00000166893,10|0,0:0|0:0,0:0:0:0:
45,133,68782,5,10,0:0:0:0:
404,188,68932,1,0,0:0:0:0:
0,366,69082,6,0,L|31:220,1,150.000005722046,10|0,0:0|0:0,0:0:0:0:
163,65,69382,2,0,L|197:212,1,150.000005722046,10|0,0:0|0:0,0:0:0:0:
327,361,69682,2,0,L|363:216,1,150.000005722046,10|0,0:0|0:0,0:0:0:0:
455,37,69982,5,14,0:0:0:0:
435,326,70132,1,0,0:0:0:0:
276,19,70282,5,10,0:0:0:0:
334,343,70432,1,0,0:0:0:0:
106,67,70582,5,10,0:0:0:0:
221,377,70732,1,0,0:0:0:0:
0,202,70882,6,0,B|28:203|36:224|36:224|44:242|60:231|69:237|60:256|83:247|81:270|94:251|114:259|114:259|113:290|117:259|144:267|134:281|134:281|132:281|142:287|142:287|160:283|160:299|162:313|174:305|187:319|218:312,1,259.999988098145,10|0,0:0|0:0,0:0:0:0:
435,326,71182,5,10,0:0:0:0:
276,19,71332,1,0,0:0:0:0:
99,232,71482,6,0,B|73:247|29:251|64:276|64:276|36:279|25:296|45:279|48:294|28:313|27:298|8:324|9:344|9:344|1:346|1:346|1:360|1:360|9:373|9:373|94:374,1,220.000006713867,10|0,0:0|0:0,0:0:0:0:
365,342,71782,2,0,B|393:335|436:348|422:317|422:317|439:319|456:307|432:309|441:295|459:290|453:304|469:301|469:301|481:287|475:282|475:282|489:269|489:269|474:266|474:266|484:250|468:225,1,220.000006713867,10|0,0:0|0:0,0:0:0:0:
434,43,72082,5,10,0:0:0:0:
78,156,72232,1,0,0:0:0:0:
415,342,72382,5,14,0:0:0:0:
199,4,72532,1,0,0:0:0:0:
43,340,72682,5,10,0:0:0:0:
479,166,72832,1,0,0:0:0:0:
113,83,72982,2,0,B|93:64|92:50|97:25|76:41|66:51|55:47|55:47|54:46|47:30|50:17|33:10|23:20|23:20|18:14|10:14|-6:14|-6:14|-21:24|-24:33|-24:33|-22:46|-17:79,1,220.000006713867,10|0,0:0|0:0,0:0:0:0:
493,54,73282,5,10,0:0:0:0:
13,267,73432,1,0,0:0:0:0:
404,364,73582,5,14,0:0:0:0:
158,0,73732,1,0,0:0:0:0:
17,355,73882,5,10,2:0:0:0:
400,6,74032,1,0,2:0:0:0:
0,276,74182,6,0,B|18:249|32:284|32:284|45:251|62:270|62:270|81:237|101:260|101:260|118:233|136:257|136:257|149:230|174:259|174:259|180:232,1,220.000006713867,10|0,0:0|0:0,0:0:0:0:
505,69,74482,2,0,B|471:74|463:62|463:62|455:68|449:52|429:58|416:71|416:71|397:58|399:84|372:75|344:66|344:66|321:97|300:64|272:94,1,220.000006713867,10|0,0:0|0:0,0:0:0:0:
119,362,74782,6,0,P|148:292|232:161,1,220.000006713867,6|0,0:0|0:0,0:0:0:0:
388,57,75082,1,8,0:1:0:0:
470,333,75232,6,0,B|421:331|402:335|396:311|396:311|376:310|368:289|334:274|312:291|312:248|275:248,1,220.000006713867,6|0,0:0|0:0,0:0:0:0:
62,114,75532,1,8,0:1:0:0:
468,52,75682,6,0,B|479:72|455:75|455:75|471:97|447:98|447:98|460:116|438:116|438:116|446:137|427:135|427:135|433:155|412:150|412:150|414:173|395:163|395:163|395:186|375:175|375:175|370:200|350:191|350:191|344:211|330:193|330:193|329:225,1,275.000002622604,6|0,0:0|0:0,0:0:0:0:
21,361,75982,1,8,0:1:0:0:
487,27,76132,5,6,0:0:0:0:
256,192,76207,12,0,79732,0:0:0:0:
256,192,79807,6,0,L|247:138,1,50,2|2,0:0|0:0,0:0:0:0:
210,241,79957,1,0,0:0:0:0:
269,257,80032,1,0,0:0:0:0:
