osu file format v14

[General]
AudioFilename: audio.mp3
AudioLeadIn: 0
PreviewTime: 27655
Countdown: 0
SampleSet: Normal
StackLeniency: 0.7
Mode: 0
LetterboxInBreaks: 0
WidescreenStoryboard: 1

[Editor]
Bookmarks: 60101
DistanceSpacing: 1
BeatDivisor: 2
GridSize: 8
TimelineZoom: 1.8

[Metadata]
Title:Tommy-Gun
TitleUnicode:Tommy-Gun
Artist:Royal Republic
ArtistUnicode:Royal Republic
Creator:SgtSharky
Version:Normal
Source:
Tags:Royal Republic Tommy-Gun
BeatmapID:1524463
BeatmapSetID:721217

[Difficulty]
HPDrainRate:3.5
CircleSize:3.5
OverallDifficulty:4
ApproachRate:4
SliderMultiplier:1
SliderTickRate:2

[Events]
//Background and Video events
0,0,"royal-republic_11.jpg",0,0
//Break Periods
2,40996,44544
2,107482,112652
//Storyboard Layer 0 (Background)
//Storyboard Layer 1 (Fail)
//Storyboard Layer 2 (Pass)
//Storyboard Layer 3 (Foreground)
//Storyboard Sound Samples

[TimingPoints]
252,-100,4,1,0,100,0,0
256,405.405405405405,4,1,0,100,1,0
27823,-100,4,1,0,100,0,1
40796,-100,4,1,0,100,0,0
47094,-100,4,1,0,100,0,0
61877,-100,4,1,0,100,0,1
81337,-100,4,1,0,100,0,0
94310,-100,4,1,0,100,0,1
107283,-100,4,1,0,100,0,0
128364,-100,4,1,0,100,0,1
149445,-100,4,1,0,100,0,0

[HitObjects]
160,88,256,6,0,L|203:118,3,50
320,80,1066,2,0,L|360:128,1,50
352,208,1472,2,0,L|304:240,1,50
188,281,1877,6,0,L|144:304,3,50
224,184,2688,2,0,L|240:128,1,50
144,96,3093,2,0,L|72:112,1,50
72,224,3499,6,0,L|96:272,1,50
200,312,3904,2,0,L|272:312,1,50
360,296,4310,2,0,L|408:264,3,50
424,168,5120,6,0,L|416:112,1,50
320,80,5526,2,0,L|264:64,1,50
176,112,5931,1,0,0:0:0:0:
224,208,6134,2,0,L|312:280,1,100
384,304,6742,1,0,0:0:0:0:
432,224,6945,6,0,P|416:96|248:64,1,300
80,160,8566,6,0,P|96:288|208:328,1,250
368,336,10188,6,0,L|408:304,7,50
432,192,12012,1,0,0:0:0:0:
392,80,12418,2,0,B|312:160|256:-8|200:96,1,200
88,88,13634,5,0,0:0:0:0:
88,216,14039,1,0,0:0:0:0:
120,328,14445,1,0,0:0:0:0:
240,192,14850,1,0,0:0:0:0:
296,328,15255,5,0,0:0:0:0:
416,288,15661,1,0,0:0:0:0:
448,152,16066,2,0,P|464:120|416:88,1,100
296,128,16878,5,0,0:0:0:0:
208,216,17283,1,0,0:0:0:0:
128,112,17688,2,0,P|176:56|200:56,1,100
344,72,20120,5,0,0:0:0:0:
432,168,20526,1,0,0:0:0:0:
344,272,20931,1,0,0:0:0:0:
136,312,21539,6,0,B|32:200|104:224|384:216|-136:112|160:64,1,350
224,56,23364,5,0,0:0:0:0:
328,56,23769,1,0,0:0:0:0:
432,56,24174,1,0,0:0:0:0:
432,168,24580,5,0,0:0:0:0:
336,288,24985,2,0,L|304:248,2,50
248,176,25796,2,0,L|184:96,1,100
64,168,26607,2,0,B|96:240|160:224|184:336,1,200
256,304,27823,5,0,0:0:0:0:
256,192,28228,1,0,0:0:0:0:
256,80,28634,1,0,0:0:0:0:
368,48,29039,1,0,0:0:0:0:
416,144,29445,6,0,P|408:200|365:252,1,100
304,288,30255,2,0,P|256:304|184:288,1,100
120,256,31066,2,0,P|92:213|88:140,1,100
120,48,31877,2,0,P|170:53|228:98,1,100
256,192,32688,5,0,0:0:0:0:
256,192,33093,1,0,0:0:0:0:
384,192,33499,2,0,P|416:144|392:104,1,100
296,80,34310,6,0,L|232:64,7,50
152,80,35931,6,0,P|104:96|88:152,1,100
136,240,36742,2,0,L|208:312,1,100
360,304,37553,2,0,P|408:288|424:232,1,100
392,144,38364,2,0,P|352:103|280:48,1,100
184,40,39174,1,0,0:0:0:0:
112,144,39580,5,0,0:0:0:0:
120,232,39985,2,0,P|168:296|224:312,1,100
368,304,40796,1,0,0:0:0:0:
280,251,45864,6,0,P|318:197|242:245,1,250
263,200,47283,5,0,0:0:0:0:
368,144,47688,1,0,0:0:0:0:
336,56,48093,1,0,0:0:0:0:
224,56,48499,2,0,L|120:88,1,100
120,208,49310,5,0,0:0:0:0:
208,280,49715,1,0,0:0:0:0:
320,248,50120,2,0,L|400:184,1,100
392,64,50931,5,0,0:0:0:0:
272,64,51337,1,0,0:0:0:0:
248,168,51742,2,0,L|248:272,1,100
176,328,52553,5,0,0:0:0:0:
64,288,52958,2,0,B|184:224|0:192|112:128,1,200
208,72,54174,5,0,0:0:0:0:
320,64,54580,1,0,0:0:0:0:
384,136,54985,2,0,P|376:200|344:232,1,100
272,296,55796,5,0,0:0:0:0:
160,272,56201,1,0,0:0:0:0:
224,192,56607,2,0,L|328:192,1,100
400,304,57418,5,0,0:0:0:0:
296,240,57823,1,0,0:0:0:0:
432,184,58228,1,0,0:0:0:0:
416,80,58634,2,0,P|368:48|312:48,1,100
224,72,59445,5,0,0:0:0:0:
312,152,59850,1,0,0:0:0:0:
248,256,60255,1,0,0:0:0:0:
128,304,60661,1,0,0:0:0:0:
72,208,61066,2,0,L|80:136,1,50
128,56,61472,1,0,0:0:0:0:
256,80,61877,5,0,0:0:0:0:
256,192,62282,1,0,0:0:0:0:
256,304,62688,1,0,0:0:0:0:
368,336,63093,1,0,0:0:0:0:
440,224,63499,6,0,L|401:131,1,100
304,96,64309,2,0,L|204:96,1,100
112,135,65120,2,0,P|75:167|79:215,1,100
151,303,65931,2,0,P|187:335|232:318,1,100
256,192,66742,5,0,0:0:0:0:
256,192,67147,1,0,0:0:0:0:
384,192,67553,2,0,P|415:228|400:273,1,100
296,304,68364,6,0,L|247:316,7,50
152,303,69985,6,0,P|105:289|86:245,1,100
136,144,70796,2,0,L|206:73,1,100
359,80,71607,6,0,P|406:94|425:138,1,100
391,240,72418,2,0,P|316:304|222:335,1,200
112,240,73634,5,0,0:0:0:0:
120,151,74039,2,0,P|183:77|240:72,1,150
312,56,74850,1,0,0:0:0:0:
432,104,75255,5,0,0:0:0:0:
344,192,75661,1,0,0:0:0:0:
432,280,76066,1,0,0:0:0:0:
312,320,76472,2,0,L|200:312,1,100
112,288,77283,2,0,P|88:240|120:208,1,100
208,168,78093,5,0,0:0:0:0:
328,160,78499,1,0,0:0:0:0:
432,120,78904,2,0,P|448:72|400:56,1,100
280,48,79715,6,0,L|176:48,1,100
120,136,80526,2,0,P|104:160|216:224,1,200
304,160,81742,5,0,0:0:0:0:
224,56,82147,1,0,0:0:0:0:
104,104,82553,1,0,0:0:0:0:
128,240,82958,5,0,0:0:0:0:
200,160,83364,1,0,0:0:0:0:
280,232,83769,2,0,P|368:312|408:272,1,200
424,176,84985,5,0,0:0:0:0:
376,48,85391,1,0,0:0:0:0:
280,128,85796,1,0,0:0:0:0:
272,264,86201,5,0,0:0:0:0:
160,304,86607,1,0,0:0:0:0:
112,192,87012,2,0,P|104:136|152:80,1,100
248,64,87823,6,0,L|320:64,8,50
272,184,89850,5,0,0:0:0:0:
336,104,90255,2,0,P|368:56|424:144,1,200
368,256,91472,5,0,0:0:0:0:
368,344,91877,1,0,0:0:0:0:
280,344,92283,1,0,0:0:0:0:
280,256,92688,5,0,0:0:0:0:
216,152,93195,2,0,L|152:96,1,75
80,144,93701,2,0,P|72:208|96:256,1,100
120,328,94310,5,0,0:0:0:0:
224,304,94715,1,0,0:0:0:0:
296,216,95120,1,0,0:0:0:0:
368,304,95526,1,0,0:0:0:0:
416,224,95931,6,0,P|464:184|448:144,1,100
368,64,96742,2,0,L|256:64,1,100
152,72,97553,6,0,P|96:104|88:136,1,100
87,249,98364,2,0,P|106:294|152:312,1,100
256,312,99174,1,0,0:0:0:0:
328,232,99580,1,0,0:0:0:0:
400,144,99985,2,0,B|416:88|376:32|304:48,1,150
248,48,100796,5,0,0:0:0:0:
128,64,101201,1,0,0:0:0:0:
232,144,101607,1,0,0:0:0:0:
128,240,102012,1,0,0:0:0:0:
240,304,102418,6,0,L|344:304,1,100
432,240,103228,1,0,0:0:0:0:
336,184,103634,1,0,0:0:0:0:
224,184,104039,6,0,L|112:184,1,100
88,80,104850,1,0,0:0:0:0:
208,48,105255,1,0,0:0:0:0:
320,80,105661,5,0,0:0:0:0:
424,192,106066,2,0,B|312:336|264:144|136:296,1,300
216,152,113972,6,0,L|176:104,7,50
304,168,115796,5,0,0:0:0:0:
360,72,116202,1,0,0:0:0:0:
432,160,116607,2,0,P|440:232|400:264,1,100
344,312,117418,6,0,P|302:317|240:288,1,100
160,240,118228,2,0,P|121:206|104:152,1,100
200,152,120661,6,0,L|200:48,1,100
304,52,121472,2,0,L|304:152,1,100
304,232,122283,6,0,L|304:332,1,100
200,332,123093,2,0,L|200:232,1,100
200,96,123904,5,0,0:0:0:0:
256,192,124310,1,0,0:0:0:0:
312,96,124715,1,0,0:0:0:0:
256,192,125120,2,0,L|256:304,1,100
256,292,126337,6,0,P|188:280|294:68,1,400
244,175,128364,5,0,0:0:0:0:
328,176,128769,1,0,0:0:0:0:
160,176,129174,1,0,0:0:0:0:
248,88,129580,1,0,0:0:0:0:
384,56,129985,6,0,P|432:88|448:128,1,100
447,258,130796,2,0,P|426:302|384:328,1,100
256,320,131607,5,0,0:0:0:0:
136,320,132012,1,0,0:0:0:0:
128,224,132418,2,0,L|128:120,1,100
232,48,133228,1,0,0:0:0:0:
352,93,133634,6,0,P|412:176|302:304,1,250
264,224,134850,1,0,0:0:0:0:
200,320,135255,5,0,0:0:0:0:
80,320,135661,1,0,0:0:0:0:
80,208,136066,1,0,0:0:0:0:
200,232,136472,6,0,L|312:232,1,100
296,144,137283,2,0,L|196:144,1,100
192,56,138093,6,0,L|292:56,1,100
368,104,138904,2,0,L|368:216,1,100
368,304,139715,1,0,0:0:0:0:
224,320,140120,6,0,P|127:220|176:96,1,250
208,40,141337,1,0,0:0:0:0:
304,56,141742,5,0,0:0:0:0:
408,56,142147,1,0,0:0:0:0:
408,144,142553,1,0,0:0:0:0:
304,144,142958,6,0,L|184:144,1,100
204,232,143769,2,0,L|304:232,1,100
400,232,144580,5,0,0:0:0:0:
400,328,144985,1,0,0:0:0:0:
304,328,145391,2,0,L|192:328,1,100
80,264,146201,6,0,L|80:152,1,100
168,80,147012,2,0,P|224:56|153:291,1,600
256,192,149850,5,0,0:0:0:0:
171,126,150255,2,0,P|264:84|343:129,1,200
