osu file format v14

[General]
AudioFilename: coco.mp3
AudioLeadIn: 0
PreviewTime: 53011
Countdown: 0
SampleSet: Normal
StackLeniency: 0.7
Mode: 0
LetterboxInBreaks: 1
WidescreenStoryboard: 0

[Editor]
Bookmarks: 14188,14409,16835,17056,17717,17938,21247,21467,22129,22350,23011,23232,23894,24114,24776,24997,26541,26761,28306,28526,30953,31173,31835,32056,33600,33820,35364,35585,36247,36467,37129,37350,38011,38232,38894,39114,40659,40879,43747,43967,44188,44409,44629,44850,45070,47276,47497,47717,47938,48159,48379,48600,49482,49703,51247,51467,52570
DistanceSpacing: 2
BeatDivisor: 2
GridSize: 4
TimelineZoom: 0.7

[Metadata]
Title:Addictive
TitleUnicode:Addictive
Artist:Royal Republic
ArtistUnicode:Royal Republic
Creator:Ringating
Version:coocoo for cocoa
Source:
Tags:Hyouka cocaine
BeatmapID:936172
BeatmapSetID:434481

[Difficulty]
HPDrainRate:4
CircleSize:3
OverallDifficulty:7
ApproachRate:8.5
SliderMultiplier:1.4
SliderTickRate:1

[Events]
//Background and Video events
Video,0,"hardrugs.avi"
0,0,"hyoukaine.png",0,0
//Break Periods
//Storyboard Layer 0 (Background)
//Storyboard Layer 1 (Fail)
//Storyboard Layer 2 (Pass)
//Storyboard Layer 3 (Foreground)
//Storyboard Sound Samples

[TimingPoints]
512,441.176470588235,4,1,0,50,1,0
53453,-100,4,1,0,50,0,0
56982,-100,4,1,0,50,0,1
70217,-100,4,1,0,50,0,0
85217,-100,4,1,0,50,0,1
97570,-100,4,1,0,50,0,0
99335,-100,4,1,0,50,0,1

[Colours]
Combo1 : 255,0,255
Combo2 : 255,0,0
Combo3 : 255,255,0
Combo4 : 0,255,0
Combo5 : 0,255,255

[HitObjects]
103,75,14188,5,0,0:0:0:0:
103,75,14409,1,0,0:0:0:0:
103,75,14629,2,0,P|136:89|196:92,1,70
388,138,15070,2,0,P|402:176|408:233,1,70
153,307,15511,2,0,P|111:298|65:273,1,70
22,60,15953,2,0,L|122:50,1,70
276,183,16394,6,0,L|176:193,1,70
63,334,16835,1,0,0:0:0:0:
253,274,17056,1,0,0:0:0:0:
78,103,17276,2,0,P|41:121|20:155,1,70
242,283,17717,1,0,0:0:0:0:
267,107,17938,1,0,0:0:0:0:
100,183,18159,6,0,L|87:262,1,70
250,266,18600,2,0,L|267:345,1,70
433,294,19041,2,0,L|488:366,1,70
468,140,19482,2,0,B|468:97|468:97|459:51,7,70
232,47,21247,1,0,0:0:0:0:
355,167,21467,1,0,0:0:0:0:
185,219,21688,6,0,L|83:232,1,70
19,59,22129,1,0,0:0:0:0:
173,130,22350,1,0,0:0:0:0:
58,289,22570,2,0,P|54:336|62:372,1,70
273,353,23011,1,0,0:0:0:0:
134,244,23232,1,0,0:0:0:0:
313,248,23453,6,0,L|390:228,1,70
469,90,23894,1,0,0:0:0:0:
491,271,24114,1,0,0:0:0:0:
356,131,24335,2,0,L|334:54,1,70
139,27,24776,1,0,0:0:0:0:
254,154,24997,1,0,0:0:0:0:
91,186,25217,6,0,P|78:247|79:277,1,70
235,339,25659,2,0,L|310:344,1,70
450,212,26100,2,0,L|456:138,1,70
284,29,26541,1,0,0:0:0:0:
315,207,26761,1,0,0:0:0:0:
191,90,26982,6,0,P|156:86|122:96,5,70
53,252,28306,1,0,0:0:0:0:
231,213,28526,1,0,0:0:0:0:
22,141,28747,6,0,P|15:106|16:68,1,70
144,228,29188,2,0,P|151:263|150:301,1,70
340,344,29629,2,0,P|400:336|432:320,1,70
284,168,30070,2,0,P|260:223|258:259,1,70
468,216,30511,6,0,P|431:168|401:148,1,70
340,344,30953,1,0,0:0:0:0:
284,168,31173,1,0,0:0:0:0:
188,346,31394,2,0,L|97:369,1,70
2,218,31835,1,0,0:0:0:0:
177,225,32056,1,0,0:0:0:0:
12,113,32276,6,0,L|22:33,1,70
200,113,32717,2,0,L|208:182,1,70
369,33,33159,2,0,L|445:43,1,70
511,217,33600,1,0,0:0:0:0:
316,180,33820,1,0,0:0:0:0:
472,310,34041,6,0,P|470:344|459:386,5,70
233,374,35364,1,0,0:0:0:0:
393,273,35585,1,0,0:0:0:0:
208,246,35806,6,0,L|106:273,1,70
2,124,36247,1,0,0:0:0:0:
183,96,36467,1,0,0:0:0:0:
45,223,36688,2,0,L|37:300,1,70
240,380,37129,1,0,0:0:0:0:
135,222,37350,1,0,0:0:0:0:
297,298,37570,6,0,L|378:285,1,70
482,94,38011,1,0,0:0:0:0:
319,202,38232,1,0,0:0:0:0:
308,6,38453,2,0,P|273:0|218:11,1,70
81,164,38894,1,0,0:0:0:0:
273,89,39114,1,0,0:0:0:0:
141,229,39335,6,0,L|132:316,1,70
303,371,39776,2,0,L|390:377,1,70
454,221,40217,2,0,L|464:131,1,70
280,0,40659,1,0,0:0:0:0:
377,168,40879,1,0,0:0:0:0:
185,161,41100,6,0,L|108:186,5,70
29,333,42423,2,0,P|55:351|113:363,1,70
252,283,42864,6,0,L|330:288,1,70
466,194,43306,2,0,P|478:143|476:102,1,70
248,28,43747,1,0,0:0:0:0:
338,177,43967,1,0,0:0:0:0:
157,57,44188,1,0,0:0:0:0:
308,92,44409,1,0,0:0:0:0:
110,186,44629,5,0,0:0:0:0:
75,27,44850,1,0,0:0:0:0:
218,187,45070,1,0,0:0:0:0:
22,199,45291,2,0,P|25:160|50:116,2,70
239,243,45953,2,0,L|309:196,1,70
156,259,46394,6,0,L|161:343,1,70
183,180,46835,2,0,L|107:142,1,70
23,373,47276,1,0,0:0:0:0:
175,380,47497,1,0,0:0:0:0:
28,201,47717,1,0,0:0:0:0:
97,312,47938,1,0,0:0:0:0:
185,108,48159,5,0,0:0:0:0:
49,112,48379,1,0,0:0:0:0:
215,258,48600,1,0,0:0:0:0:
292,135,48820,2,0,L|273:45,2,70
255,339,49482,1,0,0:0:0:0:
132,240,49703,1,0,0:0:0:0:
350,251,49923,6,0,L|424:236,1,70
319,98,50364,2,0,L|294:169,1,70
463,149,50806,2,0,L|413:92,1,70
207,184,51247,1,0,0:0:0:0:
367,248,51467,1,0,0:0:0:0:
159,286,51688,6,0,P|107:275|77:257,1,70
234,167,52129,2,0,P|286:178|316:196,1,70
181,375,52570,1,0,0:0:0:0:
