osu file format v14

[General]
AudioFilename: audio.mp3
AudioLeadIn: 0
PreviewTime: 32522
Countdown: 0
SampleSet: None
StackLeniency: 0.7
Mode: 0
LetterboxInBreaks: 0
WidescreenStoryboard: 0

[Editor]
Bookmarks: 66472,81567
DistanceSpacing: 1.3
BeatDivisor: 4
GridSize: 16
TimelineZoom: 4.300004

[Metadata]
Title:Out of the black (Short ver.)
TitleUnicode:Out of the black (Short ver.)
Artist:Royal Blood
ArtistUnicode:Royal Blood
Creator:Rdzeniu
Version:Extra
Source:
Tags:
BeatmapID:1571805
BeatmapSetID:745601

[Difficulty]
HPDrainRate:7
CircleSize:4
OverallDifficulty:8.8
ApproachRate:9.2
SliderMultiplier:1.8
SliderTickRate:1

[Events]
//Background and Video events
0,0,"bgrb.jpg",0,0
//Break Periods
2,75540,80997
//Storyboard Layer 0 (Background)
//Storyboard Layer 1 (Fail)
//Storyboard Layer 2 (Pass)
//Storyboard Layer 3 (Foreground)
//Storyboard Sound Samples

[TimingPoints]
-1454,377.358490566038,4,3,2,70,1,0
12130,-83.3333333333333,4,3,2,70,0,0
14017,-200,4,3,0,70,0,0
15904,-200,4,3,2,70,0,0
20621,-153.846153846154,4,3,2,70,0,0
23829,-66.6666666666667,4,3,2,70,0,0
24206,-80,4,3,2,70,0,0
24961,-90.9090909090909,4,3,2,70,0,0
25149,-86.9565217391304,4,3,2,70,0,0
25338,-83.3333333333333,4,3,2,70,0,0
25527,-76.9230769230769,4,3,2,70,0,0
25715,-80,4,3,2,70,0,0
26470,-90.0900900900901,4,3,2,70,0,0
26659,-86.2068965517241,4,3,2,70,0,0
26847,-82.6446280991736,4,3,2,70,0,0
27036,-76.3358778625954,4,3,2,70,0,0
27225,-80,4,3,2,70,0,0
27979,-89.2857142857143,4,3,2,70,0,0
28168,-85.4700854700855,4,3,2,70,0,0
28357,-81.9672131147541,4,3,2,70,0,0
28546,-75.7575757575758,4,3,2,70,0,0
28734,-80,4,3,2,70,0,0
30247,377.358490566038,4,3,2,70,1,0
31190,-66.6666666666667,4,3,2,70,0,0
31756,-80,4,3,2,70,0,0
32652,377.358490566038,4,3,2,70,1,0
32652,-80,4,3,2,40,0,0
33077,-80,4,3,2,70,0,0
33265,377.358490566038,4,3,2,70,1,0
33265,-71.4285714285714,4,3,2,70,0,0
36850,-83.3333333333333,4,3,2,70,0,0
37227,-71.4285714285714,4,3,2,70,0,0
37981,-83.3333333333333,4,3,2,70,0,0
38170,-71.4285714285714,4,3,2,70,0,0
38548,-66.6666666666667,4,3,2,70,0,0
40057,-76.9230769230769,4,3,2,70,0,0
40246,-66.6666666666667,4,3,2,70,0,0
42321,-76.9230769230769,4,3,2,70,0,0
43214,377.358490566038,4,3,2,70,1,0
43214,-76.9230769230769,4,3,2,70,0,0
43454,377.358490566038,4,3,2,70,1,0
43454,-76.9230769230769,4,3,2,70,0,0
48737,-74.0740740740741,4,3,2,70,0,0
65718,-71.4285714285714,4,3,2,70,0,0
72511,-74.0740740740741,4,3,2,70,0,0
81567,-100,4,3,3,45,0,0
85341,-100,4,3,3,30,0,0
85530,-100,4,3,3,35,0,0
85718,-100,4,3,3,40,0,0
85907,-100,4,3,3,45,0,0
86096,-100,4,3,3,50,0,0
86284,-100,4,3,3,55,0,0
86473,-100,4,3,3,60,0,0
86662,-100,4,3,3,65,0,0
86850,-100,4,3,3,70,0,0
87604,-71.4285714285714,4,3,2,50,0,0
87793,-71.4285714285714,4,3,2,70,0,0
91378,-66.6666666666667,4,3,2,70,0,0
96378,-66.6666666666667,4,3,2,40,0,0
96661,-66.6666666666667,4,3,2,70,0,0
107604,-66.6666666666667,4,3,2,40,0,0
107793,-66.6666666666667,4,3,2,45,0,0
107982,-66.6666666666667,4,3,2,50,0,0
108170,-66.6666666666667,4,3,2,55,0,0
108359,-66.6666666666667,4,3,2,60,0,0
108548,-66.6666666666667,4,3,2,65,0,0
108737,-153.846153846154,4,3,2,70,0,0
111189,-90.9090909090909,4,3,2,70,0,0

[Colours]
Combo1 : 147,111,0
Combo2 : 0,111,0
Combo3 : 0,72,159
Combo4 : 129,7,26

[HitObjects]
153,123,55,5,2,0:0:0:0:
315,250,810,5,8,0:0:0:0:
330,138,998,1,8,0:0:0:0:
236,277,1187,1,8,0:0:0:0:
413,127,1376,1,8,0:0:0:0:
192,53,1564,1,8,0:0:0:0:
241,284,1753,1,8,0:0:0:0:
52,80,1942,1,2,0:0:0:0:
88,63,2319,5,8,0:0:0:0:
22,290,2508,1,2,0:0:0:0:
22,290,3074,5,2,0:0:0:0:
192,354,3829,5,8,0:0:0:0:
85,227,4017,1,8,0:0:0:0:
272,332,4206,1,8,0:0:0:0:
110,301,4395,1,8,0:0:0:0:
219,151,4583,1,8,0:0:0:0:
318,270,4772,1,8,0:0:0:0:
65,181,4961,1,2,0:0:0:0:
65,181,5338,5,8,0:0:0:0:
277,210,5527,1,8,0:0:0:0:
181,91,5715,1,8,0:0:0:0:
143,241,5904,1,8,0:0:0:0:
323,66,6093,1,2,0:0:0:0:
172,64,6847,5,8,0:0:0:0:
282,226,7036,1,8,0:0:0:0:
372,63,7225,1,8,0:0:0:0:
153,76,7413,1,8,0:0:0:0:
293,238,7602,1,8,0:0:0:0:
363,44,7791,1,8,0:0:0:0:
448,249,7979,1,2,0:0:0:0:
448,249,8357,5,8,0:0:0:0:
244,143,8546,1,2,0:0:0:0:
244,143,9112,5,2,0:0:0:0:
83,207,9866,5,8,0:0:0:0:
162,66,10055,1,8,0:0:0:0:
237,217,10244,1,8,0:0:0:0:
53,235,10432,1,8,0:0:0:0:
187,31,10621,1,8,0:0:0:0:
262,250,10810,1,8,0:0:0:0:
62,86,10998,1,2,0:0:0:0:
62,86,11376,5,8,0:0:0:0:
345,141,11564,1,8,0:0:0:0:
202,295,11753,1,8,0:0:0:0:
229,25,11942,1,8,0:0:0:0:
353,257,12130,2,0,B|313:328|313:328|321:234|308:166|308:166|275:187|253:239,1,323.999990112305
217,129,12885,5,8,0:0:0:0:
408,38,13074,1,8,0:0:0:0:
315,258,13262,1,8,0:0:0:0:
255,33,13451,1,8,0:0:0:0:
437,179,13640,1,8,0:0:0:0:
212,169,13829,1,8,0:0:0:0:
437,179,14017,2,0,B|425:204|425:204|406:230,1,45
309,260,14395,5,8,0:0:0:0:
487,105,14583,2,0,B|472:135|472:135|454:153|454:153|434:186,1,90
492,24,15149,2,0,B|469:65|469:65|442:89|442:89|408:147,1,135
408,149,15904,5,8,0:0:0:0:
235,14,16093,1,8,0:0:0:0:
301,233,16281,1,8,0:0:0:0:
127,66,16470,1,8,0:0:0:0:
350,44,16659,1,8,0:0:0:0:
174,179,16847,1,8,0:0:0:0:
447,305,17036,2,0,L|393:277,1,45
255,347,17413,5,8,0:0:0:0:
236,128,17602,1,8,0:0:0:0:
136,251,17791,1,8,0:0:0:0:
372,195,17979,1,8,0:0:0:0:
409,366,18168,2,0,B|376:330|376:330|366:304|366:304|322:259,1,135
289,327,18923,5,8,0:0:0:0:
389,130,19112,1,8,0:0:0:0:
183,142,19300,1,8,0:0:0:0:
395,244,19489,1,8,0:0:0:0:
288,67,19678,1,8,0:0:0:0:
182,258,19866,1,8,0:0:0:0:
81,53,20055,1,8,0:0:0:0:
81,53,20432,5,12,0:0:0:0:
52,312,20621,2,0,B|44:337|44:337|95:348|134:314,1,116.999994644165
57,94,21187,2,0,B|29:61|29:61|2:129|56:196,1,175.499991966248
195,38,21942,5,8,0:0:0:0:
252,284,22130,1,8,0:0:0:0:
57,94,22319,1,8,0:0:0:0:
341,193,22508,1,8,0:0:0:0:
69,234,22696,1,8,0:0:0:0:
307,77,22885,1,8,0:0:0:0:
204,291,23074,2,0,L|215:229,1,58.4999973220826,4|0,0:0|0:0,0:0:0:0:
72,353,23451,5,8,0:0:0:0:
344,279,23640,1,8,0:0:0:0:
159,112,23829,2,0,P|99:137|104:206,1,135.000005149842,8|0,0:0|0:0,0:0:0:0:
344,279,24206,6,0,B|347:241|347:241|248:276,1,112.5
479,222,24583,1,2,0:0:0:0:
420,32,24772,1,0,0:0:0:0:
275,160,24961,2,0,B|277:192|277:192|276:234,1,49.5000015106202,4|0,0:0|0:0,0:0:0:0:
221,355,25149,2,0,B|223:325|223:325|219:278,1,51.7500009870529
147,134,25338,2,0,B|152:168|152:168|150:219,1,53.9999983520508,2|0,0:0|0:0,0:0:0:0:
94,370,25527,2,0,B|88:336|88:336|89:297,1,58.4999973220826
19,134,25715,6,0,B|29:157|29:157|62:128|64:71,1,112.5
298,301,26093,2,0,P|279:249|229:224,1,112.5,2|0,0:0|0:0,0:0:0:0:
19,134,26470,2,0,L|80:99,1,49.9500012194825,4|0,0:0|0:0,0:0:0:0:
323,126,26659,2,0,L|259:89,1,52.2000015930176
25,53,26847,2,0,L|87:17,1,54.4499984629441,2|0,0:0|0:0,0:0:0:0:
330,49,27036,2,0,L|277:17,1,58.9500010794068
446,106,27225,6,0,B|477:130|477:130|440:150|429:215,1,112.5
440,354,27602,1,2,0:0:0:0:
435,187,27791,1,0,0:0:0:0:
246,320,27979,2,0,B|227:355|227:355|202:341,1,50.4000006152344,4|0,0:0|0:0,0:0:0:0:
161,243,28168,2,0,B|180:206|180:206|192:215,1,52.6500002008438
86,317,28357,2,0,B|67:353|67:353|51:344,1,54.8999977381898,2|0,0:0|0:0,0:0:0:0:
34,201,28546,2,0,B|52:162|52:162|70:173,1,59.3999998187256
91,240,28734,5,4,0:0:0:0:
208,59,28923,1,4,0:0:0:0:
276,237,29112,1,4,0:0:0:0:
399,24,29300,1,4,0:0:0:0:
497,243,29489,2,0,P|469:244|445:258,1,56.25
365,65,29678,2,0,P|375:40|398:24,1,56.25
203,134,29866,2,0,P|183:155|177:182,1,56.25
43,70,30055,2,0,P|33:44|37:17,1,56.25
178,181,30247,5,0,0:0:0:0:
298,81,30435,1,0,0:0:0:0:
123,32,30624,1,2,0:0:0:0:
112,216,30813,1,0,0:0:0:0:
142,247,30907,1,0,0:0:0:0:
186,255,31001,1,4,0:0:0:0:
387,69,31190,2,0,B|291:45|291:45|300:98,1,135.000005149842,0|2,0:0|0:0,0:0:0:0:
417,277,31567,2,0,B|453:287|453:287|507:272,1,67.5000025749208
440,166,31756,6,0,L|412:300,1,112.5
245,358,32133,1,2,0:0:0:0:
400,365,32322,1,0,0:0:0:0:
119,249,32511,1,4,0:0:0:0:
258,108,32652,1,0,0:0:0:0:
296,138,32746,1,0,0:0:0:0:
325,182,32840,1,0,0:0:0:0:
157,336,33029,1,0,0:0:0:0:
399,364,33265,6,0,B|395:320|395:320|402:293|402:293|384:221,1,125.999996154785
361,24,33642,2,0,L|338:105,1,62.9999980773926
274,253,33831,2,0,B|250:215|250:215|231:258|169:263,1,125.999996154785,0|4,0:0|0:0,0:0:0:0:
18,177,34208,2,0,L|95:198,1,62.9999980773926
145,206,34397,1,0,0:0:0:0:
27,354,34585,1,0,0:0:0:0:
202,350,34774,6,0,L|263:298,1,62.9999980773926,8|0,0:0|0:0,0:0:0:0:
321,251,34963,2,0,L|269:186,1,62.9999980773926
218,126,35151,2,0,L|157:178,1,62.9999980773926
142,271,35340,2,0,L|90:206,1,62.9999980773926
44,147,35529,1,4,0:0:0:0:
199,58,35717,1,4,0:0:0:0:
214,240,35906,1,4,0:0:0:0:
18,18,36095,1,4,0:0:0:0:
395,19,36283,1,4,0:0:0:0:
137,249,36472,5,0,0:0:0:0:
103,284,36566,1,0,0:0:0:0:
68,319,36661,1,2,0:0:0:0:
288,256,36849,2,0,P|292:319|345:354,1,125.999996154785,0|4,0:0|0:0,0:0:0:0:
427,200,37227,2,0,B|384:160|384:160|352:192,1,62.9999980773926
456,315,37415,2,0,B|484:330|484:330|489:226,1,125.999996154785,2|0,0:0|0:0,0:0:0:0:
449,49,37793,1,0,0:0:0:0:
298,171,37981,2,0,B|321:145|321:145|268:133|247:178,1,107.999996704102,0|2,0:0|0:0,0:0:0:0:
333,338,38359,1,0,0:0:0:0:
191,212,38548,6,0,B|176:247|176:247|177:279|177:279|161:307|161:307|151:374,1,135.000005149842,4|0,0:0|0:0,0:0:0:0:
115,353,38831,1,0,0:0:0:0:
72,367,38925,2,0,B|41:376|41:376|16:335|27:253,1,135.000005149842
36,77,39302,1,0,0:0:0:0:
191,212,39491,1,0,0:0:0:0:
183,35,39680,2,0,B|218:81|218:81|224:106|224:106|261:154,1,135.000005149842
297,169,39963,1,0,0:0:0:0:
348,178,40057,2,0,P|372:239|356:299,1,116.999994644165,8|0,0:0|0:0,0:0:0:0:
113,175,40434,6,0,P|197:191|208:270,1,135.000005149842
20,354,40812,2,0,B|28:308|28:308|45:274|45:274|46:219,1,135.000005149842,0|8,0:0|0:0,0:0:0:0:
45,181,41095,1,0,0:0:0:0:
76,142,41189,2,0,B|127:135|127:135|49:62,1,135.000005149842
266,225,41566,1,4,0:0:0:0:
276,22,41755,1,4,0:0:0:0:
52,223,41944,1,4,0:0:0:0:
473,227,42132,1,4,0:0:0:0:
159,140,42321,6,0,B|146:186|146:186|151:211|151:211|138:283,1,116.999994644165
404,355,42698,1,2,0:0:0:0:
438,319,42793,1,0,0:0:0:0:
456,272,42887,1,0,0:0:0:0:
394,33,43076,1,8,0:0:0:0:
84,57,43214,2,0,L|206:73,1,116.999994644165
240,75,43454,2,0,L|257:148,1,58.4999973220826,2|0,0:0|0:0,0:0:0:0:
174,335,43642,2,0,L|226:272,1,58.4999973220826
426,228,43831,6,0,L|337:221,1,58.4999973220826
272,220,44020,1,0,0:0:0:0:
381,341,44209,1,2,0:0:0:0:
174,335,44398,1,0,0:0:0:0:
278,103,44586,1,10,0:0:0:0:
289,272,44774,5,0,0:0:0:0:
383,73,44963,2,0,P|326:70|278:102,1,116.999994644165
171,275,45340,1,0,0:0:0:0:
400,336,45529,1,0,0:0:0:0:
401,183,45717,1,0,0:0:0:0:
401,143,45812,1,0,0:0:0:0:
401,102,45906,1,0,0:0:0:0:
251,223,46095,2,0,P|184:169|172:122,1,116.999994644165,4|0,0:0|0:0,0:0:0:0:
403,29,46472,5,0,0:0:0:0:
258,289,46661,1,0,0:0:0:0:
123,29,46849,1,8,0:0:0:0:
127,255,47038,5,8,0:0:0:0:
105,288,47132,1,8,0:0:0:0:
84,323,47227,1,8,0:0:0:0:
260,38,47415,1,0,0:0:0:0:
412,268,47604,1,4,0:0:0:0:
184,82,47794,1,4,0:0:0:0:
246,349,47982,1,4,0:0:0:0:
432,191,48171,1,4,0:0:0:0:
120,134,48360,1,0,0:0:0:0:
331,349,48549,1,0,0:0:0:0:
369,356,48643,1,0,0:0:0:0:
405,356,48737,6,0,P|451:324|459:261,1,121.500000463486,2|0,0:0|0:0,0:0:0:0:
313,38,49114,1,6,0:0:0:0:
87,187,49302,2,0,L|106:120,1,60.7500002317429
173,250,49491,2,0,L|192:183,1,60.7500002317429,2|0,0:0|0:0,0:0:0:0:
259,313,49680,2,0,L|278:246,1,60.7500002317429
399,95,49868,6,0,L|354:247,1,121.500000463486
353,253,50151,1,0,0:0:0:0:
343,298,50246,2,0,B|340:328|340:328|436:255,1,121.500000463486,2|0,0:0|0:0,0:0:0:0:
256,108,50624,1,8,0:0:0:0:
237,348,50813,1,0,0:0:0:0:
444,201,51001,2,0,B|475:181|475:181|389:138,1,121.500000463486,2|0,0:0|0:0,0:0:0:0:
237,348,51379,6,0,L|199:226,1,121.500000463486
29,177,51756,2,0,L|67:55,1,121.500000463486
315,192,52133,2,0,L|186:236,1,121.500000463486,8|0,0:0|0:0,0:0:0:0:
297,55,52510,1,0,0:0:0:0:
315,192,52698,1,0,0:0:0:0:
134,150,52887,5,0,0:0:0:0:
372,13,53076,1,8,0:0:0:0:
305,276,53264,1,0,0:0:0:0:
200,13,53453,1,0,0:0:0:0:
439,157,53642,1,8,0:0:0:0:
203,292,53831,2,0,L|227:219,1,60.7500002317429,8|0,0:0|0:0,0:0:0:0:
94,321,54019,2,0,L|118:248,1,60.7500002317429,8|0,0:0|0:0,0:0:0:0:
284,350,54208,1,8,0:0:0:0:
341,152,54397,6,0,L|314:237,1,60.7500002317429,2|0,0:0|0:0,0:0:0:0:
406,355,54585,2,0,L|433:270,1,60.7500002317429
452,132,54774,2,0,L|425:217,1,60.7500002317429,2|0,0:0|0:0,0:0:0:0:
371,370,54963,2,0,L|398:285,1,60.7500002317429
487,117,55151,2,0,L|460:202,1,60.7500002317429,6|0,0:0|0:0,0:0:0:0:
327,304,55340,2,0,L|308:246,1,60.7500002317429
246,66,55529,2,0,L|264:123,1,60.7500002317429,2|0,0:0|0:0,0:0:0:0:
297,315,55717,2,0,L|251:268,1,60.7500002317429
117,134,55906,6,0,L|98:191,1,60.7500002317429,6|0,0:0|0:0,0:0:0:0:
66,344,56095,2,0,L|154:316,1,60.7500002317429
251,286,56283,2,0,L|206:231,1,60.7500002317429,2|0,0:0|0:0,0:0:0:0:
78,146,56472,2,0,L|75:206,1,60.7500002317429
83,362,56661,2,0,L|160:312,1,60.7500002317429,6|0,0:0|0:0,0:0:0:0:
246,258,56849,2,0,L|188:216,1,60.7500002317429
51,164,57038,2,0,L|64:223,1,60.7500002317429,2|0,0:0|0:0,0:0:0:0:
112,371,57227,2,0,L|174:303,1,60.7500002317429
242,228,57415,6,0,L|175:202,1,60.7500002317429,6|0,0:0|0:0,0:0:0:0:
73,57,57604,2,0,L|139:82,1,60.7500002317429
313,149,57793,1,2,0:0:0:0:
322,15,57982,1,0,0:0:0:0:
228,277,58171,1,6,0:0:0:0:
440,109,58360,1,0,0:0:0:0:
190,107,58549,1,2,0:0:0:0:
422,271,58737,1,0,0:0:0:0:
296,289,58925,5,6,0:0:0:0:
248,102,59114,1,0,0:0:0:0:
412,204,59302,1,2,0:0:0:0:
219,209,59491,1,0,0:3:0:0:
357,101,59680,1,6,0:3:0:0:
380,297,59868,1,0,0:3:0:0:
168,254,60057,1,2,0:0:0:0:
304,123,60246,1,0,0:0:0:0:
357,241,60434,6,0,L|391:322,1,60.7500002317429,4|0,0:0|0:0,0:0:0:0:
221,372,60623,2,0,L|187:291,1,60.7500002317429
304,123,60812,2,0,L|338:204,1,60.7500002317429,2|0,0:0|0:0,0:0:0:0:
168,254,61000,2,0,L|134:173,1,60.7500002317429
307,254,61189,2,0,L|228:293,1,60.7500002317429,6|0,0:0|0:0,0:0:0:0:
166,127,61378,2,0,L|244:87,1,60.7500002317429
343,114,61566,2,0,L|377:195,1,60.7500002317429,2|0,0:0|0:0,0:0:0:0:
207,245,61755,2,0,L|173:164,1,60.7500002317429
310,27,61944,5,6,0:0:0:0:
318,303,62132,1,0,0:0:0:0:
93,155,62321,1,2,0:0:0:0:
412,168,62510,1,0,0:0:0:0:
148,296,62699,1,6,0:0:0:0:
177,40,62888,1,0,0:0:0:0:
425,214,63077,1,2,0:0:0:0:
104,327,63265,1,0,0:0:0:0:
123,40,63454,6,0,L|181:114,1,60.7500002317429,4|0,0:0|0:0,0:0:0:0:
301,82,63643,2,0,L|243:156,1,60.7500002317429
121,148,63832,2,0,L|179:222,1,60.7500002317429,2|0,0:0|0:0,0:0:0:0:
299,190,64020,2,0,L|241:264,1,60.7500002317429
149,375,64209,2,0,L|207:301,1,60.7500002317429,4|0,0:0|0:0,0:0:0:0:
343,344,64398,2,0,L|285:270,1,60.7500002317429
155,269,64586,2,0,L|213:195,1,60.7500002317429,2|0,0:0|0:0,0:0:0:0:
349,238,64775,2,0,L|291:164,1,60.7500002317429
225,20,64964,5,4,0:0:0:0:
422,140,65152,1,0,0:0:0:0:
298,335,65341,1,2,0:0:0:0:
93,193,65530,1,0,0:0:0:0:
434,254,65718,2,0,B|417:210|417:210|387:185|331:181,1,125.999996154785,4|0,0:0|0:0,0:0:0:0:
106,286,66095,2,0,B|120:322|120:322|150:347|208:348,1,125.999996154785,4|0,0:0|0:0,0:0:0:0:
225,154,66472,5,4,0:0:0:0:
95,52,66661,1,0,0:0:0:0:
66,217,66849,1,2,0:0:0:0:
316,182,67038,1,0,0:0:0:0:
153,210,67227,1,6,0:0:0:0:
256,342,67415,1,0,0:0:0:0:
391,145,67604,1,2,0:0:0:0:
354,116,67698,1,0,0:0:0:0:
308,108,67793,1,0,0:0:0:0:
321,323,67981,5,4,0:0:0:0:
491,222,68170,1,0,0:0:0:0:
262,196,68359,1,2,0:0:0:0:
439,338,68548,1,0,0:0:0:0:
431,104,68736,2,0,B|390:101|390:101|405:53|460:32,1,125.999996154785,6|0,0:0|0:0,0:0:0:0:
491,222,69114,2,0,P|430:258|349:245,1,125.999996154785,2|0,0:0|0:0,0:0:0:0:
446,40,69491,5,4,0:0:0:0:
293,176,69680,1,0,0:0:0:0:
309,68,69868,1,2,0:0:0:0:
394,141,70058,1,0,0:0:0:0:
150,46,70247,1,6,0:0:0:0:
156,197,70435,1,0,0:0:0:0:
62,139,70624,1,2,0:0:0:0:
64,251,70813,1,0,0:0:0:0:
281,112,71001,5,4,0:0:0:0:
321,268,71190,1,0,0:0:0:0:
233,336,71379,1,2,0:0:0:0:
356,355,71567,1,0,0:0:0:0:
79,267,71756,1,6,0:0:0:0:
199,177,71945,1,0,0:0:0:0:
95,117,72133,2,0,P|154:83|248:95,1,125.999996154785,2|0,0:0|0:0,0:0:0:0:
437,164,72511,6,0,B|477:190|477:190|457:220|403:231,1,121.500000463486,6|0,0:0|0:0,0:0:0:0:
462,43,72888,1,2,0:0:0:0:
196,76,73077,1,0,0:0:0:0:
437,164,73265,2,0,B|515:262|515:262|457:220|403:231,1,243.000000926971,6|2,0:0|0:0,0:0:0:0:
320,333,73832,1,0,0:0:0:0:
302,117,74020,5,6,0:0:0:0:
218,318,74209,1,8,0:0:0:0:
181,57,74398,1,8,0:0:0:0:
95,329,74586,1,8,0:0:0:0:
54,27,74775,1,8,0:0:0:0:
318,224,74963,1,8,0:0:0:0:
17,210,75151,1,8,0:0:0:0:
411,160,75340,1,8,0:0:0:0:
104,317,81567,5,0,0:0:0:0:
195,238,81755,1,0,0:0:0:0:
109,157,81944,1,0,0:0:0:0:
195,77,82133,1,0,0:0:0:0:
268,316,82321,5,0,0:0:0:0:
359,237,82509,1,0,0:0:0:0:
273,156,82698,1,0,0:0:0:0:
359,76,82887,1,0,0:0:0:0:
444,155,83076,5,0,0:0:0:0:
443,272,83265,1,0,0:0:0:0:
360,149,83454,1,0,0:0:0:0:
359,32,83643,1,0,0:0:0:0:
352,238,83831,2,0,L|359:148,1,90
223,161,84208,2,0,L|230:250,1,90
235,306,84585,5,2,0:0:0:0:
152,242,84774,1,2,0:0:0:0:
146,348,84963,1,2,0:0:0:0:
100,186,85151,1,2,0:0:0:0:
66,302,85340,1,2,0:0:0:0:
156,108,85529,1,2,0:0:0:0:
30,231,85718,1,2,0:0:0:0:
27,41,85907,1,2,0:0:0:0:
299,88,86096,5,4,0:0:0:0:
69,333,86284,1,4,0:0:0:0:
36,73,86473,1,4,0:0:0:0:
372,135,86661,1,4,0:0:0:0:
146,354,86849,1,4,0:0:0:0:
45,97,87038,1,4,0:0:0:0:
440,186,87227,1,4,0:0:0:0:
222,373,87415,1,4,0:0:0:0:
58,253,87604,6,0,B|52:218|52:218|104:208|149:248,1,125.999996154785,2|0,0:0|0:0,0:0:0:0:
25,351,87981,1,8,0:0:0:0:
122,136,88170,1,0,0:0:0:0:
280,329,88359,2,0,B|255:354|255:354|216:319|221:259,1,125.999996154785,8|0,0:0|0:0,0:0:0:0:
319,126,88736,1,0,0:0:0:0:
372,157,88831,1,0,0:0:0:0:
408,211,88925,1,8,0:0:0:0:
158,184,89115,1,0,0:0:0:0:
313,254,89303,1,0,0:0:0:0:
336,28,89492,1,8,0:0:0:0:
390,59,89586,1,0,0:0:0:0:
429,109,89681,1,0,0:0:0:0:
250,247,89868,5,8,0:0:0:0:
190,227,89963,1,8,0:0:0:0:
130,207,90057,1,8,0:0:0:0:
70,187,90151,1,8,0:0:0:0:
34,147,90246,1,8,0:0:0:0:
96,142,90340,1,8,0:0:0:0:
159,137,90434,1,8,0:0:0:0:
220,134,90529,1,8,0:0:0:0:
277,130,90623,5,2,0:0:0:0:
135,350,90812,1,0,0:0:0:0:
369,298,91000,1,8,0:0:0:0:
123,313,91189,1,0,0:0:0:0:
431,199,91378,2,0,B|422:268|422:268|349:308,1,135.000005149842,8|0,0:0|0:0,0:0:0:0:
436,87,91755,2,0,L|316:172,2,135.000005149842,0|8|0,0:0|0:0|0:0,0:0:0:0:
498,261,92321,1,0,0:0:0:0:
273,271,92510,2,0,B|271:201|271:201|340:154,1,135.000005149842,8|0,0:0|0:0,0:0:0:0:
404,317,92888,5,8,0:0:0:0:
341,325,92982,1,8,0:0:0:0:
279,333,93077,1,8,0:0:0:0:
216,341,93171,1,8,0:0:0:0:
154,349,93265,1,8,0:0:0:0:
189,317,93360,1,8,0:0:0:0:
239,279,93454,1,8,0:0:0:0:
288,245,93548,1,8,0:0:0:0:
342,244,93642,5,2,0:0:0:0:
206,51,93831,1,0,0:0:0:0:
447,212,94019,1,8,0:3:0:0:
128,91,94208,1,0,0:3:0:0:
336,28,94398,1,8,0:0:0:0:
390,59,94492,1,0,0:0:0:0:
429,109,94586,1,0,0:0:0:0:
307,306,94774,1,0,0:0:0:0:
128,91,94963,1,8,0:0:0:0:
456,229,95151,5,0,0:0:0:0:
428,284,95246,1,0,0:0:0:0:
380,326,95340,1,0,0:0:0:0:
378,150,95530,1,8,0:0:0:0:
283,352,95718,1,0,0:0:0:0:
136,243,95907,5,8,0:0:0:0:
135,181,96001,1,8,0:0:0:0:
175,133,96096,1,8,0:0:0:0:
236,123,96190,1,8,0:0:0:0:
289,154,96284,1,8,0:0:0:0:
277,166,96378,1,8,0:0:0:0:
263,179,96472,1,8,0:0:0:0:
250,192,96566,1,8,0:0:0:0:
236,206,96661,5,2,0:0:0:0:
450,29,96849,1,0,0:0:0:0:
442,245,97038,1,8,0:0:0:0:
239,48,97227,1,0,0:0:0:0:
241,280,97416,2,0,L|242:379,1,67.5000025749208,8|0,0:0|0:0,0:0:0:0:
241,347,97605,1,0,0:0:0:0:
193,186,97793,2,0,B|237:185|237:185|184:104,1,135.000005149842,0|8,0:0|0:0,0:0:0:0:
9,144,98170,5,0,0:0:0:0:
26,202,98265,1,0,0:0:0:0:
66,252,98359,1,0,0:0:0:0:
115,38,98549,1,8,0:0:0:0:
139,161,98737,1,0,0:0:0:0:
313,29,98925,5,4,0:0:0:0:
307,344,99114,1,4,0:0:0:0:
71,207,99302,1,4,0:0:0:0:
369,31,99491,1,4,0:0:0:0:
436,221,99680,1,0,0:0:0:0:
394,268,99774,1,0,0:0:0:0:
335,283,99868,1,0,0:0:0:0:
313,29,100058,1,8,0:0:0:0:
129,226,100247,1,0,0:0:0:0:
409,37,100435,6,0,L|456:93,1,67.5000025749208,8|0,0:0|0:0,0:0:0:0:
452,88,100624,1,0,0:0:0:0:
268,240,100813,1,0,0:0:0:0:
164,33,101001,1,8,0:0:0:0:
388,206,101190,1,0,0:0:0:0:
394,268,101284,1,0,0:0:0:0:
366,322,101378,1,0,0:0:0:0:
117,331,101567,2,0,B|164:318|164:318|125:292|101:246,1,135.000005149842,8|0,0:0|0:0,0:0:0:0:
158,43,101945,5,8,0:0:0:0:
209,75,102039,1,8,0:0:0:0:
260,108,102133,1,8,0:0:0:0:
311,141,102228,1,8,0:0:0:0:
365,151,102322,1,8,0:0:0:0:
389,112,102416,1,8,0:0:0:0:
377,67,102511,1,8,0:0:0:0:
336,46,102605,1,8,0:0:0:0:
293,62,102699,5,2,0:0:0:0:
414,284,102888,1,0,0:0:0:0:
486,55,103077,1,8,0:0:0:0:
280,142,103265,1,0,0:0:0:0:
258,200,103360,1,0,0:0:0:0:
235,255,103454,1,0,0:0:0:0:
24,213,103643,1,0,0:0:0:0:
39,259,103737,2,0,L|64:333,1,67.5000025749208
334,365,104020,1,8,0:0:0:0:
435,158,104209,5,0,0:0:0:0:
380,136,104303,1,0,0:0:0:0:
321,143,104398,1,0,0:0:0:0:
100,308,104586,2,0,B|94:345|94:345|152:332|162:276,1,135.000005149842,8|0,0:0|0:0,0:0:0:0:
59,53,104964,2,0,L|121:127,1,67.5000025749208,8|0,0:0|0:0,0:0:0:0:
123,128,105152,1,0,0:0:0:0:
334,322,105340,1,0,0:0:0:0:
363,265,105435,1,0,0:0:0:0:
369,203,105529,1,0,0:0:0:0:
375,25,105718,5,8,0:0:0:0:
251,188,105906,1,0,0:0:0:0:
451,65,106095,1,8,0:0:0:0:
231,205,106284,1,0,0:0:0:0:
502,125,106472,1,8,0:0:0:0:
210,222,106661,1,0,0:0:0:0:
501,268,106850,1,8,0:0:0:0:
192,78,107038,1,0,0:0:0:0:
430,378,107227,5,8,0:0:0:0:
313,22,107416,1,0,0:0:0:0:
191,236,107604,1,4,0:0:0:0:
491,161,107793,1,4,0:0:0:0:
177,24,107982,1,4,0:0:0:0:
322,365,108170,1,4,0:0:0:0:
442,34,108359,1,4,0:0:0:0:
95,233,108548,1,4,0:0:0:0:
313,269,108737,2,0,B|365:279|365:279|357:201|314:173,1,175.499991966248
184,167,109491,5,4,0:0:0:0:
440,29,109680,1,4,0:0:0:0:
160,184,109868,1,4,0:0:0:0:
484,95,110057,1,4,0:0:0:0:
139,202,110247,1,4,0:0:0:0:
512,165,110435,1,4,0:0:0:0:
139,202,110623,2,0,L|203:166,1,58.4999973220826
440,29,111001,1,4,0:0:0:0:
438,296,111189,2,0,B|394:282|405:237|405:237|342:218|264:228|264:228|294:171|353:161,1,297.000009063721,14|0,0:0|0:0,0:0:0:0:
