osu file format v14

[General]
AudioFilename: audio.mp3
AudioLeadIn: 0
PreviewTime: 96783
Countdown: 0
SampleSet: Soft
StackLeniency: 0.5
Mode: 0
LetterboxInBreaks: 0
WidescreenStoryboard: 0

[Editor]
Bookmarks: 50052
DistanceSpacing: 1.1
BeatDivisor: 2
GridSize: 32
TimelineZoom: 1.1

[Metadata]
Title:Loose Change
TitleUnicode:Loose Change
Artist:Royal Blood
ArtistUnicode:Royal Blood
Creator:BOUYAAA
Version:Normal
Source:
Tags:Hard Rock Metal HootOwlStar Rohit6 Exote
BeatmapID:1355505
BeatmapSetID:545156

[Difficulty]
HPDrainRate:3
CircleSize:3
OverallDifficulty:3
ApproachRate:3
SliderMultiplier:0.799999999999999
SliderTickRate:1

[Events]
//Background and Video events
0,0,"the.jpg",0,0
//Break Periods
//Storyboard Layer 0 (Background)
//Storyboard Layer 1 (Fail)
//Storyboard Layer 2 (Pass)
//Storyboard Layer 3 (Foreground)
//Storyboard Sound Samples

[TimingPoints]
348,355.029585798817,4,2,1,30,1,0
348,-100,4,2,1,30,0,0
6028,-100,4,2,1,75,0,0
34430,-100,4,2,1,75,0,0
40111,-100,4,2,1,75,0,0
74194,-125,4,2,1,75,0,0
85377,-125,4,2,0,75,0,0
85555,-125,4,2,1,75,0,0
95495,337.078651685393,4,2,1,75,1,0
96846,329.67032967033,4,2,1,75,1,0
107395,-100,4,2,1,75,0,1
116626,-100,4,2,1,75,0,0
117944,-100,4,2,1,75,0,1
127175,329.67032967033,5,2,1,75,1,0
128658,-100,5,2,1,75,0,1
128823,329.67032967033,4,2,1,75,1,0
150747,-100,4,2,1,75,0,0

[Colours]
Combo1 : 250,214,103
Combo2 : 176,201,247
Combo3 : 244,208,140
Combo4 : 220,148,248

[HitObjects]
111,67,348,6,0,P|157:63|192:80,1,79.9999999999999,0|0,0:0|0:0,0:0:0:0:
226,155,1058,1,0,0:0:0:0:
392,98,1768,2,0,L|519:85,2,120,0|0|0,0:0|0:0|0:0,0:0:0:0:
330,161,3188,6,0,P|322:211|342:251,1,79.9999999999999,0|0,0:0|0:0,0:0:0:0:
404,287,3898,1,0,0:0:0:0:
187,322,4785,2,0,L|52:311,1,120
8,246,5673,1,0,0:0:0:0:
3,158,6028,6,0,P|13:105|41:82,1,79.9999999999999,6|2,0:0|0:0,0:0:0:0:
117,74,6738,2,0,L|209:81,1,79.9999999999999,8|2,0:0|0:3,0:0:0:0:
276,117,7448,2,0,B|284:173|284:173|266:212|266:212|276:283,1,160,2|8,0:0|0:0,0:0:0:0:
343,326,8513,1,2,0:3:0:0:
428,345,8868,6,0,P|472:327|494:295,1,79.9999999999999,2|2,0:0|0:0,0:0:0:0:
472,215,9578,1,8,0:0:0:0:
462,39,10288,2,0,B|395:31|395:31|364:45|364:45|296:36,1,160,2|8,0:0|0:0,0:0:0:0:
223,7,11353,1,2,0:3:0:0:
140,36,11708,6,0,P|117:75|117:129,1,79.9999999999999,2|2,0:0|0:0,0:0:0:0:
171,181,12419,1,8,0:0:0:0:
171,181,12774,1,2,0:3:0:0:
244,229,13129,2,0,B|311:221|311:221|342:235|342:235|410:226,1,160,2|8,0:0|0:0,0:0:0:0:
478,267,14194,1,2,0:3:0:0:
442,347,14549,6,0,P|409:361|360:350,1,79.9999999999999,2|2,0:0|0:0,0:0:0:0:
281,331,15259,2,0,P|248:317|199:328,1,79.9999999999999,8|2,0:0|0:3,0:0:0:0:
126,362,15969,2,0,P|96:366|1:281,1,160,2|8,0:0|0:0,0:0:0:0:
20,203,17034,1,2,0:3:0:0:
101,169,17389,6,0,L|95:86,1,79.9999999999999,2|2,0:0|0:0,0:0:0:0:
139,12,18099,1,8,0:0:0:0:
139,12,18454,1,2,0:3:0:0:
211,62,18809,2,0,B|334:80|334:80|378:51,1,160,2|8,0:0|0:0,0:0:0:0:
435,9,19874,1,2,0:3:0:0:
504,62,20229,6,0,P|512:105|497:148,1,79.9999999999999,2|2,0:0|0:0,0:0:0:0:
420,170,20939,1,8,0:0:0:0:
262,247,21649,2,0,B|235:278|235:278|245:321,1,79.9999999999999,2|2,0:0|0:3,0:0:0:0:
308,375,22359,2,0,B|348:384|348:384|381:355,1,79.9999999999999,8|2,0:0|0:3,0:0:0:0:
409,276,23069,6,0,L|399:190,1,79.9999999999999,2|2,0:0|0:0,0:0:0:0:
428,113,23779,1,8,0:0:0:0:
428,113,24134,1,2,0:3:0:0:
364,51,24490,2,0,B|285:32|285:85|196:58,1,160,2|8,0:0|0:0,0:0:0:0:
136,8,25555,1,2,0:3:0:0:
54,41,25910,6,0,P|33:78|36:131,1,79.9999999999999,2|2,0:0|0:0,0:0:0:0:
101,168,26620,2,0,L|193:176,1,79.9999999999999,8|2,0:0|0:3,0:0:0:0:
223,251,27330,2,0,L|61:266,1,160,2|8,0:0|0:0,0:0:0:0:
0,326,28395,1,2,0:3:0:0:
79,364,28750,6,0,L|165:371,1,79.9999999999999,2|2,0:0|0:0,0:0:0:0:
241,340,29460,2,0,L|327:347,1,79.9999999999999,8|2,0:0|0:3,0:0:0:0:
408,343,30170,2,0,P|429:290|376:208,1,160,2|8,0:0|0:0,0:0:0:0:
295,178,31235,1,2,0:3:0:0:
365,125,31590,6,0,L|456:113,1,79.9999999999999,2|2,0:0|0:0,0:0:0:0:
509,55,32300,1,8,0:0:0:0:
333,42,33010,2,0,P|282:57|172:10,1,160,2|8,0:0|0:0,0:0:0:0:
96,18,34075,1,2,0:3:0:0:
26,71,34430,6,0,L|48:257,1,160,6|2,0:0|0:0,0:0:0:0:
187,333,35850,2,0,L|205:174,1,160,2|2,0:0|0:0,0:0:0:0:
325,44,37271,6,0,B|339:157|339:157|373:201,1,160,6|2,0:0|0:0,0:0:0:0:
501,306,38691,1,2,0:0:0:0:
414,342,40111,6,0,L|314:332,1,79.9999999999999,2|2,0:0|0:0,0:0:0:0:
250,306,40821,2,0,P|230:269|237:211,1,79.9999999999999,8|2,0:0|0:3,0:0:0:0:
293,171,41531,2,0,P|366:172|416:108,1,160,2|8,0:0|0:0,0:0:0:0:
376,29,42596,1,2,0:3:0:0:
289,12,42951,6,0,L|205:23,1,79.9999999999999,2|2,0:0|0:0,0:0:0:0:
122,37,43661,2,0,B|132:80|132:80|112:187,1,120,8|0,0:0|0:0,0:0:0:0:
96,192,44371,2,0,L|106:292,1,79.9999999999999,2|2,0:0|0:3,0:0:0:0:
167,332,45081,2,0,B|206:344|206:344|272:330,1,79.9999999999999,8|2,0:0|0:0,0:0:0:0:
328,310,45791,5,0,0:0:0:0:
394,252,46146,1,2,0:0:0:0:
471,293,46501,1,8,0:0:0:0:
511,121,47211,2,0,P|486:97|425:88,1,79.9999999999999,2|2,0:0|0:3,0:0:0:0:
403,110,47744,2,0,B|359:128|359:128|259:106,1,120,2|2,0:0|0:3,0:0:0:0:
212,66,48632,6,0,L|106:73,1,79.9999999999999,2|2,0:0|0:3,0:0:0:0:
57,117,49342,1,8,0:0:0:0:
100,193,49697,2,0,P|101:245|93:278,1,79.9999999999999,0|8,1:0|0:0,0:0:0:0:
73,310,50229,6,0,L|226:296,1,120,6|6,0:0|0:0,0:0:0:0:
274,332,51117,1,4,0:3:0:0:
358,306,51472,6,0,P|426:322|495:258,1,160,10|8,0:0|0:0,0:0:0:0:
502,181,52537,1,2,0:3:0:0:
453,107,52892,2,0,L|357:97,1,79.9999999999999,2|2,0:0|0:3,0:0:0:0:
301,149,53602,2,0,B|261:162|261:162|196:146,1,79.9999999999999,8|2,0:0|0:3,0:0:0:0:
199,68,54312,6,0,L|103:84,2,79.9999999999999,2|2|8,0:0|0:0|0:0,0:0:0:0:
374,68,55732,2,0,P|406:104|369:219,1,160,2|8,0:0|0:0,0:0:0:0:
300,225,56797,1,2,0:3:0:0:
359,289,57152,6,0,L|454:294,1,79.9999999999999,2|2,0:0|0:0,0:0:0:0:
470,375,57862,2,0,L|375:380,1,79.9999999999999,8|2,0:0|0:3,0:0:0:0:
302,372,58572,2,0,B|275:338|275:338|143:324,1,160,2|8,0:0|0:0,0:0:0:0:
73,347,59637,1,2,0:3:0:0:
15,280,59992,6,0,P|34:221|61:197,1,79.9999999999999,2|2,0:0|0:0,0:0:0:0:
129,183,60703,1,8,0:0:0:0:
295,238,61413,2,0,L|467:227,1,160,2|8,0:0|0:0,0:0:0:0:
504,155,62478,1,2,0:3:0:0:
489,68,62833,6,0,P|443:49|390:56,1,79.9999999999999,2|2,0:0|0:0,0:0:0:0:
369,125,63543,2,0,P|319:138|265:122,1,79.9999999999999,8|2,0:0|0:3,0:0:0:0:
239,62,64253,6,0,L|134:52,1,79.9999999999999,2|2,0:0|0:3,0:0:0:0:
82,97,64963,2,0,P|98:142|95:189,1,79.9999999999999,8|2,0:0|0:3,0:0:0:0:
45,244,65673,6,0,P|94:263|143:243,1,79.9999999999999,2|2,0:0|0:0,0:0:0:0:
207,249,66383,2,0,L|197:342,1,79.9999999999999,8|2,0:0|0:3,0:0:0:0:
273,375,67093,5,2,0:0:0:0:
341,319,67448,1,2,0:3:0:0:
417,361,67803,2,0,P|473:373|513:368,1,79.9999999999999,8|2,0:0|0:3,0:0:0:0:
507,284,68513,6,0,B|502:228|502:228|476:192|476:192|468:113,1,160,2|8,0:0|0:0,0:0:0:0:
332,23,69933,2,0,P|271:31|242:50,1,79.9999999999999,2|2,0:0|0:3,0:0:0:0:
204,111,70643,2,0,P|165:112|112:79,1,79.9999999999999,8|2,0:0|0:3,0:0:0:0:
41,78,71353,6,0,L|45:178,1,79.9999999999999,2|2,0:0|0:0,0:0:0:0:
48,245,72063,1,8,0:0:0:0:
187,352,72774,2,0,P|232:323|325:328,1,120,2|2,0:0|0:0,0:0:0:0:
333,343,73484,2,0,L|431:355,1,79.9999999999999,8|2,0:0|0:3,0:0:0:0:
499,331,74194,6,0,P|522:273|485:201,1,128,6|8,0:0|0:0,0:0:0:0:
320,217,75614,2,0,B|314:186|314:186|328:156,1,63.9999999999999,0|0,0:2|0:2,0:2:0:0:
382,84,76324,2,0,L|376:-10,1,63.9999999999999,8|2,0:0|0:3,0:0:0:0:
288,9,77034,6,0,L|133:25,1,128,2|8,0:0|0:0,0:0:0:0:
8,116,78454,2,0,B|3:148|3:148|22:183,1,63.9999999999999
98,209,79164,2,0,L|180:217,1,63.9999999999999,8|2,0:0|0:3,0:0:0:0:
216,285,79874,6,0,L|363:276,1,128,2|8,0:0|0:0,0:0:0:0:
500,221,81294,2,0,B|484:190|484:190|487:133,1,63.9999999999999
472,74,82004,2,0,P|446:50|413:39,1,63.9999999999999,8|2,0:0|0:3,0:0:0:0:
345,91,82714,6,0,B|259:102|259:102|200:70,1,128
56,16,84134,2,0,B|40:43|40:43|44:78,1,63.9999999999999
98,147,84845,2,0,L|86:242,1,95.9999999999999,8|2,0:0|3:3,0:0:0:0:
111,279,85555,6,0,B|147:255|147:255|256:278,1,128,2|8,0:3|0:0,0:0:0:0:
382,366,86975,2,0,B|415:366|415:366|444:347,1,63.9999999999999
461,261,87685,2,0,L|449:190,1,63.9999999999999
371,156,88395,6,0,B|378:110|378:110|398:80|398:80|405:15,1,128,2|8,0:0|0:0,0:0:0:0:
226,3,89815,2,0,B|213:32|213:32|220:74,1,63.9999999999999
243,149,90525,2,0,P|201:151|164:133,1,63.9999999999999,8|2,0:0|0:3,0:0:0:0:
93,122,91235,6,0,L|109:255,1,128,2|8,0:0|0:0,0:0:0:0:
249,360,92655,2,0,B|283:358|283:358|313:335,1,63.9999999999999
376,281,93365,2,0,L|466:290,1,63.9999999999999,8|2,0:0|0:3,0:0:0:0:
504,348,94075,5,2,0:0:0:0:
51,91,96506,5,8,0:0:0:0:
51,91,96846,6,0,L|156:87,1,79.9999999999999,6|8,0:0|0:0,0:0:0:0:
219,88,97505,2,0,B|241:123|241:123|224:187,1,79.9999999999999,2|8,0:3|0:0,0:0:0:0:
203,194,97999,2,0,L|194:348,1,120,2|8,0:0|0:0,0:0:0:0:
266,367,98824,2,0,B|305:375|305:375|370:350,1,79.9999999999999,2|8,0:3|0:0,0:0:0:0:
389,286,99483,6,0,L|383:194,1,79.9999999999999,2|8,0:0|0:0,0:0:0:0:
429,130,100142,2,0,P|430:91|411:55,1,79.9999999999999,2|8,0:3|0:0,0:0:0:0:
371,35,100637,2,0,L|244:47,1,120,2|8,0:0|0:0,0:0:0:0:
185,104,101461,2,0,P|122:92|97:70,1,79.9999999999999,2|8,0:3|0:0,0:0:0:0:
24,62,102120,6,0,L|31:165,1,79.9999999999999,6|8,0:0|0:0,0:0:0:0:
91,205,102780,2,0,L|76:312,1,79.9999999999999,2|8,0:3|0:0,0:0:0:0:
73,327,103274,2,0,B|105:351|105:351|200:338,1,120,2|8,0:0|0:0,0:0:0:0:
250,282,104098,2,0,L|339:292,1,79.9999999999999,2|8,0:3|0:0,0:0:0:0:
400,343,104758,6,0,P|417:295|407:252,1,79.9999999999999,2|8,0:0|0:0,0:0:0:0:
362,195,105417,2,0,L|351:101,1,79.9999999999999,2|8,0:3|0:0,0:0:0:0:
392,36,106076,2,0,P|344:28|298:45,1,79.9999999999999,8|8,0:0|0:0,0:0:0:0:
275,57,106571,2,0,L|158:43,1,79.9999999999999,8|8,0:0|0:0,0:0:0:0:
151,41,107065,1,8,0:0:0:0:
65,60,107395,6,0,P|39:109|51:153,1,79.9999999999999,6|8,0:0|0:0,0:0:0:0:
99,198,108054,2,0,L|102:288,1,79.9999999999999,2|8,0:3|0:0,0:0:0:0:
121,317,108549,2,0,B|148:302|148:302|169:322|207:334|243:314,1,120,2|8,0:0|0:0,0:0:0:0:
296,260,109373,2,0,P|300:218|272:176,1,79.9999999999999,2|8,0:0|0:0,0:0:0:0:
203,147,110032,5,2,0:0:0:0:
213,59,110362,1,8,0:0:0:0:
300,48,110692,2,0,L|308:7,2,40,2|2|8,0:3|0:0|0:0,0:0:0:0:
333,76,111186,2,0,L|459:64,1,120,2|8,0:0|0:0,0:0:0:0:
496,144,112010,2,0,P|441:158|408:186,1,79.9999999999999,2|8,0:0|0:0,0:0:0:0:
376,247,112670,6,0,P|397:290|382:338,1,79.9999999999999,6|2,0:0|0:0,0:0:0:0:
320,370,113329,2,0,L|217:357,1,79.9999999999999,2|8,0:3|0:0,0:0:0:0:
196,348,113824,2,0,B|190:316|174:292|174:292|196:279|220:224,1,120,2|8,0:0|0:0,0:0:0:0:
202,157,114648,2,0,P|153:153|112:129,1,79.9999999999999,2|8,0:0|0:0,0:0:0:0:
58,74,115307,5,2,0:0:0:0:
116,8,115637,1,8,0:0:0:0:
201,32,115966,2,0,L|303:44,1,79.9999999999999,0|8,0:0|0:0,0:0:0:0:
363,70,116626,2,0,L|422:58,2,40,8|8|6,0:0|0:0|0:0,0:0:0:0:
299,130,117285,2,0,L|257:125,2,40,8|8|6,0:0|0:0|0:0,0:0:0:0:
369,182,117944,6,0,P|387:231|364:282,1,79.9999999999999,6|8,0:0|0:0,0:0:0:0:
320,321,118604,2,0,L|221:305,1,79.9999999999999,2|8,0:3|0:0,0:0:0:0:
197,302,119098,2,0,B|160:304|117:337|117:337|107:316|80:301,1,120,2|8,0:0|0:0,0:0:0:0:
34,253,119922,2,0,L|47:159,1,79.9999999999999,2|8,0:0|0:0,0:0:0:0:
89,97,120582,5,2,0:0:0:0:
176,99,120911,1,8,0:0:0:0:
249,50,121241,2,0,L|254:3,2,40,0|2|8,0:0|0:0|0:0,0:0:0:0:
264,91,121736,2,0,L|253:220,1,120,2|8,0:0|0:0,0:0:0:0:
184,279,122560,2,0,P|192:328|216:360,1,79.9999999999999,2|12,0:3|0:0,0:0:0:0:
295,366,123219,6,0,L|387:353,1,79.9999999999999,6|8,0:0|0:0,0:0:0:0:
432,288,123878,2,0,P|392:269|351:260,1,79.9999999999999,2|8,0:3|0:0,0:0:0:0:
313,260,124373,2,0,B|296:217|296:217|310:131,1,120,2|8,0:0|0:0,0:0:0:0:
379,92,125197,2,0,P|370:43|333:12,1,79.9999999999999,2|8,0:0|0:0,0:0:0:0:
262,23,125856,5,2,0:0:0:0:
189,72,126186,1,8,0:0:0:0:
102,54,126516,2,0,L|91:12,2,40,2|2|8,0:3|0:0|0:0,0:0:0:0:
78,89,127010,2,0,P|49:125|56:204,1,120,2|2,0:0|0:0,0:0:0:0:
127,239,127834,1,0,0:0:0:0:
214,230,128164,6,0,P|234:272|231:320,1,79.9999999999999
220,346,128658,2,0,P|297:369|353:329,1,120,6|8,0:0|0:0,0:0:0:0:
400,299,129482,2,0,L|393:200,1,79.9999999999999,2|8,0:0|0:0,0:0:0:0:
423,186,129976,6,0,B|442:148|442:148|447:116|433:83|392:59,1,120,2|8,0:0|0:0,0:0:0:0:
331,54,130801,2,0,L|224:61,1,79.9999999999999,2|8,0:0|0:0,0:0:0:0:
221,91,131295,2,0,P|173:109|109:69,1,120,2|8,0:0|0:0,0:0:0:0:
38,35,132119,6,0,L|28:132,1,79.9999999999999,2|10,0:3|0:0,0:0:0:0:
66,194,132779,2,0,L|76:291,1,79.9999999999999,2|8,0:3|0:0,0:0:0:0:
132,339,133438,2,0,P|164:318|208:312,1,79.9999999999999,2|8,0:3|0:0,0:0:0:0:
242,333,133932,6,0,B|274:352|274:352|306:354|340:339|346:314,1,120,2|8,0:0|0:0,0:0:0:0:
367,233,134757,2,0,L|351:132,1,79.9999999999999,2|8,0:3|0:0,0:0:0:0:
328,118,135251,2,0,B|282:144|282:144|200:135,1,120,2|8,0:0|0:0,0:0:0:0:
133,104,136075,2,0,P|125:59|145:21,1,79.9999999999999,2|8,0:3|0:0,0:0:0:0:
179,11,136570,6,0,B|222:19|222:19|262:8|262:8|303:14,1,120,2|8,0:0|0:0,0:0:0:0:
380,41,137394,2,0,L|465:37,1,79.9999999999999,2|8,0:3|0:0,0:0:0:0:
506,111,138053,2,0,P|455:122|411:144,1,79.9999999999999,2|8,0:3|0:0,0:0:0:0:
364,193,138713,2,0,P|389:232|387:284,1,79.9999999999999,8|8,0:0|0:0,0:0:0:0:
380,307,139207,6,0,P|324:341|251:313,1,120,2|8,0:0|0:0,0:0:0:0:
205,275,140031,2,0,P|146:281|109:306,1,79.9999999999999,2|8,0:3|0:0,0:0:0:0:
97,322,140526,2,0,L|73:172,1,120,2|8,0:0|0:0,0:0:0:0:
21,136,141350,2,0,L|32:52,1,79.9999999999999,2|8,0:3|0:0,0:0:0:0:
63,26,141844,6,0,B|93:12|93:12|145:11|175:53,1,120,2|8,0:0|0:0,0:0:0:0:
212,123,142669,2,0,P|266:126|305:96,1,79.9999999999999,2|8,0:3|0:0,0:0:0:0:
329,36,143328,2,0,P|383:41|417:69,1,79.9999999999999,2|8,0:3|0:0,0:0:0:0:
455,126,143987,2,0,L|446:238,1,79.9999999999999,2|8,0:3|0:0,0:0:0:0:
441,249,144482,6,0,B|415:287|415:287|422:371,1,120,2|8,0:0|0:0,0:0:0:0:
333,369,145306,2,0,P|298:344|243:342,1,79.9999999999999,2|8,0:3|0:0,0:0:0:0:
221,356,145801,2,0,B|182:376|182:376|86:355,1,120,2|8,0:0|0:0,0:0:0:0:
53,289,146625,2,0,P|60:245|90:215,1,79.9999999999999,2|8,0:3|0:0,0:0:0:0:
126,223,147119,6,0,P|176:253|233:240,1,120,2|8,0:0|0:0,0:0:0:0:
316,209,147943,2,0,L|397:217,1,79.9999999999999
464,161,148603,1,2,0:0:0:0:
388,116,148932,2,0,L|316:123,2,40,8|8|8,0:0|0:0|0:0,0:0:0:0:
456,60,149592,6,0,P|423:34|368:30,1,79.9999999999999,6|2,0:0|0:0,0:0:0:0:
299,41,150251,2,0,L|291:-8,2,40,8|0|2,0:0|0:0|0:0,0:0:0:0:
271,75,150746,2,0,P|222:90|156:54,1,120,2|2,0:0|0:0,0:0:0:0:
79,31,151570,2,0,P|54:74|56:109,1,79.9999999999999,8|8,0:0|0:0,0:0:0:0:
115,178,152229,5,12,0:0:0:0:
115,178,152559,1,8,0:3:0:0:
