osu file format v14

[General]
AudioFilename: audio.mp3
AudioLeadIn: 0
PreviewTime: 96783
Countdown: 0
SampleSet: Soft
StackLeniency: 0.5
Mode: 0
LetterboxInBreaks: 0
WidescreenStoryboard: 0

[Editor]
Bookmarks: 50052
DistanceSpacing: 1
BeatDivisor: 2
GridSize: 32
TimelineZoom: 1.1

[Metadata]
Title:Loose Change
TitleUnicode:Loose Change
Artist:Royal Blood
ArtistUnicode:Royal Blood
Creator:BOUYAAA
Version:Advanced
Source:
Tags:Hard Rock Metal HootOwlStar Rohit6 Exote
BeatmapID:1282477
BeatmapSetID:545156

[Difficulty]
HPDrainRate:4
CircleSize:3
OverallDifficulty:5
ApproachRate:5
SliderMultiplier:1.1
SliderTickRate:1

[Events]
//Background and Video events
0,0,"the.jpg",0,0
//Break Periods
//Storyboard Layer 0 (Background)
//Storyboard Layer 1 (Fail)
//Storyboard Layer 2 (Pass)
//Storyboard Layer 3 (Foreground)
//Storyboard Sound Samples

[TimingPoints]
348,355.029585798817,4,2,1,30,1,0
348,-100,4,2,1,30,0,0
6028,-100,4,2,1,75,0,0
34430,-111.111111111111,4,2,1,75,0,0
40111,-100,4,2,1,75,0,0
74194,-125,4,2,1,75,0,0
85377,-125,4,2,0,75,0,0
85555,-125,4,2,1,75,0,0
94430,-125,4,2,1,50,0,0
95495,337.078651685393,4,2,1,75,1,0
96846,329.67032967033,4,2,1,75,1,0
107395,-100,4,2,1,75,0,1
116626,-100,4,2,1,75,0,0
117944,-100,4,2,1,75,0,1
127175,329.67032967033,5,2,1,75,1,0
128658,-100,5,2,1,75,0,1
128823,329.67032967033,4,2,1,75,1,0
150747,-100,4,2,1,75,0,0

[Colours]
Combo1 : 250,214,103
Combo2 : 176,201,247
Combo3 : 244,208,140
Combo4 : 220,148,248

[HitObjects]
90,80,348,6,0,L|225:63,1,110,0|0,0:0|0:0,0:0:0:0:
297,52,1058,1,0,0:0:0:0:
299,249,1768,6,0,P|256:242|236:228,2,55
347,240,2300,2,0,B|431:227|431:227|461:252,1,110,0|0,0:0|0:0,0:0:0:0:
477,284,2833,1,0,0:0:0:0:
408,355,3188,6,0,L|284:342,1,110,0|0,0:0|0:0,0:0:0:0:
199,334,3898,1,0,0:0:0:0:
235,90,4785,6,0,P|273:94|298:107,2,55,0|0|0,0:0|0:0|0:0,0:0:0:0:
187,75,5318,2,0,P|171:40|170:11,2,55,0|0|0,0:0|0:0|0:0,0:0:0:0:
153,111,5850,1,0,0:0:0:0:
118,147,6028,6,0,P|70:131|-13:148,1,110,6|2,0:0|0:0,0:0:0:0:
0,235,6738,2,0,L|14:355,1,110,8|2,0:0|0:3,0:0:0:0:
111,332,7448,2,0,L|114:267,2,55,2|0|2,0:0|0:0|0:3,0:0:0:0:
152,359,7981,2,0,P|210:370|265:333,1,110,2|0,0:0|0:0,0:0:0:0:
277,304,8513,1,2,0:3:0:0:
370,336,8868,6,0,L|502:327,1,110,2|2,0:0|0:0,0:0:0:0:
511,234,9578,2,0,L|377:223,1,110,8|2,0:0|0:3,0:0:0:0:
318,170,10288,1,2,0:0:0:0:
341,126,10466,2,0,P|342:92|277:37,1,110,0|2,0:0|0:0,0:0:0:0:
243,36,10998,2,0,L|116:50,1,110,8|2,0:0|0:3,0:0:0:0:
79,131,11708,6,0,P|150:142|191:191,1,110,2|2,0:0|0:0,0:0:0:0:
204,261,12419,1,8,0:0:0:0:
204,261,12774,1,2,0:3:0:0:
147,342,13129,2,0,L|86:348,2,55,2|0|2,0:0|0:0|0:3,0:0:0:0:
193,357,13661,2,0,L|308:365,1,110,2|0,0:0|0:0,0:0:0:0:
349,348,14194,1,2,0:3:0:0:
403,265,14549,6,0,P|380:216|401:143,1,110,2|2,0:0|0:0,0:0:0:0:
436,75,15259,2,0,L|320:63,1,110,8|2,0:0|0:3,0:0:0:0:
238,109,15969,1,2,0:0:0:0:
205,146,16146,2,0,P|141:157|93:125,1,110,0|2,0:0|0:0,0:0:0:0:
64,105,16679,2,0,L|75:243,1,110,8|2,0:0|0:3,0:0:0:0:
55,312,17389,6,0,B|98:338|98:338|188:325,1,110,2|2,0:0|0:0,0:0:0:0:
248,291,18099,2,0,L|361:302,1,110,8|2,0:0|0:3,0:0:0:0:
435,240,18809,2,0,L|503:233,2,55,2|0|2,0:0|0:0|0:3,0:0:0:0:
396,208,19342,2,0,P|377:152|410:98,1,110,2|0,0:0|0:0,0:0:0:0:
435,76,19874,1,2,0:3:0:0:
342,41,20229,6,0,L|223:47,1,110,2|2,0:0|0:0,0:0:0:0:
184,133,20939,2,0,L|303:139,1,110,8|2,0:0|0:3,0:0:0:0:
328,231,21649,1,2,0:0:0:0:
297,270,21827,2,0,B|259:283|259:283|178:272,1,110,0|2,0:0|0:0,0:0:0:0:
146,249,22359,2,0,L|22:254,1,110,8|2,0:0|0:3,0:0:0:0:
3,159,23069,6,0,P|48:116|44:47,1,110,2|2,0:0|0:0,0:0:0:0:
133,13,23779,2,0,L|251:24,1,110,8|2,0:0|0:3,0:0:0:0:
326,76,24490,2,0,L|312:133,2,55,2|0|2,0:0|0:0|0:3,0:0:0:0:
359,40,25022,2,0,P|416:37|461:75,1,110,2|0,0:0|0:0,0:0:0:0:
469,115,25555,1,2,0:3:0:0:
427,205,25910,6,0,L|421:334,1,110,2|2,0:0|0:0,0:0:0:0:
335,362,26620,2,0,B|293:344|293:344|221:358,1,110,8|2,0:0|0:3,0:0:0:0:
134,330,27330,1,2,0:0:0:0:
111,286,27507,2,0,P|112:229|158:186,1,110,0|2,0:0|0:0,0:0:0:0:
195,194,28040,2,0,L|308:208,1,110,8|2,0:0|0:3,0:0:0:0:
358,124,28750,6,0,P|352:57|299:21,1,110,2|2,0:0|0:0,0:0:0:0:
224,27,29460,2,0,L|232:99,2,55,8|2|2,0:0|0:0|0:3,0:0:0:0:
125,22,30170,2,0,L|115:146,1,110,2|2,0:0|0:3,0:0:0:0:
78,164,30703,2,0,P|37:206|42:277,1,110,2|0,0:0|0:0,0:0:0:0:
55,299,31235,1,2,0:3:0:0:
139,351,31590,6,0,L|254:342,1,110,2|2,0:0|0:0,0:0:0:0:
337,298,32300,1,8,0:0:0:0:
373,331,32478,2,0,P|444:332|477:281,1,110,2|0,0:0|0:0,0:0:0:0:
483,260,33010,2,0,L|460:89,1,165,2|2,0:0|0:0,0:0:0:0:
421,67,33720,2,0,B|368:84|368:84|292:56,1,110,8|2,0:0|0:3,0:0:0:0:
222,35,34430,6,0,B|135:41|135:41|96:64|96:64|2:71,2,197.99999395752,6|2|2,0:0|0:0|0:0,0:0:0:0:
342,192,36561,1,2,0:0:0:0:
222,349,37271,2,0,B|135:343|135:343|96:320|96:320|0:313,2,197.99999395752,6|2|2,0:0|0:0|0:0,0:0:0:0:
498,244,40111,6,0,P|435:241|390:290,1,110,2|2,0:0|0:0,0:0:0:0:
301,274,40821,2,0,L|286:161,1,110,8|2,0:0|0:3,0:0:0:0:
296,66,41531,2,0,P|336:76|369:93,2,55,2|0|2,0:0|0:0|0:3,0:0:0:0:
246,61,42063,2,0,L|136:67,1,110,2|0,0:0|0:0,0:0:0:0:
91,87,42596,1,2,0:3:0:0:
31,165,42951,6,0,B|51:204|51:204|41:303,1,110,2|2,0:0|0:0,0:0:0:0:
104,348,43661,2,0,P|171:358|221:313,1,110,8|0,0:0|0:0,0:0:0:0:
241,245,44371,1,2,0:0:0:0:
285,222,44549,2,0,L|408:240,1,110,0|2,0:0|0:0,0:0:0:0:
435,212,45081,2,0,P|414:151|434:98,1,110,8|2,0:0|0:3,0:0:0:0:
395,15,45791,6,0,L|278:23,1,110,2|2,0:0|0:0,0:0:0:0:
222,99,46501,2,0,L|92:84,1,110,8|2,0:0|0:3,0:0:0:0:
20,121,47211,2,0,P|10:89|18:53,2,55,2|0|2,0:0|0:0|0:3,0:0:0:0:
54,157,47744,2,0,B|73:189|73:189|62:266,1,110,2|0,0:0|0:0,0:0:0:0:
21,287,48276,2,0,L|35:351,1,55,2|0,0:3|0:0,0:0:0:0:
78,361,48632,5,2,0:0:0:0:
122,338,48809,2,0,P|178:301|288:345,1,165,0|8,0:0|0:0,0:0:0:0:
363,352,49697,6,0,L|368:276,1,55,0|0,1:0|1:0,0:0:0:0:
398,258,50052,1,8,0:0:0:0:
436,227,50229,2,0,L|423:99,1,110,6|0,0:0|0:0,0:0:0:0:
395,77,50762,2,0,B|343:55|343:55|267:79,1,110,6|4,0:0|0:3,0:0:0:0:
251,99,51294,1,0,0:0:0:0:
208,123,51472,6,0,L|69:116,1,110,10|2,0:0|0:0,0:0:0:0:
47,202,52182,2,0,L|187:210,1,110,8|2,0:0|0:3,0:0:0:0:
210,291,52892,2,0,L|142:296,2,55,2|0|2,0:0|0:0|0:3,0:0:0:0:
254,312,53424,1,2,0:0:0:0:
298,333,53602,2,0,B|352:349|352:349|411:312,1,110,8|2,0:0|0:3,0:0:0:0:
452,238,54312,6,0,L|462:127,1,110,2|2,0:0|0:0,0:0:0:0:
403,48,55022,2,0,P|341:39|287:91,1,110,8|0,0:0|0:0,0:0:0:0:
251,147,55732,1,2,0:0:0:0:
202,138,55910,2,0,L|177:19,1,110,0|2,0:0|0:0,0:0:0:0:
133,11,56442,2,0,P|55:20|27:57,1,110,8|2,0:0|0:3,0:0:0:0:
16,137,57152,6,0,B|35:166|35:166|28:260,1,110,2|2,0:0|0:0,0:0:0:0:
70,331,57862,2,0,P|135:360|201:327,1,110,8|2,0:0|0:3,0:0:0:0:
258,307,58572,2,0,L|271:363,2,55,2|0|2,0:0|0:0|0:3,0:0:0:0:
235,262,59105,2,0,L|247:133,1,110,2|0,0:0|0:0,0:0:0:0:
269,109,59637,1,2,0:3:0:0:
357,64,59992,6,0,P|426:96|480:82,1,110,2|2,0:0|0:0,0:0:0:0:
506,177,60703,2,0,L|497:307,1,110,8|2,0:0|0:3,0:0:0:0:
416,342,61413,1,2,0:0:0:0:
376,312,61590,2,0,L|363:202,1,110,0|2,0:0|0:0,0:0:0:0:
330,165,62123,2,0,P|282:154|223:180,1,110,8|2,0:0|0:3,0:0:0:0:
187,266,62833,6,0,L|173:386,1,110,2|2,0:0|0:0,0:0:0:0:
84,332,63543,2,0,P|69:260|31:217,1,110,8|2,0:0|0:3,0:0:0:0:
42,132,64253,2,0,L|115:145,2,55,2|0|2,0:0|0:0|0:3,0:0:0:0:
11,93,64785,1,2,0:0:0:0:
20,44,64963,2,0,P|78:19|131:34,1,110,8|2,0:0|0:3,0:0:0:0:
202,86,65673,6,0,L|316:81,1,110,2|2,0:0|0:0,0:0:0:0:
407,107,66383,2,0,P|382:158|383:214,1,110,8|2,0:0|0:3,0:0:0:0:
425,299,67093,2,0,L|488:287,2,55,2|0|2,0:0|0:0|0:3,0:0:0:0:
381,323,67626,1,2,0:0:0:0:
338,348,67803,2,0,L|256:335,1,55,8|0,0:0|0:0,0:0:0:0:
234,342,68158,1,2,0:3:0:0:
135,351,68513,6,0,P|73:352|20:289,1,110,2|2,0:0|0:0,0:0:0:0:
14,228,69223,2,0,L|25:101,1,110,8|2,0:0|0:3,0:0:0:0:
57,82,69756,1,0,0:0:0:0:
94,51,69933,2,0,L|83:-6,2,55,2|0|2,0:0|0:0|0:3,0:0:0:0:
137,75,70466,2,0,P|206:95|260:59,1,110,2|0,0:0|0:0,0:0:0:0:
272,45,70998,1,2,0:3:0:0:
365,13,71353,6,0,L|494:26,1,110,2|2,0:0|0:0,0:0:0:0:
505,117,72063,2,0,L|376:130,1,110,8|0,0:0|0:0,0:0:0:0:
307,174,72774,1,2,0:0:0:0:
323,220,72951,2,0,P|381:244|454:224,1,110,0|2,0:0|0:0,0:0:0:0:
475,232,73484,2,0,L|459:361,1,110,8|2,0:0|0:3,0:0:0:0:
369,370,74194,6,0,B|333:339|333:339|196:355,1,176,6|8,0:0|0:0,0:0:0:0:
28,275,75614,2,0,L|19:330,2,44,2|2|2,0:3|0:0|0:0,0:0:0:0:
85,197,76324,2,0,L|72:84,1,88,8|2,0:0|0:3,0:0:0:0:
140,38,77034,6,0,P|224:81|310:36,1,176,2|8,0:0|0:0,0:0:0:0:
390,37,78099,2,0,L|451:28,2,44,2|0|2,0:3|0:0|0:3,0:0:0:0:
370,81,78632,1,2,0:0:0:0:
388,125,78809,2,0,L|375:245,1,88,2|8,0:0|0:0,0:0:0:0:
234,342,79874,6,0,B|184:340|184:340|149:317|149:317|42:310,1,176,2|8,0:0|0:0,0:0:0:0:
54,118,81294,2,0,L|39:65,2,44,2|2|2,0:3|0:0|0:0,0:0:0:0:
136,167,82004,2,0,P|198:170|235:138,1,88,8|2,0:0|0:3,0:0:0:0:
267,74,82714,6,0,L|460:90,1,176,2|8,0:0|0:0,0:0:0:0:
471,279,84134,2,0,L|461:355,2,44,2|2|2,0:3|0:0|0:0,0:0:0:0:
389,226,84845,2,0,B|343:218|343:218|283:253,1,88,8|2,0:0|0:3,0:0:0:0:
271,271,85377,1,2,2:3:0:0:
237,306,85555,6,0,L|52:291,1,176,2|8,0:3|0:0,0:0:0:0:
56,98,86975,2,0,L|41:34,2,44,2|2|2,0:3|0:0|0:0,0:0:0:0:
146,132,87685,2,0,P|213:119|233:76,1,88,8|2,0:0|0:3,0:0:0:0:
273,23,88395,6,0,B|342:30|342:30|371:54|371:54|466:62,1,176,2|8,0:0|0:0,0:0:0:0:
511,239,89815,2,0,P|508:262|494:300,2,44,2|2|2,0:3|0:0|0:0,0:0:0:0:
422,200,90525,2,0,L|307:210,1,88,8|2,0:0|0:3,0:0:0:0:
268,278,91235,6,0,P|190:311|108:252,1,176,2|8,0:0|0:0,0:0:0:0:
23,98,92655,2,0,P|26:73|46:29,2,44,2|2|2,0:3|0:0|0:0,0:0:0:0:
129,91,93365,2,0,L|256:75,1,88,8|2,0:0|0:3,0:0:0:0:
278,5,94075,6,0,B|312:36|313:86|313:86|356:68|435:99,1,176,2|0,0:0|0:0,0:0:0:0:
487,324,95495,1,0,0:0:0:0:
69,94,96506,5,8,0:0:0:0:
69,94,96846,6,0,L|76:221,1,110
121,301,97505,2,0,L|112:373,2,55,2|2|8,0:3|0:0|0:0,0:0:0:0:
167,271,97999,2,0,B|233:285|233:285|278:264,1,110,2|2,0:0|0:0,0:0:0:0:
309,226,98494,1,8,0:0:0:0:
402,283,98824,2,0,L|396:348,2,55,2|2|8,0:3|0:0|0:0,0:0:0:0:
460,189,99483,6,0,L|438:55,1,110,2|8,0:0|0:0,0:0:0:0:
334,57,100142,2,0,L|340:-8,2,55,2|2|8,0:3|0:0|0:0,0:0:0:0:
292,94,100637,2,0,P|221:100|185:61,1,110,2|2,0:0|0:0,0:0:0:0:
169,28,101131,1,8,0:0:0:0:
64,62,101461,2,0,L|-8:56,2,55,2|2|8,0:3|0:0|0:0,0:0:0:0:
132,147,102120,6,0,B|147:184|147:184|123:283,1,110,2|8,0:0|0:0,0:0:0:0:
75,347,102780,2,0,L|5:355,2,55,2|2|8,0:3|0:0|0:0,0:0:0:0:
126,367,103274,2,0,P|188:373|231:316,1,110,2|2,0:0|0:0,0:0:0:0:
226,288,103769,1,8,0:0:0:0:
332,313,104098,2,0,L|445:307,1,110,2|8,0:3|0:0,0:0:0:0:
497,211,104758,6,0,P|488:150|414:113,1,110,2|8,0:0|0:0,0:0:0:0:
349,81,105417,2,0,L|353:19,2,55,0|2|8,0:0|0:0|0:0,0:0:0:0:
275,162,106076,2,0,P|242:157|210:135,1,55,8|2,0:0|0:0,0:0:0:0:
184,106,106406,2,0,L|194:33,2,55,8|8|2,0:0|0:0|0:0,0:0:0:0:
138,136,106900,2,0,L|145:217,2,55,8|8|2,0:0|0:0|0:0,0:0:0:0:
85,117,107395,6,0,P|46:163|85:240,1,110,6|8,0:0|0:0,0:0:0:0:
97,309,108054,2,0,P|85:339|90:381,2,55,2|2|8,0:3|0:0|0:0,0:0:0:0:
150,295,108549,2,0,B|217:290|217:290|249:321,1,110,2|2,0:0|0:0,0:0:0:0:
287,358,109043,1,8,0:0:0:0:
393,319,109373,2,0,L|403:379,2,55,2|2|8,0:0|0:0|0:0,0:0:0:0:
390,264,109867,1,2,0:0:0:0:
399,209,110032,6,0,P|441:232|513:211,1,110,2|2,0:0|0:0,0:0:0:0:
508,111,110692,1,2,0:3:0:0:
462,80,110856,2,0,L|389:87,1,55,2|8,0:0|0:0,0:0:0:0:
355,104,111186,2,0,L|213:95,1,110,2|2,0:0|0:0,0:0:0:0:
197,68,111681,1,8,0:0:0:0:
87,56,112010,2,0,L|79:-2,2,55,2|2|8,0:0|0:0|0:0,0:0:0:0:
63,106,112505,1,0,0:0:0:0:
91,153,112670,6,0,B|104:185|104:185|84:284,1,110,6|2,0:0|0:0,0:0:0:0:
43,359,113329,2,0,L|-27:365,2,55,2|2|8,0:3|0:0|0:0,0:0:0:0:
102,372,113824,2,0,B|153:382|153:382|221:363,1,110,2|2,0:0|0:0,0:0:0:0:
246,319,114318,1,8,0:0:0:0:
366,327,114648,2,0,L|357:386,2,55,2|2|8,0:0|0:0|0:0,0:0:0:0:
391,271,115142,1,2,0:0:0:0:
416,217,115307,6,0,L|401:88,1,110,2|10,0:0|0:0,0:0:0:0:
318,16,115966,1,0,0:0:0:0:
281,63,116131,1,2,0:0:0:0:
220,66,116296,2,0,L|142:60,1,55,8|0,0:0|0:0,0:0:0:0:
104,65,116626,6,0,P|78:132|116:204,1,110,8|6,0:0|0:0,0:0:0:0:
207,174,117285,2,0,P|231:222|224:276,1,110,8|6,0:0|0:0,0:0:0:0:
150,371,117944,6,0,L|289:379,1,110,6|8,0:0|0:0,0:0:0:0:
376,343,118604,2,0,L|449:349,2,55,2|2|8,0:3|0:0|0:0,0:0:0:0:
335,297,119098,2,0,B|323:266|323:266|347:159,1,110,2|2,0:0|0:0,0:0:0:0:
386,151,119593,1,8,0:0:0:0:
375,30,119922,2,0,L|432:22,2,55,2|2|8,0:0|0:0|0:0,0:0:0:0:
315,17,120417,1,0,0:0:0:0:
272,59,120582,6,0,P|209:82|161:64,1,110,2|8,0:0|0:0,0:0:0:0:
50,54,121241,2,0,L|42:-7,2,55,0|2|8,0:0|0:0|0:0,0:0:0:0:
14,103,121736,2,0,B|-6:142|-6:142|13:228,1,110,2|2,0:0|0:0,0:0:0:0:
53,247,122230,2,0,L|39:307,1,55,8|0,0:0|0:0,0:0:0:0:
65,355,122560,2,0,L|-13:362,2,55,2|2|12,0:3|0:0|0:0,0:0:0:0:
125,356,123054,1,0,0:0:0:0:
161,307,123219,6,0,P|208:289|265:323,1,110,6|8,0:0|0:0,0:0:0:0:
379,299,123878,2,0,L|441:290,2,55,2|2|8,0:3|0:0|0:0,0:0:0:0:
331,260,124373,2,0,B|318:218|318:218|339:132,1,110,2|2,0:0|0:0,0:0:0:0:
387,125,124867,1,8,0:0:0:0:
283,54,125197,2,0,L|291:0,2,55,2|2|8,0:0|0:0|0:0,0:0:0:0:
237,94,125692,1,0,0:0:0:0:
177,101,125856,6,0,B|99:86|99:86|47:107,1,110,2|8,0:0|0:0,0:0:0:0:
11,203,126516,1,2,0:3:0:0:
52,246,126681,2,0,L|36:311,1,55,2|8,0:0|0:0,0:0:0:0:
62,354,127010,2,0,P|115:375|180:333,1,110,2|2,0:0|0:0,0:0:0:0:
195,305,127505,1,8,0:0:0:0:
311,338,127835,2,0,L|381:331,1,55,2|2,0:3|0:0,0:0:0:0:
422,354,128164,2,0,L|479:359,1,55,8|2,0:0|0:0,0:0:0:0:
512,308,128494,1,8,0:0:0:0:
485,253,128659,6,0,B|459:215|459:215|471:113,1,110,6|2,0:0|0:0,0:0:0:0:
479,92,129153,1,8,0:0:0:0:
363,57,129482,2,0,L|354:2,2,55,2|2|8,0:0|0:0|0:0,0:0:0:0:
325,104,129976,2,0,P|256:122|200:84,1,110,2|2,0:0|0:0,0:0:0:0:
183,60,130471,1,8,0:0:0:0:
63,81,130801,2,0,L|-12:74,2,55,2|2|8,0:0|0:0|0:0,0:0:0:0:
93,133,131295,6,0,B|104:180|104:180|70:263,1,110,2|2,0:0|0:0,0:0:0:0:
30,271,131790,1,8,0:0:0:0:
121,350,132119,2,0,L|187:343,1,55,2|2,0:3|0:0,0:0:0:0:
236,336,132449,1,10,0:0:0:0:
354,361,132779,2,0,L|364:284,1,55,2|2,0:3|0:0,0:0:0:0:
370,246,133108,1,8,0:0:0:0:
438,146,133438,2,0,L|430:82,1,55,2|2,0:3|0:0,0:0:0:0:
393,43,133768,1,8,0:0:0:0:
333,35,133932,6,0,B|296:52|296:52|221:43,1,110,2|2,0:0|0:0,0:0:0:0:
167,35,134427,1,8,0:0:0:0:
56,84,134757,2,0,L|-9:89,2,55,2|2|8,0:3|0:0|0:0,0:0:0:0:
100,125,135251,2,0,B|119:153|119:153|109:253,1,110,2|2,0:0|0:0,0:0:0:0:
101,288,135746,1,8,0:0:0:0:
194,364,136075,6,0,P|251:373|275:368,1,55,2|2,0:3|0:0,0:0:0:0:
297,338,136405,1,8,0:0:0:0:
350,308,136570,2,0,L|483:319,1,110,2|2,0:0|0:0,0:0:0:0:
502,273,137064,1,8,0:0:0:0:
438,169,137394,2,0,L|427:81,1,55,2|2,0:3|0:0,0:0:0:0:
422,54,137724,1,8,0:0:0:0:
306,88,138053,2,0,L|217:79,1,55,2|2,0:3|0:0,0:0:0:0:
190,77,138383,1,8,0:0:0:0:
70,55,138713,2,0,L|77:116,1,55,8|2,0:0|0:0,0:0:0:0:
84,169,139042,1,8,0:0:0:0:
44,215,139207,6,0,B|22:269|22:269|51:345,1,110,2|2,0:0|0:0,0:0:0:0:
94,344,139702,1,8,0:0:0:0:
212,364,140031,2,0,L|279:352,1,55,2|2,0:3|0:0,0:0:0:0:
316,320,140361,1,8,0:0:0:0:
374,336,140526,2,0,P|434:340|481:287,1,110,2|2,0:0|0:0,0:0:0:0:
493,254,141020,1,8,0:0:0:0:
464,136,141350,2,0,L|473:55,2,55,2|2|8,0:3|0:0|0:0,0:0:0:0:
413,170,141844,6,0,B|361:186|361:186|279:148,1,110,2|2,0:0|0:0,0:0:0:0:
279,110,142339,1,8,0:0:0:0:
177,44,142669,2,0,L|104:50,1,55,2|2,0:3|0:0,0:0:0:0:
62,57,142998,1,8,0:0:0:0:
15,168,143328,2,0,L|88:174,1,55,2|2,0:3|0:0,0:0:0:0:
130,181,143657,1,8,0:0:0:0:
138,301,143987,2,0,L|69:308,2,55,2|2|8,0:3|0:0|0:0,0:0:0:0:
189,334,144482,6,0,P|249:359|310:330,1,110,2|2,0:0|0:0,0:0:0:0:
324,297,144976,1,8,0:0:0:0:
413,214,145306,2,0,L|472:220,2,55,2|2|8,0:3|0:0|0:0,0:0:0:0:
366,174,145801,2,0,B|350:135|350:135|366:48,1,110,2|2,0:0|0:0,0:0:0:0:
374,8,146295,1,8,0:0:0:0:
257,40,146625,2,0,L|264:98,2,55,2|2|8,0:3|0:0|0:0,0:0:0:0:
205,7,147119,6,0,P|134:17|101:58,1,110,2|2,0:0|0:0,0:0:0:0:
120,102,147614,1,8,0:0:0:0:
72,212,147943,2,0,L|-7:207,2,55,2|2|8,0:3|0:0|0:0,0:0:0:0:
176,274,148603,2,0,L|239:267,2,55,2|2|8,0:3|0:0|0:0,0:0:0:0:
139,322,149097,1,8,0:0:0:0:
174,370,149262,2,0,L|240:374,1,55,8|8,0:0|0:0,0:0:0:0:
286,354,149592,6,0,P|337:321|396:334,1,110,6|2,0:0|0:0,0:0:0:0:
502,316,150251,2,0,L|513:374,2,55,8|0|2,0:0|0:0|0:0,0:0:0:0:
466,266,150746,2,0,L|479:142,1,110,2|10,0:0|0:0,0:0:0:0:
462,98,151240,2,0,P|414:77|381:77,1,55,2|2,0:0|0:0,0:0:0:0:
358,106,151570,2,0,P|332:122|280:130,1,55,8|2,0:0|0:0,0:0:0:0:
252,107,151899,2,0,L|166:102,1,55,8|2,0:0|0:0,0:0:0:0:
136,98,152229,5,12,0:0:0:0:
136,98,152559,1,8,0:3:0:0:
