osu file format v14

[General]
AudioFilename: audio.mp3
AudioLeadIn: 0
PreviewTime: 96783
Countdown: 0
SampleSet: Soft
StackLeniency: 0.4
Mode: 0
LetterboxInBreaks: 0
WidescreenStoryboard: 0

[Editor]
DistanceSpacing: 1
BeatDivisor: 4
GridSize: 32
TimelineZoom: 1.1

[Metadata]
Title:Loose Change
TitleUnicode:Loose Change
Artist:Royal Blood
ArtistUnicode:Royal Blood
Creator:BOUYAAA
Version:$
Source:
Tags:Hard Rock Metal HootOwlStar Rohit6 Exote
BeatmapID:1155085
BeatmapSetID:545156

[Difficulty]
HPDrainRate:6
CircleSize:4
OverallDifficulty:8.7
ApproachRate:9.2
SliderMultiplier:1.7
SliderTickRate:1

[Events]
//Background and Video events
0,0,"the.jpg",0,0
//Break Periods
//Storyboard Layer 0 (Background)
//Storyboard Layer 1 (Fail)
//Storyboard Layer 2 (Pass)
//Storyboard Layer 3 (Foreground)
//Storyboard Sound Samples

[TimingPoints]
348,355.029585798817,4,2,0,15,1,0
348,-142.857142857143,4,2,0,15,0,0
6028,-100,4,2,1,75,0,0
34430,-200,4,2,1,75,0,0
40111,-100,4,2,1,75,0,0
49741,-100,4,2,1,5,0,0
49874,-100,4,2,1,75,0,0
49919,-100,4,2,1,5,0,0
50052,-100,4,2,1,75,0,0
74194,-200,4,2,1,75,0,0
94253,-333.333333333333,4,2,1,50,0,0
95495,337.078651685393,4,2,1,75,1,0
96846,329.67032967033,4,2,1,75,1,0
107065,-62.5,4,2,1,75,0,0
107395,-76.9230769230769,4,2,1,75,0,1
116626,-76.9230769230769,4,2,1,75,0,0
117944,-76.9230769230769,4,2,1,75,0,1
127175,329.67032967033,5,2,1,75,1,0
128494,-76.9230769230769,5,2,1,75,0,0
128658,-76.9230769230769,5,2,1,75,0,1
128823,329.67032967033,4,2,1,75,1,0
128823,-76.9230769230769,4,2,1,75,0,0
150746,-100,4,2,1,75,0,0
152559,-76.9230769230769,4,2,1,75,0,0

[Colours]
Combo1 : 250,214,103
Combo2 : 176,201,247
Combo3 : 244,208,140
Combo4 : 220,148,248

[HitObjects]
78,136,348,6,0,L|68:76,1,59.4999981842042
156,100,703,2,0,L|286:111,1,118.999996368408,0|0,0:0|0:3,0:0:0:0:
435,247,1768,5,0,0:0:0:0:
360,273,1946,1,0,0:0:0:0:
419,324,2123,1,0,0:0:0:0:
368,191,2300,2,0,P|334:195|296:216,1,59.4999981842042
77,247,2655,5,0,0:0:0:0:
152,273,2833,1,0,0:0:0:0:
93,324,3010,1,0,0:0:0:0:
144,191,3187,2,0,P|178:195|216:216,1,59.4999981842042
256,384,3543,2,0,L|256:255,1,118.999996368408,0|0,0:0|0:3,0:0:0:0:
381,36,4785,5,0,0:0:0:0:
453,91,4963,2,0,L|441:172,1,59.4999981842042
299,113,5318,2,0,L|287:32,1,59.4999981842042
227,168,5673,1,0,0:0:0:0:
307,205,5850,1,0,0:0:0:0:
199,68,6028,6,0,L|51:74,1,127.5,6|0,0:0|0:0,0:0:0:0:
11,26,6383,2,0,P|-6:58|8:118,1,85,2|0,0:0|0:0,0:0:0:0:
117,159,6738,2,0,L|101:248,1,85,8|2,0:0|0:0,0:0:0:0:
46,382,7093,2,0,L|30:298,1,85,2|0,0:3|0:0,0:0:0:0:
289,275,7448,5,2,0:0:0:0:
374,333,7626,1,0,0:0:0:0:
285,370,7803,1,2,0:3:0:0:
380,236,7981,1,2,0:0:0:0:
205,320,8158,2,0,B|164:331|164:331|120:329,1,85,8|0,0:0|0:0,0:0:0:0:
279,182,8513,2,0,P|327:187|367:223,1,85,2|0,0:3|0:0,0:0:0:0:
250,379,8868,6,0,L|237:249,1,127.5,2|0,0:0|0:0,0:0:0:0:
279,182,9223,2,0,B|287:141|287:141|278:91,1,85,2|0,0:0|0:0,0:0:0:0:
73,240,9578,2,0,B|111:265|111:265|179:258,1,85,8|2,0:0|0:0,0:0:0:0:
279,182,9933,1,2,0:3:0:0:
279,182,10111,1,0,0:0:0:0:
231,300,10288,6,0,L|226:384,1,85,2|0,0:0|0:0,0:0:0:0:
187,186,10643,1,2,0:3:0:0:
187,186,10821,1,2,0:0:0:0:
317,279,10998,2,0,P|362:293|419:275,1,85,8|0,0:0|0:0,0:0:0:0:
467,187,11353,1,2,0:3:0:0:
456,360,11531,1,0,0:0:0:0:
360,191,11708,6,0,B|357:141|357:141|371:103|371:103|369:62,1,127.5,2|0,0:0|0:0,0:0:0:0:
322,6,12063,2,0,P|274:-3|235:19,1,85,2|0,0:0|0:0,0:0:0:0:
127,207,12419,2,0,L|24:193,1,85,8|2,0:0|0:0,0:0:0:0:
200,147,12774,2,0,B|238:131|238:131|298:135,1,85,2|0,0:3|0:0,0:0:0:0:
217,361,13129,5,2,0:0:0:0:
105,294,13306,1,0,0:0:0:0:
243,272,13484,1,2,0:3:0:0:
64,375,13661,1,2,0:0:0:0:
308,337,13839,2,0,L|411:349,1,85,8|0,0:0|0:0,0:0:0:0:
210,190,14194,2,0,B|167:187|167:187|117:210,1,85,2|0,0:3|0:0,0:0:0:0:
344,227,14549,6,0,P|364:165|331:95,1,127.5,2|0,0:0|0:0,0:0:0:0:
276,61,14904,2,0,B|236:76|236:76|186:72,1,85,2|0,0:0|0:0,0:0:0:0:
7,24,15259,2,0,B|49:20|49:20|89:35,1,85,8|2,0:0|0:0,0:0:0:0:
121,135,15614,2,0,L|114:219,1,85,2|0,0:3|0:0,0:0:0:0:
264,352,15969,5,2,0:0:0:0:
223,206,16146,1,0,0:0:0:0:
178,369,16324,1,2,0:3:0:0:
288,270,16501,1,2,0:0:0:0:
46,283,16679,2,0,B|41:327|41:327|74:391,1,85,8|0,0:0|0:0,0:0:0:0:
264,275,17034,2,0,B|252:232|252:232|199:184,1,85,2|0,0:3|0:0,0:0:0:0:
347,365,17389,6,0,B|373:308|373:308|359:234,1,127.5,2|0,0:0|0:0,0:0:0:0:
316,166,17744,2,0,L|326:69,1,85,2|0,0:0|0:0,0:0:0:0:
457,250,18099,2,0,L|465:334,1,85,8|2,0:0|0:0,0:0:0:0:
414,163,18454,2,0,B|433:118|433:118|466:85,1,85,2|0,0:3|0:0,0:0:0:0:
287,293,18809,5,2,0:0:0:0:
198,265,18987,1,0,0:0:0:0:
338,372,19164,1,2,0:3:0:0:
114,310,19342,1,2,0:0:0:0:
289,197,19519,2,0,B|331:209|331:209|372:241,1,85,8|0,0:0|0:0,0:0:0:0:
458,92,19874,2,0,B|425:117|425:117|383:129,1,85,2|0,0:3|0:0,0:0:0:0:
212,32,20229,6,0,L|191:184,1,127.5,2|0,0:0|0:0,0:0:0:0:
168,240,20584,2,0,B|184:280|184:280|184:340,1,85,2|0,0:0|0:0,0:0:0:0:
20,168,20939,2,0,L|116:176,1,85,8|2,0:0|0:0,0:0:0:0:
256,224,21294,2,0,L|340:216,1,85,2|0,0:3|0:0,0:0:0:0:
184,321,21649,5,2,0:0:0:0:
168,240,21827,1,0,0:0:0:0:
367,349,22004,1,2,0:3:0:0:
404,276,22182,1,2,0:0:0:0:
192,152,22359,2,0,B|148:152|148:152|96:172,1,85,8|0,0:0|0:0,0:0:0:0:
88,372,22714,1,2,0:3:0:0:
248,264,22892,1,0,0:0:0:0:
12,176,23069,6,0,L|24:284,1,85,2|0,0:0|0:0,0:0:0:0:
238,348,23424,2,0,L|247:263,1,85,2|0,0:0|0:0,0:0:0:0:
134,61,23779,2,0,B|137:71|137:71|132:98|132:98|153:110|160:147|160:147|154:175,1,85,8|2,0:0|0:0,0:0:0:0:
170,149,24134,2,0,B|162:114|162:114|167:87|167:87|142:60|138:37|138:37|145:10,1,127.5,2|0,0:3|0:0,0:0:0:0:
236,25,24490,5,2,0:0:0:0:
252,115,24667,1,0,0:0:0:0:
58,40,24845,1,2,0:3:0:0:
325,58,25022,1,2,0:0:0:0:
88,119,25200,2,0,L|81:206,1,85,8|0,0:0|0:0,0:0:0:0:
178,368,25555,2,0,B|169:323|169:323|132:293,1,85,2|0,0:3|0:0,0:0:0:0:
279,318,25910,6,0,L|417:299,1,127.5,2|0,0:0|0:0,0:0:0:0:
468,245,26265,2,0,B|490:282|490:282|488:350,1,85,2|0,0:0|0:0,0:0:0:0:
221,250,26620,1,8,0:0:0:0:
352,344,26797,1,2,0:0:0:0:
138,298,26975,2,0,P|129:225|189:164,1,127.5,2|0,0:3|0:0,0:0:0:0:
247,164,27330,6,0,B|291:176|291:176|351:173,1,85,2|0,0:0|0:0,0:0:0:0:
176,88,27685,1,2,0:3:0:0:
224,248,27862,1,2,0:0:0:0:
296,92,28040,2,0,L|288:0,1,85,8|0,0:0|0:0,0:0:0:0:
55,59,28395,2,0,B|45:109|45:109|71:157,1,85,2|0,0:3|0:0,0:0:0:0:
304,191,28750,6,0,B|401:177|401:177|460:203,1,127.5,2|0,0:0|0:0,0:0:0:0:
479,257,29105,1,2,0:0:0:0:
465,103,29282,1,0,0:0:0:0:
383,272,29460,2,0,L|389:362,1,85,8|2,0:0|0:0,0:0:0:0:
304,191,29815,1,2,0:3:0:0:
191,345,29992,1,0,3:0:0:0:
171,348,30081,1,0,3:0:0:0:
153,352,30170,5,2,0:0:0:0:
273,373,30348,1,0,0:0:0:0:
109,277,30525,1,2,0:3:0:0:
334,314,30703,1,2,0:0:0:0:
121,190,30880,2,0,B|74:193|74:193|31:220,1,85,8|0,0:0|0:0,0:0:0:0:
282,255,31235,2,0,B|328:260|328:260|375:241,1,85,2|0,0:3|0:0,0:0:0:0:
228,50,31590,6,0,L|219:179,1,127.5,2|0,0:0|0:0,0:0:0:0:
183,264,31945,2,0,B|174:310|174:310|201:363,1,85,2|0,0:0|0:0,0:0:0:0:
312,168,32300,1,8,0:0:0:0:
124,192,32478,2,0,B|32:200,1,85,2|2,0:0|0:3,0:0:0:0:
272,256,32833,1,0,0:0:0:0:
228,50,33010,5,2,0:0:0:0:
312,168,33188,1,0,0:0:0:0:
131,87,33365,2,0,B|117:45|117:45|140:-4,1,85,2|2,0:3|0:0,0:0:0:0:
336,84,33720,1,8,0:0:0:0:
193,170,33898,1,0,0:0:0:0:
336,84,34075,2,0,L|452:100,1,85,2|0,0:3|0:0,0:0:0:0:
504,252,34430,6,0,P|416:244|340:300,1,170,6|2,0:0|0:0,0:0:0:0:
248,372,35850,2,0,B|240:260|240:260|200:212,1,170,2|2,0:0|0:0,0:0:0:0:
304,18,37271,2,0,B|286:129|286:129|315:185,1,170,6|2,0:0|0:0,0:0:0:0:
392,108,38691,5,2,0:0:0:0:
392,108,40111,6,0,L|256:120,1,127.5,2|0,0:0|0:0,0:0:0:0:
184,72,40466,2,0,B|144:56|144:56|72:64,1,85,2|0,0:0|0:0,0:0:0:0:
256,212,40821,1,8,0:0:0:0:
268,28,40998,1,2,0:0:0:0:
124,144,41176,1,2,0:3:0:0:
124,144,41353,1,0,0:0:0:0:
352,148,41531,5,2,0:0:0:0:
260,120,41708,1,0,0:0:0:0:
436,108,41886,1,2,0:3:0:0:
216,44,42063,1,2,0:0:0:0:
432,200,42241,2,0,B|444:232|444:232|436:304,1,85,8|0,0:0|0:0,0:0:0:0:
272,364,42596,2,0,B|260:332|260:332|268:260,1,85,2|0,0:3|0:0,0:0:0:0:
492,364,42951,6,0,P|404:372|356:324,1,127.5,2|0,0:0|0:0,0:0:0:0:
344,268,43306,2,0,L|340:148,1,85,2|0,0:0|0:0,0:0:0:0:
176,364,43661,1,8,0:0:0:0:
233,285,43839,2,0,P|153:266|89:317,1,170,2|0,0:3|0:0,0:0:0:0:
67,129,44371,6,0,L|54:31,1,85,2|0,0:0|0:0,0:0:0:0:
21,218,44726,1,2,0:3:0:0:
21,218,44904,1,2,0:0:0:0:
175,115,45081,2,0,B|218:117|218:117|264:139,1,85,8|0,0:0|0:0,0:0:0:0:
198,303,45436,1,2,0:3:0:0:
135,222,45614,1,0,0:0:0:0:
296,338,45791,6,0,L|440:319,1,127.5,2|0,0:0|0:0,0:0:0:0:
488,262,46146,2,0,B|511:301|511:301|506:356,1,85,2|0,0:0|0:0,0:0:0:0:
324,192,46501,2,0,P|328:144|368:104,1,85,8|2,0:0|0:0,0:0:0:0:
508,176,46856,1,2,0:3:0:0:
508,176,47034,1,0,0:0:0:0:
389,13,47211,5,2,0:0:0:0:
276,31,47389,1,0,0:0:0:0:
463,70,47566,1,2,0:3:0:0:
233,113,47744,1,2,0:0:0:0:
445,236,47921,6,0,P|468:270|470:312,1,85,8|0,0:0|0:0,0:0:0:0:
231,264,48276,1,2,0:3:0:0:
366,146,48454,1,0,0:0:0:0:
341,366,48632,5,2,0:0:0:0:
254,152,48809,1,0,0:0:0:0:
132,324,48987,2,0,P|178:367|220:371,1,85,2|0,0:3|0:0,0:0:0:0:
445,236,49342,5,8,0:0:0:0:
341,366,49519,1,2,0:0:0:0:
306,163,49697,6,0,L|310:198,1,21.25,0|0,1:0|0:0,0:0:0:0:
206,268,49874,2,0,L|209:247,1,21.25,0|0,1:0|0:0,0:0:0:0:
271,38,50052,2,0,L|263:89,1,42.5,8|0,0:0|0:0,0:0:0:0:
209,247,50229,6,0,B|191:145|191:145|129:101,1,170,6|0,0:0|0:0,0:0:0:0:
415,27,50762,2,0,B|361:66|361:66|344:156,1,127.5,6|0,0:0|0:0,0:0:0:0:
337,202,51117,1,4,0:3:0:0:
272,41,51294,1,4,0:3:0:0:
454,154,51472,6,0,L|470:287,1,127.5,10|0,0:0|0:0,0:0:0:0:
428,371,51827,2,0,B|389:385|389:385|323:371,1,85,2|0,0:0|0:0,0:0:0:0:
88,212,52182,2,0,B|128:205|128:205|191:232,1,85,8|2,0:0|0:0,0:0:0:0:
240,376,52537,2,0,L|252:284,1,85,2|0,0:3|0:0,0:0:0:0:
284,92,52892,5,2,0:0:0:0:
316,184,53069,1,0,0:0:0:0:
180,72,53247,1,2,0:3:0:0:
416,208,53424,1,2,0:0:0:0:
136,176,53602,2,0,L|32:188,1,85,8|0,0:0|0:0,0:0:0:0:
216,252,53957,1,2,0:3:0:0:
264,84,54134,1,0,0:0:0:0:
312,308,54312,6,0,P|408:336|456:308,1,127.5,2|0,0:0|0:0,0:0:0:0:
488,248,54667,2,0,L|492:160,1,85,2|0,0:0|0:0,0:0:0:0:
512,372,55022,1,8,0:0:0:0:
380,252,55200,2,0,B|312:264|312:264|280:288|280:288|200:304,1,170,2|0,0:0|0:0,0:0:0:0:
40,156,55732,6,0,P|80:180|140:176,1,85,2|0,0:0|0:0,0:0:0:0:
280,40,56087,1,2,0:3:0:0:
248,224,56265,1,2,0:0:0:0:
152,64,56442,1,8,0:0:0:0:
152,64,56620,1,0,0:0:0:0:
344,144,56797,2,0,L|444:132,1,85,2|0,0:3|0:0,0:0:0:0:
248,224,57152,6,0,P|216:176|236:80,1,127.5,2|0,0:0|0:0,0:0:0:0:
276,40,57507,1,2,0:0:0:0:
344,144,57685,1,0,0:0:0:0:
116,44,57862,2,0,L|12:56,1,85,8|2,0:0|0:0,0:0:0:0:
218,108,58217,1,2,0:3:0:0:
108,164,58395,1,0,0:0:0:0:
248,252,58572,5,2,0:0:0:0:
150,239,58750,1,0,0:0:0:0:
324,164,58927,1,2,0:3:0:0:
60,240,59105,1,2,0:0:0:0:
336,296,59282,2,0,P|360:336|360:376,1,85,8|0,0:0|0:0,0:0:0:0:
127,317,59637,2,0,P|128:275|151:239,1,85,2|0,0:3|0:0,0:0:0:0:
384,216,59992,6,0,L|244:200,1,127.5,2|0,0:0|0:0,0:0:0:0:
172,160,60348,2,0,B|152:116|152:116|164:72,1,85,2|0,0:0|0:0,0:0:0:0:
400,28,60703,1,8,0:0:0:0:
280,100,60880,1,2,0:0:0:0:
472,136,61058,1,2,0:3:0:0:
472,136,61235,1,0,0:0:0:0:
314,295,61413,6,0,L|191:300,1,85,2|0,0:0|0:0,0:0:0:0:
416,236,61768,2,0,P|477:257|511:287,1,85,2|2,0:3|0:0,0:0:0:0:
317,164,62123,1,8,0:0:0:0:
317,164,62300,1,0,0:0:0:0:
402,342,62478,1,2,0:3:0:0:
416,236,62655,1,0,0:0:0:0:
226,334,62833,6,0,L|96:322,1,127.5,2|0,0:0|0:0,0:0:0:0:
28,261,63188,2,0,P|20:214|44:167,1,85,2|0,0:0|0:0,0:0:0:0:
254,18,63543,6,0,L|271:114,1,85,8|2,0:0|0:0,0:0:0:0:
99,322,63898,2,0,B|108:279|108:279|146:246,1,85,2|0,0:3|0:0,0:0:0:0:
344,271,64253,5,2,0:0:0:0:
276,190,64430,1,0,0:0:0:0:
329,361,64608,1,2,0:3:0:0:
188,183,64785,1,2,0:0:0:0:
414,334,64963,6,0,B|455:341|455:341|510:302,1,85,8|0,0:0|0:0,0:0:0:0:
391,53,65318,2,0,L|374:142,1,85,2|0,0:3|0:0,0:0:0:0:
248,364,65673,6,0,L|225:221,1,127.5,2|0,0:0|0:0,0:0:0:0:
232,84,66028,2,0,B|256:123|256:123|245:181,1,85,2|0,0:0|0:0,0:0:0:0:
15,189,66383,6,0,L|115:200,1,85,8|2,0:0|0:0,0:0:0:0:
396,215,66738,2,0,L|296:226,1,85,2|0,0:3|0:0,0:0:0:0:
112,304,67093,5,2,0:0:0:0:
168,140,67271,1,0,0:0:0:0:
196,360,67448,1,2,0:3:0:0:
100,212,67626,1,2,0:0:0:0:
288,328,67803,6,0,L|392:344,1,85,8|0,0:0|0:0,0:0:0:0:
100,212,68158,2,0,B|48:224|48:224|12:248,1,85,2|0,0:3|0:0,0:0:0:0:
256,236,68513,6,0,L|260:96,1,127.5,2|0,0:0|0:0,0:0:0:0:
208,32,68868,2,0,B|165:23|165:23|112:52,1,85,2|0,0:0|0:0,0:0:0:0:
349,36,69223,1,8,0:0:0:0:
185,116,69401,1,2,0:0:0:0:
401,148,69578,1,2,0:3:0:0:
401,148,69756,1,0,0:0:0:0:
320,271,69933,5,2,0:0:0:0:
406,244,70111,1,0,0:0:0:0:
279,354,70288,1,2,0:3:0:0:
495,277,70466,1,2,0:0:0:0:
193,316,70643,2,0,B|151:320|151:320|107:292,1,85,8|0,0:0|0:0,0:0:0:0:
260,131,70998,2,0,B|287:162|287:162|291:214,1,85,2|0,0:3|0:0,0:0:0:0:
55,101,71353,6,0,L|194:86,1,127.5,2|0,0:0|0:0,0:0:0:0:
258,45,71708,2,0,B|305:60|305:60|361:57,1,85,2|0,0:0|0:0,0:0:0:0:
142,4,72063,1,8,0:0:0:0:
259,130,72241,2,0,B|269:192|269:192|259:225|259:225|272:321,1,170,2|0,0:3|0:0,0:0:0:0:
435,132,72774,5,2,0:0:0:0:
418,221,72951,1,0,0:0:0:0:
344,161,73129,1,2,0:3:0:0:
512,193,73306,1,2,0:0:0:0:
268,297,73484,1,8,0:0:0:0:
291,384,73661,1,0,0:0:0:0:
358,321,73839,1,2,0:3:0:0:
198,357,74016,1,0,0:0:0:0:
344,161,74194,6,0,L|513:192,1,170,6|8,0:0|0:0,0:0:0:0:
465,267,75081,1,0,0:0:0:0:
481,108,75259,2,0,P|504:82|519:69,1,42.5,2|0,0:3|0:0,0:0:0:0:
359,14,75614,2,0,P|363:50|369:65,1,42.5,2|2,0:3|0:0,0:0:0:0:
399,135,75969,1,2,0:0:0:0:
284,77,76146,1,0,0:0:0:0:
292,196,76324,2,0,P|263:213|241:216,1,42.5,8|0,0:0|0:0,0:0:0:0:
82,153,76679,2,0,P|121:157|133:162,1,42.5,2|0,0:3|0:0,0:0:0:0:
185,354,77034,6,0,L|181:307,1,42.5,2|0,0:0|0:0,0:0:0:0:
172,236,77389,1,2,0:3:0:0:
103,288,77566,1,0,0:0:0:0:
268,329,77744,2,0,P|303:333|325:329,1,42.5,8|0,0:0|0:0,0:0:0:0:
103,288,78099,2,0,P|67:291|45:296,1,42.5,2|0,0:3|0:0,0:0:0:0:
187,354,78454,1,2,0:3:0:0:
246,202,78632,1,2,0:0:0:0:
246,202,78809,2,0,P|258:243|258:248,1,42.5,2|0,0:0|0:0,0:0:0:0:
386,363,79164,2,0,L|403:266,1,85,8|2,0:0|0:3,0:0:0:0:
340,108,79874,6,0,P|379:127|487:78,1,170,2|8,0:0|0:0,0:0:0:0:
402,37,80762,1,0,0:0:0:0:
491,188,80939,2,0,L|484:241,1,42.5,2|0,0:3|0:0,0:0:0:0:
359,295,81294,2,0,L|354:248,1,42.5,2|2,0:3|0:0,0:0:0:0:
290,200,81649,1,2,0:0:0:0:
368,169,81827,1,0,0:0:0:0:
274,284,82004,2,0,P|253:281|222:270,1,42.5,8|0,0:0|0:0,0:0:0:0:
368,169,82359,2,0,P|388:162|409:159,1,42.5,2|0,0:3|0:0,0:0:0:0:
448,308,82714,6,0,L|441:360,1,42.5,2|0,0:0|0:0,0:0:0:0:
380,252,83069,1,2,0:3:0:0:
459,225,83247,1,0,0:0:0:0:
352,358,83424,2,0,P|314:364|296:362,1,42.5,8|0,0:0|0:0,0:0:0:0:
146,246,83779,2,0,P|181:254|204:262,1,42.5,2|0,0:3|0:0,0:0:0:0:
327,172,84134,1,2,0:3:0:0:
227,116,84312,1,2,0:0:0:0:
227,116,84490,2,0,P|222:152|221:169,1,42.5,2|0,0:0|0:0,0:0:0:0:
290,352,84845,2,0,L|281:267,1,85,8|2,0:0|0:3,0:0:0:0:
327,172,85377,1,2,0:3:0:0:
200,348,85555,6,0,P|116:372|56:324,1,170,2|8,0:3|0:0,0:0:0:0:
136,285,86442,1,0,0:0:0:0:
58,195,86620,2,0,L|63:136,1,42.5,2|0,0:3|0:0,0:0:0:0:
212,228,86975,1,2,0:3:0:0:
139,115,87152,1,2,0:0:0:0:
139,115,87330,2,0,L|145:163,1,42.5,2|0,0:0|0:0,0:0:0:0:
292,297,87685,2,0,L|296:245,1,42.5,8|0,0:0|0:0,0:0:0:0:
256,126,88040,2,0,P|275:161|289:173,1,42.5,2|0,0:3|0:0,0:0:0:0:
484,211,88395,6,0,L|422:206,1,42.5,2|0,0:0|0:0,0:0:0:0:
361,197,88750,1,2,0:3:0:0:
394,272,88927,1,2,0:3:0:0:
466,132,89105,2,0,P|459:84|448:37,1,85,8|2,0:0|0:3,0:0:0:0:
441,207,89637,1,0,0:0:0:0:
368,72,89815,1,2,0:3:0:0:
361,197,89992,1,2,0:0:0:0:
361,197,90170,2,0,P|349:162|336:142,1,42.5,2|0,0:0|0:0,0:0:0:0:
236,57,90525,2,0,P|227:76|216:143,1,85,8|2,0:0|0:3,0:0:0:0:
276,368,91235,6,0,B|271:301|271:301|282:278|282:278|277:189,1,170,2|8,0:0|0:0,0:0:0:0:
199,250,92123,1,0,0:0:0:0:
353,325,92300,2,0,P|390:334|412:333,1,42.5,2|0,0:3|0:0,0:0:0:0:
177,369,92655,1,2,0:3:0:0:
199,250,92833,1,2,0:0:0:0:
199,250,93010,2,0,L|217:296,1,42.5,2|0,0:0|0:0,0:0:0:0:
30,365,93365,2,0,P|33:315|48:263,1,85,8|2,0:0|0:3,0:0:0:0:
116,227,93898,1,0,0:0:0:0:
177,369,94075,6,0,P|206:378|238:376,1,42.5,2|0,0:0|0:0,0:0:0:0:
117,311,94430,1,0,0:0:0:0:
254,260,94608,2,0,L|306:259,1,50.9999984436036
368,306,95140,1,0,0:0:0:0:
290,103,95495,5,0,0:0:0:0:
391,154,96506,5,8,0:0:0:0:
100,220,96846,6,0,P|152:220|188:248,1,85,6|0,0:0|0:0,0:0:0:0:
276,364,97175,2,0,L|288:268,1,85,8|0,0:0|0:0,0:0:0:0:
232,96,97505,1,2,0:3:0:0:
264,192,97670,1,2,0:0:0:0:
128,116,97835,1,8,0:0:0:0:
334,119,97999,6,0,L|474:111,1,127.5,2|0,0:0|0:0,0:0:0:0:
483,109,98329,1,2,0:0:0:0:
347,13,98494,1,8,0:0:0:0:
442,27,98659,1,0,0:0:0:0:
249,77,98824,1,2,0:3:0:0:
324,140,98988,1,2,0:0:0:0:
150,32,99153,2,0,P|104:30|57:54,1,85,8|0,0:0|0:0,0:0:0:0:
212,207,99483,6,0,L|197:318,1,85,2|0,0:0|0:0,0:0:0:0:
2,358,99813,2,0,B|-8:315|-8:315|14:261,1,85,8|0,0:0|0:0,0:0:0:0:
192,303,100142,1,2,0:3:0:0:
91,322,100307,1,2,0:0:0:0:
269,359,100472,1,8,0:0:0:0:
288,171,100637,6,0,L|126:187,1,127.5,2|0,0:0|0:0,0:0:0:0:
133,188,100966,1,2,0:0:0:0:
277,83,101131,2,0,B|319:89|319:89|370:122,1,85,8|0,0:0|0:0,0:0:0:0:
427,242,101461,2,0,L|437:143,1,85,2|2,0:3|0:0,0:0:0:0:
437,31,101791,1,8,0:0:0:0:
512,106,101955,1,0,0:0:0:0:
336,243,102120,6,0,B|340:285|340:285|385:338,1,85,6|0,0:0|0:0,0:0:0:0:
512,231,102450,2,0,L|418:243,1,85,8|0,0:0|0:0,0:0:0:0:
198,334,102780,1,2,0:3:0:0:
281,372,102944,1,2,0:0:0:0:
229,242,103109,1,8,0:0:0:0:
365,317,103274,6,0,L|508:340,1,127.5,2|0,0:0|0:0,0:0:0:0:
511,340,103604,1,2,0:0:0:0:
349,232,103769,2,0,P|333:188|334:138,1,85,8|0,0:0|0:0,0:0:0:0:
510,70,104098,2,0,P|508:112|493:152,1,85,2|2,0:3|0:0,0:0:0:0:
311,47,104428,1,8,0:0:0:0:
414,92,104593,1,0,0:0:0:0:
229,169,104758,6,0,L|114:156,1,85,2|0,0:0|0:0,0:0:0:0:
24,295,105087,2,0,L|126:282,1,85,8|0,0:0|0:0,0:0:0:0:
380,304,105417,2,0,P|325:333|309:369,1,85,2|0,0:3|0:0,0:0:0:0:
157,18,105747,5,8,0:0:0:0:
108,284,105911,1,2,0:0:0:0:
447,62,106076,5,8,0:0:0:0:
180,108,106241,1,2,0:0:0:0:
383,356,106406,5,8,0:0:0:0:
312,57,106571,1,8,0:0:0:0:
195,380,106736,1,2,0:0:0:0:
436,153,106900,5,8,0:0:0:0:
75,105,107065,2,0,B|43:109|28:128|28:128|61:129|83:152|83:152|102:137|102:137|130:170|204:153,1,204
312,57,107395,6,0,B|332:21|399:14|426:40|426:40|360:80,1,165.749992412568,6|0,0:0|0:0,0:0:0:0:
274,135,107725,2,0,P|229:93|246:10,1,110.499994941712,8|0,0:0|0:0,0:0:0:0:
373,146,108054,1,2,0:3:0:0:
90,113,108219,1,2,0:0:0:0:
231,361,108384,1,8,0:0:0:0:
312,57,108549,5,2,0:0:0:0:
197,253,108714,1,0,0:0:0:0:
193,28,108878,1,2,0:0:0:0:
312,288,109043,5,8,0:0:0:0:
54,205,109208,1,0,0:0:0:0:
328,168,109373,1,2,0:0:0:0:
100,304,109538,1,2,0:0:0:0:
404,240,109703,5,8,0:0:0:0:
232,216,109867,1,2,0:0:0:0:
484,24,110032,6,0,B|468:96|468:96|484:136|484:136|472:200,1,165.749992412568,2|0,0:0|0:0,0:0:0:0:
435,324,110362,2,0,P|355:316|331:292,1,110.499994941712,2|0,0:0|0:0,0:0:0:0:
288,32,110692,1,2,0:3:0:0:
348,176,110856,1,2,0:0:0:0:
68,88,111021,1,8,0:0:0:0:
372,88,111186,6,0,B|516:68|516:68|488:84|432:156,1,220.999989883423,2|2,0:0|0:0,0:0:0:0:
180,144,111681,2,0,P|168:88|200:32,1,110.499994941712,8|0,0:0|0:0,0:0:0:0:
348,272,112010,5,2,0:0:0:0:
264,100,112175,1,2,0:0:0:0:
232,364,112340,1,8,0:0:0:0:
492,268,112505,1,0,0:0:0:0:
192,240,112670,6,0,B|80:224|80:224|68:284|116:296,1,165.749992412568,6|0,0:0|0:0,0:0:0:0:
232,364,112999,2,0,L|364:344,1,110.499994941712,2|0,0:0|0:0,0:0:0:0:
332,72,113329,5,2,0:3:0:0:
276,224,113494,1,2,0:0:0:0:
24,132,113659,1,8,0:0:0:0:
280,320,113824,6,0,B|332:312|332:312|364:260|364:260|436:248|488:300,1,220.999989883423,2|2,0:0|0:0,0:0:0:0:
224,104,114318,2,0,P|160:120|116:152,1,110.499994941712,8|0,0:0|0:0,0:0:0:0:
96,372,114648,5,2,0:0:0:0:
12,112,114813,1,2,0:0:0:0:
192,292,114977,1,8,0:0:0:0:
4,256,115142,1,2,0:0:0:0:
344,164,115307,6,0,B|464:184|464:184|488:164|492:116,1,165.749992412568,2|0,0:0|0:0,0:0:0:0:
272,8,115637,2,0,B|244:56|244:56|272:112,1,110.499994941712,10|0,0:0|0:0,0:0:0:0:
464,48,115966,2,2,L|352:60,1,110.499994941712,0|2,0:0|0:0,0:0:0:0:
40,12,116296,2,2,L|176:32,1,110.499994941712,8|0,0:0|0:0,0:0:0:0:
240,328,116626,5,8,0:0:0:0:
192,356,116708,1,8,0:0:0:0:
136,360,116791,1,8,0:0:0:0:
84,340,116873,1,8,0:0:0:0:
48,296,116955,2,0,P|40:232|72:188,1,110.499994941712,6|0,0:0|0:0,0:0:0:0:
312,236,117285,1,8,0:0:0:0:
368,244,117367,1,8,0:0:0:0:
424,256,117450,1,8,0:0:0:0:
480,264,117532,1,8,0:0:0:0:
496,312,117615,2,0,L|488:200,1,110.499994941712,6|0,0:0|0:0,0:0:0:0:
236,112,117944,6,0,B|204:228|204:228|224:288,1,165.749992412568,6|0,0:0|0:0,0:0:0:0:
363,336,118274,2,0,L|226:355,1,110.499994941712,8|0,0:0|0:0,0:0:0:0:
63,207,118604,1,2,0:3:0:0:
308,236,118769,1,2,0:0:0:0:
20,368,118933,5,8,0:0:0:0:
80,112,119098,1,2,0:0:0:0:
176,360,119263,1,0,0:0:0:0:
156,176,119428,1,2,0:0:0:0:
436,284,119593,5,8,0:0:0:0:
236,268,119758,1,0,0:0:0:0:
496,160,119922,1,2,0:0:0:0:
296,176,120087,1,2,0:0:0:0:
376,348,120252,5,8,0:0:0:0:
306,162,120417,1,0,0:0:0:0:
504,248,120582,6,0,B|428:236|428:236|388:252|388:252|304:240,1,165.749992412568,2|0,0:0|0:0,0:0:0:0:
197,331,120911,2,0,P|265:335|305:299,1,110.499994941712,8|0,0:0|0:0,0:0:0:0:
275,8,121241,5,0,0:0:0:0:
267,240,121406,2,0,L|247:115,1,110.499994941712,2|8,0:0|0:0,0:0:0:0:
78,25,121736,6,0,B|65:180|65:180|90:142|134:147,1,220.999989883423,2|2,0:0|0:0,0:0:0:0:
331,298,122230,2,0,P|264:325|201:295,1,110.499994941712,8|0,0:0|0:0,0:0:0:0:
211,54,122560,5,2,0:3:0:0:
152,244,122725,1,2,0:0:0:0:
308,115,122889,5,12,0:0:0:0:
65,180,123054,1,0,0:0:0:0:
331,298,123219,6,0,B|388:305|388:305|423:285|423:285|502:291,1,165.749992412568,6|0,0:0|0:0,0:0:0:0:
358,214,123549,2,0,P|282:219|256:248,1,110.499994941712,8|0,0:0|0:0,0:0:0:0:
455,380,123878,5,2,0:3:0:0:
412,133,124043,1,2,0:0:0:0:
247,329,124208,1,8,0:0:0:0:
503,216,124373,6,0,P|406:227|401:337,1,220.999989883423,2|2,0:0|0:0,0:0:0:0:
99,285,124867,1,8,0:0:0:0:
301,261,125032,1,0,0:0:0:0:
106,182,125197,5,2,0:0:0:0:
219,355,125362,1,2,0:0:0:0:
281,89,125527,1,8,0:0:0:0:
195,240,125692,1,0,0:0:0:0:
92,56,125856,6,0,B|112:32|116:0|116:0|132:132,1,165.749992412568,2|0,0:0|0:0,0:0:0:0:
79,285,126186,2,0,B|87:205|87:205|110:176,1,110.499994941712,8|0,0:0|0:0,0:0:0:0:
360,140,126516,5,2,0:3:0:0:
192,164,126681,2,0,P|256:204|320:184,1,110.499994941712,2|8,0:0|0:0,0:0:0:0:
412,0,127010,6,0,B|424:72|424:72|448:96|448:96|460:168,1,165.749992412568,2|0,0:0|0:0,0:0:0:0:
400,228,127340,1,2,0:0:0:0:
272,84,127505,1,8,0:0:0:0:
336,328,127670,1,0,0:0:0:0:
496,28,127835,5,2,0:3:0:0:
496,28,127999,1,2,0:0:0:0:
256,68,128164,1,8,0:0:0:0:
512,124,128329,1,2,0:0:0:0:
115,29,128494,5,8,0:0:0:0:
172,112,128658,6,0,L|188:300,1,165.749992412568,6|0,0:0|0:0,0:0:0:0:
186,277,128987,1,2,0:0:0:0:
368,112,129153,2,0,L|376:-12,1,110.499994941712,8|0,0:0|0:0,0:0:0:0:
324,212,129482,2,0,P|392:220|436:192,1,110.499994941712,2|2,0:0|0:0,0:0:0:0:
221,25,129812,1,8,0:0:0:0:
136,200,129976,6,0,B|240:188|240:188|284:120,1,165.749992412568,2|0,0:0|0:0,0:0:0:0:
208,16,130306,1,2,0:0:0:0:
242,225,130471,2,0,L|231:342,1,110.499994941712,8|2,0:0|0:0,0:0:0:0:
68,148,130801,2,0,P|132:116|188:140,1,110.499994941712,2|2,0:0|0:0,0:0:0:0:
332,320,131130,1,8,0:0:0:0:
280,128,131295,6,0,B|336:124|336:124|368:96|368:96|464:88,1,165.749992412568,2|0,0:0|0:0,0:0:0:0:
448,96,131625,1,2,0:0:0:0:
196,32,131790,2,0,L|64:16,1,110.499994941712,8|0,0:0|0:0,0:0:0:0:
295,17,132119,5,2,0:3:0:0:
332,220,132284,1,2,0:0:0:0:
173,123,132449,5,10,0:0:0:0:
429,190,132614,1,2,0:0:0:0:
218,216,132779,5,2,0:3:0:0:
433,172,132943,1,2,0:0:0:0:
277,30,133108,5,8,0:0:0:0:
233,304,133273,1,2,0:0:0:0:
469,93,133439,5,2,0:3:0:0:
274,134,133603,1,2,0:0:0:0:
404,285,133768,1,8,0:0:0:0:
160,184,133932,6,0,B|34:165|34:165|62:209,1,165.749992412568,2|0,0:0|0:0,0:0:0:0:
108,256,134262,1,2,0:0:0:0:
208,80,134427,2,0,P|260:48|332:76,1,110.499994941712,8|2,0:0|0:0,0:0:0:0:
448,192,134757,5,2,0:3:0:0:
288,168,134921,1,2,0:0:0:0:
368,356,135086,1,8,0:0:0:0:
476,96,135251,6,0,B|408:104|408:104|376:136|376:136|304:144,1,165.749992412568,2|0,0:0|0:0,0:0:0:0:
304,144,135581,1,2,0:0:0:0:
192,344,135746,2,0,P|256:348|304:308,1,110.499994941712,8|2,0:0|0:0,0:0:0:0:
216,80,136075,5,2,0:3:0:0:
368,240,136240,1,2,0:0:0:0:
120,168,136405,1,8,0:0:0:0:
406,148,136570,6,0,B|450:192|450:192|466:320,1,165.749992412568,2|0,0:0|0:0,0:0:0:0:
465,313,136900,1,2,0:0:0:0:
486,109,137064,2,0,L|502:-8,1,110.499994941712,8|2,0:0|0:0,0:0:0:0:
347,225,137394,5,2,0:3:0:0:
316,42,137559,1,2,0:0:0:0:
150,117,137724,5,8,0:0:0:0:
406,148,137888,1,2,0:0:0:0:
118,211,138053,5,2,0:3:0:0:
385,152,138218,1,2,0:0:0:0:
201,30,138383,5,8,0:0:0:0:
170,307,138548,1,2,0:0:0:0:
319,72,138713,5,8,0:0:0:0:
71,113,138877,1,2,0:0:0:0:
319,72,139042,1,8,0:0:0:0:
182,320,139207,6,0,B|110:308|110:308|82:284|82:284|27:274,1,165.749992412568,6|0,0:0|0:0,0:0:0:0:
0,270,139537,1,2,0:0:0:0:
268,184,139702,2,0,L|428:166,1,110.499994941712,8|2,0:0|0:0,0:0:0:0:
171,221,140031,5,2,0:3:0:0:
356,279,140196,1,2,0:0:0:0:
180,107,140361,1,8,0:0:0:0:
285,354,140526,6,0,P|351:311|465:355,1,165.749992412568,2|0,0:0|0:0,0:0:0:0:
446,341,140855,1,2,0:0:0:0:
512,156,141020,2,0,L|402:168,1,110.499994941712,8|2,0:0|0:0,0:0:0:0:
192,277,141350,5,2,0:3:0:0:
294,107,141515,1,2,0:0:0:0:
368,366,141680,1,8,0:0:0:0:
197,175,141844,6,0,B|161:133|161:133|22:109,1,165.749992412568,2|0,0:0|0:0,0:0:0:0:
31,111,142174,1,2,0:0:0:0:
277,84,142339,2,0,L|399:74,1,110.499994941712,8|0,0:0|0:0,0:0:0:0:
221,274,142669,5,2,0:3:0:0:
187,39,142833,1,2,0:0:0:0:
359,215,142998,5,8,0:0:0:0:
102,187,143163,1,2,0:0:0:0:
400,155,143328,5,2,0:3:0:0:
109,201,143493,1,2,0:0:0:0:
336,50,143658,5,8,0:0:0:0:
306,274,143823,1,2,0:0:0:0:
93,202,143987,5,2,0:3:0:0:
294,171,144153,1,2,0:0:0:0:
225,343,144317,1,8,0:0:0:0:
159,101,144483,6,0,B|79:69|79:69|-25:128,1,165.749992412568,2|0,0:0|0:0,0:0:0:0:
0,120,144812,1,2,0:0:0:0:
221,27,144976,2,0,L|365:33,1,110.499994941712,8|2,0:0|0:0,0:0:0:0:
496,197,145306,2,0,P|429:219|375:190,1,110.499994941712,2|2,0:3|0:0,0:0:0:0:
432,53,145636,1,8,0:0:0:0:
286,197,145801,6,0,B|295:254|295:254|328:290|328:290|336:351,1,165.749992412568,2|0,0:0|0:0,0:0:0:0:
335,369,146130,1,2,0:0:0:0:
111,145,146295,2,0,P|161:114|237:129,1,110.499994941712,8|2,0:0|0:0,0:0:0:0:
379,208,146625,5,2,0:3:0:0:
242,361,146790,1,2,0:0:0:0:
281,69,146954,1,8,0:0:0:0:
5,192,147119,6,0,L|20:361,1,165.749992412568,2|0,0:0|0:0,0:0:0:0:
22,378,147449,1,2,0:0:0:0:
183,194,147614,2,0,L|193:46,1,110.499994941712,8|2,0:0|0:0,0:0:0:0:
331,309,147943,5,2,0:3:0:0:
142,353,148108,1,2,0:0:0:0:
290,142,148273,5,8,0:0:0:0:
234,381,148438,1,2,0:0:0:0:
91,199,148603,5,2,0:3:0:0:
359,273,148768,1,2,0:0:0:0:
345,24,148932,5,8,0:0:0:0:
68,90,149097,1,8,0:0:0:0:
449,178,149262,1,8,0:0:0:0:
83,287,149427,1,8,0:0:0:0:
187,17,149592,5,6,0:0:0:0:
187,17,149921,1,2,0:0:0:0:
253,107,150251,5,8,0:0:0:0:
245,214,150416,1,0,0:0:0:0:
237,314,150581,1,2,0:0:0:0:
482,275,150747,6,0,P|399:245|307:273,1,170,2|10,0:0|0:0,0:0:0:0:
122,230,151240,1,2,0:0:0:0:
278,163,151405,1,2,0:0:0:0:
251,346,151570,2,0,P|196:363|146:350,1,85,8|2,0:0|0:0,0:0:0:0:
88,136,151899,2,0,P|130:134|169:149,1,85,8|2,0:0|0:0,0:0:0:0:
0,315,152229,5,12,0:0:0:0:
6,332,152559,2,0,B|39:346|88:336|122:299|122:299|84:332|84:385,1,220.999989883423,8|0,0:3|0:0,0:0:0:0:
