osu file format v14

[General]
AudioFilename: audio.mp3
AudioLeadIn: 0
PreviewTime: 54023
Countdown: 0
SampleSet: Normal
StackLeniency: 0.7
Mode: 3
LetterboxInBreaks: 0
SpecialStyle: 0
WidescreenStoryboard: 0

[Editor]
Bookmarks: 263556
DistanceSpacing: 1.2
BeatDivisor: 8
GridSize: 16
TimelineZoom: 2.899999

[Metadata]
Title:Slash Dot Slash (Slim boy fat)
TitleUnicode:Slash Dot Slash (Slim boy fat)
Artist:Round Wave Crusher
ArtistUnicode:Round Wave Crusher
Creator:TheToaphster
Version:-.-
Source:
Tags:rwc hardcore frenchcore fatboy slim
BeatmapID:1725933
BeatmapSetID:823631

[Difficulty]
HPDrainRate:9
CircleSize:4
OverallDifficulty:9
ApproachRate:5
SliderMultiplier:1.4
SliderTickRate:1

[Events]
//Background and Video events
0,0,"Slash.jpg",0,0
//Break Periods
//Storyboard Layer 0 (Background)
//Storyboard Layer 1 (Fail)
//Storyboard Layer 2 (Pass)
//Storyboard Layer 3 (Foreground)
//Storyboard Sound Samples

[TimingPoints]
1738,272.727272727273,4,1,1,100,1,0
54101,-100,4,1,1,100,0,1
89010,-100,4,1,1,100,0,0
123919,-100,4,1,1,100,0,1
130465,-100,4,1,1,100,0,0
132647,-100,4,1,1,100,0,1
141374,-100,4,1,1,100,0,0
199192,-100,4,1,1,50,0,0
215556,-100,4,1,1,100,0,0
228647,-100,4,1,1,100,0,1
253738,-100,4,1,1,100,0,0
254828,-100,4,1,1,100,0,1
261374,-100,4,1,1,100,0,0

[HitObjects]
320,192,1738,5,2,0:0:0:0:
64,192,2010,1,8,0:0:0:0:
192,192,2010,1,0,0:0:0:0:
64,192,2556,1,8,0:0:0:0:
192,192,2556,1,0,0:0:0:0:
64,192,3101,1,8,1:0:0:0:
192,192,3101,1,0,1:0:0:0:
64,192,3647,1,8,0:0:0:0:
192,192,3647,1,0,0:0:0:0:
64,192,4192,1,8,0:0:0:0:
192,192,4192,1,0,0:0:0:0:
64,192,4738,1,8,0:0:0:0:
192,192,4738,1,0,0:0:0:0:
64,192,5010,128,0,5078:0:0:0:0:
448,192,5147,128,0,5215:0:0:0:0:
64,192,5283,1,8,0:0:0:0:
192,192,5283,1,0,0:0:0:0:
448,192,5419,128,0,5488:0:0:0:0:
64,192,5556,128,0,5624:0:0:0:0:
448,192,5692,128,0,5760:0:0:0:0:
64,192,5828,1,8,0:0:0:0:
192,192,5828,128,0,6033:0:0:0:0:
448,192,5965,128,0,6033:0:0:0:0:
64,192,6374,1,8,0:0:0:0:
192,192,6374,1,0,0:0:0:0:
64,192,6919,1,8,0:0:0:0:
192,192,6919,1,0,0:0:0:0:
64,192,7465,1,8,0:0:0:0:
192,192,7465,1,0,0:0:0:0:
64,192,8010,1,8,0:0:0:0:
192,192,8010,1,0,0:0:0:0:
64,192,8556,1,8,0:0:0:0:
192,192,8556,1,0,0:0:0:0:
64,192,9101,1,8,0:0:0:0:
192,192,9101,1,0,0:0:0:0:
64,192,9647,5,8,0:0:0:0:
192,192,9647,1,0,0:0:0:0:
448,192,10056,128,0,10124:0:0:0:0:
64,192,10192,1,8,0:0:0:0:
192,192,10192,1,0,0:0:0:0:
448,192,10328,128,0,10397:0:0:0:0:
448,192,10465,1,0,0:0:0:0:
192,192,10465,1,0,0:0:0:0:
320,192,10465,1,2,0:0:0:0:
64,192,10533,1,0,0:0:0:0:
320,192,10601,1,2,0:0:0:0:
192,192,10601,1,0,0:0:0:0:
64,192,10669,1,0,0:0:0:0:
320,192,10738,1,0,0:0:0:0:
448,192,10738,1,8,0:0:0:0:
192,192,10806,1,0,0:0:0:0:
64,192,10874,1,0,0:0:0:0:
448,192,10942,1,0,0:0:0:0:
320,192,11010,1,0,0:0:0:0:
64,192,11078,1,0,0:0:0:0:
448,192,11147,1,0,0:0:0:0:
320,192,11215,1,0,0:0:0:0:
64,192,11283,1,8,0:0:0:0:
192,192,11283,1,0,0:0:0:0:
448,192,11351,1,0,0:0:0:0:
320,192,11419,1,0,0:0:0:0:
64,192,11488,1,0,0:0:0:0:
448,192,11556,1,0,0:0:0:0:
192,192,11624,1,0,0:0:0:0:
64,192,11692,1,0,0:0:0:0:
448,192,11760,1,0,0:0:0:0:
192,192,11828,1,0,0:0:0:0:
320,192,11828,1,8,0:0:0:0:
64,192,11897,1,0,0:0:0:0:
448,192,11965,1,0,0:0:0:0:
320,192,12033,1,0,0:0:0:0:
192,192,12101,1,0,0:0:0:0:
64,192,12169,1,0,0:0:0:0:
448,192,12238,1,0,0:0:0:0:
320,192,12306,1,0,0:0:0:0:
192,192,12374,1,8,0:0:0:0:
64,192,12374,128,0,12442:0:0:0:0:
320,192,12442,1,0,0:0:0:0:
448,192,12510,128,0,12578:0:0:0:0:
64,192,12578,1,0,0:0:0:0:
192,192,12647,1,0,0:0:0:0:
320,192,12715,1,0,0:0:0:0:
64,192,12783,1,0,0:0:0:0:
320,192,12851,1,0,0:0:0:0:
192,192,12919,1,8,0:0:0:0:
64,192,12919,1,0,0:0:0:0:
448,192,12988,1,0,0:0:0:0:
64,192,13056,1,0,0:0:0:0:
192,192,13124,1,0,0:0:0:0:
448,192,13192,1,0,0:0:0:0:
64,192,13260,1,0,0:0:0:0:
320,192,13328,1,0,0:0:0:0:
448,192,13397,1,0,0:0:0:0:
192,192,13465,1,8,0:0:0:0:
64,192,13465,128,0,13533:0:0:0:0:
320,192,13533,1,0,0:0:0:0:
448,192,13601,128,0,13669:0:0:0:0:
192,192,13669,1,0,0:0:0:0:
64,192,13738,1,0,0:0:0:0:
448,192,13806,1,0,0:0:0:0:
320,192,13874,1,0,0:0:0:0:
448,192,13942,1,0,0:0:0:0:
64,192,14010,128,0,14078:0:0:0:0:
192,192,14010,1,8,0:0:0:0:
320,192,14078,1,0,0:0:0:0:
64,192,14147,128,0,14215:0:0:0:0:
448,192,14215,1,0,0:0:0:0:
320,192,14283,128,0,14351:0:0:0:0:
192,192,14351,1,0,0:0:0:0:
320,192,14419,128,0,14488:0:0:0:0:
64,192,14488,1,0,0:0:0:0:
320,192,14556,128,0,14624:0:0:0:0:
448,192,14556,1,8,0:0:0:0:
192,192,14624,1,0,0:0:0:0:
448,192,14692,128,0,14760:0:0:0:0:
320,192,14760,1,0,0:0:0:0:
64,192,14828,1,0,0:0:0:0:
192,192,14897,1,0,0:0:0:0:
320,192,14965,1,0,0:0:0:0:
448,192,15033,1,0,0:0:0:0:
64,192,15101,1,8,0:0:0:0:
192,192,15101,1,0,0:0:0:0:
320,192,15169,1,0,0:0:0:0:
448,192,15238,1,0,0:0:0:0:
64,192,15306,1,0,0:0:0:0:
192,192,15374,1,0,0:0:0:0:
448,192,15442,1,0,0:0:0:0:
192,192,15510,1,0,0:0:0:0:
320,192,15578,1,0,0:0:0:0:
64,192,15647,1,8,0:0:0:0:
192,192,15647,1,0,0:0:0:0:
448,192,15715,1,0,0:0:0:0:
64,192,15783,1,0,0:0:0:0:
192,192,15851,1,0,0:0:0:0:
320,192,15919,1,0,0:0:0:0:
64,192,15988,1,0,0:0:0:0:
448,192,16056,1,0,0:0:0:0:
192,192,16124,1,0,0:0:0:0:
320,192,16192,1,0,0:0:0:0:
448,192,16192,1,8,0:0:0:0:
64,192,16260,1,0,0:0:0:0:
192,192,16328,1,0,0:0:0:0:
448,192,16397,1,0,0:0:0:0:
64,192,16465,1,0,0:0:0:0:
320,192,16533,1,0,0:0:0:0:
448,192,16601,1,0,0:0:0:0:
64,192,16669,1,0,0:0:0:0:
448,192,16738,1,8,0:0:0:0:
320,192,16738,1,0,0:0:0:0:
192,192,16806,1,0,0:0:0:0:
320,192,16874,1,0,0:0:0:0:
64,192,16942,1,0,0:0:0:0:
448,192,17010,1,0,0:0:0:0:
192,192,17078,1,0,0:0:0:0:
320,192,17147,1,0,0:0:0:0:
448,192,17215,1,0,0:0:0:0:
192,192,17283,1,0,0:0:0:0:
64,192,17283,1,8,0:0:0:0:
320,192,17351,1,0,0:0:0:0:
448,192,17419,1,0,0:0:0:0:
192,192,17488,1,0,0:0:0:0:
320,192,17556,1,0,0:0:0:0:
64,192,17624,1,0,0:0:0:0:
192,192,17692,1,0,0:0:0:0:
448,192,17760,1,0,0:0:0:0:
64,192,17828,1,8,0:0:0:0:
192,192,17828,1,0,0:0:0:0:
320,192,17897,1,0,0:0:0:0:
448,192,17965,1,0,0:0:0:0:
64,192,18033,1,0,0:0:0:0:
320,192,18238,128,0,18919:0:0:0:0:
192,192,18374,1,0,0:0:0:0:
64,192,18374,1,8,0:0:0:0:
64,192,18919,128,0,18988:0:0:0:0:
192,192,18919,1,8,0:0:0:0:
448,192,19056,128,0,19124:0:0:0:0:
64,192,19192,1,0,0:0:0:0:
192,192,19192,1,2,0:0:0:0:
320,192,19192,1,0,0:0:0:0:
448,192,19260,1,0,0:0:0:0:
64,192,19328,1,0,0:0:0:0:
192,192,19328,1,2,0:0:0:0:
448,192,19397,1,0,0:0:0:0:
192,192,19465,1,8,0:0:0:0:
320,192,19465,1,0,0:0:0:0:
64,192,19533,1,0,0:0:0:0:
320,192,19601,1,0,0:0:0:0:
448,192,19669,1,0,0:0:0:0:
192,192,19738,1,0,0:0:0:0:
320,192,19806,1,0,0:0:0:0:
192,192,19874,1,0,0:0:0:0:
448,192,19942,1,0,0:0:0:0:
320,192,20010,1,8,0:0:0:0:
192,192,20010,1,0,0:0:0:0:
64,192,20078,1,0,0:0:0:0:
448,192,20147,1,0,0:0:0:0:
192,192,20215,1,0,0:0:0:0:
320,192,20283,1,0,0:0:0:0:
64,192,20351,1,0,0:0:0:0:
320,192,20419,1,0,0:0:0:0:
448,192,20488,1,0,0:0:0:0:
192,192,20556,1,8,0:0:0:0:
64,192,20556,1,0,0:0:0:0:
320,192,20624,1,0,0:0:0:0:
448,192,20692,1,0,0:0:0:0:
64,192,20760,1,0,0:0:0:0:
320,192,20828,1,0,0:0:0:0:
448,192,20897,1,0,0:0:0:0:
64,192,20965,1,0,0:0:0:0:
320,192,21033,1,0,0:0:0:0:
64,192,21101,1,0,0:0:0:0:
192,192,21101,1,8,0:0:0:0:
320,192,21169,1,0,0:0:0:0:
448,192,21238,1,0,0:0:0:0:
64,192,21306,1,0,0:0:0:0:
192,192,21374,1,0,0:0:0:0:
320,192,21442,1,0,0:0:0:0:
64,192,21510,1,0,0:0:0:0:
448,192,21578,1,0,0:0:0:0:
64,192,21647,1,8,0:0:0:0:
192,192,21647,1,0,0:0:0:0:
320,192,21715,1,0,0:0:0:0:
448,192,21783,1,0,0:0:0:0:
64,192,21851,1,0,0:0:0:0:
192,192,21919,1,0,0:0:0:0:
448,192,21988,1,0,0:0:0:0:
192,192,22056,1,0,0:0:0:0:
320,192,22124,1,0,0:0:0:0:
64,192,22192,1,8,0:0:0:0:
192,192,22192,1,0,0:0:0:0:
448,192,22260,1,0,0:0:0:0:
192,192,22328,1,0,0:0:0:0:
320,192,22397,1,0,0:0:0:0:
448,192,22465,1,0,0:0:0:0:
192,192,22533,1,0,0:0:0:0:
448,192,22601,1,0,0:0:0:0:
64,192,22669,1,0,0:0:0:0:
448,192,22738,1,8,0:0:0:0:
320,192,22738,1,0,0:0:0:0:
192,192,22806,1,0,0:0:0:0:
320,192,22874,1,0,0:0:0:0:
448,192,22942,1,0,0:0:0:0:
64,192,23010,128,0,23078:0:0:0:0:
320,192,23078,1,0,0:0:0:0:
448,192,23147,128,0,23215:0:0:0:0:
320,192,23215,1,0,0:0:0:0:
192,192,23283,128,8,23488:0:0:0:0:
64,192,23351,1,0,0:0:0:0:
448,192,23419,128,0,23488:0:0:0:0:
320,192,23488,1,0,0:0:0:0:
64,192,23556,1,0,0:0:0:0:
448,192,23624,1,0,0:0:0:0:
320,192,23692,1,0,0:0:0:0:
64,192,23760,1,0,0:0:0:0:
320,192,23828,1,0,0:0:0:0:
448,192,23828,1,8,0:0:0:0:
192,192,23897,1,0,0:0:0:0:
64,192,23965,1,0,0:0:0:0:
320,192,24033,1,0,0:0:0:0:
64,192,24101,1,0,0:0:0:0:
448,192,24169,1,0,0:0:0:0:
192,192,24238,1,0,0:0:0:0:
64,192,24306,1,0,0:0:0:0:
448,192,24374,1,8,0:0:0:0:
320,192,24374,1,0,0:0:0:0:
192,192,24442,1,0,0:0:0:0:
64,192,24510,1,0,0:0:0:0:
448,192,24578,1,0,0:0:0:0:
192,192,24647,1,0,0:0:0:0:
320,192,24715,1,0,0:0:0:0:
64,192,24783,1,0,0:0:0:0:
320,192,24851,1,0,0:0:0:0:
64,192,24919,1,8,0:0:0:0:
192,192,24919,1,0,0:0:0:0:
448,192,24988,1,0,0:0:0:0:
320,192,25056,1,0,0:0:0:0:
192,192,25124,1,0,0:0:0:0:
64,192,25192,1,0,0:0:0:0:
448,192,25260,1,0,0:0:0:0:
64,192,25328,1,0,0:0:0:0:
320,192,25397,1,0,0:0:0:0:
64,192,25465,1,8,0:0:0:0:
192,192,25465,1,0,0:0:0:0:
448,192,25533,1,0,0:0:0:0:
320,192,25601,1,0,0:0:0:0:
64,192,25669,1,0,0:0:0:0:
448,192,25738,1,0,0:0:0:0:
192,192,25806,1,0,0:0:0:0:
448,192,25874,1,0,0:0:0:0:
64,192,25942,1,0,0:0:0:0:
448,192,26010,1,8,0:0:0:0:
320,192,26010,1,0,0:0:0:0:
192,192,26078,1,0,0:0:0:0:
64,192,26147,1,0,0:0:0:0:
448,192,26215,1,0,0:0:0:0:
320,192,26283,1,0,0:0:0:0:
64,192,26351,1,0,0:0:0:0:
320,192,26419,1,0,0:0:0:0:
192,192,26488,1,0,0:0:0:0:
448,192,26556,1,8,0:0:0:0:
320,192,26556,1,0,0:0:0:0:
64,192,26624,1,0,0:0:0:0:
320,192,26692,1,0,0:0:0:0:
192,192,26760,1,0,0:0:0:0:
64,192,26828,1,0,0:0:0:0:
320,192,26897,1,0,0:0:0:0:
64,192,26965,1,0,0:0:0:0:
448,192,27033,1,0,0:0:0:0:
64,192,27101,1,8,0:0:0:0:
192,192,27101,1,0,0:0:0:0:
320,192,27169,1,0,0:0:0:0:
192,192,27238,1,0,0:0:0:0:
64,192,27306,1,0,0:0:0:0:
448,192,27374,1,0,0:0:0:0:
192,192,27442,1,0,0:0:0:0:
64,192,27510,1,0,0:0:0:0:
448,192,27578,1,0,0:0:0:0:
192,192,27647,1,8,0:0:0:0:
64,192,27681,1,0,0:0:0:0:
448,192,27715,1,0,0:0:0:0:
320,192,27749,1,0,0:0:0:0:
192,192,27783,1,0,0:0:0:0:
64,192,27817,1,0,0:0:0:0:
448,192,27851,1,0,0:0:0:0:
320,192,27885,1,0,0:0:0:0:
192,192,27919,1,8,0:0:0:0:
64,192,27919,1,4,0:0:0:0:
448,192,27988,1,0,0:0:0:0:
192,192,28056,1,0,0:0:0:0:
320,192,28124,1,0,0:0:0:0:
64,192,28192,1,8,0:0:0:0:
192,192,28192,1,0,0:0:0:0:
320,192,28260,1,0,0:0:0:0:
448,192,28328,1,0,0:0:0:0:
64,192,28397,1,0,0:0:0:0:
192,192,28465,1,0,0:0:0:0:
320,192,28465,1,0,0:0:0:0:
448,192,28533,1,0,0:0:0:0:
64,192,28601,1,0,0:0:0:0:
448,192,28669,1,0,0:0:0:0:
320,192,28738,1,0,0:0:0:0:
192,192,28738,1,8,0:0:0:0:
64,192,28806,1,0,0:0:0:0:
320,192,28874,1,0,0:0:0:0:
448,192,28942,1,0,0:0:0:0:
64,192,29010,1,0,0:0:0:0:
192,192,29010,1,0,0:0:0:0:
448,192,29078,1,0,0:0:0:0:
192,192,29147,1,0,0:0:0:0:
320,192,29215,1,0,0:0:0:0:
64,192,29283,1,8,0:0:0:0:
192,192,29283,1,0,0:0:0:0:
448,192,29351,1,0,0:0:0:0:
320,192,29419,1,0,0:0:0:0:
192,192,29488,1,0,0:0:0:0:
320,192,29556,1,0,0:0:0:0:
448,192,29556,1,0,0:0:0:0:
64,192,29624,1,0,0:0:0:0:
192,192,29692,1,0,0:0:0:0:
64,192,29760,1,0,0:0:0:0:
320,192,29828,1,0,0:0:0:0:
448,192,29828,1,8,0:0:0:0:
64,192,29897,1,0,0:0:0:0:
192,192,29965,1,0,0:0:0:0:
64,192,30033,1,0,0:0:0:0:
320,192,30101,1,0,0:0:0:0:
448,192,30101,1,0,0:0:0:0:
192,192,30169,1,0,0:0:0:0:
448,192,30238,1,0,0:0:0:0:
64,192,30306,1,0,0:0:0:0:
320,192,30374,1,0,0:0:0:0:
448,192,30374,1,8,0:0:0:0:
192,192,30442,1,0,0:0:0:0:
64,192,30510,1,0,0:0:0:0:
448,192,30578,1,0,0:0:0:0:
64,192,30647,1,0,0:0:0:0:
192,192,30647,1,0,0:0:0:0:
320,192,30715,1,0,0:0:0:0:
192,192,30783,1,0,0:0:0:0:
448,192,30851,1,0,0:0:0:0:
192,192,30919,1,8,0:0:0:0:
64,192,30919,1,0,0:0:0:0:
448,192,30988,1,0,0:0:0:0:
320,192,31056,1,0,0:0:0:0:
192,192,31124,1,0,0:0:0:0:
448,192,31192,1,0,0:0:0:0:
320,192,31192,1,0,0:0:0:0:
64,192,31260,1,0,0:0:0:0:
320,192,31328,1,0,0:0:0:0:
192,192,31397,1,0,0:0:0:0:
448,192,31465,1,8,0:0:0:0:
320,192,31465,1,0,0:0:0:0:
192,192,31533,1,0,0:0:0:0:
64,192,31601,1,0,0:0:0:0:
320,192,31669,1,0,0:0:0:0:
64,192,31738,1,0,0:0:0:0:
192,192,31738,1,0,0:0:0:0:
448,192,31806,1,0,0:0:0:0:
320,192,31874,1,0,0:0:0:0:
448,192,31942,1,0,0:0:0:0:
64,192,32010,1,0,0:0:0:0:
192,192,32010,1,8,0:0:0:0:
448,192,32078,1,0,0:0:0:0:
320,192,32147,1,0,0:0:0:0:
448,192,32215,1,0,0:0:0:0:
64,192,32283,1,0,0:0:0:0:
192,192,32283,1,0,0:0:0:0:
64,192,32419,1,0,0:0:0:0:
192,192,32419,1,0,0:0:0:0:
64,192,32556,1,0,0:0:0:0:
320,192,32556,1,8,0:0:0:0:
448,192,32692,1,0,0:0:0:0:
192,192,32692,1,0,0:0:0:0:
448,192,32828,1,0,0:0:0:0:
320,192,32828,1,0,0:0:0:0:
320,192,32965,1,0,0:0:0:0:
448,192,32965,1,0,0:0:0:0:
192,192,33101,1,8,0:0:0:0:
448,192,33101,1,0,0:0:0:0:
320,192,33238,1,0,0:0:0:0:
64,192,33238,1,0,0:0:0:0:
192,192,33374,1,0,0:0:0:0:
320,192,33374,1,0,0:0:0:0:
192,192,33510,1,0,0:0:0:0:
320,192,33510,1,0,0:0:0:0:
320,192,33647,1,8,0:0:0:0:
448,192,33647,1,0,0:0:0:0:
64,192,33783,1,0,0:0:0:0:
192,192,33783,1,0,0:0:0:0:
64,192,33919,1,0,0:0:0:0:
448,192,33919,1,0,0:0:0:0:
64,192,34056,1,0,0:0:0:0:
448,192,34056,1,0,0:0:0:0:
320,192,34124,1,0,0:0:0:0:
448,192,34192,1,8,0:0:0:0:
192,192,34192,1,0,0:0:0:0:
64,192,34260,1,0,0:0:0:0:
192,192,34328,1,0,0:0:0:0:
320,192,34328,1,0,0:0:0:0:
64,192,34397,1,0,0:0:0:0:
320,192,34465,1,0,0:0:0:0:
448,192,34465,1,0,0:0:0:0:
192,192,34533,1,0,0:0:0:0:
64,192,34601,1,0,0:0:0:0:
448,192,34601,1,0,0:0:0:0:
320,192,34669,1,0,0:0:0:0:
192,192,34738,1,8,0:0:0:0:
64,192,34738,1,0,0:0:0:0:
448,192,34806,1,0,0:0:0:0:
320,192,34874,1,0,0:0:0:0:
192,192,34874,1,0,0:0:0:0:
64,192,34942,1,0,0:0:0:0:
448,192,35010,1,0,0:0:0:0:
320,192,35010,1,0,0:0:0:0:
192,192,35078,1,0,0:0:0:0:
64,192,35147,1,0,0:0:0:0:
448,192,35147,1,0,0:0:0:0:
320,192,35215,1,0,0:0:0:0:
64,192,35283,1,0,0:0:0:0:
192,192,35283,1,8,0:0:0:0:
448,192,35351,1,0,0:0:0:0:
320,192,35419,1,0,0:0:0:0:
192,192,35419,1,0,0:0:0:0:
64,192,35488,1,0,0:0:0:0:
192,192,35556,128,0,35624:0:0:0:0:
192,192,35692,128,0,35760:0:0:0:0:
192,192,35828,128,0,35897:0:0:0:0:
192,192,35965,128,0,36033:0:0:0:0:
64,192,36101,1,0,0:0:0:0:
320,192,36101,128,0,36238:0:0:0:0:
64,192,36238,1,0,0:0:0:0:
192,192,36374,1,0,0:0:0:0:
320,192,36374,128,0,36510:0:0:0:0:
448,192,36510,1,0,0:0:0:0:
320,192,36647,1,2,0:0:0:0:
448,192,36647,1,4,0:0:0:0:
192,192,36647,1,0,0:0:0:0:
64,192,36783,1,0,0:0:0:0:
320,192,36919,1,0,0:0:0:0:
448,192,36919,1,2,0:0:0:0:
64,192,37056,1,0,0:0:0:0:
448,192,37192,1,2,0:0:0:0:
192,192,37192,1,0,0:0:0:0:
64,192,37328,1,0,0:0:0:0:
192,192,37465,1,0,0:0:0:0:
448,192,37465,1,2,0:0:0:0:
64,192,37601,1,0,0:0:0:0:
448,192,37738,1,2,0:0:0:0:
320,192,37738,1,0,0:0:0:0:
64,192,37874,1,0,0:0:0:0:
320,192,38010,1,0,0:0:0:0:
448,192,38010,1,2,0:0:0:0:
192,192,38147,1,0,0:0:0:0:
64,192,38283,1,0,0:0:0:0:
64,192,38419,1,0,0:0:0:0:
64,192,38556,1,0,0:0:0:0:
64,192,38692,1,0,0:0:0:0:
192,192,38828,1,0,0:0:0:0:
320,192,38828,1,2,0:0:0:0:
448,192,38965,1,0,0:0:0:0:
320,192,39101,1,2,0:0:0:0:
192,192,39101,1,0,0:0:0:0:
448,192,39238,1,0,0:0:0:0:
64,192,39374,1,0,0:0:0:0:
320,192,39374,1,2,0:0:0:0:
448,192,39510,1,0,0:0:0:0:
64,192,39647,1,0,0:0:0:0:
320,192,39647,1,2,0:0:0:0:
448,192,39783,1,0,0:0:0:0:
320,192,39919,1,2,0:0:0:0:
192,192,39919,1,0,0:0:0:0:
448,192,40056,1,0,0:0:0:0:
320,192,40192,1,2,0:0:0:0:
192,192,40192,1,0,0:0:0:0:
448,192,40328,1,0,0:0:0:0:
320,192,40465,1,2,0:0:0:0:
64,192,40465,1,0,0:0:0:0:
448,192,40601,1,0,0:0:0:0:
192,192,40738,1,0,0:0:0:0:
448,192,40874,1,0,0:0:0:0:
448,192,40942,1,0,0:0:0:0:
192,192,41010,1,0,0:0:0:0:
64,192,41010,1,2,0:0:0:0:
320,192,41147,1,0,0:0:0:0:
192,192,41283,1,0,0:0:0:0:
64,192,41283,1,2,0:0:0:0:
320,192,41419,1,0,0:0:0:0:
64,192,41556,1,2,0:0:0:0:
448,192,41556,1,0,0:0:0:0:
320,192,41692,1,0,0:0:0:0:
448,192,41828,1,0,0:0:0:0:
64,192,41828,1,2,0:0:0:0:
320,192,41965,1,0,0:0:0:0:
192,192,42101,1,0,0:0:0:0:
64,192,42101,1,2,0:0:0:0:
320,192,42238,1,0,0:0:0:0:
192,192,42374,1,0,0:0:0:0:
64,192,42374,1,2,0:0:0:0:
320,192,42510,1,0,0:0:0:0:
448,192,42647,1,0,0:0:0:0:
64,192,42647,1,2,0:0:0:0:
320,192,42783,1,0,0:0:0:0:
448,192,42919,1,0,0:0:0:0:
64,192,42919,1,2,0:0:0:0:
320,192,43056,1,0,0:0:0:0:
64,192,43192,5,2,0:0:0:0:
192,192,43192,1,0,0:0:0:0:
320,192,43328,1,0,0:0:0:0:
192,192,43465,1,0,0:0:0:0:
64,192,43465,1,2,0:0:0:0:
320,192,43601,1,0,0:0:0:0:
448,192,43738,1,0,0:0:0:0:
64,192,43738,1,2,0:0:0:0:
320,192,43874,1,0,0:0:0:0:
448,192,44010,1,0,0:0:0:0:
64,192,44010,1,2,0:0:0:0:
320,192,44147,1,0,0:0:0:0:
64,192,44283,128,2,44351:0:0:0:0:
320,192,44283,1,0,0:0:0:0:
448,192,44419,128,0,44488:0:0:0:0:
64,192,44556,1,2,0:0:0:0:
320,192,44556,1,0,0:0:0:0:
448,192,44692,128,0,44760:0:0:0:0:
192,192,44828,128,0,44897:0:0:0:0:
64,192,44828,1,2,0:0:0:0:
448,192,44965,128,0,45033:0:0:0:0:
192,192,45101,128,0,45306:0:0:0:0:
448,192,45238,128,0,45306:0:0:0:0:
64,192,45374,1,0,0:0:0:0:
320,192,45374,1,2,0:0:0:0:
448,192,45374,1,4,0:0:0:0:
192,192,45442,1,0,0:0:0:0:
320,192,45510,1,0,0:0:0:0:
64,192,45578,1,0,0:0:0:0:
448,192,45647,1,2,0:0:0:0:
320,192,45647,1,0,0:0:0:0:
64,192,45715,1,0,0:0:0:0:
192,192,45783,1,0,0:0:0:0:
320,192,45851,1,0,0:0:0:0:
448,192,45919,1,0,0:0:0:0:
64,192,45919,1,2,0:0:0:0:
192,192,45988,1,0,0:0:0:0:
448,192,46056,1,0,0:0:0:0:
320,192,46124,1,0,0:0:0:0:
64,192,46192,1,2,0:0:0:0:
448,192,46192,1,0,0:0:0:0:
192,192,46260,1,0,0:0:0:0:
448,192,46328,1,0,0:0:0:0:
64,192,46397,1,0,0:0:0:0:
192,192,46465,1,0,0:0:0:0:
320,192,46465,1,2,0:0:0:0:
448,192,46533,1,0,0:0:0:0:
64,192,46601,1,0,0:0:0:0:
448,192,46669,1,0,0:0:0:0:
192,192,46738,1,0,0:0:0:0:
320,192,46738,1,2,0:0:0:0:
64,192,46806,1,0,0:0:0:0:
192,192,46874,1,0,0:0:0:0:
320,192,46942,1,0,0:0:0:0:
192,192,47010,1,0,0:0:0:0:
64,192,47010,1,2,0:0:0:0:
448,192,47078,1,0,0:0:0:0:
64,192,47147,1,0,0:0:0:0:
192,192,47215,1,0,0:0:0:0:
320,192,47283,1,0,0:0:0:0:
448,192,47351,1,0,0:0:0:0:
192,192,47419,1,0,0:0:0:0:
192,192,47488,1,0,0:0:0:0:
320,192,47556,1,0,0:0:0:0:
448,192,47556,1,2,0:0:0:0:
64,192,47624,1,0,0:0:0:0:
320,192,47692,1,0,0:0:0:0:
192,192,47760,1,0,0:0:0:0:
448,192,47828,1,2,0:0:0:0:
320,192,47828,1,0,0:0:0:0:
192,192,47897,1,0,0:0:0:0:
64,192,47965,1,0,0:0:0:0:
448,192,48033,1,0,0:0:0:0:
320,192,48101,1,2,0:0:0:0:
64,192,48101,1,0,0:0:0:0:
192,192,48169,1,0,0:0:0:0:
448,192,48238,1,0,0:0:0:0:
192,192,48306,1,0,0:0:0:0:
320,192,48374,1,2,0:0:0:0:
64,192,48374,1,0,0:0:0:0:
192,192,48442,1,0,0:0:0:0:
64,192,48510,1,0,0:0:0:0:
320,192,48578,1,0,0:0:0:0:
448,192,48647,1,0,0:0:0:0:
192,192,48647,1,2,0:0:0:0:
64,192,48715,1,0,0:0:0:0:
448,192,48783,1,0,0:0:0:0:
320,192,48851,1,0,0:0:0:0:
192,192,48919,1,2,0:0:0:0:
448,192,48919,1,0,0:0:0:0:
320,192,48988,1,0,0:0:0:0:
192,192,49056,1,0,0:0:0:0:
64,192,49124,1,0,0:0:0:0:
320,192,49192,1,2,0:0:0:0:
192,192,49192,1,0,0:0:0:0:
64,192,49260,1,0,0:0:0:0:
448,192,49328,128,0,49397:0:0:0:0:
320,192,49397,1,0,0:0:0:0:
192,192,49465,128,0,49533:0:0:0:0:
320,192,49533,1,0,0:0:0:0:
448,192,49601,128,0,49669:0:0:0:0:
192,192,49669,128,0,49738:0:0:0:0:
64,192,49738,1,2,0:0:0:0:
320,192,49738,1,0,0:0:0:0:
448,192,49806,1,0,0:0:0:0:
320,192,49874,1,0,0:0:0:0:
192,192,49942,1,0,0:0:0:0:
64,192,50010,1,2,0:0:0:0:
320,192,50010,1,0,0:0:0:0:
192,192,50078,1,0,0:0:0:0:
448,192,50147,1,0,0:0:0:0:
320,192,50215,1,0,0:0:0:0:
192,192,50283,1,2,0:0:0:0:
64,192,50283,1,0,0:0:0:0:
448,192,50351,1,0,0:0:0:0:
64,192,50419,1,0,0:0:0:0:
320,192,50488,1,0,0:0:0:0:
192,192,50556,1,2,0:0:0:0:
64,192,50556,1,0,0:0:0:0:
320,192,50624,1,0,0:0:0:0:
192,192,50692,1,0,0:0:0:0:
64,192,50760,1,0,0:0:0:0:
448,192,50828,1,0,0:0:0:0:
320,192,50828,1,2,0:0:0:0:
192,192,50897,1,0,0:0:0:0:
448,192,50965,1,0,0:0:0:0:
64,192,51033,1,0,0:0:0:0:
448,192,51101,1,0,0:0:0:0:
320,192,51101,1,2,0:0:0:0:
192,192,51169,1,0,0:0:0:0:
64,192,51238,1,0,0:0:0:0:
320,192,51306,1,0,0:0:0:0:
448,192,51374,1,2,0:0:0:0:
64,192,51374,1,0,0:0:0:0:
192,192,51442,1,0,0:0:0:0:
64,192,51510,1,0,0:0:0:0:
320,192,51578,1,0,0:0:0:0:
64,192,51647,128,0,51715:0:0:0:0:
448,192,51647,1,2,0:0:0:0:
192,192,51715,1,0,0:0:0:0:
448,192,51783,128,0,51851:0:0:0:0:
320,192,51851,1,0,0:0:0:0:
448,192,51919,1,0,0:0:0:0:
64,192,51919,1,4,0:0:0:0:
192,192,51919,1,2,0:0:0:0:
320,192,51988,1,0,0:0:0:0:
64,192,52056,1,0,0:0:0:0:
192,192,52124,1,0,0:0:0:0:
64,192,52192,1,0,0:0:0:0:
448,192,52192,1,4,0:0:0:0:
320,192,52192,1,2,0:0:0:0:
192,192,52260,1,0,0:0:0:0:
448,192,52328,1,0,0:0:0:0:
320,192,52397,1,0,0:0:0:0:
64,192,52465,1,4,0:0:0:0:
448,192,52465,1,0,0:0:0:0:
192,192,52465,1,2,0:0:0:0:
320,192,52533,1,0,0:0:0:0:
192,192,52601,1,0,0:0:0:0:
448,192,52669,1,0,0:0:0:0:
64,192,52738,128,0,52806:0:0:0:0:
448,192,52874,128,0,52942:0:0:0:0:
320,192,53010,1,4,0:0:0:0:
448,192,53010,1,2,0:0:0:0:
64,192,53010,1,0,0:0:0:0:
192,192,53078,1,0,0:0:0:0:
64,192,53147,1,0,0:0:0:0:
448,192,53215,1,0,0:0:0:0:
320,192,53283,128,0,53351:0:0:0:0:
320,192,53488,128,0,53556:0:0:0:0:
64,192,53556,1,4,0:0:0:0:
192,192,53556,1,2,0:0:0:0:
448,192,53556,1,0,0:0:0:0:
320,192,53624,1,0,0:0:0:0:
448,192,53692,1,0,0:0:0:0:
192,192,53760,1,0,0:0:0:0:
64,192,53828,128,0,53897:0:0:0:0:
320,192,53828,1,0,0:0:0:0:
192,192,53897,1,0,0:0:0:0:
448,192,53965,128,0,54033:0:0:0:0:
320,192,53965,1,0,0:0:0:0:
192,192,54033,1,0,0:0:0:0:
320,192,54101,1,4,0:0:0:0:
448,192,54101,1,2,0:0:0:0:
64,192,54101,1,0,0:0:0:0:
192,192,54169,1,0,0:0:0:0:
448,192,54238,1,0,0:0:0:0:
320,192,54306,1,0,0:0:0:0:
448,192,54374,1,2,0:0:0:0:
64,192,54374,1,8,0:0:0:0:
192,192,54442,1,0,0:0:0:0:
448,192,54510,1,0,0:0:0:0:
320,192,54578,1,0,0:0:0:0:
64,192,54647,1,0,0:0:0:0:
192,192,54647,1,2,0:0:0:0:
448,192,54715,1,0,0:0:0:0:
64,192,54783,1,0,0:0:0:0:
192,192,54851,1,0,0:0:0:0:
64,192,54919,1,8,0:0:0:0:
448,192,54919,1,2,0:0:0:0:
320,192,54988,1,0,0:0:0:0:
64,192,55056,1,0,0:0:0:0:
448,192,55124,1,0,0:0:0:0:
64,192,55192,1,0,0:0:0:0:
320,192,55192,1,2,0:0:0:0:
192,192,55260,1,0,0:0:0:0:
448,192,55328,1,0,0:0:0:0:
320,192,55397,1,0,0:0:0:0:
448,192,55465,1,8,0:0:0:0:
192,192,55465,1,2,0:0:0:0:
64,192,55533,1,0,0:0:0:0:
192,192,55601,1,0,0:0:0:0:
448,192,55669,1,0,0:0:0:0:
320,192,55738,1,2,0:0:0:0:
192,192,55738,1,0,0:0:0:0:
64,192,55806,1,0,0:0:0:0:
320,192,55874,1,0,0:0:0:0:
448,192,55942,1,0,0:0:0:0:
192,192,56010,1,2,0:0:0:0:
64,192,56010,1,8,0:0:0:0:
320,192,56078,1,0,0:0:0:0:
192,192,56147,1,0,0:0:0:0:
448,192,56215,1,0,0:0:0:0:
64,192,56283,1,2,0:0:0:0:
192,192,56283,1,0,0:0:0:0:
320,192,56351,1,0,0:0:0:0:
64,192,56419,1,0,0:0:0:0:
192,192,56488,1,0,0:0:0:0:
64,192,56556,1,8,0:0:0:0:
448,192,56556,1,2,0:0:0:0:
320,192,56624,1,0,0:0:0:0:
64,192,56692,1,0,0:0:0:0:
192,192,56760,1,0,0:0:0:0:
448,192,56828,1,2,0:0:0:0:
320,192,56828,1,0,0:0:0:0:
64,192,56897,1,0,0:0:0:0:
448,192,56965,1,0,0:0:0:0:
320,192,57033,1,0,0:0:0:0:
448,192,57101,1,2,0:0:0:0:
64,192,57101,1,8,0:0:0:0:
192,192,57169,1,0,0:0:0:0:
448,192,57238,1,0,0:0:0:0:
64,192,57306,1,0,0:0:0:0:
448,192,57374,1,0,0:0:0:0:
192,192,57374,1,2,0:0:0:0:
320,192,57442,1,0,0:0:0:0:
64,192,57510,1,0,0:0:0:0:
192,192,57578,1,0,0:0:0:0:
64,192,57647,1,8,0:0:0:0:
320,192,57647,1,2,0:0:0:0:
448,192,57715,1,0,0:0:0:0:
320,192,57783,1,0,0:0:0:0:
192,192,57851,1,0,0:0:0:0:
64,192,57919,1,0,0:0:0:0:
320,192,57988,1,0,0:0:0:0:
64,192,58056,1,0,0:0:0:0:
192,192,58124,1,0,0:0:0:0:
64,192,58192,128,0,58260:0:0:0:0:
64,192,58328,1,0,0:0:0:0:
448,192,58328,128,0,58397:0:0:0:0:
192,192,58465,1,2,0:0:0:0:
320,192,58465,1,0,0:0:0:0:
448,192,58533,1,0,0:0:0:0:
192,192,58601,1,0,0:0:0:0:
64,192,58669,1,0,0:0:0:0:
192,192,58738,1,2,0:0:0:0:
448,192,58738,1,8,0:0:0:0:
320,192,58806,1,0,0:0:0:0:
192,192,58874,1,0,0:0:0:0:
448,192,58942,1,0,0:0:0:0:
320,192,59010,1,2,0:0:0:0:
64,192,59010,1,0,0:0:0:0:
192,192,59078,1,0,0:0:0:0:
320,192,59147,1,0,0:0:0:0:
64,192,59215,1,0,0:0:0:0:
448,192,59283,1,8,0:0:0:0:
320,192,59283,1,2,0:0:0:0:
192,192,59351,1,0,0:0:0:0:
320,192,59419,1,0,0:0:0:0:
448,192,59488,1,0,0:0:0:0:
320,192,59556,1,2,0:0:0:0:
64,192,59556,1,0,0:0:0:0:
192,192,59624,1,0,0:0:0:0:
64,192,59692,1,0,0:0:0:0:
320,192,59760,1,0,0:0:0:0:
64,192,59828,1,2,0:0:0:0:
448,192,59828,1,8,0:0:0:0:
192,192,59897,1,0,0:0:0:0:
448,192,59965,1,0,0:0:0:0:
64,192,60033,1,0,0:0:0:0:
192,192,60101,1,0,0:0:0:0:
320,192,60101,1,2,0:0:0:0:
64,192,60169,1,0,0:0:0:0:
192,192,60238,1,0,0:0:0:0:
320,192,60306,1,0,0:0:0:0:
448,192,60374,1,8,0:0:0:0:
192,192,60374,1,2,0:0:0:0:
64,192,60442,1,0,0:0:0:0:
448,192,60510,1,0,0:0:0:0:
192,192,60578,1,0,0:0:0:0:
320,192,60647,1,2,0:0:0:0:
448,192,60647,1,0,0:0:0:0:
64,192,60715,1,0,0:0:0:0:
320,192,60783,1,0,0:0:0:0:
448,192,60851,1,0,0:0:0:0:
320,192,60919,1,2,0:0:0:0:
64,192,60919,1,8,0:0:0:0:
192,192,60988,1,0,0:0:0:0:
320,192,61056,1,0,0:0:0:0:
448,192,61124,1,0,0:0:0:0:
192,192,61192,1,0,0:0:0:0:
64,192,61192,1,2,0:0:0:0:
320,192,61260,1,0,0:0:0:0:
192,192,61328,1,0,0:0:0:0:
64,192,61397,1,0,0:0:0:0:
448,192,61465,1,8,0:0:0:0:
192,192,61465,1,2,0:0:0:0:
320,192,61533,1,0,0:0:0:0:
192,192,61601,1,0,0:0:0:0:
448,192,61669,1,0,0:0:0:0:
192,192,61738,1,0,0:0:0:0:
320,192,61738,1,2,0:0:0:0:
64,192,61806,1,0,0:0:0:0:
448,192,61874,1,0,0:0:0:0:
64,192,61942,1,0,0:0:0:0:
448,192,62010,1,8,0:0:0:0:
192,192,62010,1,2,0:0:0:0:
320,192,62078,1,0,0:0:0:0:
64,192,62147,1,0,0:0:0:0:
448,192,62215,1,0,0:0:0:0:
64,192,62283,128,0,62351:0:0:0:0:
448,192,62419,128,0,62488:0:0:0:0:
64,192,62556,128,0,62624:0:0:0:0:
192,192,62556,128,0,62760:0:0:0:0:
448,192,62692,128,0,62760:0:0:0:0:
320,192,62828,1,4,0:0:0:0:
448,192,62828,1,2,0:0:0:0:
64,192,62828,1,0,0:0:0:0:
192,192,62897,1,0,0:0:0:0:
320,192,62965,1,0,0:0:0:0:
448,192,63033,1,0,0:0:0:0:
320,192,63101,1,8,0:0:0:0:
64,192,63101,1,2,0:0:0:0:
192,192,63169,1,0,0:0:0:0:
320,192,63238,1,0,0:0:0:0:
448,192,63306,1,0,0:0:0:0:
64,192,63374,1,2,0:0:0:0:
192,192,63374,1,0,0:0:0:0:
320,192,63442,1,0,0:0:0:0:
64,192,63510,1,0,0:0:0:0:
448,192,63578,1,0,0:0:0:0:
64,192,63647,1,8,0:0:0:0:
320,192,63647,1,2,0:0:0:0:
192,192,63715,1,0,0:0:0:0:
64,192,63783,1,0,0:0:0:0:
320,192,63851,1,0,0:0:0:0:
64,192,63919,1,0,0:0:0:0:
448,192,63919,1,2,0:0:0:0:
192,192,63988,1,0,0:0:0:0:
448,192,64056,1,0,0:0:0:0:
320,192,64124,1,0,0:0:0:0:
448,192,64192,1,8,0:0:0:0:
192,192,64192,1,2,0:0:0:0:
64,192,64260,1,0,0:0:0:0:
320,192,64328,1,0,0:0:0:0:
64,192,64397,1,0,0:0:0:0:
320,192,64465,1,0,0:0:0:0:
192,192,64465,1,2,0:0:0:0:
448,192,64533,1,0,0:0:0:0:
320,192,64601,1,0,0:0:0:0:
64,192,64669,1,0,0:0:0:0:
192,192,64738,1,2,0:0:0:0:
448,192,64738,1,8,0:0:0:0:
320,192,64806,1,0,0:0:0:0:
192,192,64874,1,0,0:0:0:0:
448,192,64942,1,0,0:0:0:0:
64,192,65010,1,2,0:0:0:0:
192,192,65010,1,0,0:0:0:0:
320,192,65078,1,0,0:0:0:0:
448,192,65147,1,0,0:0:0:0:
192,192,65215,1,0,0:0:0:0:
64,192,65283,1,8,0:0:0:0:
320,192,65283,1,2,0:0:0:0:
448,192,65351,1,0,0:0:0:0:
64,192,65419,1,0,0:0:0:0:
192,192,65488,1,0,0:0:0:0:
320,192,65556,1,2,0:0:0:0:
448,192,65556,1,0,0:0:0:0:
64,192,65624,1,0,0:0:0:0:
320,192,65692,1,0,0:0:0:0:
448,192,65760,1,0,0:0:0:0:
192,192,65828,1,2,0:0:0:0:
320,192,65828,1,8,0:0:0:0:
64,192,65897,1,0,0:0:0:0:
320,192,65965,1,0,0:0:0:0:
448,192,66033,1,0,0:0:0:0:
64,192,66101,1,2,0:0:0:0:
192,192,66101,1,0,0:0:0:0:
320,192,66169,1,0,0:0:0:0:
64,192,66238,1,0,0:0:0:0:
448,192,66306,1,0,0:0:0:0:
64,192,66374,1,8,0:0:0:0:
320,192,66374,1,2,0:0:0:0:
192,192,66442,1,0,0:0:0:0:
64,192,66510,1,0,0:0:0:0:
448,192,66578,1,0,0:0:0:0:
320,192,66647,1,0,0:0:0:0:
192,192,66647,1,2,0:0:0:0:
64,192,66715,1,0,0:0:0:0:
320,192,66783,1,0,0:0:0:0:
192,192,66851,1,0,0:0:0:0:
448,192,66919,1,0,0:0:0:0:
448,192,67056,1,0,0:0:0:0:
192,192,67192,1,0,0:0:0:0:
64,192,67192,1,2,0:0:0:0:
448,192,67260,1,0,0:0:0:0:
192,192,67328,1,0,0:0:0:0:
64,192,67397,1,0,0:0:0:0:
192,192,67465,1,2,0:0:0:0:
448,192,67465,1,8,0:0:0:0:
320,192,67533,1,0,0:0:0:0:
192,192,67601,1,0,0:0:0:0:
64,192,67669,1,0,0:0:0:0:
448,192,67738,1,0,0:0:0:0:
320,192,67738,1,2,0:0:0:0:
192,192,67806,1,0,0:0:0:0:
448,192,67874,1,0,0:0:0:0:
64,192,67942,1,0,0:0:0:0:
448,192,68010,1,8,0:0:0:0:
192,192,68010,1,2,0:0:0:0:
320,192,68078,1,0,0:0:0:0:
448,192,68147,1,0,0:0:0:0:
192,192,68215,1,0,0:0:0:0:
448,192,68283,1,2,0:0:0:0:
64,192,68283,1,0,0:0:0:0:
320,192,68351,1,0,0:0:0:0:
64,192,68419,1,0,0:0:0:0:
192,192,68488,1,0,0:0:0:0:
64,192,68556,1,8,0:0:0:0:
448,192,68556,1,2,0:0:0:0:
320,192,68624,1,0,0:0:0:0:
192,192,68692,1,0,0:0:0:0:
448,192,68760,1,0,0:0:0:0:
192,192,68828,1,0,0:0:0:0:
320,192,68828,1,2,0:0:0:0:
64,192,68897,1,0,0:0:0:0:
192,192,68965,1,0,0:0:0:0:
448,192,69033,1,0,0:0:0:0:
320,192,69101,1,2,0:0:0:0:
64,192,69101,1,8,0:0:0:0:
192,192,69169,1,0,0:0:0:0:
320,192,69238,1,0,0:0:0:0:
64,192,69306,1,0,0:0:0:0:
320,192,69374,1,2,0:0:0:0:
192,192,69374,128,0,69442:0:0:0:0:
448,192,69510,128,0,69578:0:0:0:0:
192,192,69510,1,4,0:0:0:0:
64,192,69510,1,0,0:0:0:0:
320,192,69647,1,2,0:0:0:0:
192,192,69647,128,0,69715:0:0:0:0:
448,192,69783,128,0,69851:0:0:0:0:
320,192,69783,1,4,0:0:0:0:
64,192,69783,1,0,0:0:0:0:
320,192,69919,1,2,0:0:0:0:
192,192,69919,128,0,69988:0:0:0:0:
64,192,70056,1,0,0:0:0:0:
192,192,70056,1,4,0:0:0:0:
448,192,70056,128,0,70124:0:0:0:0:
64,192,70192,128,0,70260:0:0:0:0:
320,192,70192,1,2,0:0:0:0:
448,192,70328,128,0,70397:0:0:0:0:
320,192,70328,1,4,0:0:0:0:
192,192,70328,1,0,0:0:0:0:
64,192,70397,128,0,70465:0:0:0:0:
192,192,70465,128,0,70669:0:0:0:0:
320,192,70465,1,2,0:0:0:0:
448,192,70601,1,0,0:0:0:0:
64,192,70601,1,0,0:0:0:0:
192,192,70738,128,0,70942:0:0:0:0:
320,192,70738,1,2,0:0:0:0:
448,192,70874,1,0,0:0:0:0:
64,192,70874,1,0,0:0:0:0:
64,192,71010,128,0,71078:0:0:0:0:
448,192,71147,128,0,71215:0:0:0:0:
320,192,71283,128,0,71556:0:0:0:0:
64,192,71556,1,2,0:0:0:0:
192,192,71556,1,0,0:0:0:0:
448,192,71556,1,4,0:0:0:0:
320,192,71624,1,0,0:0:0:0:
64,192,71692,1,0,0:0:0:0:
448,192,71760,1,0,0:0:0:0:
64,192,71828,1,8,0:0:0:0:
192,192,71828,1,2,0:0:0:0:
320,192,71897,1,0,0:0:0:0:
64,192,71965,1,0,0:0:0:0:
192,192,72033,1,0,0:0:0:0:
448,192,72101,1,0,0:0:0:0:
320,192,72101,1,2,0:0:0:0:
192,192,72169,1,0,0:0:0:0:
448,192,72238,1,0,0:0:0:0:
64,192,72306,1,0,0:0:0:0:
448,192,72374,1,8,0:0:0:0:
320,192,72374,1,2,0:0:0:0:
192,192,72442,1,0,0:0:0:0:
448,192,72510,1,0,0:0:0:0:
320,192,72578,1,0,0:0:0:0:
448,192,72647,1,2,0:0:0:0:
192,192,72647,1,0,0:0:0:0:
64,192,72715,1,0,0:0:0:0:
192,192,72783,1,0,0:0:0:0:
320,192,72851,1,0,0:0:0:0:
448,192,72919,1,2,0:0:0:0:
192,192,72919,1,8,0:0:0:0:
64,192,72988,1,0,0:0:0:0:
320,192,73056,1,0,0:0:0:0:
448,192,73124,1,0,0:0:0:0:
320,192,73192,1,2,0:0:0:0:
192,192,73192,1,0,0:0:0:0:
448,192,73260,1,0,0:0:0:0:
192,192,73328,1,0,0:0:0:0:
64,192,73397,1,0,0:0:0:0:
192,192,73465,1,8,0:0:0:0:
320,192,73465,1,2,0:0:0:0:
64,192,73533,1,0,0:0:0:0:
320,192,73601,1,0,0:0:0:0:
192,192,73669,1,0,0:0:0:0:
448,192,73738,1,0,0:0:0:0:
320,192,73738,1,2,0:0:0:0:
192,192,73806,1,0,0:0:0:0:
448,192,73874,1,0,0:0:0:0:
64,192,73942,1,0,0:0:0:0:
448,192,74010,1,8,0:0:0:0:
320,192,74010,1,2,0:0:0:0:
192,192,74078,1,0,0:0:0:0:
448,192,74147,1,0,0:0:0:0:
320,192,74215,1,0,0:0:0:0:
64,192,74283,1,0,0:0:0:0:
192,192,74283,1,2,0:0:0:0:
320,192,74351,1,0,0:0:0:0:
64,192,74419,1,0,0:0:0:0:
448,192,74488,1,0,0:0:0:0:
64,192,74556,1,8,0:0:0:0:
192,192,74556,1,2,0:0:0:0:
320,192,74624,1,0,0:0:0:0:
64,192,74692,1,0,0:0:0:0:
192,192,74760,1,0,0:0:0:0:
64,192,74828,1,2,0:0:0:0:
320,192,74828,1,0,0:0:0:0:
448,192,74897,1,0,0:0:0:0:
320,192,74965,1,0,0:0:0:0:
192,192,75033,1,0,0:0:0:0:
64,192,75101,1,2,0:0:0:0:
448,192,75101,1,8,0:0:0:0:
320,192,75169,1,0,0:0:0:0:
192,192,75238,1,0,0:0:0:0:
64,192,75306,1,0,0:0:0:0:
192,192,75374,1,0,0:0:0:0:
320,192,75374,1,0,0:0:0:0:
448,192,75442,1,0,0:0:0:0:
320,192,75510,1,0,0:0:0:0:
448,192,75578,1,0,0:0:0:0:
320,192,75647,1,0,0:0:0:0:
192,192,75647,128,0,75715:0:0:0:0:
320,192,75783,1,0,0:0:0:0:
192,192,75851,128,0,75919:0:0:0:0:
64,192,75919,1,0,0:0:0:0:
448,192,75919,1,2,0:0:0:0:
320,192,75988,1,0,0:0:0:0:
64,192,76056,1,0,0:0:0:0:
192,192,76124,1,0,0:0:0:0:
64,192,76192,1,8,0:0:0:0:
448,192,76192,1,2,0:0:0:0:
320,192,76260,1,0,0:0:0:0:
64,192,76328,1,0,0:0:0:0:
448,192,76397,1,0,0:0:0:0:
320,192,76465,1,0,0:0:0:0:
192,192,76465,1,2,0:0:0:0:
64,192,76533,1,0,0:0:0:0:
320,192,76601,1,0,0:0:0:0:
448,192,76669,1,0,0:0:0:0:
320,192,76738,1,8,0:0:0:0:
192,192,76738,1,2,0:0:0:0:
64,192,76806,1,0,0:0:0:0:
320,192,76874,1,0,0:0:0:0:
448,192,76942,1,0,0:0:0:0:
320,192,77010,1,2,0:0:0:0:
64,192,77010,1,0,0:0:0:0:
192,192,77078,1,0,0:0:0:0:
64,192,77147,1,0,0:0:0:0:
448,192,77215,1,0,0:0:0:0:
64,192,77283,1,8,0:0:0:0:
320,192,77283,1,2,0:0:0:0:
448,192,77351,1,0,0:0:0:0:
192,192,77419,1,0,0:0:0:0:
64,192,77488,1,0,0:0:0:0:
320,192,77556,1,0,0:0:0:0:
448,192,77556,1,2,0:0:0:0:
64,192,77624,1,0,0:0:0:0:
320,192,77692,1,0,0:0:0:0:
192,192,77760,1,0,0:0:0:0:
320,192,77828,1,8,0:0:0:0:
448,192,77828,1,2,0:0:0:0:
64,192,77897,1,0,0:0:0:0:
192,192,77965,1,0,0:0:0:0:
320,192,78033,1,0,0:0:0:0:
448,192,78101,1,0,0:0:0:0:
64,192,78101,1,2,0:0:0:0:
192,192,78169,1,0,0:0:0:0:
448,192,78238,1,0,0:0:0:0:
320,192,78306,1,0,0:0:0:0:
448,192,78374,1,8,0:0:0:0:
64,192,78374,1,2,0:0:0:0:
192,192,78442,1,0,0:0:0:0:
448,192,78510,1,0,0:0:0:0:
64,192,78578,1,0,0:0:0:0:
192,192,78647,1,0,0:0:0:0:
320,192,78647,1,2,0:0:0:0:
448,192,78715,1,0,0:0:0:0:
192,192,78783,1,0,0:0:0:0:
64,192,78851,1,0,0:0:0:0:
192,192,78919,1,8,0:0:0:0:
320,192,78919,1,2,0:0:0:0:
448,192,78988,1,0,0:0:0:0:
192,192,79056,1,0,0:0:0:0:
64,192,79124,1,0,0:0:0:0:
192,192,79192,1,2,0:0:0:0:
448,192,79192,1,0,0:0:0:0:
320,192,79260,1,0,0:0:0:0:
448,192,79328,1,0,0:0:0:0:
64,192,79397,1,0,0:0:0:0:
448,192,79465,1,8,0:0:0:0:
320,192,79465,1,2,0:0:0:0:
192,192,79533,1,0,0:0:0:0:
320,192,79601,1,0,0:0:0:0:
448,192,79669,1,0,0:0:0:0:
64,192,79738,128,0,79806:0:0:0:0:
192,192,79806,1,0,0:0:0:0:
448,192,79874,128,0,79942:0:0:0:0:
320,192,79942,1,0,0:0:0:0:
192,192,80010,128,8,80215:0:0:0:0:
64,192,80078,1,0,0:0:0:0:
448,192,80147,128,0,80215:0:0:0:0:
320,192,80215,1,0,0:0:0:0:
64,192,80283,1,4,0:0:0:0:
192,192,80283,1,2,0:0:0:0:
448,192,80283,1,0,0:0:0:0:
320,192,80351,1,0,0:0:0:0:
64,192,80419,1,0,0:0:0:0:
192,192,80419,1,2,0:0:0:0:
448,192,80488,1,0,0:0:0:0:
64,192,80556,1,8,0:0:0:0:
192,192,80556,1,2,0:0:0:0:
320,192,80624,1,0,0:0:0:0:
192,192,80692,1,0,0:0:0:0:
64,192,80760,1,0,0:0:0:0:
320,192,80828,1,0,0:0:0:0:
448,192,80828,1,2,0:0:0:0:
192,192,80897,1,0,0:0:0:0:
320,192,80965,1,0,0:0:0:0:
64,192,81033,1,0,0:0:0:0:
320,192,81101,1,8,0:0:0:0:
448,192,81101,1,2,0:0:0:0:
192,192,81169,1,0,0:0:0:0:
320,192,81238,1,0,0:0:0:0:
448,192,81306,1,0,0:0:0:0:
320,192,81374,1,0,0:0:0:0:
64,192,81374,1,2,0:0:0:0:
448,192,81442,1,0,0:0:0:0:
192,192,81510,1,0,0:0:0:0:
448,192,81578,1,0,0:0:0:0:
64,192,81647,1,2,0:0:0:0:
320,192,81647,1,8,0:0:0:0:
192,192,81715,1,0,0:0:0:0:
64,192,81783,1,0,0:0:0:0:
448,192,81851,1,0,0:0:0:0:
192,192,81919,1,0,0:0:0:0:
320,192,81919,1,2,0:0:0:0:
64,192,81988,1,0,0:0:0:0:
192,192,82056,1,0,0:0:0:0:
448,192,82124,1,0,0:0:0:0:
320,192,82192,1,2,0:0:0:0:
192,192,82192,1,8,0:0:0:0:
64,192,82260,1,0,0:0:0:0:
320,192,82328,1,0,0:0:0:0:
192,192,82397,1,0,0:0:0:0:
320,192,82465,1,2,0:0:0:0:
448,192,82465,1,0,0:0:0:0:
64,192,82533,1,0,0:0:0:0:
192,192,82601,1,0,0:0:0:0:
448,192,82669,1,0,0:0:0:0:
64,192,82738,1,8,0:0:0:0:
320,192,82738,1,2,0:0:0:0:
192,192,82806,1,0,0:0:0:0:
64,192,82874,1,0,0:0:0:0:
448,192,82942,1,0,0:0:0:0:
192,192,83010,1,0,0:0:0:0:
320,192,83010,1,2,0:0:0:0:
64,192,83078,1,0,0:0:0:0:
192,192,83147,1,0,0:0:0:0:
448,192,83215,1,0,0:0:0:0:
320,192,83283,1,2,0:0:0:0:
192,192,83283,1,8,0:0:0:0:
64,192,83351,1,0,0:0:0:0:
320,192,83419,1,0,0:0:0:0:
192,192,83488,1,0,0:0:0:0:
320,192,83556,1,2,0:0:0:0:
448,192,83556,1,0,0:0:0:0:
64,192,83624,1,0,0:0:0:0:
192,192,83692,1,0,0:0:0:0:
448,192,83760,1,0,0:0:0:0:
64,192,83828,1,8,0:0:0:0:
320,192,83828,1,2,0:0:0:0:
192,192,83897,1,0,0:0:0:0:
64,192,83965,1,0,0:0:0:0:
448,192,84033,1,0,0:0:0:0:
192,192,84101,1,0,0:0:0:0:
320,192,84101,1,2,0:0:0:0:
448,192,84169,1,0,0:0:0:0:
64,192,84169,1,0,0:0:0:0:
192,192,84238,1,0,0:0:0:0:
320,192,84238,1,0,0:0:0:0:
448,192,84306,1,0,0:0:0:0:
64,192,84374,1,0,0:0:0:0:
192,192,84408,1,0,0:0:0:0:
448,192,84442,1,0,0:0:0:0:
320,192,84476,1,0,0:0:0:0:
64,192,84510,1,0,0:0:0:0:
192,192,84544,1,0,0:0:0:0:
448,192,84578,1,0,0:0:0:0:
320,192,84613,1,0,0:0:0:0:
192,192,84647,1,0,0:0:0:0:
64,192,84647,1,2,0:0:0:0:
448,192,84715,1,0,0:0:0:0:
64,192,84783,1,0,0:0:0:0:
320,192,84851,1,0,0:0:0:0:
64,192,84919,1,8,0:0:0:0:
192,192,84919,1,2,0:0:0:0:
320,192,84988,1,0,0:0:0:0:
64,192,85056,1,0,0:0:0:0:
192,192,85124,1,0,0:0:0:0:
448,192,85192,1,0,0:0:0:0:
320,192,85192,1,2,0:0:0:0:
192,192,85260,1,0,0:0:0:0:
448,192,85328,1,0,0:0:0:0:
64,192,85397,1,0,0:0:0:0:
448,192,85465,1,8,0:0:0:0:
320,192,85465,1,2,0:0:0:0:
192,192,85533,1,0,0:0:0:0:
448,192,85601,1,0,0:0:0:0:
320,192,85669,1,0,0:0:0:0:
448,192,85738,1,2,0:0:0:0:
64,192,85738,1,0,0:0:0:0:
192,192,85806,1,0,0:0:0:0:
64,192,85874,1,0,0:0:0:0:
320,192,85942,1,0,0:0:0:0:
64,192,86010,1,8,0:0:0:0:
448,192,86010,1,2,0:0:0:0:
320,192,86078,1,0,0:0:0:0:
192,192,86147,1,0,0:0:0:0:
64,192,86215,1,0,0:0:0:0:
192,192,86283,1,2,0:0:0:0:
320,192,86283,1,0,0:0:0:0:
448,192,86351,1,0,0:0:0:0:
320,192,86419,1,0,0:0:0:0:
64,192,86488,1,0,0:0:0:0:
320,192,86556,1,8,0:0:0:0:
192,192,86556,1,2,0:0:0:0:
64,192,86624,1,0,0:0:0:0:
320,192,86692,1,0,0:0:0:0:
448,192,86760,1,0,0:0:0:0:
64,192,86828,1,0,0:0:0:0:
192,192,86828,1,2,0:0:0:0:
320,192,86897,1,2,0:0:0:0:
448,192,86897,1,0,0:0:0:0:
64,192,86965,1,0,0:0:0:0:
192,192,87033,1,0,0:0:0:0:
320,192,87101,1,2,0:0:0:0:
448,192,87101,1,0,0:0:0:0:
192,192,87169,1,2,0:0:0:0:
64,192,87169,1,0,0:0:0:0:
448,192,87238,1,0,0:0:0:0:
64,192,87306,1,0,0:0:0:0:
320,192,87374,1,2,0:0:0:0:
192,192,87374,1,0,0:0:0:0:
448,192,87442,1,2,0:0:0:0:
64,192,87442,1,0,0:0:0:0:
320,192,87510,1,0,0:0:0:0:
192,192,87578,1,0,0:0:0:0:
320,192,87647,1,0,0:0:0:0:
64,192,87647,1,2,0:0:0:0:
192,192,87715,1,2,0:0:0:0:
448,192,87715,1,0,0:0:0:0:
64,192,87783,1,0,0:0:0:0:
320,192,87851,1,0,0:0:0:0:
64,192,87919,1,2,0:0:0:0:
192,192,87919,1,0,0:0:0:0:
320,192,88010,1,0,0:0:0:0:
192,192,88101,1,0,0:0:0:0:
320,192,88192,1,0,0:0:0:0:
448,192,88192,1,2,0:0:0:0:
192,192,88283,1,0,0:0:0:0:
320,192,88374,1,0,0:0:0:0:
192,192,88465,128,0,88533:0:0:0:0:
192,192,88601,128,0,88669:0:0:0:0:
448,192,88738,1,0,0:0:0:0:
448,192,88874,1,0,0:0:0:0:
64,192,89010,1,2,0:0:0:0:
192,192,89010,1,0,0:0:0:0:
320,192,89147,1,0,0:0:0:0:
64,192,89283,1,2,0:0:0:0:
192,192,89283,1,0,0:0:0:0:
320,192,89419,1,0,0:0:0:0:
64,192,89556,1,2,0:0:0:0:
192,192,89556,1,0,0:0:0:0:
320,192,89692,1,0,0:0:0:0:
64,192,89828,1,2,0:0:0:0:
192,192,89828,1,0,0:0:0:0:
320,192,89965,1,0,0:0:0:0:
448,192,91192,1,2,0:0:0:0:
320,192,91192,1,0,0:0:0:0:
192,192,91328,1,0,0:0:0:0:
320,192,91465,1,0,0:0:0:0:
448,192,91465,1,2,0:0:0:0:
192,192,91601,1,0,0:0:0:0:
320,192,91738,1,0,0:0:0:0:
448,192,91738,1,2,0:0:0:0:
192,192,91874,1,0,0:0:0:0:
320,192,92010,1,0,0:0:0:0:
448,192,92010,1,2,0:0:0:0:
192,192,92147,1,0,0:0:0:0:
64,192,92283,128,0,92488:0:0:0:0:
448,192,92283,1,0,0:0:0:0:
448,192,92419,1,0,0:0:0:0:
64,192,92556,128,0,92760:0:0:0:0:
192,192,92556,1,0,0:0:0:0:
448,192,92692,1,0,0:0:0:0:
64,192,92828,128,0,93306:0:0:0:0:
320,192,92828,1,0,0:0:0:0:
192,192,92965,1,0,0:0:0:0:
448,192,93033,1,0,0:0:0:0:
320,192,93101,1,0,0:0:0:0:
192,192,93169,1,0,0:0:0:0:
448,192,93238,1,0,0:0:0:0:
192,192,93306,1,0,0:0:0:0:
64,192,93374,1,2,0:0:0:0:
448,192,93374,1,0,0:0:0:0:
320,192,93510,1,0,0:0:0:0:
64,192,93647,1,2,0:0:0:0:
448,192,93647,1,0,0:0:0:0:
320,192,93783,1,0,0:0:0:0:
64,192,93919,1,2,0:0:0:0:
448,192,93919,1,0,0:0:0:0:
320,192,94056,1,0,0:0:0:0:
64,192,94192,1,2,0:0:0:0:
448,192,94192,1,0,0:0:0:0:
320,192,94328,1,0,0:0:0:0:
64,192,95556,1,0,0:0:0:0:
448,192,95556,1,2,0:0:0:0:
192,192,95692,1,0,0:0:0:0:
64,192,95828,1,0,0:0:0:0:
448,192,95828,1,2,0:0:0:0:
192,192,95965,1,0,0:0:0:0:
64,192,96101,1,0,0:0:0:0:
448,192,96101,1,2,0:0:0:0:
192,192,96238,1,0,0:0:0:0:
448,192,96374,1,2,0:0:0:0:
64,192,96374,1,0,0:0:0:0:
192,192,96510,1,0,0:0:0:0:
64,192,96647,128,0,96738:0:0:0:0:
320,192,96738,128,0,96828:0:0:0:0:
448,192,96828,128,0,96919:0:0:0:0:
64,192,96919,128,0,96988:0:0:0:0:
192,192,96988,128,0,97056:0:0:0:0:
448,192,97056,128,0,97124:0:0:0:0:
320,192,97124,128,0,97192:0:0:0:0:
64,192,97192,128,0,97260:0:0:0:0:
448,192,97260,128,0,97328:0:0:0:0:
192,192,97328,128,0,97397:0:0:0:0:
320,192,97397,128,0,97465:0:0:0:0:
448,192,97465,128,0,97533:0:0:0:0:
64,192,97533,128,0,97738:0:0:0:0:
192,192,97738,1,0,0:0:0:0:
448,192,97738,1,2,0:0:0:0:
320,192,97738,1,4,0:0:0:0:
64,192,97874,1,0,0:0:0:0:
192,192,98010,1,0,0:0:0:0:
448,192,98010,1,2,0:0:0:0:
64,192,98147,1,0,0:0:0:0:
192,192,98283,1,0,0:0:0:0:
448,192,98283,1,2,0:0:0:0:
64,192,98419,1,0,0:0:0:0:
192,192,98556,1,0,0:0:0:0:
448,192,98556,1,2,0:0:0:0:
64,192,98692,1,0,0:0:0:0:
192,192,98828,1,0,0:0:0:0:
320,192,98828,1,2,0:0:0:0:
448,192,98965,1,0,0:0:0:0:
192,192,99101,1,0,0:0:0:0:
320,192,99101,1,2,0:0:0:0:
448,192,99238,1,0,0:0:0:0:
192,192,99374,1,0,0:0:0:0:
320,192,99374,1,2,0:0:0:0:
448,192,99510,1,0,0:0:0:0:
192,192,99647,1,0,0:0:0:0:
320,192,99647,1,2,0:0:0:0:
448,192,99783,1,0,0:0:0:0:
64,192,99919,1,0,0:0:0:0:
320,192,99919,1,2,0:0:0:0:
192,192,100056,1,0,0:0:0:0:
320,192,100192,1,2,0:0:0:0:
64,192,100192,1,0,0:0:0:0:
192,192,100328,1,0,0:0:0:0:
64,192,100465,1,0,0:0:0:0:
320,192,100465,1,2,0:0:0:0:
192,192,100601,1,0,0:0:0:0:
64,192,100738,1,0,0:0:0:0:
320,192,100738,1,2,0:0:0:0:
192,192,100874,1,0,0:0:0:0:
64,192,101010,1,2,0:0:0:0:
448,192,101010,1,0,0:0:0:0:
320,192,101147,1,0,0:0:0:0:
64,192,101283,1,2,0:0:0:0:
448,192,101283,1,0,0:0:0:0:
320,192,101419,1,0,0:0:0:0:
64,192,101556,1,2,0:0:0:0:
448,192,101556,1,0,0:0:0:0:
320,192,101692,1,0,0:0:0:0:
64,192,101828,1,2,0:0:0:0:
448,192,101828,1,0,0:0:0:0:
192,192,101965,1,0,0:0:0:0:
320,192,102101,1,2,0:0:0:0:
448,192,102101,1,0,0:0:0:0:
320,192,102238,1,0,0:0:0:0:
448,192,102238,1,0,0:0:0:0:
448,192,102374,1,2,0:0:0:0:
192,192,102374,1,0,0:0:0:0:
320,192,102510,1,0,0:0:0:0:
64,192,102510,1,0,0:0:0:0:
320,192,102647,1,2,0:0:0:0:
192,192,102647,1,0,0:0:0:0:
320,192,102783,1,0,0:0:0:0:
192,192,102783,1,0,0:0:0:0:
448,192,102919,1,0,0:0:0:0:
192,192,102919,1,2,0:0:0:0:
192,192,103056,1,0,0:0:0:0:
320,192,103056,1,0,0:0:0:0:
64,192,103192,1,0,0:0:0:0:
192,192,103192,1,2,0:0:0:0:
64,192,103328,1,0,0:0:0:0:
192,192,103328,1,0,0:0:0:0:
320,192,103465,1,2,0:0:0:0:
64,192,103465,1,0,0:0:0:0:
192,192,103601,1,0,0:0:0:0:
448,192,103601,1,0,0:0:0:0:
192,192,103738,1,0,0:0:0:0:
320,192,103738,1,2,0:0:0:0:
192,192,103874,1,0,0:0:0:0:
320,192,103874,1,0,0:0:0:0:
64,192,104010,1,0,0:0:0:0:
320,192,104010,1,2,0:0:0:0:
320,192,104147,1,0,0:0:0:0:
448,192,104147,1,0,0:0:0:0:
64,192,104283,1,0,0:0:0:0:
192,192,104283,1,0,0:0:0:0:
320,192,104351,1,0,0:0:0:0:
448,192,104419,1,0,0:0:0:0:
64,192,104419,1,0,0:0:0:0:
192,192,104488,1,0,0:0:0:0:
320,192,104556,1,0,0:0:0:0:
448,192,104556,1,0,0:0:0:0:
64,192,104624,1,0,0:0:0:0:
192,192,104692,1,0,0:0:0:0:
320,192,104692,1,0,0:0:0:0:
448,192,104760,1,0,0:0:0:0:
64,192,104828,1,0,0:0:0:0:
192,192,104828,1,0,0:0:0:0:
320,192,104897,1,0,0:0:0:0:
448,192,104965,1,0,0:0:0:0:
64,192,104965,1,0,0:0:0:0:
192,192,105033,1,0,0:0:0:0:
320,192,105101,1,0,0:0:0:0:
448,192,105101,1,0,0:0:0:0:
64,192,105169,1,0,0:0:0:0:
192,192,105238,1,0,0:0:0:0:
320,192,105238,1,0,0:0:0:0:
448,192,105306,1,0,0:0:0:0:
64,192,105374,128,0,105578:0:0:0:0:
192,192,105578,128,0,105647:0:0:0:0:
64,192,105647,128,0,105715:0:0:0:0:
64,192,105783,128,0,105851:0:0:0:0:
64,192,105919,128,0,105988:0:0:0:0:
192,192,106056,128,0,106124:0:0:0:0:
448,192,106192,128,0,106260:0:0:0:0:
64,192,106465,1,4,0:0:0:0:
192,192,106465,1,0,0:0:0:0:
448,192,106465,1,2,0:0:0:0:
320,192,106533,1,0,0:0:0:0:
192,192,106601,1,0,0:0:0:0:
448,192,106669,1,0,0:0:0:0:
192,192,106738,1,2,0:0:0:0:
64,192,106738,1,0,0:0:0:0:
320,192,106806,1,0,0:0:0:0:
64,192,106874,1,0,0:0:0:0:
448,192,106942,1,0,0:0:0:0:
320,192,107010,1,0,0:0:0:0:
192,192,107010,1,2,0:0:0:0:
64,192,107078,1,0,0:0:0:0:
320,192,107147,1,0,0:0:0:0:
64,192,107215,1,0,0:0:0:0:
192,192,107283,1,2,0:0:0:0:
320,192,107283,1,0,0:0:0:0:
448,192,107351,1,0,0:0:0:0:
192,192,107419,1,0,0:0:0:0:
64,192,107488,1,0,0:0:0:0:
448,192,107556,1,2,0:0:0:0:
320,192,107556,1,0,0:0:0:0:
192,192,107624,1,0,0:0:0:0:
320,192,107692,1,0,0:0:0:0:
64,192,107760,1,0,0:0:0:0:
448,192,107828,1,2,0:0:0:0:
320,192,107828,1,0,0:0:0:0:
192,192,107897,1,0,0:0:0:0:
64,192,107965,1,0,0:0:0:0:
320,192,108033,1,0,0:0:0:0:
448,192,108101,1,0,0:0:0:0:
64,192,108101,1,2,0:0:0:0:
320,192,108169,1,0,0:0:0:0:
192,192,108238,1,0,0:0:0:0:
448,192,108306,1,0,0:0:0:0:
192,192,108374,128,2,108578:0:0:0:0:
64,192,108442,1,0,0:0:0:0:
448,192,108510,128,0,108578:0:0:0:0:
320,192,108578,1,0,0:0:0:0:
64,192,108647,128,0,108715:0:0:0:0:
448,192,108647,1,2,0:0:0:0:
320,192,108715,1,0,0:0:0:0:
448,192,108783,128,0,108851:0:0:0:0:
192,192,108851,1,0,0:0:0:0:
64,192,108919,128,0,108988:0:0:0:0:
320,192,108919,1,2,0:0:0:0:
192,192,108988,1,0,0:0:0:0:
448,192,109056,128,0,109124:0:0:0:0:
192,192,109124,1,0,0:0:0:0:
64,192,109192,128,0,109260:0:0:0:0:
448,192,109192,1,2,0:0:0:0:
320,192,109260,1,0,0:0:0:0:
448,192,109328,128,0,109397:0:0:0:0:
192,192,109397,1,0,0:0:0:0:
64,192,109465,128,0,109533:0:0:0:0:
320,192,109465,1,2,0:0:0:0:
192,192,109533,1,0,0:0:0:0:
448,192,109601,128,0,109669:0:0:0:0:
192,192,109669,1,0,0:0:0:0:
64,192,109738,128,0,109806:0:0:0:0:
448,192,109738,1,2,0:0:0:0:
320,192,109806,1,0,0:0:0:0:
448,192,109874,128,0,109942:0:0:0:0:
192,192,109942,1,0,0:0:0:0:
64,192,110010,128,0,110078:0:0:0:0:
320,192,110010,1,2,0:0:0:0:
192,192,110078,1,0,0:0:0:0:
448,192,110147,128,0,110215:0:0:0:0:
320,192,110215,1,0,0:0:0:0:
64,192,110283,128,0,110351:0:0:0:0:
64,192,110419,1,0,0:0:0:0:
448,192,110419,128,0,110488:0:0:0:0:
192,192,110556,128,0,110760:0:0:0:0:
64,192,110556,128,0,110624:0:0:0:0:
64,192,110692,1,0,0:0:0:0:
448,192,110692,128,0,110760:0:0:0:0:
320,192,110828,1,2,0:0:0:0:
448,192,110828,1,0,0:0:0:0:
192,192,110897,1,0,0:0:0:0:
320,192,110965,1,0,0:0:0:0:
64,192,111033,1,0,0:0:0:0:
320,192,111101,1,0,0:0:0:0:
448,192,111101,1,2,0:0:0:0:
192,192,111169,1,0,0:0:0:0:
448,192,111238,1,0,0:0:0:0:
64,192,111306,1,0,0:0:0:0:
192,192,111374,1,0,0:0:0:0:
320,192,111374,1,2,0:0:0:0:
448,192,111442,1,0,0:0:0:0:
192,192,111510,1,0,0:0:0:0:
64,192,111578,1,0,0:0:0:0:
320,192,111647,1,2,0:0:0:0:
192,192,111647,1,0,0:0:0:0:
448,192,111715,1,0,0:0:0:0:
64,192,111783,1,0,0:0:0:0:
192,192,111851,1,0,0:0:0:0:
320,192,111919,1,0,0:0:0:0:
448,192,111919,1,2,0:0:0:0:
64,192,111988,1,0,0:0:0:0:
448,192,112056,1,0,0:0:0:0:
192,192,112124,1,0,0:0:0:0:
320,192,112192,1,0,0:0:0:0:
448,192,112192,1,2,0:0:0:0:
64,192,112260,1,0,0:0:0:0:
320,192,112328,1,0,0:0:0:0:
448,192,112397,1,0,0:0:0:0:
192,192,112465,1,2,0:0:0:0:
64,192,112465,1,0,0:0:0:0:
320,192,112533,1,0,0:0:0:0:
192,192,112601,1,0,0:0:0:0:
448,192,112669,1,0,0:0:0:0:
192,192,112738,128,0,112942:0:0:0:0:
64,192,112738,1,2,0:0:0:0:
320,192,112806,1,0,0:0:0:0:
448,192,112874,128,0,112942:0:0:0:0:
64,192,112942,1,0,0:0:0:0:
448,192,113010,128,0,113078:0:0:0:0:
320,192,113010,1,2,0:0:0:0:
192,192,113078,1,0,0:0:0:0:
448,192,113147,128,0,113215:0:0:0:0:
64,192,113215,1,0,0:0:0:0:
448,192,113283,128,0,113351:0:0:0:0:
320,192,113283,1,2,0:0:0:0:
192,192,113351,1,0,0:0:0:0:
448,192,113419,128,0,113488:0:0:0:0:
64,192,113488,1,0,0:0:0:0:
448,192,113556,128,0,113624:0:0:0:0:
192,192,113556,1,2,0:0:0:0:
64,192,113624,1,0,0:0:0:0:
448,192,113692,128,0,113760:0:0:0:0:
192,192,113760,1,0,0:0:0:0:
448,192,113828,128,0,113897:0:0:0:0:
320,192,113828,1,2,0:0:0:0:
192,192,113897,1,0,0:0:0:0:
448,192,113965,128,0,114033:0:0:0:0:
64,192,114033,1,0,0:0:0:0:
320,192,114101,1,2,0:0:0:0:
192,192,114101,1,0,0:0:0:0:
448,192,114169,1,0,0:0:0:0:
64,192,114238,1,0,0:0:0:0:
448,192,114306,1,0,0:0:0:0:
320,192,114374,1,2,0:0:0:0:
192,192,114374,1,0,0:0:0:0:
64,192,114442,1,0,0:0:0:0:
448,192,114510,1,0,0:0:0:0:
320,192,114578,1,0,0:0:0:0:
64,192,114647,1,0,0:0:0:0:
192,192,114692,1,0,0:0:0:0:
320,192,114738,1,0,0:0:0:0:
448,192,114783,1,0,0:0:0:0:
64,192,114828,1,0,0:0:0:0:
320,192,114874,1,0,0:0:0:0:
192,192,114919,1,0,0:0:0:0:
64,192,114965,1,0,0:0:0:0:
448,192,115010,128,0,115192:0:0:0:0:
320,192,115192,1,2,0:0:0:0:
64,192,115192,1,4,0:0:0:0:
192,192,115260,1,0,0:0:0:0:
64,192,115328,1,0,0:0:0:0:
448,192,115397,1,0,0:0:0:0:
320,192,115465,1,0,0:0:0:0:
64,192,115465,1,2,0:0:0:0:
192,192,115533,1,0,0:0:0:0:
320,192,115601,1,0,0:0:0:0:
448,192,115669,1,0,0:0:0:0:
64,192,115738,1,2,0:0:0:0:
192,192,115738,1,0,0:0:0:0:
320,192,115806,1,0,0:0:0:0:
192,192,115874,1,0,0:0:0:0:
448,192,115942,1,0,0:0:0:0:
192,192,116010,128,0,116215:0:0:0:0:
64,192,116010,1,2,0:0:0:0:
320,192,116078,1,0,0:0:0:0:
448,192,116147,128,0,116215:0:0:0:0:
64,192,116215,1,0,0:0:0:0:
320,192,116283,1,0,0:0:0:0:
448,192,116283,1,2,0:0:0:0:
64,192,116351,1,0,0:0:0:0:
320,192,116419,1,0,0:0:0:0:
192,192,116488,1,0,0:0:0:0:
320,192,116556,1,0,0:0:0:0:
448,192,116556,1,2,0:0:0:0:
64,192,116624,1,0,0:0:0:0:
192,192,116692,1,0,0:0:0:0:
320,192,116760,1,0,0:0:0:0:
448,192,116828,1,2,0:0:0:0:
64,192,116828,1,0,0:0:0:0:
192,192,116897,1,0,0:0:0:0:
320,192,116965,1,0,0:0:0:0:
192,192,117033,1,0,0:0:0:0:
64,192,117101,128,0,117169:0:0:0:0:
448,192,117101,128,2,117169:0:0:0:0:
320,192,117169,1,0,0:0:0:0:
192,192,117238,1,0,0:0:0:0:
64,192,117306,1,0,0:0:0:0:
448,192,117374,1,2,0:0:0:0:
192,192,117374,1,0,0:0:0:0:
320,192,117442,1,0,0:0:0:0:
192,192,117510,1,0,0:0:0:0:
64,192,117578,1,0,0:0:0:0:
448,192,117647,1,2,0:0:0:0:
192,192,117647,1,0,0:0:0:0:
320,192,117715,1,0,0:0:0:0:
64,192,117783,1,0,0:0:0:0:
448,192,117851,1,0,0:0:0:0:
320,192,117919,1,0,0:0:0:0:
192,192,117919,1,2,0:0:0:0:
64,192,117988,1,0,0:0:0:0:
320,192,118056,1,0,0:0:0:0:
448,192,118124,1,0,0:0:0:0:
192,192,118192,1,2,0:0:0:0:
320,192,118192,1,0,0:0:0:0:
64,192,118260,1,0,0:0:0:0:
448,192,118328,1,0,0:0:0:0:
320,192,118397,1,0,0:0:0:0:
64,192,118465,1,0,0:0:0:0:
192,192,118465,1,2,0:0:0:0:
448,192,118533,1,0,0:0:0:0:
64,192,118601,1,0,0:0:0:0:
320,192,118669,1,0,0:0:0:0:
192,192,118738,1,2,0:0:0:0:
64,192,118738,1,0,0:0:0:0:
320,192,118806,1,0,0:0:0:0:
448,192,118874,1,0,0:0:0:0:
64,192,118942,1,0,0:0:0:0:
448,192,119010,128,0,119078:0:0:0:0:
192,192,119010,1,2,0:0:0:0:
320,192,119078,1,0,0:0:0:0:
448,192,119147,128,0,119215:0:0:0:0:
64,192,119215,1,0,0:0:0:0:
448,192,119283,128,0,119351:0:0:0:0:
448,192,119419,128,0,119488:0:0:0:0:
64,192,119556,1,0,0:0:0:0:
192,192,119556,1,2,0:0:0:0:
320,192,119624,1,0,0:0:0:0:
64,192,119692,1,0,0:0:0:0:
448,192,119760,1,0,0:0:0:0:
192,192,119828,1,2,0:0:0:0:
64,192,119828,1,0,0:0:0:0:
320,192,119897,1,0,0:0:0:0:
448,192,119965,1,0,0:0:0:0:
192,192,120033,1,0,0:0:0:0:
320,192,120101,1,0,0:0:0:0:
64,192,120101,1,2,0:0:0:0:
448,192,120169,1,0,0:0:0:0:
320,192,120238,1,0,0:0:0:0:
192,192,120306,1,0,0:0:0:0:
64,192,120374,1,2,0:0:0:0:
320,192,120374,1,0,0:0:0:0:
448,192,120442,1,0,0:0:0:0:
192,192,120510,1,0,0:0:0:0:
320,192,120578,1,0,0:0:0:0:
448,192,120647,1,2,0:0:0:0:
64,192,120647,1,0,0:0:0:0:
192,192,120715,1,0,0:0:0:0:
448,192,120783,1,0,0:0:0:0:
320,192,120851,1,0,0:0:0:0:
64,192,120919,1,0,0:0:0:0:
448,192,120919,1,2,0:0:0:0:
192,192,120988,1,0,0:0:0:0:
320,192,121056,1,0,0:0:0:0:
448,192,121124,1,0,0:0:0:0:
320,192,121192,1,2,0:0:0:0:
192,192,121192,1,0,0:0:0:0:
64,192,121260,1,0,0:0:0:0:
192,192,121328,1,0,0:0:0:0:
448,192,121397,1,0,0:0:0:0:
192,192,121465,1,0,0:0:0:0:
320,192,121465,1,2,0:0:0:0:
64,192,121533,1,0,0:0:0:0:
448,192,121601,1,0,0:0:0:0:
192,192,121669,1,0,0:0:0:0:
320,192,121738,1,4,0:0:0:0:
64,192,121738,128,0,121806:0:0:0:0:
448,192,121874,128,0,121942:0:0:0:0:
64,192,122010,128,0,122078:0:0:0:0:
192,192,122078,1,0,0:0:0:0:
448,192,122147,128,0,122215:0:0:0:0:
320,192,122215,1,0,0:0:0:0:
64,192,122283,128,0,122351:0:0:0:0:
320,192,122351,1,0,0:0:0:0:
448,192,122419,128,0,122488:0:0:0:0:
64,192,122556,128,0,122624:0:0:0:0:
448,192,122692,128,0,122760:0:0:0:0:
64,192,122760,128,0,122828:0:0:0:0:
192,192,122828,128,0,123033:0:0:0:0:
448,192,122965,128,0,123033:0:0:0:0:
192,192,123101,128,0,123306:0:0:0:0:
448,192,123238,128,0,123306:0:0:0:0:
320,192,123374,1,2,0:0:0:0:
64,192,123374,128,0,123442:0:0:0:0:
192,192,123442,1,2,0:0:0:0:
448,192,123510,128,0,123578:0:0:0:0:
320,192,123510,1,2,0:0:0:0:
192,192,123578,1,2,0:0:0:0:
320,192,123647,1,2,0:0:0:0:
448,192,123647,1,0,0:0:0:0:
192,192,123715,1,2,0:0:0:0:
64,192,123715,1,0,0:0:0:0:
320,192,123783,1,2,0:0:0:0:
448,192,123783,1,0,0:0:0:0:
192,192,123851,1,2,0:0:0:0:
64,192,123919,1,0,0:0:0:0:
320,192,123919,1,2,0:0:0:0:
448,192,123919,1,4,0:0:0:0:
192,192,123988,1,0,0:0:0:0:
64,192,124056,1,0,0:0:0:0:
320,192,124124,1,0,0:0:0:0:
64,192,124192,1,8,0:0:0:0:
448,192,124192,1,2,0:0:0:0:
192,192,124260,1,0,0:0:0:0:
64,192,124328,1,0,0:0:0:0:
320,192,124397,1,0,0:0:0:0:
448,192,124465,1,2,0:0:0:0:
192,192,124465,1,0,0:0:0:0:
64,192,124533,1,0,0:0:0:0:
448,192,124601,1,0,0:0:0:0:
192,192,124669,1,0,0:0:0:0:
448,192,124738,1,8,0:0:0:0:
320,192,124738,1,2,0:0:0:0:
64,192,124806,1,0,0:0:0:0:
448,192,124874,1,0,0:0:0:0:
192,192,124942,1,0,0:0:0:0:
64,192,125010,1,2,0:0:0:0:
320,192,125010,1,0,0:0:0:0:
192,192,125078,1,0,0:0:0:0:
448,192,125147,1,0,0:0:0:0:
320,192,125215,1,0,0:0:0:0:
448,192,125283,1,8,0:0:0:0:
64,192,125283,1,2,0:0:0:0:
192,192,125351,1,0,0:0:0:0:
320,192,125419,1,0,0:0:0:0:
448,192,125488,1,0,0:0:0:0:
320,192,125556,1,2,0:0:0:0:
64,192,125556,1,0,0:0:0:0:
448,192,125624,1,0,0:0:0:0:
192,192,125692,1,0,0:0:0:0:
64,192,125760,1,0,0:0:0:0:
192,192,125828,1,8,0:0:0:0:
320,192,125828,1,2,0:0:0:0:
448,192,125897,1,0,0:0:0:0:
64,192,125965,1,0,0:0:0:0:
192,192,126033,1,0,0:0:0:0:
448,192,126101,1,4,0:0:0:0:
320,192,126101,1,0,0:0:0:0:
64,192,126101,1,2,0:0:0:0:
192,192,126169,1,0,0:0:0:0:
448,192,126238,1,0,0:0:0:0:
64,192,126306,1,0,0:0:0:0:
448,192,126374,1,8,0:0:0:0:
192,192,126442,1,0,0:0:0:0:
448,192,126510,1,0,0:0:0:0:
320,192,126578,1,0,0:0:0:0:
64,192,126647,1,0,0:0:0:0:
192,192,126647,1,2,0:0:0:0:
448,192,126715,1,0,0:0:0:0:
64,192,126783,1,0,0:0:0:0:
320,192,126851,1,0,0:0:0:0:
64,192,126919,1,8,0:0:0:0:
192,192,126988,1,0,0:0:0:0:
64,192,127056,1,0,0:0:0:0:
320,192,127124,1,0,0:0:0:0:
448,192,127192,1,2,0:0:0:0:
192,192,127192,1,0,0:0:0:0:
64,192,127260,1,0,0:0:0:0:
320,192,127328,1,0,0:0:0:0:
192,192,127397,1,0,0:0:0:0:
64,192,127465,1,8,0:0:0:0:
320,192,127533,1,0,0:0:0:0:
448,192,127601,1,0,0:0:0:0:
192,192,127669,1,0,0:0:0:0:
64,192,127738,1,0,0:0:0:0:
320,192,127738,1,2,0:0:0:0:
192,192,127806,1,0,0:0:0:0:
448,192,127874,1,0,0:0:0:0:
320,192,127942,1,0,0:0:0:0:
64,192,128010,1,8,0:0:0:0:
192,192,128010,128,0,128215:0:0:0:0:
320,192,128078,1,0,0:0:0:0:
448,192,128147,128,0,128215:0:0:0:0:
64,192,128215,1,0,0:0:0:0:
192,192,128283,1,0,0:0:0:0:
320,192,128283,1,2,0:0:0:0:
448,192,128283,1,4,0:0:0:0:
64,192,128351,1,0,0:0:0:0:
448,192,128419,1,0,0:0:0:0:
320,192,128488,1,0,0:0:0:0:
448,192,128556,1,8,0:0:0:0:
192,192,128556,1,2,0:0:0:0:
64,192,128624,1,0,0:0:0:0:
448,192,128692,1,0,0:0:0:0:
192,192,128760,1,0,0:0:0:0:
64,192,128828,1,0,0:0:0:0:
320,192,128828,1,2,0:0:0:0:
448,192,128897,1,0,0:0:0:0:
64,192,128965,1,0,0:0:0:0:
448,192,129033,1,0,0:0:0:0:
64,192,129101,1,8,0:0:0:0:
192,192,129101,1,2,0:0:0:0:
320,192,129169,1,0,0:0:0:0:
64,192,129238,1,0,0:0:0:0:
192,192,129306,1,0,0:0:0:0:
320,192,129374,1,2,0:0:0:0:
448,192,129374,1,0,0:0:0:0:
64,192,129442,1,0,0:0:0:0:
448,192,129510,1,0,0:0:0:0:
320,192,129578,1,0,0:0:0:0:
448,192,129647,1,2,0:0:0:0:
64,192,129647,1,8,0:0:0:0:
192,192,129715,1,0,0:0:0:0:
448,192,129783,1,0,0:0:0:0:
320,192,129851,1,0,0:0:0:0:
192,192,129919,1,2,0:0:0:0:
64,192,129919,1,0,0:0:0:0:
320,192,129988,1,0,0:0:0:0:
64,192,130056,1,0,0:0:0:0:
448,192,130124,1,0,0:0:0:0:
192,192,130192,1,2,0:0:0:0:
64,192,130192,1,8,0:0:0:0:
320,192,130260,1,2,0:0:0:0:
448,192,130260,1,0,0:0:0:0:
192,192,130328,1,2,0:0:0:0:
64,192,130328,1,0,0:0:0:0:
320,192,130397,1,2,0:0:0:0:
448,192,130397,1,0,0:0:0:0:
64,192,132510,1,0,0:0:0:0:
192,192,132510,1,2,0:0:0:0:
320,192,132578,1,2,0:0:0:0:
448,192,132647,1,4,0:0:0:0:
192,192,132647,1,2,0:0:0:0:
64,192,132647,1,0,0:0:0:0:
320,192,132715,1,0,0:0:0:0:
192,192,132783,1,0,0:0:0:0:
64,192,132851,1,0,0:0:0:0:
192,192,132919,1,8,0:0:0:0:
320,192,132919,1,2,0:0:0:0:
448,192,132988,1,0,0:0:0:0:
192,192,133056,1,0,0:0:0:0:
64,192,133124,1,0,0:0:0:0:
320,192,133192,1,2,0:0:0:0:
448,192,133192,1,0,0:0:0:0:
192,192,133260,1,0,0:0:0:0:
320,192,133328,1,0,0:0:0:0:
192,192,133397,1,0,0:0:0:0:
320,192,133465,1,2,0:0:0:0:
64,192,133465,1,8,0:0:0:0:
448,192,133533,1,0,0:0:0:0:
320,192,133601,1,0,0:0:0:0:
64,192,133669,1,0,0:0:0:0:
192,192,133738,1,2,0:0:0:0:
320,192,133738,1,0,0:0:0:0:
64,192,133806,1,0,0:0:0:0:
448,192,133874,1,0,0:0:0:0:
320,192,133942,1,0,0:0:0:0:
448,192,134010,1,8,0:0:0:0:
192,192,134010,1,2,0:0:0:0:
64,192,134078,1,0,0:0:0:0:
320,192,134147,1,0,0:0:0:0:
448,192,134215,1,0,0:0:0:0:
320,192,134283,1,0,0:0:0:0:
192,192,134283,1,2,0:0:0:0:
64,192,134351,1,0,0:0:0:0:
192,192,134419,1,0,0:0:0:0:
320,192,134488,1,0,0:0:0:0:
192,192,134556,1,2,0:0:0:0:
64,192,134556,1,8,0:0:0:0:
448,192,134624,1,0,0:0:0:0:
64,192,134692,1,0,0:0:0:0:
320,192,134760,1,0,0:0:0:0:
192,192,134828,1,4,0:0:0:0:
64,192,134828,1,2,0:0:0:0:
448,192,134828,1,0,0:0:0:0:
320,192,134897,1,0,0:0:0:0:
192,192,134965,1,0,0:0:0:0:
64,192,135033,1,0,0:0:0:0:
448,192,135101,1,8,0:0:0:0:
192,192,135101,1,0,0:0:0:0:
320,192,135169,1,0,0:0:0:0:
192,192,135238,1,2,0:0:0:0:
64,192,135238,1,0,0:0:0:0:
320,192,135306,1,0,0:0:0:0:
192,192,135374,1,0,0:0:0:0:
448,192,135442,1,0,0:0:0:0:
192,192,135510,1,0,0:0:0:0:
64,192,135510,1,2,0:0:0:0:
320,192,135578,1,0,0:0:0:0:
448,192,135647,1,8,0:0:0:0:
192,192,135647,1,0,0:0:0:0:
64,192,135715,1,0,0:0:0:0:
320,192,135783,1,0,0:0:0:0:
192,192,135851,1,0,0:0:0:0:
448,192,135919,128,0,135988:0:0:0:0:
448,192,136056,128,0,136124:0:0:0:0:
448,192,136192,128,0,136260:0:0:0:0:
448,192,136328,128,0,136397:0:0:0:0:
64,192,136465,128,0,136942:0:0:0:0:
448,192,136465,128,0,136533:0:0:0:0:
192,192,136738,128,0,136942:0:0:0:0:
448,192,136738,128,0,136806:0:0:0:0:
448,192,136874,128,0,136942:0:0:0:0:
64,192,137010,1,2,0:0:0:0:
192,192,137010,1,4,0:0:0:0:
448,192,137010,1,0,0:0:0:0:
320,192,137078,1,0,0:0:0:0:
64,192,137147,1,0,0:0:0:0:
448,192,137215,1,0,0:0:0:0:
64,192,137283,1,8,0:0:0:0:
320,192,137283,1,2,0:0:0:0:
192,192,137351,1,0,0:0:0:0:
64,192,137419,1,0,0:0:0:0:
320,192,137488,1,0,0:0:0:0:
448,192,137556,1,2,0:0:0:0:
192,192,137556,1,0,0:0:0:0:
64,192,137624,1,0,0:0:0:0:
448,192,137692,1,0,0:0:0:0:
192,192,137760,1,0,0:0:0:0:
448,192,137828,1,8,0:0:0:0:
320,192,137828,1,2,0:0:0:0:
64,192,137897,1,0,0:0:0:0:
448,192,137965,1,0,0:0:0:0:
192,192,138033,1,0,0:0:0:0:
64,192,138101,1,2,0:0:0:0:
448,192,138101,1,0,0:0:0:0:
192,192,138169,1,0,0:0:0:0:
320,192,138238,1,0,0:0:0:0:
448,192,138306,1,0,0:0:0:0:
320,192,138374,1,8,0:0:0:0:
64,192,138374,1,2,0:0:0:0:
448,192,138442,1,0,0:0:0:0:
192,192,138510,1,0,0:0:0:0:
320,192,138578,1,0,0:0:0:0:
192,192,138647,1,2,0:0:0:0:
64,192,138647,1,0,0:0:0:0:
320,192,138715,1,0,0:0:0:0:
448,192,138783,1,0,0:0:0:0:
64,192,138851,1,0,0:0:0:0:
448,192,138919,1,0,0:0:0:0:
320,192,138919,1,2,0:0:0:0:
192,192,138988,1,2,0:0:0:0:
64,192,138988,1,0,0:0:0:0:
320,192,139056,1,2,0:0:0:0:
448,192,139056,1,0,0:0:0:0:
64,192,139124,1,0,0:0:0:0:
192,192,139124,1,2,0:0:0:0:
320,192,139192,1,2,0:0:0:0:
448,192,139192,1,0,0:0:0:0:
192,192,139260,1,0,0:0:0:0:
448,192,139328,1,0,0:0:0:0:
64,192,139397,1,0,0:0:0:0:
448,192,139465,1,2,0:0:0:0:
192,192,139465,1,8,0:0:0:0:
320,192,139533,1,0,0:0:0:0:
448,192,139601,1,0,0:0:0:0:
192,192,139669,1,0,0:0:0:0:
64,192,139738,1,0,0:0:0:0:
320,192,139738,1,2,0:0:0:0:
448,192,139806,1,0,0:0:0:0:
64,192,139874,1,0,0:0:0:0:
320,192,139942,1,0,0:0:0:0:
64,192,140010,1,8,0:0:0:0:
192,192,140010,1,2,0:0:0:0:
448,192,140078,1,0,0:0:0:0:
64,192,140147,1,0,0:0:0:0:
192,192,140215,1,0,0:0:0:0:
320,192,140283,1,2,0:0:0:0:
448,192,140283,1,0,0:0:0:0:
64,192,140351,1,0,0:0:0:0:
192,192,140351,1,2,0:0:0:0:
320,192,140419,1,2,0:0:0:0:
448,192,140419,1,0,0:0:0:0:
64,192,140556,1,0,0:0:0:0:
448,192,140556,1,2,0:0:0:0:
192,192,140624,1,0,0:0:0:0:
320,192,140624,1,2,0:0:0:0:
64,192,140692,1,0,0:0:0:0:
448,192,140692,1,2,0:0:0:0:
64,192,140828,1,0,0:0:0:0:
192,192,140828,1,2,0:0:0:0:
320,192,140897,1,2,0:0:0:0:
448,192,140897,1,0,0:0:0:0:
192,192,140965,1,2,0:0:0:0:
64,192,140965,1,0,0:0:0:0:
192,192,141101,1,2,0:0:0:0:
320,192,141101,1,0,0:0:0:0:
448,192,141169,1,0,0:0:0:0:
64,192,141169,1,2,0:0:0:0:
192,192,141238,1,2,0:0:0:0:
320,192,141238,1,0,0:0:0:0:
64,192,141374,1,2,0:0:0:0:
448,192,141374,1,4,0:0:0:0:
192,192,141374,128,0,141647:0:0:0:0:
64,192,141647,1,0,0:0:0:0:
448,192,141647,1,8,0:0:0:0:
192,192,141715,1,0,0:0:0:0:
320,192,141783,1,0,0:0:0:0:
64,192,141851,1,0,0:0:0:0:
320,192,141919,1,0,0:0:0:0:
64,192,141988,1,0,0:0:0:0:
320,192,142056,1,0,0:0:0:0:
64,192,142124,1,0,0:0:0:0:
320,192,142192,1,0,0:0:0:0:
448,192,142192,1,8,0:0:0:0:
64,192,142260,1,0,0:0:0:0:
320,192,142328,1,0,0:0:0:0:
64,192,142397,1,0,0:0:0:0:
320,192,142465,1,0,0:0:0:0:
192,192,142533,1,0,0:0:0:0:
320,192,142601,1,0,0:0:0:0:
192,192,142669,1,0,0:0:0:0:
320,192,142738,1,0,0:0:0:0:
448,192,142738,1,8,0:0:0:0:
192,192,142806,1,0,0:0:0:0:
320,192,142874,1,0,0:0:0:0:
192,192,142942,1,0,0:0:0:0:
320,192,143010,1,0,0:0:0:0:
192,192,143078,1,0,0:0:0:0:
448,192,143147,1,0,0:0:0:0:
192,192,143215,1,0,0:0:0:0:
448,192,143283,1,8,0:0:0:0:
320,192,143283,1,0,0:0:0:0:
192,192,143351,1,0,0:0:0:0:
448,192,143419,1,0,0:0:0:0:
192,192,143488,1,0,0:0:0:0:
448,192,143556,1,0,0:0:0:0:
192,192,143624,1,0,0:0:0:0:
448,192,143692,1,0,0:0:0:0:
192,192,143760,1,0,0:0:0:0:
448,192,143828,1,8,0:0:0:0:
320,192,143828,1,0,0:0:0:0:
64,192,143897,1,0,0:0:0:0:
448,192,143965,1,0,0:0:0:0:
64,192,144033,1,0,0:0:0:0:
448,192,144101,1,0,0:0:0:0:
64,192,144169,1,0,0:0:0:0:
448,192,144238,1,0,0:0:0:0:
64,192,144306,1,0,0:0:0:0:
448,192,144374,1,8,0:0:0:0:
320,192,144374,1,0,0:0:0:0:
64,192,144442,1,0,0:0:0:0:
448,192,144510,1,0,0:0:0:0:
192,192,144578,128,0,144919:0:0:0:0:
448,192,144919,1,8,0:0:0:0:
320,192,144919,1,0,0:0:0:0:
192,192,144988,1,0,0:0:0:0:
320,192,145056,1,0,0:0:0:0:
192,192,145124,1,0,0:0:0:0:
320,192,145192,1,0,0:0:0:0:
192,192,145260,1,0,0:0:0:0:
320,192,145328,1,0,0:0:0:0:
448,192,145397,1,0,0:0:0:0:
192,192,145465,128,0,145669:0:0:0:0:
64,192,145465,1,8,0:0:0:0:
448,192,145601,128,0,145669:0:0:0:0:
192,192,145738,1,4,0:0:0:0:
64,192,145738,1,2,0:0:0:0:
448,192,145738,128,0,146010:0:0:0:0:
320,192,145874,1,0,0:0:0:0:
192,192,146010,1,0,0:0:0:0:
64,192,146010,1,8,0:0:0:0:
320,192,146078,1,0,0:0:0:0:
192,192,146147,1,0,0:0:0:0:
320,192,146215,1,0,0:0:0:0:
192,192,146283,1,0,0:0:0:0:
320,192,146351,1,0,0:0:0:0:
192,192,146419,1,0,0:0:0:0:
320,192,146488,1,0,0:0:0:0:
192,192,146556,1,0,0:0:0:0:
64,192,146556,1,8,0:0:0:0:
320,192,146624,1,0,0:0:0:0:
192,192,146692,1,0,0:0:0:0:
320,192,146760,1,0,0:0:0:0:
64,192,146828,1,0,0:0:0:0:
320,192,146897,1,0,0:0:0:0:
64,192,146965,1,0,0:0:0:0:
320,192,147033,1,0,0:0:0:0:
64,192,147101,1,8,0:0:0:0:
192,192,147101,1,0,0:0:0:0:
320,192,147169,1,0,0:0:0:0:
64,192,147238,1,0,0:0:0:0:
320,192,147306,1,0,0:0:0:0:
64,192,147374,1,0,0:0:0:0:
320,192,147442,1,0,0:0:0:0:
64,192,147510,1,0,0:0:0:0:
448,192,147578,1,0,0:0:0:0:
192,192,147647,1,0,0:0:0:0:
64,192,147647,1,8,0:0:0:0:
448,192,147715,1,0,0:0:0:0:
192,192,147783,1,0,0:0:0:0:
448,192,147851,1,0,0:0:0:0:
192,192,147919,128,0,148192:0:0:0:0:
64,192,148192,1,8,0:0:0:0:
448,192,148192,1,0,0:0:0:0:
320,192,148260,1,0,0:0:0:0:
448,192,148328,1,0,0:0:0:0:
64,192,148397,1,0,0:0:0:0:
448,192,148465,1,0,0:0:0:0:
64,192,148533,1,0,0:0:0:0:
448,192,148601,1,0,0:0:0:0:
64,192,148669,1,0,0:0:0:0:
448,192,148738,1,0,0:0:0:0:
320,192,148738,1,8,0:0:0:0:
64,192,148806,1,0,0:0:0:0:
448,192,148874,1,0,0:0:0:0:
64,192,148942,1,0,0:0:0:0:
192,192,149010,1,0,0:0:0:0:
448,192,149147,1,0,0:0:0:0:
448,192,149283,1,0,0:0:0:0:
64,192,149283,1,8,0:0:0:0:
320,192,149419,1,0,0:0:0:0:
320,192,149556,1,0,0:0:0:0:
192,192,149692,1,0,0:0:0:0:
192,192,149828,128,0,150033:0:0:0:0:
320,192,149828,1,8,0:0:0:0:
64,192,149965,1,0,0:0:0:0:
448,192,149965,128,0,150033:0:0:0:0:
64,192,150101,1,4,0:0:0:0:
448,192,150101,1,2,0:0:0:0:
192,192,150101,128,0,150374:0:0:0:0:
320,192,150374,1,0,0:0:0:0:
448,192,150374,1,8,0:0:0:0:
192,192,150442,1,0,0:0:0:0:
320,192,150510,1,0,0:0:0:0:
192,192,150578,1,0,0:0:0:0:
64,192,150647,1,0,0:0:0:0:
320,192,150715,1,0,0:0:0:0:
64,192,150783,1,0,0:0:0:0:
320,192,150851,1,0,0:0:0:0:
64,192,150919,1,0,0:0:0:0:
192,192,150919,1,8,0:0:0:0:
320,192,150988,1,0,0:0:0:0:
64,192,151056,1,0,0:0:0:0:
320,192,151124,1,0,0:0:0:0:
64,192,151192,1,0,0:0:0:0:
320,192,151260,1,0,0:0:0:0:
64,192,151328,1,0,0:0:0:0:
320,192,151397,1,0,0:0:0:0:
64,192,151465,1,0,0:0:0:0:
192,192,151465,1,8,0:0:0:0:
448,192,151533,1,0,0:0:0:0:
192,192,151601,1,0,0:0:0:0:
448,192,151669,1,0,0:0:0:0:
192,192,151738,1,0,0:0:0:0:
448,192,151806,1,0,0:0:0:0:
192,192,151874,1,0,0:0:0:0:
448,192,151942,1,0,0:0:0:0:
192,192,152010,1,0,0:0:0:0:
64,192,152010,1,8,0:0:0:0:
448,192,152078,1,0,0:0:0:0:
192,192,152147,1,0,0:0:0:0:
448,192,152215,1,0,0:0:0:0:
320,192,152283,128,0,152556:0:0:0:0:
448,192,152556,1,0,0:0:0:0:
192,192,152556,1,8,0:0:0:0:
64,192,152624,1,0,0:0:0:0:
448,192,152692,1,0,0:0:0:0:
64,192,152760,1,0,0:0:0:0:
448,192,152828,1,0,0:0:0:0:
64,192,152897,1,0,0:0:0:0:
448,192,152965,1,0,0:0:0:0:
64,192,153033,1,0,0:0:0:0:
448,192,153101,1,8,0:0:0:0:
320,192,153101,1,0,0:0:0:0:
192,192,153169,1,0,0:0:0:0:
320,192,153238,1,0,0:0:0:0:
192,192,153306,1,0,0:0:0:0:
320,192,153374,1,0,0:0:0:0:
320,192,153510,1,0,0:0:0:0:
448,192,153647,1,8,0:0:0:0:
320,192,153647,1,0,0:0:0:0:
320,192,153783,1,0,0:0:0:0:
320,192,153919,1,0,0:0:0:0:
448,192,154056,1,0,0:0:0:0:
448,192,154192,1,8,0:0:0:0:
192,192,154192,128,0,154397:0:0:0:0:
448,192,154328,128,0,154397:0:0:0:0:
64,192,154465,1,2,0:0:0:0:
192,192,154465,1,0,0:0:0:0:
448,192,154465,1,4,0:0:0:0:
320,192,154601,1,0,0:0:0:0:
192,192,155283,128,0,155488:0:0:0:0:
448,192,155419,128,0,155488:0:0:0:0:
192,192,155556,1,0,0:0:0:0:
64,192,155556,1,2,0:0:0:0:
448,192,155556,1,4,0:0:0:0:
320,192,155692,1,0,0:0:0:0:
448,192,156101,1,0,0:0:0:0:
320,192,156147,1,0,0:0:0:0:
192,192,156192,1,0,0:0:0:0:
64,192,156238,1,0,0:0:0:0:
448,192,156283,1,0,0:0:0:0:
320,192,156328,1,0,0:0:0:0:
192,192,156374,128,0,156578:0:0:0:0:
448,192,156510,128,0,156578:0:0:0:0:
64,192,156647,1,2,0:0:0:0:
192,192,156647,1,0,0:0:0:0:
448,192,156647,1,4,0:0:0:0:
320,192,156783,1,0,0:0:0:0:
448,192,158828,1,4,0:0:0:0:
320,192,158828,1,0,0:0:0:0:
64,192,158828,1,2,0:0:0:0:
192,192,158897,1,0,0:0:0:0:
448,192,158965,1,0,0:0:0:0:
192,192,159033,1,0,0:0:0:0:
320,192,159101,1,2,0:0:0:0:
448,192,159101,1,8,0:0:0:0:
64,192,159169,1,0,0:0:0:0:
320,192,159238,1,0,0:0:0:0:
64,192,159306,1,0,0:0:0:0:
192,192,159374,1,2,0:0:0:0:
320,192,159374,1,0,0:0:0:0:
448,192,159442,1,0,0:0:0:0:
192,192,159510,1,0,0:0:0:0:
448,192,159578,1,0,0:0:0:0:
64,192,159647,1,8,0:0:0:0:
192,192,159647,1,2,0:0:0:0:
320,192,159715,1,0,0:0:0:0:
64,192,159783,1,0,0:0:0:0:
320,192,159851,1,0,0:0:0:0:
192,192,159919,1,0,0:0:0:0:
448,192,159919,1,2,0:0:0:0:
320,192,159988,1,0,0:0:0:0:
448,192,160056,1,0,0:0:0:0:
320,192,160124,1,0,0:0:0:0:
192,192,160192,1,8,0:0:0:0:
448,192,160192,1,2,0:0:0:0:
64,192,160260,1,0,0:0:0:0:
448,192,160328,1,0,0:0:0:0:
64,192,160397,1,0,0:0:0:0:
320,192,160465,1,2,0:0:0:0:
192,192,160465,1,0,0:0:0:0:
448,192,160533,1,0,0:0:0:0:
192,192,160601,1,0,0:0:0:0:
448,192,160669,1,0,0:0:0:0:
192,192,160738,1,8,0:0:0:0:
320,192,160738,1,2,0:0:0:0:
448,192,160806,1,0,0:0:0:0:
64,192,160874,1,0,0:0:0:0:
448,192,160942,1,0,0:0:0:0:
192,192,161010,1,0,0:0:0:0:
64,192,161010,1,2,0:0:0:0:
320,192,161078,1,0,0:0:0:0:
192,192,161147,1,0,0:0:0:0:
320,192,161215,1,0,0:0:0:0:
192,192,161283,1,8,0:0:0:0:
64,192,161283,1,2,0:0:0:0:
448,192,161351,1,0,0:0:0:0:
64,192,161419,1,0,0:0:0:0:
448,192,161488,1,0,0:0:0:0:
320,192,161556,1,2,0:0:0:0:
192,192,161556,1,0,0:0:0:0:
64,192,161624,1,0,0:0:0:0:
192,192,161692,1,0,0:0:0:0:
64,192,161760,1,0,0:0:0:0:
192,192,161828,1,8,0:0:0:0:
320,192,161828,1,2,0:0:0:0:
448,192,161897,1,0,0:0:0:0:
192,192,161965,1,0,0:0:0:0:
448,192,162033,1,0,0:0:0:0:
320,192,162101,1,0,0:0:0:0:
64,192,162101,1,2,0:0:0:0:
192,192,162169,1,0,0:0:0:0:
320,192,162238,1,0,0:0:0:0:
192,192,162306,1,0,0:0:0:0:
320,192,162374,1,8,0:0:0:0:
64,192,162374,1,2,0:0:0:0:
192,192,162442,1,0,0:0:0:0:
448,192,162510,1,0,0:0:0:0:
192,192,162578,1,0,0:0:0:0:
64,192,162647,1,0,0:0:0:0:
448,192,162715,1,0,0:0:0:0:
64,192,162783,1,0,0:0:0:0:
448,192,162851,1,0,0:0:0:0:
192,192,162919,128,0,163124:0:0:0:0:
64,192,162919,1,0,0:0:0:0:
320,192,162988,1,0,0:0:0:0:
448,192,163056,128,0,163124:0:0:0:0:
64,192,163056,1,0,0:0:0:0:
320,192,163124,1,0,0:0:0:0:
192,192,163192,1,0,0:0:0:0:
64,192,163192,1,2,0:0:0:0:
448,192,163260,1,0,0:0:0:0:
192,192,163328,1,0,0:0:0:0:
448,192,163397,1,0,0:0:0:0:
64,192,163465,1,2,0:0:0:0:
192,192,163465,1,8,0:0:0:0:
320,192,163533,1,0,0:0:0:0:
64,192,163601,1,0,0:0:0:0:
320,192,163669,1,0,0:0:0:0:
448,192,163738,1,0,0:0:0:0:
192,192,163738,1,2,0:0:0:0:
64,192,163806,1,0,0:0:0:0:
448,192,163874,1,0,0:0:0:0:
64,192,163942,1,0,0:0:0:0:
448,192,164010,1,8,0:0:0:0:
192,192,164010,1,2,0:0:0:0:
320,192,164078,1,0,0:0:0:0:
192,192,164147,1,0,0:0:0:0:
320,192,164215,1,0,0:0:0:0:
64,192,164283,1,2,0:0:0:0:
192,192,164283,1,0,0:0:0:0:
448,192,164351,1,0,0:0:0:0:
64,192,164419,1,0,0:0:0:0:
448,192,164488,1,0,0:0:0:0:
192,192,164556,1,8,0:0:0:0:
64,192,164556,1,2,0:0:0:0:
320,192,164624,1,0,0:0:0:0:
192,192,164692,1,0,0:0:0:0:
320,192,164760,1,0,0:0:0:0:
64,192,164828,1,0,0:0:0:0:
448,192,164828,1,2,0:0:0:0:
320,192,164897,1,0,0:0:0:0:
64,192,164965,1,0,0:0:0:0:
320,192,165033,1,0,0:0:0:0:
64,192,165101,1,8,0:0:0:0:
448,192,165101,1,2,0:0:0:0:
192,192,165169,1,0,0:0:0:0:
320,192,165238,1,0,0:0:0:0:
192,192,165306,1,0,0:0:0:0:
448,192,165374,1,0,0:0:0:0:
320,192,165374,1,2,0:0:0:0:
64,192,165442,1,0,0:0:0:0:
448,192,165510,1,0,0:0:0:0:
64,192,165578,1,0,0:0:0:0:
448,192,165647,1,8,0:0:0:0:
320,192,165647,1,2,0:0:0:0:
64,192,165715,1,0,0:0:0:0:
448,192,165783,1,0,0:0:0:0:
192,192,165851,1,0,0:0:0:0:
320,192,165919,1,0,0:0:0:0:
64,192,165919,1,2,0:0:0:0:
192,192,165988,1,0,0:0:0:0:
320,192,166056,1,0,0:0:0:0:
192,192,166124,1,0,0:0:0:0:
320,192,166192,1,8,0:0:0:0:
64,192,166192,1,2,0:0:0:0:
192,192,166260,1,0,0:0:0:0:
320,192,166328,1,0,0:0:0:0:
192,192,166397,1,0,0:0:0:0:
448,192,166465,1,2,0:0:0:0:
64,192,166465,1,0,0:0:0:0:
320,192,166499,1,0,0:0:0:0:
192,192,166533,1,0,0:0:0:0:
64,192,166601,1,0,0:0:0:0:
320,192,166669,1,0,0:0:0:0:
64,192,166738,1,8,0:0:0:0:
448,192,166738,1,2,0:0:0:0:
192,192,166772,1,0,0:0:0:0:
320,192,166806,1,0,0:0:0:0:
448,192,166874,1,0,0:0:0:0:
192,192,166942,1,0,0:0:0:0:
448,192,167010,1,0,0:0:0:0:
320,192,167056,1,0,0:0:0:0:
192,192,167101,1,0,0:0:0:0:
64,192,167147,1,0,0:0:0:0:
448,192,167192,1,0,0:0:0:0:
320,192,167238,1,0,0:0:0:0:
192,192,167283,1,0,0:0:0:0:
64,192,167351,1,0,0:0:0:0:
320,192,167419,1,0,0:0:0:0:
64,192,167488,1,0,0:0:0:0:
448,192,167556,1,8,0:0:0:0:
320,192,167556,1,2,0:0:0:0:
192,192,167556,1,4,0:0:0:0:
64,192,167624,1,0,0:0:0:0:
448,192,167692,1,0,0:0:0:0:
64,192,167760,1,0,0:0:0:0:
320,192,167828,1,2,0:0:0:0:
448,192,167828,1,8,0:0:0:0:
192,192,167897,1,0,0:0:0:0:
448,192,167965,1,0,0:0:0:0:
192,192,168033,1,0,0:0:0:0:
64,192,168101,1,2,0:0:0:0:
448,192,168101,1,0,0:0:0:0:
320,192,168169,1,0,0:0:0:0:
192,192,168238,1,0,0:0:0:0:
320,192,168306,1,0,0:0:0:0:
448,192,168374,1,8,0:0:0:0:
64,192,168374,1,2,0:0:0:0:
320,192,168442,1,0,0:0:0:0:
448,192,168510,1,0,0:0:0:0:
320,192,168578,1,0,0:0:0:0:
64,192,168647,1,2,0:0:0:0:
192,192,168647,1,0,0:0:0:0:
448,192,168715,1,0,0:0:0:0:
192,192,168783,1,0,0:0:0:0:
448,192,168851,1,0,0:0:0:0:
64,192,168919,1,2,0:0:0:0:
192,192,168919,1,8,0:0:0:0:
320,192,168988,1,0,0:0:0:0:
192,192,169056,1,0,0:0:0:0:
320,192,169124,1,0,0:0:0:0:
64,192,169192,1,0,0:0:0:0:
448,192,169192,1,2,0:0:0:0:
320,192,169260,1,0,0:0:0:0:
448,192,169328,1,0,0:0:0:0:
320,192,169397,1,0,0:0:0:0:
64,192,169465,1,8,0:0:0:0:
448,192,169465,1,2,0:0:0:0:
192,192,169533,1,0,0:0:0:0:
64,192,169601,1,0,0:0:0:0:
192,192,169669,1,0,0:0:0:0:
320,192,169738,1,2,0:0:0:0:
64,192,169738,1,0,0:0:0:0:
448,192,169806,1,0,0:0:0:0:
64,192,169874,1,0,0:0:0:0:
448,192,169942,1,0,0:0:0:0:
320,192,170010,1,2,0:0:0:0:
64,192,170010,1,8,0:0:0:0:
192,192,170078,1,0,0:0:0:0:
320,192,170147,1,0,0:0:0:0:
192,192,170215,1,0,0:0:0:0:
448,192,170283,1,0,0:0:0:0:
64,192,170283,1,2,0:0:0:0:
320,192,170351,1,0,0:0:0:0:
448,192,170419,1,0,0:0:0:0:
320,192,170488,1,0,0:0:0:0:
64,192,170556,1,2,0:0:0:0:
448,192,170556,1,8,0:0:0:0:
192,192,170624,1,0,0:0:0:0:
64,192,170692,1,0,0:0:0:0:
192,192,170760,1,0,0:0:0:0:
448,192,170828,1,0,0:0:0:0:
320,192,170828,1,2,0:0:0:0:
64,192,170897,1,0,0:0:0:0:
448,192,170965,1,0,0:0:0:0:
64,192,171033,1,0,0:0:0:0:
448,192,171101,1,8,0:0:0:0:
320,192,171101,1,2,0:0:0:0:
192,192,171169,1,0,0:0:0:0:
320,192,171238,1,0,0:0:0:0:
192,192,171306,1,0,0:0:0:0:
448,192,171374,128,0,171442:0:0:0:0:
64,192,171374,1,2,0:0:0:0:
192,192,171442,1,0,0:0:0:0:
448,192,171510,128,0,171578:0:0:0:0:
192,192,171578,1,0,0:0:0:0:
448,192,171647,128,0,171715:0:0:0:0:
448,192,171783,128,0,171851:0:0:0:0:
192,192,171919,1,2,0:0:0:0:
64,192,171919,1,0,0:0:0:0:
320,192,171988,1,0,0:0:0:0:
64,192,172056,1,0,0:0:0:0:
320,192,172124,1,0,0:0:0:0:
64,192,172192,1,8,0:0:0:0:
192,192,172192,1,2,0:0:0:0:
448,192,172260,1,0,0:0:0:0:
192,192,172328,1,0,0:0:0:0:
448,192,172397,1,0,0:0:0:0:
320,192,172465,1,0,0:0:0:0:
64,192,172465,1,2,0:0:0:0:
192,192,172533,1,0,0:0:0:0:
320,192,172601,1,0,0:0:0:0:
192,192,172669,1,0,0:0:0:0:
320,192,172738,1,8,0:0:0:0:
64,192,172738,1,2,0:0:0:0:
448,192,172806,1,0,0:0:0:0:
320,192,172874,1,0,0:0:0:0:
448,192,172942,1,0,0:0:0:0:
64,192,173010,1,0,0:0:0:0:
192,192,173010,1,2,0:0:0:0:
320,192,173078,1,0,0:0:0:0:
192,192,173147,1,0,0:0:0:0:
320,192,173215,1,0,0:0:0:0:
192,192,173283,1,2,0:0:0:0:
64,192,173283,1,8,0:0:0:0:
448,192,173351,1,0,0:0:0:0:
64,192,173419,1,0,0:0:0:0:
448,192,173488,1,0,0:0:0:0:
192,192,173556,1,0,0:0:0:0:
320,192,173556,1,2,0:0:0:0:
448,192,173624,1,0,0:0:0:0:
192,192,173692,1,0,0:0:0:0:
448,192,173760,1,0,0:0:0:0:
192,192,173828,1,8,0:0:0:0:
320,192,173828,1,2,0:0:0:0:
64,192,173897,1,0,0:0:0:0:
448,192,173965,1,0,0:0:0:0:
64,192,174033,1,0,0:0:0:0:
448,192,174101,128,0,174169:0:0:0:0:
192,192,174101,1,4,0:0:0:0:
448,192,174238,128,0,174306:0:0:0:0:
64,192,174374,128,0,174442:0:0:0:0:
448,192,174510,128,0,174578:0:0:0:0:
320,192,174578,1,0,0:0:0:0:
64,192,174647,128,0,174715:0:0:0:0:
192,192,174715,1,0,0:0:0:0:
448,192,174783,128,0,174851:0:0:0:0:
64,192,174919,128,0,174988:0:0:0:0:
448,192,175056,128,0,175124:0:0:0:0:
64,192,175124,128,0,175192:0:0:0:0:
192,192,175192,128,0,175397:0:0:0:0:
448,192,175328,128,0,175397:0:0:0:0:
192,192,175465,128,0,175669:0:0:0:0:
448,192,175601,128,0,175669:0:0:0:0:
320,192,175738,1,2,0:0:0:0:
192,192,175806,1,2,0:0:0:0:
448,192,175874,128,2,175942:0:0:0:0:
64,192,175942,1,0,0:0:0:0:
192,192,175942,1,2,0:0:0:0:
320,192,176010,1,2,0:0:0:0:
448,192,176010,1,0,0:0:0:0:
192,192,176078,1,2,0:0:0:0:
64,192,176078,1,0,0:0:0:0:
320,192,176147,1,2,0:0:0:0:
448,192,176147,1,0,0:0:0:0:
192,192,176215,1,2,0:0:0:0:
64,192,176283,1,0,0:0:0:0:
448,192,176283,1,4,0:0:0:0:
320,192,176283,128,2,176351:0:0:0:0:
192,192,176351,1,0,0:0:0:0:
320,192,176419,128,0,176488:0:0:0:0:
192,192,176488,1,0,0:0:0:0:
448,192,176556,1,2,0:0:0:0:
320,192,176556,128,8,176624:0:0:0:0:
64,192,176624,1,0,0:0:0:0:
320,192,176692,128,0,176760:0:0:0:0:
64,192,176760,1,0,0:0:0:0:
320,192,176828,1,2,0:0:0:0:
192,192,176828,128,0,176897:0:0:0:0:
448,192,176897,1,0,0:0:0:0:
192,192,176965,128,0,177033:0:0:0:0:
448,192,177033,1,0,0:0:0:0:
64,192,177101,1,2,0:0:0:0:
192,192,177101,128,8,177169:0:0:0:0:
320,192,177169,1,0,0:0:0:0:
192,192,177238,128,0,177306:0:0:0:0:
320,192,177306,1,0,0:0:0:0:
64,192,177374,1,2,0:0:0:0:
448,192,177374,128,0,177442:0:0:0:0:
192,192,177442,1,0,0:0:0:0:
448,192,177510,128,0,177578:0:0:0:0:
192,192,177578,1,0,0:0:0:0:
64,192,177647,1,2,0:0:0:0:
448,192,177647,128,8,177715:0:0:0:0:
320,192,177715,1,0,0:0:0:0:
448,192,177783,128,0,177851:0:0:0:0:
320,192,177851,1,0,0:0:0:0:
192,192,177919,1,2,0:0:0:0:
64,192,177919,128,0,177988:0:0:0:0:
448,192,177988,1,0,0:0:0:0:
64,192,178056,128,0,178124:0:0:0:0:
448,192,178124,1,0,0:0:0:0:
320,192,178192,1,2,0:0:0:0:
64,192,178192,128,8,178260:0:0:0:0:
192,192,178260,1,0,0:0:0:0:
64,192,178328,128,0,178397:0:0:0:0:
192,192,178397,1,0,0:0:0:0:
448,192,178465,1,2,0:0:0:0:
320,192,178465,128,0,178533:0:0:0:0:
192,192,178533,1,0,0:0:0:0:
320,192,178601,128,0,178669:0:0:0:0:
192,192,178669,1,0,0:0:0:0:
320,192,178738,128,8,178806:0:0:0:0:
64,192,178738,1,2,0:0:0:0:
448,192,178806,1,0,0:0:0:0:
320,192,178874,128,0,178942:0:0:0:0:
448,192,178942,1,0,0:0:0:0:
64,192,179010,128,0,179078:0:0:0:0:
192,192,179010,1,2,0:0:0:0:
448,192,179078,1,0,0:0:0:0:
64,192,179147,128,0,179215:0:0:0:0:
448,192,179215,1,0,0:0:0:0:
64,192,179283,128,8,179351:0:0:0:0:
320,192,179283,1,2,0:0:0:0:
192,192,179351,1,0,0:0:0:0:
64,192,179419,128,0,179488:0:0:0:0:
192,192,179488,1,0,0:0:0:0:
448,192,179556,128,0,179624:0:0:0:0:
320,192,179556,1,2,0:0:0:0:
192,192,179624,1,0,0:0:0:0:
448,192,179692,128,0,179760:0:0:0:0:
64,192,179760,1,0,0:0:0:0:
448,192,179828,128,8,179897:0:0:0:0:
320,192,179828,1,0,0:0:0:0:
192,192,179897,1,0,0:0:0:0:
448,192,179965,128,0,180033:0:0:0:0:
320,192,180033,1,0,0:0:0:0:
448,192,180101,128,0,180169:0:0:0:0:
64,192,180101,1,2,0:0:0:0:
192,192,180169,1,0,0:0:0:0:
448,192,180238,128,0,180306:0:0:0:0:
320,192,180306,1,0,0:0:0:0:
192,192,180374,128,0,180578:0:0:0:0:
448,192,180510,128,0,180578:0:0:0:0:
448,192,180647,1,2,0:0:0:0:
64,192,180647,1,4,0:0:0:0:
192,192,180647,128,0,180715:0:0:0:0:
320,192,180715,1,0,0:0:0:0:
192,192,180783,128,0,180851:0:0:0:0:
320,192,180851,1,0,0:0:0:0:
64,192,180919,1,2,0:0:0:0:
192,192,180919,128,8,180988:0:0:0:0:
448,192,180988,1,0,0:0:0:0:
192,192,181056,128,0,181124:0:0:0:0:
448,192,181124,1,0,0:0:0:0:
192,192,181192,1,2,0:0:0:0:
320,192,181192,128,0,181260:0:0:0:0:
64,192,181260,1,0,0:0:0:0:
320,192,181328,128,0,181397:0:0:0:0:
64,192,181397,1,0,0:0:0:0:
448,192,181465,1,2,0:0:0:0:
320,192,181465,128,8,181533:0:0:0:0:
192,192,181533,1,0,0:0:0:0:
320,192,181601,128,0,181669:0:0:0:0:
192,192,181669,1,0,0:0:0:0:
448,192,181738,1,2,0:0:0:0:
64,192,181738,128,0,181806:0:0:0:0:
320,192,181806,1,0,0:0:0:0:
64,192,181874,128,0,181942:0:0:0:0:
320,192,181942,1,0,0:0:0:0:
448,192,182010,1,2,0:0:0:0:
64,192,182010,128,8,182078:0:0:0:0:
192,192,182078,1,0,0:0:0:0:
64,192,182147,128,0,182215:0:0:0:0:
192,192,182215,1,0,0:0:0:0:
320,192,182283,1,2,0:0:0:0:
448,192,182283,128,0,182351:0:0:0:0:
64,192,182351,1,0,0:0:0:0:
448,192,182419,128,0,182488:0:0:0:0:
64,192,182488,1,0,0:0:0:0:
448,192,182556,128,8,182624:0:0:0:0:
320,192,182556,1,2,0:0:0:0:
192,192,182624,1,2,0:0:0:0:
64,192,182624,1,0,0:0:0:0:
448,192,182692,128,0,182760:0:0:0:0:
320,192,182692,1,2,0:0:0:0:
192,192,182760,1,2,0:0:0:0:
64,192,182760,1,0,0:0:0:0:
320,192,182828,1,2,0:0:0:0:
448,192,182828,1,0,0:0:0:0:
192,192,182897,1,0,0:0:0:0:
320,192,182965,1,0,0:0:0:0:
192,192,183033,1,0,0:0:0:0:
320,192,183101,1,0,0:0:0:0:
448,192,183101,1,2,0:0:0:0:
192,192,183169,1,0,0:0:0:0:
320,192,183238,1,0,0:0:0:0:
192,192,183306,1,0,0:0:0:0:
320,192,183374,1,0,0:0:0:0:
448,192,183374,1,2,0:0:0:0:
192,192,183442,1,0,0:0:0:0:
320,192,183510,1,0,0:0:0:0:
192,192,183578,1,0,0:0:0:0:
320,192,183647,1,0,0:0:0:0:
448,192,183647,1,2,0:0:0:0:
192,192,183715,1,0,0:0:0:0:
320,192,183783,1,0,0:0:0:0:
192,192,183851,1,0,0:0:0:0:
448,192,184874,1,0,0:0:0:0:
320,192,184874,1,2,0:0:0:0:
64,192,184942,1,2,0:0:0:0:
192,192,185010,1,4,0:0:0:0:
320,192,185010,1,2,0:0:0:0:
448,192,185010,128,0,185078:0:0:0:0:
64,192,185078,1,0,0:0:0:0:
448,192,185147,128,0,185215:0:0:0:0:
64,192,185215,1,0,0:0:0:0:
320,192,185283,1,2,0:0:0:0:
448,192,185283,128,8,185351:0:0:0:0:
192,192,185351,1,0,0:0:0:0:
448,192,185419,128,0,185488:0:0:0:0:
192,192,185488,1,0,0:0:0:0:
448,192,185556,1,2,0:0:0:0:
64,192,185556,128,0,185624:0:0:0:0:
320,192,185624,1,0,0:0:0:0:
64,192,185692,128,0,185760:0:0:0:0:
320,192,185760,1,0,0:0:0:0:
192,192,185828,1,2,0:0:0:0:
64,192,185828,128,8,185897:0:0:0:0:
448,192,185897,1,0,0:0:0:0:
64,192,185965,128,0,186033:0:0:0:0:
448,192,186033,1,0,0:0:0:0:
192,192,186101,1,2,0:0:0:0:
320,192,186101,128,0,186169:0:0:0:0:
64,192,186169,1,0,0:0:0:0:
320,192,186238,128,0,186306:0:0:0:0:
64,192,186306,1,0,0:0:0:0:
192,192,186374,1,2,0:0:0:0:
320,192,186374,128,8,186442:0:0:0:0:
448,192,186442,1,0,0:0:0:0:
320,192,186510,128,0,186578:0:0:0:0:
448,192,186578,1,0,0:0:0:0:
64,192,186647,1,2,0:0:0:0:
192,192,186647,128,0,186715:0:0:0:0:
320,192,186715,1,0,0:0:0:0:
192,192,186783,128,0,186851:0:0:0:0:
320,192,186851,1,0,0:0:0:0:
448,192,186919,1,2,0:0:0:0:
192,192,186919,128,8,186988:0:0:0:0:
64,192,186988,1,0,0:0:0:0:
192,192,187056,128,0,187124:0:0:0:0:
64,192,187124,1,0,0:0:0:0:
320,192,187192,1,4,0:0:0:0:
448,192,187192,128,0,187260:0:0:0:0:
192,192,187192,1,2,0:0:0:0:
64,192,187260,1,0,0:0:0:0:
448,192,187328,128,0,187397:0:0:0:0:
64,192,187397,1,0,0:0:0:0:
448,192,187465,128,8,187533:0:0:0:0:
192,192,187465,1,2,0:0:0:0:
320,192,187533,1,0,0:0:0:0:
448,192,187601,128,0,187669:0:0:0:0:
320,192,187669,1,0,0:0:0:0:
192,192,187738,128,0,187806:0:0:0:0:
448,192,187738,1,2,0:0:0:0:
64,192,187806,1,0,0:0:0:0:
192,192,187874,128,0,187942:0:0:0:0:
64,192,187942,1,0,0:0:0:0:
192,192,188010,128,8,188078:0:0:0:0:
320,192,188010,1,2,0:0:0:0:
448,192,188078,1,0,0:0:0:0:
192,192,188147,128,0,188215:0:0:0:0:
448,192,188215,1,0,0:0:0:0:
64,192,188283,128,0,188351:0:0:0:0:
320,192,188283,1,2,0:0:0:0:
448,192,188351,1,0,0:0:0:0:
64,192,188419,128,0,188488:0:0:0:0:
448,192,188488,1,0,0:0:0:0:
64,192,188556,128,8,188624:0:0:0:0:
192,192,188556,1,2,0:0:0:0:
320,192,188624,1,0,0:0:0:0:
64,192,188692,128,0,188760:0:0:0:0:
320,192,188760,1,0,0:0:0:0:
448,192,188828,128,0,188897:0:0:0:0:
192,192,188828,1,2,0:0:0:0:
320,192,188897,1,0,0:0:0:0:
448,192,188965,128,0,189033:0:0:0:0:
320,192,189033,1,0,0:0:0:0:
192,192,189101,128,0,189306:0:0:0:0:
448,192,189238,128,0,189306:0:0:0:0:
320,192,189374,1,4,0:0:0:0:
192,192,189374,1,2,0:0:0:0:
64,192,189374,128,0,189442:0:0:0:0:
448,192,189442,1,0,0:0:0:0:
64,192,189510,128,0,189578:0:0:0:0:
448,192,189578,1,0,0:0:0:0:
192,192,189647,1,2,0:0:0:0:
64,192,189647,128,8,189715:0:0:0:0:
320,192,189715,1,0,0:0:0:0:
64,192,189783,128,0,189851:0:0:0:0:
320,192,189851,1,0,0:0:0:0:
64,192,189919,1,2,0:0:0:0:
448,192,189919,128,0,189988:0:0:0:0:
192,192,189988,1,0,0:0:0:0:
448,192,190056,128,0,190124:0:0:0:0:
192,192,190124,1,0,0:0:0:0:
320,192,190192,1,2,0:0:0:0:
448,192,190192,128,8,190260:0:0:0:0:
64,192,190260,1,0,0:0:0:0:
448,192,190328,128,0,190397:0:0:0:0:
64,192,190397,1,0,0:0:0:0:
320,192,190465,1,2,0:0:0:0:
192,192,190465,128,0,190533:0:0:0:0:
448,192,190533,1,0,0:0:0:0:
192,192,190601,128,0,190669:0:0:0:0:
448,192,190669,1,0,0:0:0:0:
320,192,190738,1,2,0:0:0:0:
192,192,190738,128,8,190806:0:0:0:0:
64,192,190806,1,0,0:0:0:0:
192,192,190874,128,0,190942:0:0:0:0:
64,192,190942,1,0,0:0:0:0:
448,192,191010,1,2,0:0:0:0:
320,192,191010,128,0,191078:0:0:0:0:
192,192,191078,1,0,0:0:0:0:
320,192,191147,128,0,191215:0:0:0:0:
192,192,191215,1,0,0:0:0:0:
320,192,191283,128,8,191351:0:0:0:0:
448,192,191283,1,2,0:0:0:0:
192,192,191351,1,2,0:0:0:0:
64,192,191351,1,0,0:0:0:0:
320,192,191419,128,2,191488:0:0:0:0:
448,192,191419,1,0,0:0:0:0:
192,192,191488,1,2,0:0:0:0:
64,192,191488,1,0,0:0:0:0:
320,192,191556,1,2,0:0:0:0:
448,192,191556,1,0,0:0:0:0:
192,192,191624,1,0,0:0:0:0:
320,192,191692,1,0,0:0:0:0:
64,192,191760,1,0,0:0:0:0:
192,192,191828,1,2,0:0:0:0:
448,192,191828,1,8,0:0:0:0:
320,192,191897,1,0,0:0:0:0:
64,192,191965,1,0,0:0:0:0:
448,192,192033,1,0,0:0:0:0:
320,192,192101,1,0,0:0:0:0:
64,192,192101,1,2,0:0:0:0:
192,192,192169,1,0,0:0:0:0:
320,192,192238,1,0,0:0:0:0:
192,192,192306,1,0,0:0:0:0:
448,192,192374,1,0,0:0:0:0:
320,192,192408,1,0,0:0:0:0:
192,192,192442,1,0,0:0:0:0:
64,192,192476,1,0,0:0:0:0:
448,192,192510,1,0,0:0:0:0:
320,192,192544,1,0,0:0:0:0:
192,192,192578,1,0,0:0:0:0:
64,192,192613,1,0,0:0:0:0:
448,192,192647,1,4,0:0:0:0:
320,192,192647,1,0,0:0:0:0:
192,192,192783,1,0,0:0:0:0:
320,192,192919,1,0,0:0:0:0:
192,192,193056,1,0,0:0:0:0:
64,192,193192,1,0,0:0:0:0:
448,192,193260,1,0,0:0:0:0:
320,192,193328,1,0,0:0:0:0:
64,192,193465,1,0,0:0:0:0:
64,192,193601,1,0,0:0:0:0:
64,192,193738,1,4,0:0:0:0:
192,192,193738,1,0,0:0:0:0:
448,192,193738,1,2,0:0:0:0:
320,192,193874,1,0,0:0:0:0:
64,192,197828,1,0,0:0:0:0:
192,192,197828,1,2,0:0:0:0:
320,192,197897,1,2,0:0:0:0:
448,192,197897,1,0,0:0:0:0:
64,192,197965,1,0,0:0:0:0:
192,192,197965,1,2,0:0:0:0:
320,192,198033,1,2,0:0:0:0:
448,192,198101,1,4,0:0:0:0:
192,192,198101,1,2,0:0:0:0:
64,192,198101,1,0,0:0:0:0:
320,192,198238,1,0,0:0:0:0:
192,192,199192,1,0,0:0:0:0:
64,192,199465,1,8,0:0:0:0:
320,192,199601,1,0,0:0:0:0:
192,192,199738,1,0,0:0:0:0:
64,192,200010,1,8,0:0:0:0:
320,192,200147,1,0,0:0:0:0:
192,192,200283,1,0,0:0:0:0:
64,192,200556,1,8,0:0:0:0:
320,192,200692,1,0,0:0:0:0:
192,192,200828,1,0,0:0:0:0:
64,192,201101,1,8,0:0:0:0:
320,192,201238,1,0,0:0:0:0:
192,192,201374,1,8,0:0:0:0:
320,192,201510,1,0,0:0:0:0:
192,192,201647,1,8,0:0:0:0:
320,192,201783,1,0,0:0:0:0:
192,192,201919,1,8,0:0:0:0:
320,192,202056,1,0,0:0:0:0:
192,192,202192,1,8,0:0:0:0:
320,192,202328,1,0,0:0:0:0:
448,192,202465,1,8,0:0:0:0:
192,192,202601,1,0,0:0:0:0:
448,192,202738,1,0,0:0:0:0:
320,192,202874,1,0,0:0:0:0:
192,192,203010,1,0,0:0:0:0:
192,192,203147,1,0,0:0:0:0:
320,192,203283,1,0,0:0:0:0:
320,192,203419,1,0,0:0:0:0:
448,192,203556,1,8,0:0:0:0:
320,192,203692,1,0,0:0:0:0:
192,192,203828,1,0,0:0:0:0:
192,192,203965,1,0,0:0:0:0:
448,192,204101,1,8,0:0:0:0:
320,192,204238,1,0,0:0:0:0:
192,192,204374,1,0,0:0:0:0:
192,192,204510,1,0,0:0:0:0:
448,192,204647,1,8,0:0:0:0:
320,192,204783,1,0,0:0:0:0:
192,192,204919,1,0,0:0:0:0:
192,192,205056,1,0,0:0:0:0:
448,192,205192,1,8,0:0:0:0:
320,192,205328,1,0,0:0:0:0:
192,192,205465,1,0,0:0:0:0:
192,192,205601,1,0,0:0:0:0:
64,192,205738,1,8,0:0:0:0:
320,192,205874,1,0,0:0:0:0:
64,192,206010,1,8,0:0:0:0:
320,192,206147,1,0,0:0:0:0:
64,192,206283,1,8,0:0:0:0:
320,192,206419,1,0,0:0:0:0:
64,192,206556,1,8,0:0:0:0:
320,192,206692,1,0,0:0:0:0:
64,192,206828,1,8,0:0:0:0:
192,192,206965,1,0,0:0:0:0:
320,192,207101,1,0,0:0:0:0:
320,192,207238,1,0,0:0:0:0:
192,192,207374,1,0,0:0:0:0:
192,192,207510,1,0,0:0:0:0:
320,192,207647,1,0,0:0:0:0:
320,192,207783,1,0,0:0:0:0:
64,192,207919,1,8,0:0:0:0:
448,192,207919,1,0,0:0:0:0:
192,192,208056,1,0,0:0:0:0:
320,192,208192,1,0,0:0:0:0:
320,192,208328,1,0,0:0:0:0:
448,192,208465,1,0,0:0:0:0:
64,192,208465,1,8,0:0:0:0:
192,192,208601,1,0,0:0:0:0:
320,192,208738,1,0,0:0:0:0:
320,192,208874,1,0,0:0:0:0:
64,192,209010,1,8,0:0:0:0:
448,192,209010,1,0,0:0:0:0:
192,192,209147,1,0,0:0:0:0:
320,192,209283,1,0,0:0:0:0:
320,192,209419,1,0,0:0:0:0:
448,192,209556,1,0,0:0:0:0:
64,192,209556,1,8,0:0:0:0:
192,192,209692,1,0,0:0:0:0:
320,192,209828,1,0,0:0:0:0:
320,192,209965,1,0,0:0:0:0:
64,192,210101,1,8,0:0:0:0:
448,192,210101,1,0,0:0:0:0:
192,192,210238,1,0,0:0:0:0:
64,192,210374,1,8,0:0:0:0:
448,192,210374,1,0,0:0:0:0:
192,192,210510,1,0,0:0:0:0:
64,192,210647,1,8,0:0:0:0:
448,192,210647,1,0,0:0:0:0:
192,192,210783,1,0,0:0:0:0:
448,192,210919,1,0,0:0:0:0:
64,192,210919,1,8,0:0:0:0:
192,192,211056,1,0,0:0:0:0:
448,192,211192,1,0,0:0:0:0:
64,192,211192,1,8,0:0:0:0:
320,192,211328,1,0,0:0:0:0:
192,192,211465,1,0,0:0:0:0:
192,192,211601,1,0,0:0:0:0:
320,192,211738,1,0,0:0:0:0:
320,192,211874,1,0,0:0:0:0:
192,192,212010,1,0,0:0:0:0:
192,192,212147,1,0,0:0:0:0:
64,192,212283,1,8,0:0:0:0:
448,192,212283,1,0,0:0:0:0:
320,192,212419,1,0,0:0:0:0:
192,192,212556,1,0,0:0:0:0:
192,192,212692,1,0,0:0:0:0:
448,192,212828,1,0,0:0:0:0:
64,192,212828,1,8,0:0:0:0:
320,192,212965,1,0,0:0:0:0:
192,192,213101,1,0,0:0:0:0:
192,192,213238,1,0,0:0:0:0:
64,192,213374,1,8,0:0:0:0:
448,192,213374,1,0,0:0:0:0:
320,192,213510,1,0,0:0:0:0:
192,192,213647,1,0,0:0:0:0:
192,192,213783,1,0,0:0:0:0:
448,192,213919,1,0,0:0:0:0:
64,192,213919,1,8,0:0:0:0:
320,192,214056,1,0,0:0:0:0:
192,192,214192,1,0,0:0:0:0:
192,192,214328,1,0,0:0:0:0:
64,192,214465,1,8,0:0:0:0:
448,192,214465,1,0,0:0:0:0:
320,192,214601,1,0,0:0:0:0:
64,192,214738,1,8,0:0:0:0:
448,192,214738,1,0,0:0:0:0:
320,192,214874,1,0,0:0:0:0:
64,192,215010,1,8,0:0:0:0:
448,192,215010,1,0,0:0:0:0:
320,192,215147,1,0,0:0:0:0:
64,192,215283,1,8,0:0:0:0:
448,192,215283,1,0,0:0:0:0:
320,192,215419,1,0,0:0:0:0:
64,192,215556,1,4,0:0:0:0:
192,192,215556,1,0,0:0:0:0:
448,192,215556,1,2,0:0:0:0:
320,192,215692,1,0,0:0:0:0:
320,192,216647,128,0,216919:0:0:0:0:
192,192,217738,1,0,0:0:0:0:
192,192,218010,1,0,0:0:0:0:
192,192,218147,1,0,0:0:0:0:
192,192,218283,1,0,0:0:0:0:
448,192,218283,1,8,0:0:0:0:
192,192,218556,1,0,0:0:0:0:
64,192,219647,1,0,0:0:0:0:
192,192,219647,1,2,0:0:0:0:
320,192,219715,1,2,0:0:0:0:
448,192,219715,1,0,0:0:0:0:
64,192,219783,1,0,0:0:0:0:
192,192,219783,1,2,0:0:0:0:
320,192,219851,1,2,0:0:0:0:
192,192,219919,1,2,0:0:0:0:
64,192,219919,1,0,0:0:0:0:
448,192,219919,1,4,0:0:0:0:
192,192,220056,1,0,0:0:0:0:
192,192,220192,1,0,0:0:0:0:
448,192,220192,1,8,0:0:0:0:
192,192,220465,1,0,0:0:0:0:
448,192,220465,1,8,0:0:0:0:
192,192,220601,1,0,0:0:0:0:
192,192,220738,1,0,0:0:0:0:
448,192,220738,1,8,0:0:0:0:
192,192,221010,1,0,0:0:0:0:
448,192,221010,1,8,0:0:0:0:
192,192,221147,1,0,0:0:0:0:
192,192,221283,1,0,0:0:0:0:
448,192,221283,1,8,0:0:0:0:
192,192,221419,1,0,0:0:0:0:
192,192,221556,1,0,0:0:0:0:
448,192,221556,1,8,0:0:0:0:
192,192,221692,1,0,0:0:0:0:
192,192,221828,1,0,0:0:0:0:
448,192,221828,1,8,0:0:0:0:
192,192,221965,1,0,0:0:0:0:
448,192,222101,1,0,0:0:0:0:
320,192,222101,1,0,0:0:0:0:
448,192,222238,1,0,0:0:0:0:
192,192,222374,1,0,0:0:0:0:
64,192,222374,1,8,0:0:0:0:
448,192,222510,1,0,0:0:0:0:
192,192,222578,1,0,0:0:0:0:
320,192,222647,1,0,0:0:0:0:
448,192,222647,1,0,0:0:0:0:
192,192,222715,1,0,0:0:0:0:
64,192,222783,1,0,0:0:0:0:
448,192,222919,1,0,0:0:0:0:
320,192,222919,1,8,0:0:0:0:
448,192,223056,1,0,0:0:0:0:
320,192,223124,1,0,0:0:0:0:
192,192,223192,1,0,0:0:0:0:
64,192,223192,1,0,0:0:0:0:
64,192,223328,1,0,0:0:0:0:
320,192,223465,1,0,0:0:0:0:
448,192,223465,1,8,0:0:0:0:
64,192,223601,1,0,0:0:0:0:
64,192,223738,1,0,0:0:0:0:
192,192,223738,1,0,0:0:0:0:
448,192,223806,1,0,0:0:0:0:
192,192,223874,1,0,0:0:0:0:
320,192,223942,1,0,0:0:0:0:
448,192,224010,1,8,0:0:0:0:
64,192,224044,1,0,0:0:0:0:
192,192,224078,1,0,0:0:0:0:
320,192,224113,1,0,0:0:0:0:
448,192,224147,1,0,0:0:0:0:
64,192,224181,1,0,0:0:0:0:
192,192,224215,1,0,0:0:0:0:
320,192,224249,1,0,0:0:0:0:
64,192,224283,1,2,0:0:0:0:
448,192,224283,1,0,0:0:0:0:
448,192,224419,1,0,0:0:0:0:
192,192,224419,1,0,0:0:0:0:
320,192,224556,1,0,0:0:0:0:
192,192,224556,1,0,0:0:0:0:
192,192,224692,1,0,0:0:0:0:
320,192,224692,1,0,0:0:0:0:
64,192,224828,1,0,0:0:0:0:
448,192,224828,1,0,0:0:0:0:
320,192,224965,1,0,0:0:0:0:
64,192,224965,1,0,0:0:0:0:
192,192,225101,1,0,0:0:0:0:
320,192,225101,1,0,0:0:0:0:
320,192,225238,1,0,0:0:0:0:
192,192,225238,1,0,0:0:0:0:
64,192,225374,1,0,0:0:0:0:
448,192,225374,1,0,0:0:0:0:
448,192,225510,1,0,0:0:0:0:
64,192,225510,1,0,0:0:0:0:
64,192,225647,1,0,0:0:0:0:
448,192,225647,1,0,0:0:0:0:
448,192,225783,1,0,0:0:0:0:
64,192,225783,1,0,0:0:0:0:
64,192,225919,1,0,0:0:0:0:
448,192,225919,1,0,0:0:0:0:
448,192,226056,1,0,0:0:0:0:
64,192,226056,1,0,0:0:0:0:
64,192,226192,1,0,0:0:0:0:
448,192,226192,1,0,0:0:0:0:
448,192,226328,1,0,0:0:0:0:
64,192,226328,1,0,0:0:0:0:
64,192,226465,1,0,0:0:0:0:
192,192,226465,1,0,0:0:0:0:
320,192,226533,1,0,0:0:0:0:
448,192,226601,1,0,0:0:0:0:
192,192,226601,1,0,0:0:0:0:
64,192,226669,1,0,0:0:0:0:
320,192,226738,1,0,0:0:0:0:
448,192,226738,1,0,0:0:0:0:
192,192,226806,1,0,0:0:0:0:
64,192,226874,1,0,0:0:0:0:
320,192,226874,1,0,0:0:0:0:
448,192,226942,1,0,0:0:0:0:
64,192,227010,1,0,0:0:0:0:
192,192,227010,1,0,0:0:0:0:
320,192,227078,1,0,0:0:0:0:
448,192,227147,1,0,0:0:0:0:
192,192,227147,1,0,0:0:0:0:
64,192,227215,1,0,0:0:0:0:
448,192,227283,1,0,0:0:0:0:
320,192,227283,1,0,0:0:0:0:
192,192,227351,1,0,0:0:0:0:
64,192,227419,1,0,0:0:0:0:
320,192,227419,1,0,0:0:0:0:
448,192,227488,1,0,0:0:0:0:
64,192,227556,1,0,0:0:0:0:
64,192,227828,1,0,0:0:0:0:
64,192,228647,1,0,0:0:0:0:
448,192,228647,1,2,0:0:0:0:
320,192,228647,1,0,0:0:0:70:normal-hitfinish2.wav
192,192,228715,1,0,0:0:0:0:
64,192,228783,1,0,0:0:0:0:
320,192,228851,1,0,0:0:0:0:
64,192,228919,1,8,0:0:0:0:
192,192,228919,1,2,0:0:0:0:
448,192,228988,1,0,0:0:0:0:
64,192,229056,1,0,0:0:0:0:
320,192,229124,1,0,0:0:0:0:
448,192,229192,1,0,0:0:0:0:
192,192,229192,1,2,0:0:0:0:
64,192,229260,1,0,0:0:0:0:
448,192,229328,1,0,0:0:0:0:
64,192,229397,1,0,0:0:0:0:
448,192,229465,1,8,0:0:0:0:
320,192,229465,1,2,0:0:0:0:
192,192,229533,1,0,0:0:0:0:
448,192,229601,1,0,0:0:0:0:
320,192,229669,1,0,0:0:0:0:
64,192,229738,1,2,0:0:0:0:
192,192,229738,1,0,0:0:0:70:normal-hitfinish2.wav
448,192,229738,1,0,0:0:0:0:
320,192,229806,1,0,0:0:0:0:
64,192,229874,1,0,0:0:0:0:
192,192,229942,1,0,0:0:0:0:
64,192,230010,1,8,0:0:0:0:
320,192,230010,1,2,0:0:0:0:
448,192,230078,1,0,0:0:0:0:
64,192,230147,1,0,0:0:0:0:
320,192,230215,1,0,0:0:0:0:
64,192,230283,1,2,0:0:0:0:
448,192,230283,1,0,0:0:0:0:
192,192,230351,1,0,0:0:0:0:
448,192,230419,1,0,0:0:0:0:
64,192,230488,1,0,0:0:0:0:
448,192,230556,1,8,0:0:0:0:
320,192,230556,1,2,0:0:0:0:
64,192,230624,1,0,0:0:0:0:
320,192,230692,1,0,0:0:0:0:
192,192,230760,1,0,0:0:0:0:
64,192,230828,1,0,0:0:0:0:
320,192,230828,1,0,0:0:0:70:normal-hitfinish2.wav
448,192,230828,1,2,0:0:0:0:
192,192,230897,1,0,0:0:0:0:
448,192,230965,128,0,231033:0:0:0:0:
320,192,231033,1,0,0:0:0:0:
192,192,231101,1,2,0:0:0:0:
64,192,231101,1,8,0:0:0:0:
320,192,231169,1,0,0:0:0:0:
448,192,231238,128,0,231306:0:0:0:0:
192,192,231306,1,0,0:0:0:0:
320,192,231374,1,0,0:0:0:0:
64,192,231374,1,2,0:0:0:0:
192,192,231442,1,0,0:0:0:0:
448,192,231510,128,0,231578:0:0:0:0:
320,192,231578,1,0,0:0:0:0:
192,192,231647,1,8,0:0:0:0:
64,192,231647,1,2,0:0:0:0:
320,192,231715,1,0,0:0:0:0:
448,192,231783,128,0,231851:0:0:0:0:
192,192,231851,1,0,0:0:0:0:
64,192,231919,1,2,0:0:0:0:
320,192,231919,1,0,0:0:0:70:normal-hitfinish2.wav
448,192,231919,1,0,0:0:0:0:
192,192,231988,1,0,0:0:0:0:
448,192,232056,128,0,232124:0:0:0:0:
320,192,232124,1,0,0:0:0:0:
192,192,232192,1,0,0:0:0:70:normal-hitfinish2.wav
64,192,232192,1,2,0:0:0:0:
448,192,232192,1,8,0:0:0:0:
320,192,232260,1,0,0:0:0:0:
448,192,232328,128,0,232397:0:0:0:0:
192,192,232397,1,0,0:0:0:0:
64,192,232465,1,0,0:0:0:0:
320,192,232465,1,0,0:0:0:70:normal-hitfinish2.wav
192,192,232533,1,0,0:0:0:0:
448,192,232601,128,0,232669:0:0:0:0:
320,192,232669,1,0,0:0:0:0:
192,192,232738,128,0,232942:0:0:0:0:
64,192,232738,1,0,0:0:0:70:normal-hitfinish2.wav
320,192,232806,1,0,0:0:0:0:
448,192,232874,128,0,232942:0:0:0:0:
64,192,232942,1,0,0:0:0:0:
320,192,233010,1,2,0:0:0:0:
192,192,233010,1,0,0:0:0:0:
448,192,233010,1,0,0:0:0:70:normal-hitfinish2.wav
64,192,233078,1,0,0:0:0:0:
320,192,233147,1,0,0:0:0:0:
192,192,233215,1,0,0:0:0:0:
320,192,233283,1,2,0:0:0:0:
448,192,233283,1,8,0:0:0:0:
64,192,233351,1,0,0:0:0:0:
320,192,233419,1,0,0:0:0:0:
448,192,233488,1,0,0:0:0:0:
192,192,233556,1,2,0:0:0:0:
64,192,233556,1,0,0:0:0:0:
448,192,233624,1,0,0:0:0:0:
192,192,233692,1,0,0:0:0:0:
320,192,233760,1,0,0:0:0:0:
192,192,233828,1,2,0:0:0:0:
448,192,233828,1,8,0:0:0:0:
64,192,233897,1,0,0:0:0:0:
320,192,233965,1,0,0:0:0:0:
192,192,234033,1,0,0:0:0:0:
320,192,234101,1,2,0:0:0:0:
64,192,234101,1,0,0:0:0:0:
448,192,234101,1,0,0:0:0:70:normal-hitfinish2.wav
192,192,234169,1,0,0:0:0:0:
320,192,234238,1,0,0:0:0:0:
64,192,234306,1,0,0:0:0:0:
320,192,234374,1,8,0:0:0:0:
448,192,234374,1,2,0:0:0:0:
192,192,234442,1,0,0:0:0:0:
320,192,234510,1,0,0:0:0:0:
448,192,234578,1,0,0:0:0:0:
64,192,234647,1,0,0:0:0:0:
192,192,234647,1,2,0:0:0:0:
320,192,234715,1,0,0:0:0:0:
64,192,234783,1,0,0:0:0:0:
448,192,234851,1,0,0:0:0:0:
192,192,234919,1,2,0:0:0:0:
320,192,234919,1,8,0:0:0:0:
64,192,234988,1,0,0:0:0:0:
320,192,235056,1,0,0:0:0:0:
192,192,235124,1,0,0:0:0:0:
448,192,235192,128,0,235260:0:0:0:0:
320,192,235192,1,2,0:0:0:0:
64,192,235192,1,0,0:0:0:70:normal-hitfinish2.wav
192,192,235260,1,0,0:0:0:0:
448,192,235328,128,0,235397:0:0:0:0:
64,192,235397,1,0,0:0:0:0:
448,192,235465,128,8,235533:0:0:0:0:
192,192,235465,1,2,0:0:0:0:
64,192,235533,1,0,0:0:0:0:
448,192,235601,128,0,235669:0:0:0:0:
192,192,235669,1,0,0:0:0:0:
448,192,235738,128,0,235806:0:0:0:0:
320,192,235738,1,2,0:0:0:0:
192,192,235806,1,0,0:0:0:0:
448,192,235874,128,0,235942:0:0:0:0:
64,192,235942,1,0,0:0:0:0:
448,192,236010,128,8,236078:0:0:0:0:
192,192,236010,1,2,0:0:0:0:
64,192,236078,1,0,0:0:0:0:
448,192,236147,128,0,236215:0:0:0:0:
320,192,236215,1,0,0:0:0:0:
64,192,236283,1,0,0:0:0:70:normal-hitfinish2.wav
192,192,236283,1,2,0:0:0:0:
448,192,236283,1,0,0:0:0:0:
320,192,236351,1,0,0:0:0:0:
64,192,236419,1,0,0:0:0:0:
192,192,236488,1,0,0:0:0:0:
64,192,236556,1,8,0:0:0:0:
320,192,236556,1,2,0:0:0:0:
448,192,236556,1,0,0:0:0:70:normal-hitfinish2.wav
192,192,236624,1,0,0:0:0:0:
64,192,236692,1,0,0:0:0:0:
320,192,236760,1,0,0:0:0:0:
448,192,236828,1,0,0:0:0:0:
64,192,236828,1,0,0:0:0:70:normal-hitfinish2.wav
320,192,236874,1,0,0:0:0:0:
192,192,236919,1,0,0:0:0:0:
64,192,236965,1,0,0:0:0:0:
448,192,237010,1,0,0:0:0:0:
192,192,237056,1,0,0:0:0:0:
320,192,237101,1,0,0:0:0:70:normal-hitfinish2.wav
448,192,237147,1,0,0:0:0:0:
64,192,237192,128,0,237374:0:0:0:0:
192,192,237374,1,0,0:0:0:0:
320,192,237374,1,2,0:0:0:0:
448,192,237374,1,0,0:0:0:70:normal-hitfinish2.wav
64,192,237442,1,0,0:0:0:0:
192,192,237510,1,0,0:0:0:0:
448,192,237578,1,0,0:0:0:0:
192,192,237647,1,2,0:0:0:0:
64,192,237647,1,8,0:0:0:0:
320,192,237715,1,0,0:0:0:0:
192,192,237783,1,0,0:0:0:0:
64,192,237851,1,0,0:0:0:0:
448,192,237919,1,0,0:0:0:0:
320,192,237919,1,2,0:0:0:0:
192,192,237988,1,0,0:0:0:0:
448,192,238056,1,0,0:0:0:0:
64,192,238124,1,0,0:0:0:0:
192,192,238192,128,8,238397:0:0:0:0:
448,192,238192,1,2,0:0:0:0:
320,192,238260,1,0,0:0:0:0:
448,192,238328,128,0,238397:0:0:0:0:
64,192,238397,1,0,0:0:0:0:
192,192,238465,1,0,0:0:0:0:
320,192,238465,1,2,0:0:0:0:
448,192,238533,1,0,0:0:0:0:
192,192,238601,1,0,0:0:0:0:
320,192,238669,1,0,0:0:0:0:
64,192,238738,1,8,0:0:0:0:
448,192,238738,1,2,0:0:0:0:
192,192,238806,1,0,0:0:0:0:
64,192,238874,1,0,0:0:0:0:
448,192,238942,1,0,0:0:0:0:
192,192,239010,1,2,0:0:0:0:
320,192,239010,1,0,0:0:0:0:
64,192,239010,1,0,0:0:0:70:normal-hitfinish2.wav
448,192,239078,1,0,0:0:0:0:
320,192,239147,1,0,0:0:0:0:
192,192,239215,1,0,0:0:0:0:
64,192,239283,128,2,239351:0:0:0:0:
448,192,239283,128,8,239351:0:0:0:0:
320,192,239351,1,0,0:0:0:0:
192,192,239419,1,0,0:0:0:0:
448,192,239488,1,0,0:0:0:0:
64,192,239556,1,0,0:0:0:0:
192,192,239556,1,2,0:0:0:0:
320,192,239624,1,0,0:0:0:0:
64,192,239692,1,0,0:0:0:0:
448,192,239760,1,0,0:0:0:0:
64,192,239828,1,8,0:0:0:0:
320,192,239828,1,2,0:0:0:0:
192,192,239897,1,0,0:0:0:0:
64,192,239965,1,0,0:0:0:0:
448,192,240033,1,0,0:0:0:0:
320,192,240101,1,0,0:0:0:70:normal-hitfinish2.wav
192,192,240101,1,2,0:0:0:0:
64,192,240101,1,0,0:0:0:0:
448,192,240169,1,0,0:0:0:0:
192,192,240238,1,0,0:0:0:0:
320,192,240306,1,0,0:0:0:0:
64,192,240374,1,2,0:0:0:0:
448,192,240374,1,8,0:0:0:0:
192,192,240442,1,0,0:0:0:0:
320,192,240510,1,0,0:0:0:0:
448,192,240578,1,0,0:0:0:0:
192,192,240647,1,0,0:0:0:0:
320,192,240647,1,8,0:0:0:0:
64,192,240647,1,0,0:0:0:70:normal-hitfinish2.wav
448,192,240715,1,0,0:0:0:0:
192,192,240783,1,0,0:0:0:0:
448,192,240851,1,0,0:0:0:0:
192,192,240919,1,0,0:0:0:0:
320,192,240919,1,8,0:0:0:0:
64,192,240919,1,0,0:0:0:70:normal-hitfinish2.wav
448,192,240988,1,0,0:0:0:0:
192,192,241056,1,0,0:0:0:0:
320,192,241124,1,0,0:0:0:0:
448,192,241192,128,0,241260:0:0:0:0:
192,192,241192,1,8,0:0:0:0:
64,192,241192,1,0,0:0:0:70:normal-hitfinish2.wav
320,192,241260,1,0,0:0:0:0:
448,192,241328,128,0,241397:0:0:0:0:
192,192,241397,1,0,0:0:0:0:
448,192,241465,128,0,241533:0:0:0:0:
64,192,241465,1,0,0:0:0:70:normal-hitfinish2.wav
448,192,241601,128,0,241669:0:0:0:0:
192,192,241738,1,0,0:0:0:0:
320,192,241738,1,2,0:0:0:0:
64,192,241738,1,0,0:0:0:70:normal-hitfinish2.wav
448,192,241806,1,0,0:0:0:0:
192,192,241874,1,0,0:0:0:0:
64,192,241942,1,0,0:0:0:0:
192,192,242010,1,8,0:0:0:0:
320,192,242010,1,2,0:0:0:0:
448,192,242078,1,0,0:0:0:0:
192,192,242147,1,0,0:0:0:0:
64,192,242215,1,0,0:0:0:0:
448,192,242283,1,0,0:0:0:0:
320,192,242283,1,2,0:0:0:0:
192,192,242351,1,0,0:0:0:0:
448,192,242419,1,0,0:0:0:0:
64,192,242488,1,0,0:0:0:0:
448,192,242556,1,8,0:0:0:0:
192,192,242556,1,2,0:0:0:0:
320,192,242624,1,0,0:0:0:0:
448,192,242692,1,0,0:0:0:0:
192,192,242760,1,0,0:0:0:0:
64,192,242828,1,0,0:0:0:0:
320,192,242828,1,0,0:0:0:70:normal-hitfinish2.wav
448,192,242828,1,2,0:0:0:0:
192,192,242897,1,0,0:0:0:0:
64,192,242965,1,0,0:0:0:0:
320,192,243033,1,0,0:0:0:0:
64,192,243101,1,2,0:0:0:0:
448,192,243101,1,8,0:0:0:0:
192,192,243169,1,0,0:0:0:0:
64,192,243238,1,0,0:0:0:0:
448,192,243306,1,0,0:0:0:0:
64,192,243374,1,2,0:0:0:0:
320,192,243374,1,0,0:0:0:0:
192,192,243442,1,0,0:0:0:0:
320,192,243510,1,0,0:0:0:0:
192,192,243578,1,0,0:0:0:0:
448,192,243647,1,8,0:0:0:0:
320,192,243647,1,2,0:0:0:0:
64,192,243715,1,0,0:0:0:0:
320,192,243783,1,0,0:0:0:0:
192,192,243851,1,0,0:0:0:0:
64,192,243919,1,0,0:0:0:0:
448,192,243919,1,0,0:0:0:70:normal-hitfinish2.wav
64,192,244056,1,0,0:0:0:0:
64,192,244192,1,0,0:0:0:0:
64,192,244328,1,0,0:0:0:0:
320,192,244465,1,0,0:0:0:0:
320,192,244601,1,0,0:0:0:0:
320,192,244738,1,0,0:0:0:0:
320,192,244874,1,0,0:0:0:0:
64,192,245010,1,0,0:0:0:0:
448,192,245010,1,0,0:0:0:0:
64,192,245147,1,0,0:0:0:0:
448,192,245283,1,0,0:0:0:0:
320,192,245419,1,0,0:0:0:0:
64,192,245556,1,2,0:0:0:0:
448,192,245624,1,2,0:0:0:0:
64,192,245692,1,2,0:0:0:0:
448,192,245760,1,2,0:0:0:0:
192,192,245828,1,2,0:0:0:0:
64,192,245828,1,0,0:0:0:0:
320,192,245897,1,2,0:0:0:0:
448,192,245897,1,0,0:0:0:0:
192,192,245965,1,2,0:0:0:0:
64,192,245965,1,0,0:0:0:0:
320,192,246033,1,2,0:0:0:0:
448,192,246101,1,0,0:0:0:0:
192,192,246101,1,2,0:0:0:0:
64,192,246101,1,0,0:0:0:70:normal-hitfinish2.wav
320,192,246169,1,0,0:0:0:0:
192,192,246238,1,0,0:0:0:0:
64,192,246306,1,0,0:0:0:0:
192,192,246374,1,8,0:0:0:0:
448,192,246374,1,2,0:0:0:0:
320,192,246442,1,0,0:0:0:0:
192,192,246510,1,0,0:0:0:0:
448,192,246578,1,0,0:0:0:0:
320,192,246647,1,0,0:0:0:0:
64,192,246647,1,0,0:0:0:70:normal-hitfinish2.wav
192,192,246647,1,2,0:0:0:0:
448,192,246715,1,0,0:0:0:0:
320,192,246783,1,0,0:0:0:0:
64,192,246851,1,0,0:0:0:0:
320,192,246919,1,8,0:0:0:0:
192,192,246919,1,2,0:0:0:0:
448,192,246988,1,0,0:0:0:0:
320,192,247056,1,0,0:0:0:0:
64,192,247124,1,0,0:0:0:0:
448,192,247192,1,0,0:0:0:0:
320,192,247192,1,2,0:0:0:0:
192,192,247260,1,0,0:0:0:0:
448,192,247328,1,0,0:0:0:0:
64,192,247397,1,0,0:0:0:0:
448,192,247465,1,8,0:0:0:0:
192,192,247465,1,2,0:0:0:0:
320,192,247533,1,0,0:0:0:0:
448,192,247601,1,0,0:0:0:0:
192,192,247669,1,0,0:0:0:0:
448,192,247738,1,0,0:0:0:0:
64,192,247738,1,2,0:0:0:0:
320,192,247806,1,0,0:0:0:0:
448,192,247874,1,0,0:0:0:0:
64,192,247942,1,0,0:0:0:0:
448,192,248010,1,8,0:0:0:0:
192,192,248010,1,2,0:0:0:0:
320,192,248078,1,0,0:0:0:0:
448,192,248147,1,0,0:0:0:0:
64,192,248215,1,0,0:0:0:0:
448,192,248283,1,0,0:0:0:70:normal-hitfinish2.wav
320,192,248283,1,2,0:0:0:0:
192,192,248283,1,0,0:0:0:0:
64,192,248351,1,0,0:0:0:0:
320,192,248419,1,0,0:0:0:0:
192,192,248488,1,0,0:0:0:0:
320,192,248556,1,8,0:0:0:0:
448,192,248624,1,0,0:0:0:0:
192,192,248692,1,0,0:0:0:0:
320,192,248760,1,0,0:0:0:0:
448,192,248828,1,2,0:0:0:0:
192,192,248828,1,0,0:0:0:0:
64,192,248828,1,0,0:0:0:70:normal-hitfinish2.wav
320,192,248897,1,0,0:0:0:0:
64,192,248965,1,0,0:0:0:0:
192,192,249033,1,0,0:0:0:0:
320,192,249101,1,8,0:0:0:0:
448,192,249169,1,0,0:0:0:0:
192,192,249238,1,0,0:0:0:0:
320,192,249306,1,0,0:0:0:0:
64,192,249374,1,0,0:0:0:0:
448,192,249374,1,2,0:0:0:0:
320,192,249442,1,0,0:0:0:0:
64,192,249510,1,0,0:0:0:0:
192,192,249578,1,0,0:0:0:0:
64,192,249647,1,8,0:0:0:0:
448,192,249715,1,0,0:0:0:0:
64,192,249783,1,0,0:0:0:0:
320,192,249851,1,0,0:0:0:0:
64,192,249919,1,0,0:0:0:0:
448,192,249919,1,2,0:0:0:0:
192,192,249988,1,0,0:0:0:0:
64,192,250056,1,0,0:0:0:0:
448,192,250124,1,0,0:0:0:0:
64,192,250192,1,8,0:0:0:0:
192,192,250192,128,0,250397:0:0:0:0:
320,192,250260,1,0,0:0:0:0:
64,192,250328,1,0,0:0:0:0:
448,192,250328,128,0,250397:0:0:0:0:
320,192,250397,1,0,0:0:0:0:
64,192,250465,1,0,0:0:0:70:normal-hitfinish2.wav
192,192,250465,1,0,0:0:0:0:
448,192,250465,1,2,0:0:0:0:
320,192,250533,1,0,0:0:0:0:
192,192,250601,1,0,0:0:0:0:
448,192,250669,1,0,0:0:0:0:
192,192,250738,1,8,0:0:0:0:
64,192,250738,1,2,0:0:0:0:
320,192,250806,1,0,0:0:0:0:
192,192,250874,1,0,0:0:0:0:
64,192,250942,1,0,0:0:0:0:
448,192,251010,1,0,0:0:0:70:normal-hitfinish2.wav
192,192,251010,1,2,0:0:0:0:
320,192,251010,1,0,0:0:0:0:
64,192,251078,1,0,0:0:0:0:
448,192,251147,1,0,0:0:0:0:
320,192,251215,1,0,0:0:0:0:
448,192,251283,1,8,0:0:0:0:
192,192,251283,1,2,0:0:0:0:
64,192,251351,1,0,0:0:0:0:
448,192,251419,1,0,0:0:0:0:
192,192,251488,1,0,0:0:0:0:
320,192,251556,1,0,0:0:0:0:
448,192,251556,1,2,0:0:0:0:
64,192,251624,1,0,0:0:0:0:
320,192,251692,1,0,0:0:0:0:
192,192,251760,1,0,0:0:0:0:
320,192,251828,1,2,0:0:0:0:
64,192,251828,1,8,0:0:0:0:
448,192,251897,1,0,0:0:0:0:
320,192,251965,1,0,0:0:0:0:
64,192,252033,1,0,0:0:0:0:
320,192,252101,1,0,0:0:0:0:
448,192,252101,1,2,0:0:0:0:
192,192,252169,1,0,0:0:0:0:
320,192,252238,1,0,0:0:0:0:
64,192,252306,1,0,0:0:0:0:
320,192,252374,1,2,0:0:0:0:
448,192,252374,1,8,0:0:0:0:
64,192,252442,1,0,0:0:0:0:
192,192,252442,1,2,0:0:0:0:
320,192,252510,1,2,0:0:0:0:
448,192,252510,1,0,0:0:0:0:
192,192,252578,1,2,0:0:0:0:
64,192,252578,1,0,0:0:0:0:
320,192,252647,1,2,0:0:0:0:
448,192,252647,1,0,0:0:0:70:normal-hitfinish2.wav
64,192,252715,1,0,0:0:0:0:
320,192,252783,1,0,0:0:0:0:
448,192,252851,1,0,0:0:0:0:
320,192,252919,1,8,0:0:0:0:
64,192,252919,1,2,0:0:0:0:
192,192,252988,1,0,0:0:0:0:
320,192,253056,1,0,0:0:0:0:
448,192,253124,1,0,0:0:0:0:
64,192,253192,1,2,0:0:0:0:
192,192,253192,1,0,0:0:0:70:normal-hitfinish2.wav
320,192,253192,1,0,0:0:0:0:
448,192,253260,1,0,0:0:0:0:
64,192,253328,1,0,0:0:0:0:
192,192,253397,1,0,0:0:0:0:
64,192,253465,1,0,0:0:0:0:
448,192,253533,1,0,0:0:0:0:
64,192,253601,1,0,0:0:0:0:
320,192,253669,1,0,0:0:0:0:
192,192,253738,1,0,0:0:0:0:
448,192,254828,1,0,0:0:0:70:normal-hitfinish2.wav
320,192,254828,1,0,0:0:0:0:
64,192,254828,1,2,0:0:0:0:
192,192,254897,1,0,0:0:0:0:
320,192,254965,1,0,0:0:0:0:
448,192,255033,1,0,0:0:0:0:
320,192,255101,1,8,0:0:0:0:
64,192,255101,1,2,0:0:0:0:
192,192,255169,1,0,0:0:0:0:
320,192,255238,1,0,0:0:0:0:
64,192,255306,1,0,0:0:0:0:
192,192,255374,1,0,0:0:0:70:normal-hitfinish2.wav
448,192,255374,1,2,0:0:0:0:
320,192,255374,1,0,0:0:0:0:
64,192,255442,1,0,0:0:0:0:
192,192,255510,1,0,0:0:0:0:
448,192,255578,1,0,0:0:0:0:
320,192,255647,1,2,0:0:0:0:
192,192,255647,128,8,255851:0:0:0:0:
64,192,255715,1,0,0:0:0:0:
448,192,255783,128,0,255851:0:0:0:0:
320,192,255851,1,0,0:0:0:0:
64,192,255919,1,2,0:0:0:0:
192,192,255919,1,0,0:0:0:0:
320,192,255988,1,0,0:0:0:0:
64,192,256056,1,0,0:0:0:0:
448,192,256124,1,0,0:0:0:0:
64,192,256192,1,8,0:0:0:0:
320,192,256192,1,2,0:0:0:0:
192,192,256260,1,0,0:0:0:0:
64,192,256328,1,0,0:0:0:0:
320,192,256397,1,0,0:0:0:0:
64,192,256465,1,0,0:0:0:0:
448,192,256465,1,2,0:0:0:0:
192,192,256533,1,0,0:0:0:0:
64,192,256601,1,0,0:0:0:0:
320,192,256669,1,0,0:0:0:0:
64,192,256738,128,8,256806:0:0:0:0:
448,192,256738,128,2,256806:0:0:0:0:
192,192,256806,1,0,0:0:0:0:
64,192,256874,1,0,0:0:0:0:
448,192,256942,1,0,0:0:0:0:
64,192,257010,1,0,0:0:0:0:
192,192,257010,1,0,0:0:0:70:normal-hitfinish2.wav
320,192,257010,1,2,0:0:0:0:
448,192,257078,1,0,0:0:0:0:
192,192,257147,1,0,0:0:0:0:
320,192,257215,1,0,0:0:0:0:
192,192,257283,1,8,0:0:0:0:
448,192,257283,1,2,0:0:0:0:
64,192,257351,1,0,0:0:0:0:
320,192,257419,1,0,0:0:0:0:
192,192,257488,1,0,0:0:0:0:
64,192,257556,1,0,0:0:0:70:normal-hitfinish2.wav
320,192,257556,1,0,0:0:0:0:
448,192,257556,1,2,0:0:0:0:
192,192,257624,1,0,0:0:0:0:
448,192,257692,1,0,0:0:0:0:
320,192,257760,1,0,0:0:0:0:
192,192,257828,1,2,0:0:0:0:
448,192,257828,1,8,0:0:0:0:
64,192,257897,1,0,0:0:0:0:
320,192,257965,1,0,0:0:0:0:
192,192,258033,1,0,0:0:0:0:
448,192,258101,1,0,0:0:0:0:
64,192,258101,1,2,0:0:0:0:
192,192,258169,1,0,0:0:0:0:
448,192,258238,1,0,0:0:0:0:
320,192,258306,1,0,0:0:0:0:
448,192,258374,1,8,0:0:0:0:
192,192,258374,1,2,0:0:0:0:
64,192,258442,1,0,0:0:0:0:
448,192,258510,1,0,0:0:0:0:
192,192,258578,1,0,0:0:0:0:
64,192,258647,1,2,0:0:0:0:
448,192,258647,128,0,258715:0:0:0:0:
320,192,258715,1,0,0:0:0:0:
64,192,258783,1,0,0:0:0:0:
448,192,258783,128,0,258851:0:0:0:0:
192,192,258851,1,0,0:0:0:0:
64,192,258919,1,0,0:0:0:0:
448,192,258919,128,0,258988:0:0:0:0:
64,192,259056,1,0,0:0:0:0:
448,192,259056,128,0,259124:0:0:0:0:
64,192,259192,1,0,0:0:0:0:
192,192,259192,1,2,0:0:0:0:
320,192,259192,1,0,0:0:0:70:normal-hitfinish2.wav
448,192,259260,1,0,0:0:0:0:
192,192,259328,1,0,0:0:0:0:
64,192,259397,1,0,0:0:0:0:
192,192,259465,1,8,0:0:0:0:
448,192,259465,1,2,0:0:0:0:
320,192,259533,1,0,0:0:0:0:
64,192,259601,1,0,0:0:0:0:
320,192,259669,1,0,0:0:0:0:
448,192,259738,1,0,0:0:0:70:normal-hitfinish2.wav
192,192,259738,1,0,0:0:0:0:
64,192,259738,1,2,0:0:0:0:
320,192,259806,1,0,0:0:0:0:
448,192,259874,1,0,0:0:0:0:
64,192,259942,1,0,0:0:0:0:
448,192,260010,1,8,0:0:0:0:
192,192,260010,1,2,0:0:0:0:
320,192,260078,1,0,0:0:0:0:
448,192,260147,1,0,0:0:0:0:
64,192,260215,1,0,0:0:0:0:
320,192,260283,1,0,0:0:0:0:
192,192,260283,1,2,0:0:0:0:
448,192,260351,1,0,0:0:0:0:
320,192,260419,1,0,0:0:0:0:
64,192,260488,1,0,0:0:0:0:
320,192,260556,1,2,0:0:0:0:
448,192,260556,1,8,0:0:0:0:
192,192,260624,1,0,0:0:0:0:
320,192,260692,1,0,0:0:0:0:
64,192,260760,1,0,0:0:0:0:
320,192,260828,1,0,0:0:0:0:
192,192,260828,1,2,0:0:0:0:
448,192,260897,1,0,0:0:0:0:
320,192,260965,1,0,0:0:0:0:
192,192,261033,1,0,0:0:0:0:
320,192,261101,1,2,0:0:0:0:
64,192,261101,1,8,0:0:0:0:
448,192,261169,1,0,0:0:0:0:
320,192,261238,1,0,0:0:0:0:
192,192,261306,1,0,0:0:0:0:
64,192,261374,1,0,0:0:0:0:
448,192,261374,1,0,0:0:0:70:normal-hitfinish2.wav
64,192,261510,1,0,0:0:0:0:
64,192,261647,1,0,0:0:0:0:
64,192,261783,1,0,0:0:0:0:
320,192,261919,1,0,0:0:0:0:
192,192,261988,1,0,0:0:0:0:
64,192,262056,1,0,0:0:0:0:
448,192,262192,1,0,0:0:0:0:
320,192,262192,1,0,0:0:0:0:
448,192,262328,1,0,0:0:0:0:
192,192,262397,1,0,0:0:0:0:
64,192,262465,1,0,0:0:0:0:
64,192,262601,1,0,0:0:0:0:
448,192,262738,1,0,0:0:0:0:
320,192,262738,1,0,0:0:0:0:
64,192,262874,1,0,0:0:0:0:
320,192,263010,1,0,0:0:0:0:
192,192,263078,1,0,0:0:0:0:
448,192,263147,1,0,0:0:0:0:
192,192,263215,1,0,0:0:0:0:
64,192,263283,128,0,263351:0:0:0:0:
448,192,263283,128,0,263351:0:0:0:0:
320,192,263419,1,0,0:0:0:0:
448,192,263556,1,0,0:0:0:0:
192,192,263556,1,2,0:0:0:0:
64,192,263556,1,4,0:0:0:0:
320,192,263624,1,0,0:0:0:0:
192,192,263692,1,0,0:0:0:0:
448,192,263760,1,0,0:0:0:0:
64,192,263828,1,2,0:0:0:0:
192,192,263828,1,8,0:0:0:0:
448,192,263897,1,0,0:0:0:0:
320,192,263965,1,0,0:0:0:0:
192,192,264033,1,0,0:0:0:0:
64,192,264101,1,0,0:0:0:0:
448,192,264101,1,2,0:0:0:0:
320,192,264169,1,0,0:0:0:0:
64,192,264238,1,0,0:0:0:0:
192,192,264306,1,0,0:0:0:0:
448,192,264374,1,2,0:0:0:0:
64,192,264374,1,8,0:0:0:0:
320,192,264442,1,0,0:0:0:0:
192,192,264510,1,0,0:0:0:0:
448,192,264578,1,0,0:0:0:0:
320,192,264647,1,2,0:0:0:0:
192,192,264647,1,0,0:0:0:0:
64,192,264715,1,0,0:0:0:0:
448,192,264783,1,0,0:0:0:0:
64,192,264851,1,0,0:0:0:0:
320,192,264919,1,2,0:0:0:0:
192,192,264919,1,8,0:0:0:0:
448,192,264988,1,0,0:0:0:0:
320,192,265056,1,0,0:0:0:0:
192,192,265124,1,0,0:0:0:0:
320,192,265192,1,0,0:0:0:0:
448,192,265192,1,2,0:0:0:0:
64,192,265260,1,0,0:0:0:0:
192,192,265328,1,0,0:0:0:0:
64,192,265397,1,0,0:0:0:0:
320,192,265465,1,8,0:0:0:0:
448,192,265465,1,2,0:0:0:0:
192,192,265533,1,0,0:0:0:0:
64,192,265601,1,0,0:0:0:0:
448,192,265669,1,0,0:0:0:0:
192,192,265738,1,0,0:0:0:0:
64,192,265738,1,2,0:0:0:0:
448,192,265806,1,0,0:0:0:0:
192,192,265874,1,0,0:0:0:0:
320,192,265942,1,0,0:0:0:0:
64,192,266010,1,2,0:0:0:0:
192,192,266010,1,8,0:0:0:0:
448,192,266078,1,0,0:0:0:0:
320,192,266147,1,0,0:0:0:0:
64,192,266215,1,0,0:0:0:0:
192,192,266283,1,0,0:0:0:0:
448,192,266283,1,2,0:0:0:0:
320,192,266351,1,0,0:0:0:0:
64,192,266419,1,0,0:0:0:0:
320,192,266488,1,0,0:0:0:0:
192,192,266556,1,8,0:0:0:0:
448,192,266556,1,2,0:0:0:0:
320,192,266624,1,0,0:0:0:0:
64,192,266692,1,0,0:0:0:0:
192,192,266760,1,0,0:0:0:0:
64,192,266828,1,0,0:0:0:0:
448,192,266828,1,2,0:0:0:0:
320,192,266897,1,0,0:0:0:0:
64,192,266965,1,0,0:0:0:0:
192,192,267033,1,0,0:0:0:0:
64,192,267101,1,8,0:0:0:0:
448,192,267101,1,2,0:0:0:0:
320,192,267169,1,0,0:0:0:0:
192,192,267238,1,0,0:0:0:0:
64,192,267306,1,0,0:0:0:0:
448,192,267374,1,0,0:0:0:0:
192,192,267442,1,0,0:0:0:0:
448,192,267510,1,0,0:0:0:0:
64,192,267578,1,0,0:0:0:0:
192,192,267647,128,0,267851:0:0:0:0:
320,192,267715,1,0,0:0:0:0:
448,192,267783,128,0,267851:0:0:0:0:
64,192,267851,1,0,0:0:0:0:
320,192,267919,1,0,0:0:0:0:
448,192,267919,1,2,0:0:0:0:
192,192,267988,1,0,0:0:0:0:
320,192,268056,1,0,0:0:0:0:
64,192,268124,1,0,0:0:0:0:
320,192,268192,1,8,0:0:0:0:
448,192,268192,1,2,0:0:0:0:
64,192,268260,1,0,0:0:0:0:
192,192,268328,1,0,0:0:0:0:
448,192,268397,1,0,0:0:0:0:
64,192,268465,1,2,0:0:0:0:
192,192,268465,1,0,0:0:0:0:
320,192,268533,1,0,0:0:0:0:
448,192,268601,1,0,0:0:0:0:
320,192,268669,1,0,0:0:0:0:
64,192,268738,1,2,0:0:0:0:
192,192,268738,1,8,0:0:0:0:
448,192,268806,1,0,0:0:0:0:
320,192,268874,1,0,0:0:0:0:
64,192,268942,1,0,0:0:0:0:
192,192,269010,1,0,0:0:0:0:
448,192,269010,1,2,0:0:0:0:
64,192,269078,1,0,0:0:0:0:
320,192,269147,1,0,0:0:0:0:
64,192,269215,1,0,0:0:0:0:
192,192,269283,1,8,0:0:0:0:
448,192,269283,1,2,0:0:0:0:
320,192,269351,1,0,0:0:0:0:
448,192,269419,1,0,0:0:0:0:
192,192,269488,1,0,0:0:0:0:
64,192,269556,1,2,0:0:0:0:
320,192,269556,1,0,0:0:0:0:
448,192,269624,1,0,0:0:0:0:
192,192,269692,1,0,0:0:0:0:
448,192,269760,1,0,0:0:0:0:
320,192,269828,1,8,0:0:0:0:
64,192,269828,1,2,0:0:0:0:
192,192,269897,1,0,0:0:0:0:
320,192,269965,1,0,0:0:0:0:
448,192,270033,1,0,0:0:0:0:
320,192,270101,1,0,0:0:0:0:
192,192,270101,1,2,0:0:0:0:
64,192,270169,1,0,0:0:0:0:
320,192,270238,1,0,0:0:0:0:
448,192,270306,1,0,0:0:0:0:
192,192,270374,1,2,0:0:0:0:
320,192,270374,1,8,0:0:0:0:
64,192,270442,1,0,0:0:0:0:
192,192,270510,1,0,0:0:0:0:
320,192,270578,1,0,0:0:0:0:
448,192,270647,1,0,0:0:0:0:
64,192,270647,1,2,0:0:0:0:
192,192,270715,1,0,0:0:0:0:
448,192,270783,1,0,0:0:0:0:
320,192,270851,1,0,0:0:0:0:
64,192,270919,1,2,0:0:0:0:
448,192,270919,1,8,0:0:0:0:
192,192,270988,1,0,0:0:0:0:
320,192,271056,1,0,0:0:0:0:
64,192,271124,1,0,0:0:0:0:
320,192,271192,1,0,0:0:0:0:
448,192,271192,1,2,0:0:0:0:
64,192,271260,1,0,0:0:0:0:
192,192,271328,1,0,0:0:0:0:
64,192,271397,1,0,0:0:0:0:
320,192,271465,1,8,0:0:0:0:
448,192,271465,1,2,0:0:0:0:
192,192,271533,1,0,0:0:0:0:
320,192,271601,1,0,0:0:0:0:
448,192,271669,1,0,0:0:0:0:
64,192,271738,1,0,0:0:0:0:
192,192,271783,1,0,0:0:0:0:
320,192,271828,1,0,0:0:0:0:
448,192,271874,1,0,0:0:0:0:
64,192,271919,1,0,0:0:0:0:
192,192,271965,1,0,0:0:0:0:
448,192,272010,1,0,0:0:0:0:
320,192,272056,1,0,0:0:0:0:
192,192,272101,1,0,0:0:0:0:
320,192,272147,1,0,0:0:0:0:
192,192,272215,1,0,0:0:0:0:
448,192,272283,1,4,0:0:0:0:
320,192,272283,1,2,0:0:0:0:
64,192,272283,1,0,0:0:0:0:
192,192,272351,1,0,0:0:0:0:
448,192,272419,1,0,0:0:0:0:
64,192,272488,1,0,0:0:0:0:
192,192,272556,1,2,0:0:0:0:
320,192,272556,1,8,0:0:0:0:
64,192,272624,1,0,0:0:0:0:
320,192,272692,1,0,0:0:0:0:
448,192,272760,1,0,0:0:0:0:
64,192,272828,1,0,0:0:0:0:
192,192,272828,1,2,0:0:0:0:
320,192,272897,1,0,0:0:0:0:
64,192,272965,1,0,0:0:0:0:
448,192,273033,1,0,0:0:0:0:
64,192,273101,1,8,0:0:0:0:
192,192,273101,1,2,0:0:0:0:
320,192,273169,1,0,0:0:0:0:
64,192,273238,1,0,0:0:0:0:
192,192,273306,1,0,0:0:0:0:
320,192,273374,1,0,0:0:0:0:
448,192,273374,1,2,0:0:0:0:
64,192,273442,1,0,0:0:0:0:
192,192,273510,1,0,0:0:0:0:
64,192,273578,1,0,0:0:0:0:
320,192,273647,1,8,0:0:0:0:
448,192,273647,1,2,0:0:0:0:
192,192,273715,1,0,0:0:0:0:
448,192,273783,1,0,0:0:0:0:
64,192,273851,1,0,0:0:0:0:
192,192,273919,1,2,0:0:0:0:
448,192,273919,1,0,0:0:0:0:
320,192,273988,1,0,0:0:0:0:
64,192,274056,1,0,0:0:0:0:
320,192,274124,1,0,0:0:0:0:
448,192,274192,1,8,0:0:0:0:
192,192,274192,1,2,0:0:0:0:
64,192,274260,1,0,0:0:0:0:
192,192,274328,1,0,0:0:0:0:
320,192,274397,1,0,0:0:0:0:
448,192,274465,1,0,0:0:0:0:
64,192,274465,1,2,0:0:0:0:
192,192,274533,1,0,0:0:0:0:
448,192,274601,1,0,0:0:0:0:
320,192,274669,1,0,0:0:0:0:
64,192,274738,1,2,0:0:0:0:
448,192,274738,1,8,0:0:0:0:
192,192,274806,1,0,0:0:0:0:
320,192,274874,1,0,0:0:0:0:
64,192,274942,1,0,0:0:0:0:
192,192,275010,1,0,0:0:0:0:
320,192,275010,1,2,0:0:0:0:
448,192,275078,1,0,0:0:0:0:
64,192,275147,1,0,0:0:0:0:
448,192,275215,1,0,0:0:0:0:
192,192,275283,1,8,0:0:0:0:
320,192,275283,1,2,0:0:0:0:
64,192,275351,1,0,0:0:0:0:
192,192,275419,1,0,0:0:0:0:
320,192,275488,1,0,0:0:0:0:
448,192,275556,1,0,0:0:0:0:
64,192,275556,1,2,0:0:0:0:
192,192,275624,1,0,0:0:0:0:
448,192,275692,1,0,0:0:0:0:
320,192,275760,1,0,0:0:0:0:
64,192,275828,1,2,0:0:0:0:
448,192,275828,1,8,0:0:0:0:
192,192,275897,1,0,0:0:0:0:
320,192,275965,1,0,0:0:0:0:
64,192,276033,1,0,0:0:0:0:
448,192,276101,128,0,276169:0:0:0:0:
192,192,276101,1,2,0:0:0:0:
320,192,276169,1,0,0:0:0:0:
448,192,276238,128,0,276306:0:0:0:0:
64,192,276306,1,0,0:0:0:0:
448,192,276374,128,0,276442:0:0:0:0:
448,192,276510,128,0,276578:0:0:0:0:
64,192,276647,1,2,0:0:0:0:
192,192,276647,1,0,0:0:0:0:
448,192,276715,1,0,0:0:0:0:
192,192,276783,1,0,0:0:0:0:
320,192,276851,1,0,0:0:0:0:
192,192,276919,1,8,0:0:0:0:
64,192,276919,1,2,0:0:0:0:
448,192,276988,1,0,0:0:0:0:
320,192,277056,1,0,0:0:0:0:
192,192,277124,1,0,0:0:0:0:
64,192,277192,1,0,0:0:0:0:
448,192,277192,1,2,0:0:0:0:
320,192,277260,1,0,0:0:0:0:
64,192,277328,1,0,0:0:0:0:
192,192,277397,1,0,0:0:0:0:
64,192,277465,1,8,0:0:0:0:
448,192,277465,1,2,0:0:0:0:
320,192,277533,1,0,0:0:0:0:
192,192,277601,1,0,0:0:0:0:
448,192,277669,1,0,0:0:0:0:
320,192,277738,1,2,0:0:0:0:
192,192,277738,1,0,0:0:0:0:
64,192,277806,1,0,0:0:0:0:
448,192,277874,1,0,0:0:0:0:
64,192,277942,1,0,0:0:0:0:
320,192,278010,1,2,0:0:0:0:
192,192,278010,1,8,0:0:0:0:
448,192,278078,1,0,0:0:0:0:
320,192,278147,1,0,0:0:0:0:
192,192,278215,1,0,0:0:0:0:
320,192,278283,1,0,0:0:0:0:
448,192,278283,1,2,0:0:0:0:
64,192,278351,1,0,0:0:0:0:
320,192,278419,1,0,0:0:0:0:
192,192,278488,1,0,0:0:0:0:
320,192,278556,1,8,0:0:0:0:
448,192,278556,1,2,0:0:0:0:
192,192,278624,1,0,0:0:0:0:
64,192,278692,1,0,0:0:0:0:
448,192,278760,1,0,0:0:0:0:
64,192,278828,128,0,278897:0:0:0:0:
192,192,278828,1,4,0:0:0:0:
448,192,278965,128,0,279033:0:0:0:0:
64,192,279101,128,0,279169:0:0:0:0:
320,192,279101,1,8,0:0:0:0:
448,192,279238,128,0,279306:0:0:0:0:
192,192,279306,1,0,0:0:0:0:
64,192,279374,128,0,279442:0:0:0:0:
192,192,279442,1,0,0:0:0:0:
448,192,279510,128,0,279578:0:0:0:0:
320,192,279647,128,0,279715:0:0:0:0:
64,192,279647,1,8,0:0:0:0:
448,192,279783,128,0,279851:0:0:0:0:
320,192,279851,128,0,279919:0:0:0:0:
192,192,279919,128,0,280124:0:0:0:0:
448,192,280056,128,0,280124:0:0:0:0:
192,192,280192,128,0,280397:0:0:0:0:
448,192,280328,128,0,280397:0:0:0:0:
320,192,280465,1,2,0:0:0:0:
192,192,280533,1,2,0:0:0:0:
448,192,280601,128,2,280669:0:0:0:0:
64,192,280669,1,2,0:0:0:0:
320,192,280738,1,2,0:0:0:0:
448,192,280738,1,0,0:0:0:0:
64,192,280806,1,0,0:0:0:0:
192,192,280806,1,2,0:0:0:0:
320,192,280874,1,2,0:0:0:0:
448,192,280874,1,0,0:0:0:0:
192,192,280942,1,2,0:0:0:0:
320,192,281010,1,2,0:0:0:0:
448,192,281010,1,4,0:0:0:0:
64,192,281010,1,0,0:0:0:0:
192,192,281078,1,0,0:0:0:0:
448,192,281147,1,0,0:0:0:0:
64,192,281215,1,0,0:0:0:0:
320,192,281283,1,2,0:0:0:0:
448,192,281283,1,8,0:0:0:0:
64,192,281351,1,0,0:0:0:0:
192,192,281419,1,0,0:0:0:0:
448,192,281488,1,0,0:0:0:0:
64,192,281556,1,2,0:0:0:0:
320,192,281556,1,0,0:0:0:0:
192,192,281624,1,0,0:0:0:0:
320,192,281692,1,0,0:0:0:0:
448,192,281760,1,0,0:0:0:0:
64,192,281828,1,2,0:0:0:0:
320,192,281828,1,8,0:0:0:0:
448,192,281897,1,0,0:0:0:0:
192,192,281965,1,0,0:0:0:0:
320,192,282033,1,0,0:0:0:0:
64,192,282101,1,0,0:0:0:0:
192,192,282101,1,2,0:0:0:0:
448,192,282169,1,0,0:0:0:0:
64,192,282238,1,0,0:0:0:0:
320,192,282306,1,0,0:0:0:0:
192,192,282374,1,2,0:0:0:0:
64,192,282374,1,8,0:0:0:0:
448,192,282442,1,0,0:0:0:0:
320,192,282510,1,0,0:0:0:0:
64,192,282578,1,0,0:0:0:0:
448,192,282647,1,2,0:0:0:0:
192,192,282647,1,0,0:0:0:0:
320,192,282715,1,0,0:0:0:0:
192,192,282783,1,0,0:0:0:0:
64,192,282851,1,0,0:0:0:0:
192,192,282919,1,8,0:0:0:0:
448,192,282919,1,2,0:0:0:0:
320,192,282988,1,0,0:0:0:0:
64,192,283056,1,0,0:0:0:0:
192,192,283124,1,0,0:0:0:0:
64,192,283192,1,2,0:0:0:0:
448,192,283192,1,0,0:0:0:0:
320,192,283260,1,0,0:0:0:0:
448,192,283328,1,0,0:0:0:0:
192,192,283397,1,0,0:0:0:0:
64,192,283465,1,2,0:0:0:0:
448,192,283465,1,8,0:0:0:0:
320,192,283533,1,0,0:0:0:0:
192,192,283601,1,0,0:0:0:0:
64,192,283669,1,0,0:0:0:0:
320,192,283738,1,2,0:0:0:0:
192,192,283738,1,0,0:0:0:0:
448,192,283806,1,0,0:0:0:0:
192,192,283874,1,0,0:0:0:0:
64,192,283942,1,0,0:0:0:0:
320,192,284010,1,2,0:0:0:0:
192,192,284010,1,8,0:0:0:0:
448,192,284078,1,0,0:0:0:0:
64,192,284147,1,0,0:0:0:0:
320,192,284215,1,0,0:0:0:0:
64,192,284283,1,0,0:0:0:0:
448,192,284283,1,2,0:0:0:0:
192,192,284351,1,0,0:0:0:0:
64,192,284419,1,0,0:0:0:0:
320,192,284488,1,0,0:0:0:0:
448,192,284556,1,2,0:0:0:0:
64,192,284556,1,8,0:0:0:0:
192,192,284624,1,0,0:0:0:0:
320,192,284692,1,0,0:0:0:0:
448,192,284760,1,0,0:0:0:0:
320,192,284828,1,0,0:0:0:0:
192,192,284828,1,2,0:0:0:0:
64,192,284897,1,0,0:0:0:0:
320,192,284965,1,0,0:0:0:0:
448,192,285033,1,0,0:0:0:0:
192,192,285101,128,0,285306:0:0:0:0:
448,192,285238,128,0,285306:0:0:0:0:
64,192,285374,1,0,0:0:0:0:
192,192,285374,1,2,0:0:0:0:
448,192,285374,1,4,0:0:0:0:
320,192,285442,1,0,0:0:0:0:
64,192,285510,1,0,0:0:0:0:
448,192,285578,1,0,0:0:0:0:
192,192,285647,1,2,0:0:0:0:
64,192,285647,1,8,0:0:0:0:
320,192,285715,1,0,0:0:0:0:
448,192,285783,1,0,0:0:0:0:
192,192,285851,1,0,0:0:0:0:
64,192,285919,1,2,0:0:0:0:
448,192,285919,1,0,0:0:0:0:
320,192,285988,1,0,0:0:0:0:
448,192,286056,1,0,0:0:0:0:
192,192,286124,1,0,0:0:0:0:
64,192,286192,1,2,0:0:0:0:
448,192,286192,1,8,0:0:0:0:
320,192,286260,1,0,0:0:0:0:
192,192,286328,1,0,0:0:0:0:
64,192,286397,1,0,0:0:0:0:
448,192,286465,1,0,0:0:0:0:
320,192,286465,1,2,0:0:0:0:
192,192,286533,1,0,0:0:0:0:
448,192,286601,1,0,0:0:0:0:
64,192,286669,1,0,0:0:0:0:
320,192,286738,1,2,0:0:0:0:
448,192,286738,1,8,0:0:0:0:
192,192,286806,1,0,0:0:0:0:
64,192,286874,1,0,0:0:0:0:
320,192,286942,1,0,0:0:0:0:
448,192,287010,1,2,0:0:0:0:
64,192,287010,1,0,0:0:0:0:
192,192,287078,1,0,0:0:0:0:
64,192,287147,1,0,0:0:0:0:
320,192,287215,1,0,0:0:0:0:
192,192,287283,1,2,0:0:0:0:
64,192,287283,1,8,0:0:0:0:
448,192,287351,1,0,0:0:0:0:
320,192,287351,1,2,0:0:0:0:
192,192,287419,1,2,0:0:0:0:
64,192,287419,1,0,0:0:0:0:
320,192,287488,1,2,0:0:0:0:
448,192,287488,1,0,0:0:0:0:
192,192,287556,1,2,0:0:0:0:
64,192,287556,1,0,0:0:0:0:
448,192,287692,1,0,0:0:0:0:
192,192,287828,1,2,0:0:0:0:
64,192,287828,1,0,0:0:0:0:
64,192,287965,1,0,0:0:0:0:
320,192,288101,1,2,0:0:0:0:
448,192,288101,1,0,0:0:0:0:
192,192,288169,1,0,0:0:0:0:
320,192,288238,1,0,0:0:0:0:
192,192,288306,1,0,0:0:0:0:
448,192,288374,1,2,0:0:0:0:
320,192,288408,1,0,0:0:0:0:
64,192,288442,1,0,0:0:0:0:
192,192,288476,1,0,0:0:0:0:
448,192,288510,1,0,0:0:0:0:
320,192,288544,1,0,0:0:0:0:
64,192,288578,1,0,0:0:0:0:
192,192,288613,1,0,0:0:0:0:
320,192,288647,1,0,0:0:0:0:
192,192,288919,1,0,0:0:0:0:
192,192,289056,1,0,0:0:0:0:
192,192,289192,1,0,0:0:0:0:
320,192,289260,1,0,0:0:0:0:
192,192,289328,1,0,0:0:0:0:
320,192,289397,1,0,0:0:0:0:
192,192,289465,1,0,0:0:0:0:
64,192,289499,1,0,0:0:0:0:
448,192,289533,1,0,0:0:0:0:
320,192,289567,1,0,0:0:0:0:
192,192,289601,1,2,0:0:0:0:
64,192,289601,1,0,0:0:0:0:
448,192,289669,1,2,0:0:0:0:
64,192,289738,1,0,0:0:0:0:
192,192,289738,1,4,0:0:0:0:
320,192,289738,1,2,0:0:0:0:
448,192,289806,1,0,0:0:0:0:
192,192,289874,1,0,0:0:0:0:
448,192,289942,1,0,0:0:0:0:
320,192,290010,1,2,0:0:0:0:
64,192,290010,1,8,0:0:0:0:
192,192,290078,1,0,0:0:0:0:
448,192,290147,1,0,0:0:0:0:
64,192,290215,1,0,0:0:0:0:
192,192,290283,1,0,0:0:0:0:
448,192,290283,1,2,0:0:0:0:
320,192,290351,1,0,0:0:0:0:
192,192,290419,1,0,0:0:0:0:
64,192,290488,1,0,0:0:0:0:
192,192,290556,1,8,0:0:0:0:
448,192,290556,1,2,0:0:0:0:
320,192,290624,1,0,0:0:0:0:
64,192,290692,1,0,0:0:0:0:
192,192,290760,1,0,0:0:0:0:
320,192,290828,1,2,0:0:0:0:
448,192,290828,1,0,0:0:0:0:
64,192,290897,1,0,0:0:0:0:
448,192,290965,1,0,0:0:0:0:
192,192,291033,1,0,0:0:0:0:
320,192,291101,1,2,0:0:0:0:
448,192,291101,1,8,0:0:0:0:
192,192,291169,1,0,0:0:0:0:
64,192,291238,1,0,0:0:0:0:
320,192,291306,1,0,0:0:0:0:
192,192,291374,1,2,0:0:0:0:
64,192,291374,1,0,0:0:0:0:
448,192,291442,1,0,0:0:0:0:
64,192,291510,1,0,0:0:0:0:
320,192,291578,1,0,0:0:0:0:
64,192,291647,1,8,0:0:0:0:
192,192,291647,1,2,0:0:0:0:
448,192,291715,1,0,0:0:0:0:
320,192,291783,1,0,0:0:0:0:
192,192,291851,1,0,0:0:0:0:
64,192,291919,1,2,0:0:0:0:
320,192,291919,1,0,0:0:0:0:
448,192,291919,1,4,0:0:0:0:
192,192,291988,1,0,0:0:0:0:
448,192,292056,1,0,0:0:0:0:
320,192,292124,1,0,0:0:0:0:
64,192,292192,1,2,0:0:0:0:
448,192,292192,1,8,0:0:0:0:
192,192,292260,1,0,0:0:0:0:
320,192,292328,1,0,0:0:0:0:
448,192,292397,1,0,0:0:0:0:
192,192,292465,1,0,0:0:0:0:
320,192,292465,1,2,0:0:0:0:
64,192,292533,1,0,0:0:0:0:
192,192,292601,1,0,0:0:0:0:
448,192,292669,1,0,0:0:0:0:
192,192,292738,1,8,0:0:0:0:
320,192,292738,1,2,0:0:0:0:
64,192,292806,1,0,0:0:0:0:
448,192,292874,1,0,0:0:0:0:
320,192,292942,1,0,0:0:0:0:
64,192,293010,1,0,0:0:0:0:
192,192,293010,1,2,0:0:0:0:
448,192,293078,1,0,0:0:0:0:
64,192,293147,1,0,0:0:0:0:
320,192,293215,1,0,0:0:0:0:
192,192,293283,1,2,0:0:0:0:
64,192,293283,1,8,0:0:0:0:
320,192,293351,1,0,0:0:0:0:
448,192,293419,1,0,0:0:0:0:
64,192,293488,1,0,0:0:0:0:
192,192,293556,1,2,0:0:0:0:
320,192,293556,1,0,0:0:0:0:
448,192,293624,1,0,0:0:0:0:
64,192,293692,1,0,0:0:0:0:
320,192,293760,1,0,0:0:0:0:
192,192,293828,128,0,294033:0:0:0:0:
448,192,293965,128,0,294033:0:0:0:0:
448,192,294101,1,2,0:0:0:0:
64,192,294101,1,4,0:0:0:0:
192,192,294101,1,0,0:0:0:0:
320,192,294169,1,0,0:0:0:0:
192,192,294238,1,0,0:0:0:0:
64,192,294306,1,0,0:0:0:0:
192,192,294374,1,8,0:0:0:0:
448,192,294374,1,2,0:0:0:0:
320,192,294442,1,0,0:0:0:0:
64,192,294510,1,0,0:0:0:0:
448,192,294578,1,0,0:0:0:0:
320,192,294647,1,0,0:0:0:0:
64,192,294647,1,2,0:0:0:0:
192,192,294715,1,0,0:0:0:0:
320,192,294783,1,0,0:0:0:0:
448,192,294851,1,0,0:0:0:0:
320,192,294919,1,8,0:0:0:0:
64,192,294919,1,2,0:0:0:0:
192,192,294988,1,0,0:0:0:0:
448,192,295056,1,0,0:0:0:0:
320,192,295124,1,0,0:0:0:0:
192,192,295192,1,2,0:0:0:0:
64,192,295192,1,0,0:0:0:0:
448,192,295260,1,0,0:0:0:0:
64,192,295328,1,0,0:0:0:0:
320,192,295397,1,0,0:0:0:0:
192,192,295465,1,2,0:0:0:0:
64,192,295465,1,8,0:0:0:0:
320,192,295533,1,0,0:0:0:0:
448,192,295601,1,0,0:0:0:0:
192,192,295669,1,0,0:0:0:0:
320,192,295738,1,2,0:0:0:0:
448,192,295738,1,0,0:0:0:0:
64,192,295806,1,0,0:0:0:0:
448,192,295874,1,0,0:0:0:0:
192,192,295942,1,0,0:0:0:0:
448,192,296010,1,8,0:0:0:0:
320,192,296010,1,2,0:0:0:0:
64,192,296078,1,0,0:0:0:0:
192,192,296078,1,2,0:0:0:0:
448,192,296147,1,0,0:0:0:0:
320,192,296147,1,2,0:0:0:0:
192,192,296215,1,2,0:0:0:0:
64,192,296215,1,0,0:0:0:0:
320,192,296283,1,2,0:0:0:0:
448,192,296283,1,0,0:0:0:0:
64,192,296351,1,0,0:0:0:0:
320,192,296419,1,0,0:0:0:0:
192,192,296488,1,0,0:0:0:0:
448,192,296556,1,2,0:0:0:0:
64,192,296556,1,8,0:0:0:0:
320,192,296624,1,0,0:0:0:0:
192,192,296692,1,0,0:0:0:0:
64,192,296760,1,0,0:0:0:0:
320,192,296828,1,0,0:0:0:0:
192,192,296828,1,2,0:0:0:0:
448,192,296897,1,0,0:0:0:0:
320,192,296965,1,0,0:0:0:0:
64,192,297033,1,0,0:0:0:0:
320,192,297101,1,8,0:0:0:0:
192,192,297101,1,2,0:0:0:0:
448,192,297169,1,0,0:0:0:0:
64,192,297238,1,0,0:0:0:0:
192,192,297306,1,0,0:0:0:0:
448,192,297374,1,4,0:0:0:0:
320,192,297374,1,2,0:0:0:0:
64,192,297374,1,0,0:0:0:0:
64,192,297510,1,0,0:0:0:0:
448,192,297647,1,0,0:0:0:0:
320,192,297783,1,0,0:0:0:0:
64,192,297851,1,0,0:0:0:0:
320,192,297919,1,0,0:0:0:0:
192,192,297988,1,0,0:0:0:0:
320,192,298056,1,0,0:0:0:0:
448,192,298192,1,0,0:0:0:0:
448,192,298328,1,0,0:0:0:0:
64,192,298465,1,4,0:0:0:0:
192,192,298465,1,2,0:0:0:0:
320,192,298465,1,0,0:0:0:0:
448,192,298533,1,0,0:0:0:0:
64,192,298601,1,0,0:0:0:0:
320,192,298669,1,0,0:0:0:0:
448,192,298738,1,8,0:0:0:0:
192,192,298738,1,2,0:0:0:0:
64,192,298806,1,0,0:0:0:0:
320,192,298874,1,0,0:0:0:0:
448,192,298942,1,0,0:0:0:0:
64,192,299010,1,2,0:0:0:0:
192,192,299010,1,0,0:0:0:0:
320,192,299078,1,0,0:0:0:0:
192,192,299147,1,0,0:0:0:0:
320,192,299215,1,0,0:0:0:0:
448,192,299283,1,8,0:0:0:0:
64,192,299283,1,2,0:0:0:0:
192,192,299351,1,0,0:0:0:0:
320,192,299419,1,0,0:0:0:0:
448,192,299488,1,0,0:0:0:0:
64,192,299556,1,2,0:0:0:0:
192,192,299556,1,0,0:0:0:0:
448,192,299624,1,0,0:0:0:0:
192,192,299692,1,0,0:0:0:0:
320,192,299760,1,0,0:0:0:0:
448,192,299828,1,8,0:0:0:0:
64,192,299828,1,2,0:0:0:0:
192,192,299897,1,0,0:0:0:0:
320,192,299965,1,0,0:0:0:0:
64,192,300033,1,0,0:0:0:0:
320,192,300101,1,0,0:0:0:0:
192,192,300169,1,0,0:0:0:0:
320,192,300238,1,0,0:0:0:0:
448,192,300306,1,0,0:0:0:0:
320,192,300374,1,8,0:0:0:0:
64,192,300374,1,0,0:0:0:0:
192,192,300442,1,0,0:0:0:0:
320,192,300510,1,0,0:0:0:0:
448,192,300578,1,0,0:0:0:0:
192,192,300647,1,0,0:0:0:0:
64,192,300647,1,2,0:0:0:0:
320,192,300715,1,0,0:0:0:0:
192,192,300783,1,0,0:0:0:0:
448,192,300851,1,0,0:0:0:0:
320,192,300919,1,8,0:0:0:0:
64,192,300919,1,2,0:0:0:0:
192,192,300988,1,0,0:0:0:0:
64,192,301056,1,0,0:0:0:0:
448,192,301124,1,0,0:0:0:0:
192,192,301192,1,0,0:0:0:0:
64,192,301192,1,2,0:0:0:0:
448,192,301260,1,0,0:0:0:0:
320,192,301328,1,0,0:0:0:0:
192,192,301397,1,0,0:0:0:0:
448,192,301465,1,8,0:0:0:0:
64,192,301465,1,2,0:0:0:0:
320,192,301533,1,0,0:0:0:0:
192,192,301601,1,0,0:0:0:0:
64,192,301669,1,0,0:0:0:0:
320,192,301738,1,2,0:0:0:0:
448,192,301738,1,0,0:0:0:0:
192,192,301806,1,0,0:0:0:0:
448,192,301874,1,0,0:0:0:0:
64,192,301942,1,0,0:0:0:0:
192,192,302010,1,2,0:0:0:0:
448,192,302010,1,8,0:0:0:0:
320,192,302078,1,0,0:0:0:0:
64,192,302147,1,0,0:0:0:0:
320,192,302215,1,0,0:0:0:0:
192,192,302283,1,0,0:0:0:0:
64,192,302283,1,2,0:0:0:0:
448,192,302351,1,0,0:0:0:0:
320,192,302419,1,0,0:0:0:0:
192,192,302488,1,0,0:0:0:0:
64,192,302556,1,0,0:0:0:0:
448,192,302692,1,0,0:0:0:0:
448,192,302760,1,0,0:0:0:0:
64,192,302828,1,0,0:0:0:0:
192,192,302828,1,2,0:0:0:0:
320,192,302897,1,0,0:0:0:0:
64,192,302965,1,0,0:0:0:0:
192,192,303033,1,0,0:0:0:0:
448,192,303101,1,2,0:0:0:0:
64,192,303101,1,8,0:0:0:0:
320,192,303169,1,0,0:0:0:0:
448,192,303238,1,0,0:0:0:0:
192,192,303306,1,0,0:0:0:0:
320,192,303374,1,0,0:0:0:0:
448,192,303374,1,2,0:0:0:0:
64,192,303442,1,0,0:0:0:0:
192,192,303510,1,0,0:0:0:0:
320,192,303578,1,0,0:0:0:0:
448,192,303647,1,2,0:0:0:0:
64,192,303647,1,8,0:0:0:0:
192,192,303715,1,0,0:0:0:0:
320,192,303783,1,0,0:0:0:0:
64,192,303851,1,0,0:0:0:0:
320,192,303919,1,0,0:0:0:0:
448,192,303919,1,2,0:0:0:0:
192,192,303988,1,0,0:0:0:0:
320,192,304056,1,0,0:0:0:0:
64,192,304124,1,0,0:0:0:0:
192,192,304192,1,8,0:0:0:0:
448,192,304192,1,2,0:0:0:0:
320,192,304260,1,0,0:0:0:0:
64,192,304328,1,0,0:0:0:0:
448,192,304397,1,0,0:0:0:0:
64,192,304465,1,2,0:0:0:0:
192,192,304465,1,0,0:0:0:0:
320,192,304533,1,0,0:0:0:0:
448,192,304601,1,0,0:0:0:0:
192,192,304669,1,0,0:0:0:0:
448,192,304738,1,8,0:0:0:0:
64,192,304738,1,2,0:0:0:0:
192,192,304806,1,0,0:0:0:0:
320,192,304874,1,0,0:0:0:0:
64,192,304942,1,0,0:0:0:0:
320,192,305010,1,2,0:0:0:0:
448,192,305010,1,0,0:0:0:0:
64,192,305078,1,0,0:0:0:0:
192,192,305147,1,0,0:0:0:0:
448,192,305215,1,0,0:0:0:0:
64,192,305283,1,8,0:0:0:0:
320,192,305283,1,2,0:0:0:0:
192,192,305351,1,0,0:0:0:0:
448,192,305419,1,0,0:0:0:0:
64,192,305488,1,0,0:0:0:0:
320,192,305556,1,0,0:0:0:0:
448,192,305556,1,2,0:0:0:0:
192,192,305624,1,0,0:0:0:0:
320,192,305692,1,0,0:0:0:0:
64,192,305760,1,0,0:0:0:0:
448,192,305828,1,2,0:0:0:0:
192,192,305828,1,8,0:0:0:0:
320,192,305897,1,0,0:0:0:0:
64,192,305965,1,0,0:0:0:0:
448,192,306033,1,0,0:0:0:0:
192,192,306101,1,2,0:0:0:0:
64,192,306101,128,0,306169:0:0:0:0:
320,192,306169,1,0,0:0:0:0:
448,192,306238,128,0,306306:0:0:0:0:
192,192,306306,1,0,0:0:0:0:
64,192,306374,128,8,306442:0:0:0:0:
320,192,306374,1,2,0:0:0:0:
192,192,306442,1,0,0:0:0:0:
448,192,306510,128,0,306578:0:0:0:0:
320,192,306578,1,0,0:0:0:0:
192,192,306647,1,2,0:0:0:0:
64,192,306647,128,0,306715:0:0:0:0:
448,192,306783,128,0,306851:0:0:0:0:
192,192,306919,128,0,307124:0:0:0:0:
448,192,307056,128,0,307124:0:0:0:0:
448,192,307192,1,4,0:0:0:0:
320,192,307192,1,2,0:0:0:0:
192,192,307192,1,0,0:0:0:0:
64,192,307260,1,0,0:0:0:0:
448,192,307328,1,0,0:0:0:0:
192,192,307397,1,0,0:0:0:0:
64,192,307465,1,8,0:0:0:0:
320,192,307465,1,2,0:0:0:0:
448,192,307533,1,0,0:0:0:0:
192,192,307601,1,0,0:0:0:0:
64,192,307669,1,0,0:0:0:0:
448,192,307738,1,2,0:0:0:0:
320,192,307738,1,0,0:0:0:0:
192,192,307806,1,0,0:0:0:0:
320,192,307874,1,0,0:0:0:0:
192,192,307942,1,0,0:0:0:0:
64,192,308010,1,8,0:0:0:0:
448,192,308010,1,2,0:0:0:0:
320,192,308078,1,0,0:0:0:0:
192,192,308147,1,0,0:0:0:0:
64,192,308215,1,0,0:0:0:0:
448,192,308283,1,2,0:0:0:0:
320,192,308283,1,0,0:0:0:0:
64,192,308351,1,0,0:0:0:0:
320,192,308419,1,0,0:0:0:0:
192,192,308488,1,0,0:0:0:0:
64,192,308556,1,8,0:0:0:0:
448,192,308556,1,2,0:0:0:0:
320,192,308624,1,0,0:0:0:0:
192,192,308692,1,0,0:0:0:0:
448,192,308760,1,0,0:0:0:0:
64,192,308828,1,8,0:0:0:0:
192,192,308828,1,0,0:0:0:0:
320,192,308897,1,0,0:0:0:0:
192,192,308965,1,0,0:0:0:0:
64,192,309033,1,0,0:0:0:0:
448,192,309101,1,8,0:0:0:0:
64,192,309238,1,0,0:0:0:0:
64,192,309306,1,0,0:0:0:0:
320,192,309374,1,0,0:0:0:0:
448,192,309374,1,2,0:0:0:0:
192,192,309442,1,0,0:0:0:0:
320,192,309510,1,0,0:0:0:0:
64,192,309578,1,0,0:0:0:0:
192,192,309647,1,8,0:0:0:0:
448,192,309647,1,2,0:0:0:0:
320,192,309715,1,0,0:0:0:0:
448,192,309783,1,0,0:0:0:0:
64,192,309851,1,0,0:0:0:0:
320,192,309919,1,0,0:0:0:0:
448,192,309919,1,2,0:0:0:0:
64,192,309988,1,0,0:0:0:0:
192,192,310056,1,0,0:0:0:0:
320,192,310124,1,0,0:0:0:0:
64,192,310192,1,8,0:0:0:0:
448,192,310192,1,2,0:0:0:0:
192,192,310260,1,0,0:0:0:0:
320,192,310328,1,0,0:0:0:0:
448,192,310397,1,0,0:0:0:0:
192,192,310465,1,2,0:0:0:0:
64,192,310465,1,0,0:0:0:0:
320,192,310533,1,0,0:0:0:0:
64,192,310601,1,0,0:0:0:0:
448,192,310669,1,0,0:0:0:0:
320,192,310738,1,8,0:0:0:0:
64,192,310738,1,2,0:0:0:0:
192,192,310806,1,0,0:0:0:0:
448,192,310874,1,0,0:0:0:0:
64,192,310942,1,0,0:0:0:0:
320,192,311010,1,2,0:0:0:0:
192,192,311010,1,0,0:0:0:0:
64,192,311078,1,0,0:0:0:0:
448,192,311147,128,0,311215:0:0:0:0:
192,192,311283,128,0,311351:0:0:0:0:
448,192,311419,128,0,311488:0:0:0:0:
192,192,311488,128,0,311556:0:0:0:0:
448,192,311556,1,0,0:0:0:0:
320,192,311556,1,2,0:0:0:0:
64,192,311624,1,0,0:0:0:0:
448,192,311692,1,0,0:0:0:0:
320,192,311760,1,0,0:0:0:0:
64,192,311828,1,8,0:0:0:0:
448,192,311828,1,2,0:0:0:0:
192,192,311897,1,0,0:0:0:0:
64,192,311965,1,0,0:0:0:0:
320,192,312033,1,0,0:0:0:0:
192,192,312101,1,0,0:0:0:0:
64,192,312101,1,2,0:0:0:0:
448,192,312169,1,0,0:0:0:0:
320,192,312238,1,0,0:0:0:0:
192,192,312306,1,0,0:0:0:0:
64,192,312374,1,2,0:0:0:0:
448,192,312374,1,8,0:0:0:0:
320,192,312442,1,0,0:0:0:0:
192,192,312510,1,0,0:0:0:0:
448,192,312578,1,0,0:0:0:0:
192,192,312647,1,0,0:0:0:0:
64,192,312647,1,2,0:0:0:0:
320,192,312715,1,0,0:0:0:0:
192,192,312783,1,0,0:0:0:0:
448,192,312851,1,0,0:0:0:0:
320,192,312919,1,8,0:0:0:0:
64,192,312919,1,2,0:0:0:0:
192,192,312988,1,0,0:0:0:0:
448,192,313056,1,0,0:0:0:0:
64,192,313124,1,0,0:0:0:0:
448,192,313192,1,2,0:0:0:0:
320,192,313192,1,0,0:0:0:0:
192,192,313260,1,0,0:0:0:0:
64,192,313328,1,0,0:0:0:0:
320,192,313397,1,0,0:0:0:0:
448,192,313465,1,2,0:0:0:0:
64,192,313465,1,8,0:0:0:0:
320,192,313533,1,0,0:0:0:0:
192,192,313601,1,0,0:0:0:0:
448,192,313669,1,0,0:0:0:0:
192,192,313738,1,0,0:0:0:0:
320,192,313738,1,2,0:0:0:0:
192,192,313874,1,0,0:0:0:0:
64,192,313874,1,0,0:0:0:0:
448,192,313874,1,4,0:0:0:0:
192,192,314010,1,0,0:0:0:0:
320,192,314010,1,2,0:0:0:0:
320,192,314147,1,0,0:0:0:0:
64,192,314147,1,4,0:0:0:0:
448,192,314147,1,0,0:0:0:0:
192,192,314283,1,2,0:0:0:0:
448,192,314283,1,0,0:0:0:0:
64,192,314419,1,0,0:0:0:0:
192,192,314419,1,0,0:0:0:0:
320,192,314419,1,4,0:0:0:0:
64,192,314556,128,0,314624:0:0:0:0:
448,192,314692,128,0,314760:0:0:0:0:
192,192,314692,1,4,0:0:0:0:
64,192,314828,1,2,0:0:0:0:
192,192,314828,1,0,0:0:0:0:
448,192,314965,1,4,0:0:0:0:
64,192,314965,1,0,0:0:0:0:
192,192,315101,128,0,315169:0:0:0:0:
320,192,315169,1,0,0:0:0:0:
192,192,315238,128,4,315306:0:0:0:0:
64,192,315306,1,0,0:0:0:0:
320,192,315374,1,2,0:0:0:0:
448,192,315374,1,0,0:0:0:0:
448,192,315510,1,0,0:0:0:0:
64,192,315647,128,0,315715:0:0:0:0:
448,192,315783,128,0,315851:0:0:0:0:
320,192,315919,1,2,0:0:0:0:
448,192,315919,1,4,0:0:0:0:
64,192,315919,1,0,0:0:0:0:
192,192,315988,1,0,0:0:0:0:
64,192,316056,1,0,0:0:0:0:
448,192,316124,1,0,0:0:0:0:
320,192,316192,1,2,0:0:0:0:
192,192,316192,1,0,0:0:0:0:
448,192,316260,1,0,0:0:0:0:
64,192,316328,1,0,0:0:0:0:
320,192,316397,1,0,0:0:0:0:
192,192,316465,1,2,0:0:0:0:
64,192,316465,1,0,0:0:0:0:
448,192,316533,1,0,0:0:0:0:
320,192,316601,1,0,0:0:0:0:
192,192,316669,1,0,0:0:0:0:
448,192,316738,1,0,0:0:0:0:
320,192,316738,1,2,0:0:0:0:
64,192,316806,1,0,0:0:0:0:
448,192,316874,1,0,0:0:0:0:
320,192,316942,1,0,0:0:0:0:
192,192,317010,1,2,0:0:0:0:
64,192,317010,1,0,0:0:0:0:
448,192,317078,1,0,0:0:0:0:
320,192,317147,1,0,0:0:0:0:
64,192,317215,1,0,0:0:0:0:
320,192,317283,1,0,0:0:0:0:
192,192,317283,1,2,0:0:0:0:
448,192,317351,1,0,0:0:0:0:
64,192,317419,1,0,0:0:0:0:
320,192,317488,1,0,0:0:0:0:
192,192,317556,1,0,0:0:0:0:
64,192,317556,1,2,0:0:0:0:
448,192,317624,1,0,0:0:0:0:
320,192,317692,1,0,0:0:0:0:
192,192,317760,1,0,0:0:0:0:
448,192,317828,1,0,0:0:0:0:
320,192,317828,1,2,0:0:0:0:
192,192,317897,1,0,0:0:0:0:
64,192,317965,1,0,0:0:0:0:
448,192,318033,1,0,0:0:0:0:
320,192,318101,1,2,0:0:0:0:
192,192,318101,1,0,0:0:0:0:
64,192,318169,1,0,0:0:0:0:
448,192,318238,1,0,0:0:0:0:
192,192,318306,1,0,0:0:0:0:
320,192,318374,1,2,0:0:0:0:
448,192,318374,1,0,0:0:0:0:
64,192,318442,1,0,0:0:0:0:
448,192,318510,1,0,0:0:0:0:
320,192,318578,1,0,0:0:0:0:
192,192,318647,1,0,0:0:0:0:
64,192,318647,1,2,0:0:0:0:
448,192,318715,1,0,0:0:0:0:
192,192,318783,1,0,0:0:0:0:
64,192,318851,1,0,0:0:0:0:
448,192,318919,1,0,0:0:0:0:
320,192,318919,1,2,0:0:0:0:
192,192,318988,1,0,0:0:0:0:
64,192,319056,1,0,0:0:0:0:
448,192,319124,1,0,0:0:0:0:
320,192,319192,1,2,0:0:0:0:
192,192,319192,1,0,0:0:0:0:
64,192,319260,1,0,0:0:0:0:
448,192,319328,1,0,0:0:0:0:
192,192,319397,1,0,0:0:0:0:
320,192,319465,1,2,0:0:0:0:
448,192,319465,1,0,0:0:0:0:
64,192,319533,1,0,0:0:0:0:
192,192,319601,1,0,0:0:0:0:
448,192,319669,1,0,0:0:0:0:
192,192,319738,1,0,0:0:0:0:
64,192,319806,1,0,0:0:0:0:
192,192,319874,1,0,0:0:0:0:
320,192,319942,1,0,0:0:0:0:
64,192,320010,128,0,320078:0:0:0:0:
192,192,320078,1,0,0:0:0:0:
448,192,320147,128,0,320215:0:0:0:0:
192,192,320215,1,0,0:0:0:0:
320,192,320283,1,2,0:0:0:0:
448,192,320283,1,0,0:0:0:0:
64,192,320351,1,0,0:0:0:0:
192,192,320419,1,0,0:0:0:0:
320,192,320488,1,0,0:0:0:0:
64,192,320556,1,2,0:0:0:0:
192,192,320556,1,0,0:0:0:0:
448,192,320624,1,0,0:0:0:0:
64,192,320692,1,0,0:0:0:0:
192,192,320760,1,0,0:0:0:0:
320,192,320828,1,2,0:0:0:0:
448,192,320828,1,0,0:0:0:0:
64,192,320897,1,0,0:0:0:0:
192,192,320965,1,0,0:0:0:0:
448,192,321033,1,0,0:0:0:0:
320,192,321101,1,2,0:0:0:0:
192,192,321101,1,0,0:0:0:0:
448,192,321169,1,0,0:0:0:0:
64,192,321238,1,0,0:0:0:0:
192,192,321306,1,0,0:0:0:0:
320,192,321374,1,2,0:0:0:0:
448,192,321374,1,0,0:0:0:0:
64,192,321442,1,0,0:0:0:0:
320,192,321510,1,0,0:0:0:0:
448,192,321578,1,0,0:0:0:0:
64,192,321647,1,0,0:0:0:0:
192,192,321647,1,2,0:0:0:0:
448,192,321715,1,0,0:0:0:0:
320,192,321783,1,0,0:0:0:0:
448,192,321851,1,0,0:0:0:0:
192,192,321919,1,2,0:0:0:0:
320,192,321919,1,0,0:0:0:0:
64,192,321988,1,0,0:0:0:0:
192,192,322056,1,0,0:0:0:0:
448,192,322124,1,0,0:0:0:0:
192,192,322192,1,0,0:0:0:0:
64,192,322192,1,2,0:0:0:0:
320,192,322260,1,0,0:0:0:0:
448,192,322328,1,0,0:0:0:0:
192,192,322397,1,0,0:0:0:0:
320,192,322465,1,0,0:0:0:0:
448,192,322465,1,4,0:0:0:0:
64,192,322465,1,2,0:0:0:0:
192,192,322533,1,0,0:0:0:0:
448,192,322601,1,0,0:0:0:0:
320,192,322669,1,0,0:0:0:0:
192,192,322738,1,0,0:0:0:0:
64,192,322738,1,2,0:0:0:0:
448,192,322738,1,4,0:0:0:0:
320,192,322806,1,0,0:0:0:0:
64,192,322874,1,0,0:0:0:0:
192,192,322942,1,0,0:0:0:0:
320,192,323010,1,0,0:0:0:0:
448,192,323010,1,4,0:0:0:0:
64,192,323010,1,2,0:0:0:0:
192,192,323078,1,0,0:0:0:0:
320,192,323147,1,0,0:0:0:0:
448,192,323215,1,0,0:0:0:0:
192,192,323283,1,0,0:0:0:0:
64,192,323283,1,2,0:0:0:0:
448,192,323419,1,0,0:0:0:0:
448,192,323556,5,2,0:0:0:0:
320,192,323556,1,0,0:0:0:0:
64,192,323556,1,4,0:0:0:0:
192,192,323624,1,0,0:0:0:0:
320,192,323692,1,0,0:0:0:0:
192,192,323760,1,0,0:0:0:0:
320,192,323828,1,0,0:0:0:0:
448,192,323828,1,2,0:0:0:0:
448,192,323965,1,0,0:0:0:0:
64,192,324101,128,0,324169:0:0:0:0:
320,192,324101,1,4,0:0:0:0:
192,192,324169,1,0,0:0:0:0:
448,192,324238,128,0,324306:0:0:0:0:
320,192,324306,1,0,0:0:0:0:
64,192,324374,128,2,324442:0:0:0:0:
192,192,324374,128,0,324578:0:0:0:0:
320,192,324442,1,0,0:0:0:0:
448,192,324510,128,0,324578:0:0:0:0:
64,192,324578,1,0,0:0:0:0:
320,192,324647,5,2,0:0:0:0:
448,192,324647,1,4,0:0:0:0:
192,192,324647,1,0,0:0:0:0:
64,192,324783,1,0,0:0:0:0:
320,192,324919,1,0,0:0:0:0:
448,192,324919,1,2,0:0:0:0:
64,192,325056,1,0,0:0:0:0:
448,192,325192,1,2,0:0:0:0:
192,192,325192,1,0,0:0:0:0:
64,192,325328,1,0,0:0:0:0:
192,192,325465,1,0,0:0:0:0:
448,192,325465,1,2,0:0:0:0:
64,192,325601,1,0,0:0:0:0:
448,192,325738,1,2,0:0:0:0:
320,192,325738,1,0,0:0:0:0:
64,192,325874,1,0,0:0:0:0:
320,192,326010,1,0,0:0:0:0:
448,192,326010,1,2,0:0:0:0:
64,192,326147,1,0,0:0:0:0:
192,192,326283,1,0,0:0:0:0:
448,192,326283,1,2,0:0:0:0:
64,192,326419,1,0,0:0:0:0:
192,192,326556,1,0,0:0:0:0:
448,192,326556,1,2,0:0:0:0:
64,192,326692,1,0,0:0:0:0:
192,192,326828,1,0,0:0:0:0:
320,192,326828,1,2,0:0:0:0:
448,192,326965,1,0,0:0:0:0:
192,192,327101,1,0,0:0:0:0:
320,192,327101,1,2,0:0:0:0:
448,192,327238,1,0,0:0:0:0:
64,192,327374,1,0,0:0:0:0:
320,192,327374,1,2,0:0:0:0:
448,192,327510,1,0,0:0:0:0:
320,192,327647,1,2,0:0:0:0:
64,192,327647,1,0,0:0:0:0:
448,192,327783,1,0,0:0:0:0:
320,192,327919,1,2,0:0:0:0:
192,192,327919,1,0,0:0:0:0:
448,192,328056,1,0,0:0:0:0:
320,192,328192,1,2,0:0:0:0:
192,192,328192,1,0,0:0:0:0:
448,192,328328,1,0,0:0:0:0:
320,192,328465,1,2,0:0:0:0:
64,192,328465,1,0,0:0:0:0:
448,192,328601,1,0,0:0:0:0:
64,192,328738,1,0,0:0:0:0:
192,192,329010,1,0,0:0:0:0:
64,192,329010,1,2,0:0:0:0:
320,192,329147,1,0,0:0:0:0:
192,192,329283,1,0,0:0:0:0:
64,192,329283,1,2,0:0:0:0:
320,192,329419,1,0,0:0:0:0:
64,192,329556,1,2,0:0:0:0:
448,192,329556,1,0,0:0:0:0:
320,192,329692,1,0,0:0:0:0:
448,192,329828,1,0,0:0:0:0:
64,192,329828,1,2,0:0:0:0:
320,192,329965,1,0,0:0:0:0:
192,192,330101,1,0,0:0:0:0:
64,192,330101,1,2,0:0:0:0:
320,192,330238,1,0,0:0:0:0:
64,192,330374,1,2,0:0:0:0:
192,192,330374,1,0,0:0:0:0:
320,192,330510,1,0,0:0:0:0:
448,192,330647,1,0,0:0:0:0:
64,192,330647,1,2,0:0:0:0:
320,192,330783,1,0,0:0:0:0:
64,192,330919,1,2,0:0:0:0:
448,192,330919,1,0,0:0:0:0:
320,192,331056,1,0,0:0:0:0:
64,192,331192,128,0,331260:0:0:0:0:
192,192,331192,1,2,0:0:0:0:
448,192,331328,128,0,331397:0:0:0:0:
64,192,331465,128,0,331533:0:0:0:0:
192,192,331465,1,2,0:0:0:0:
448,192,331601,128,0,331669:0:0:0:0:
64,192,331738,128,0,331806:0:0:0:0:
192,192,331738,1,2,0:0:0:0:
448,192,331874,128,0,331942:0:0:0:0:
64,192,332010,128,0,332078:0:0:0:0:
192,192,332010,1,2,0:0:0:0:
448,192,332147,128,0,332215:0:0:0:0:
64,192,332215,128,0,332283:0:0:0:0:
192,192,332283,128,0,332488:0:0:0:0:
320,192,332283,1,2,0:0:0:0:
448,192,332419,128,0,332488:0:0:0:0:
192,192,332556,128,0,332760:0:0:0:0:
64,192,332556,1,2,0:0:0:0:
448,192,332692,128,0,332760:0:0:0:0:
64,192,332828,1,0,0:0:0:0:
64,192,332965,1,0,0:0:0:0:
448,192,333101,1,0,0:0:0:0:
448,192,333238,1,0,0:0:0:0:
64,192,333374,128,0,333647:0:0:0:0:
192,192,333374,128,0,333647:0:0:0:0:
448,192,333374,128,2,333647:0:0:0:0:
320,192,333510,128,0,333647:0:0:0:0:
