osu file format v14

[General]
AudioFilename: audio.mp3
AudioLeadIn: 0
PreviewTime: 96576
Countdown: 0
SampleSet: None
StackLeniency: 0.7
Mode: 3
LetterboxInBreaks: 0
SpecialStyle: 0
WidescreenStoryboard: 1

[Editor]
Bookmarks: 41384,41614,41807,41999,42230,84268
DistanceSpacing: 0.8
BeatDivisor: 8
GridSize: 8
TimelineZoom: 2.1

[Metadata]
Title:Desable Mark
TitleUnicode:Desable Mark
Artist:Roughsketch
ArtistUnicode:Roughsketch
Creator:-BloowX
Version:Hard
Source:[Reflec Beat Volzza 2]
Tags:Arcade Machines BMS Reflec Beat Volzza 2
BeatmapID:974431
BeatmapSetID:454493

[Difficulty]
HPDrainRate:7
CircleSize:4
OverallDifficulty:6.5
ApproachRate:5
SliderMultiplier:1.4
SliderTickRate:1

[Events]
//Background and Video events
0,0,"Time_is_the_Fourth_Dimension.jpg",0,0
//Break Periods
//Storyboard Layer 0 (Background)
//Storyboard Layer 1 (Fail)
//Storyboard Layer 2 (Pass)
//Storyboard Layer 3 (Foreground)
//Storyboard Sound Samples

[TimingPoints]
3038,307.692307692308,4,1,0,10,1,0
95345,-125,4,2,0,70,0,0
96576,-100,4,2,0,30,0,0

[HitObjects]
448,192,3037,5,0,0:0:0:0:
320,192,3037,1,0,0:0:0:0:
192,192,3499,1,0,0:0:0:0:
64,192,3499,1,0,0:0:0:0:
448,192,3653,1,0,0:0:0:0:
320,192,3653,1,0,0:0:0:0:
192,192,4114,128,0,4345:0:0:0:0:
64,192,4114,128,0,4345:0:0:0:0:
448,192,4422,1,0,0:0:0:0:
320,192,4422,1,0,0:0:0:0:
192,192,4730,1,0,0:0:0:0:
64,192,4730,1,0,0:0:0:0:
320,192,4884,1,0,0:0:0:0:
192,192,4884,1,0,0:0:0:0:
448,192,5191,128,0,5345:0:0:0:0:
64,192,5345,128,0,5499:0:0:0:0:
192,192,5345,1,0,0:0:0:0:
320,192,5345,1,0,0:0:0:0:
448,192,5499,1,0,0:0:0:0:
320,192,5499,1,0,0:0:0:0:
192,192,5499,1,0,0:0:0:0:
448,192,5961,1,0,0:0:0:0:
320,192,5961,1,0,0:0:0:0:
320,192,6114,1,0,0:0:0:0:
192,192,6114,1,0,0:0:0:0:
64,192,6114,128,0,6422:0:0:0:0:
448,192,6576,1,0,0:0:0:0:
320,192,6576,1,0,0:0:0:0:
64,192,6576,128,0,6730:0:0:0:0:
448,192,6730,128,0,6884:0:0:0:0:
320,192,6730,1,0,0:0:0:0:
192,192,6730,1,0,0:0:0:0:
192,192,6884,1,0,0:0:0:0:
64,192,6884,1,0,0:0:0:0:
320,192,6884,1,0,0:0:0:0:
448,192,7038,1,0,0:0:0:0:
64,192,7038,1,0,0:0:0:0:
192,192,7191,1,0,0:0:0:0:
64,192,7191,1,0,0:0:0:0:
320,192,7345,1,0,0:0:0:0:
192,192,7345,1,0,0:0:0:0:
448,192,7499,1,0,0:0:0:0:
320,192,7499,1,0,0:0:0:0:
64,192,7653,128,0,7961:0:0:0:0:
320,192,7653,1,0,0:0:0:0:
448,192,7961,1,0,0:0:0:0:
320,192,7961,1,0,0:0:0:0:
192,192,7961,128,0,8268:0:0:0:0:
448,192,8422,1,0,0:0:0:0:
192,192,8422,1,0,0:0:0:0:
64,192,8576,1,0,0:0:0:0:
320,192,8576,128,0,8884:0:0:0:0:
192,192,9038,128,0,9191:0:0:0:0:
320,192,9191,128,0,9345:0:0:0:0:
64,192,9345,1,0,0:0:0:0:
448,192,9345,1,0,0:0:0:0:
320,192,9499,1,0,0:0:0:0:
64,192,9499,1,0,0:0:0:0:
448,192,9653,1,0,0:0:0:0:
192,192,9653,1,0,0:0:0:0:
448,192,9807,1,0,0:0:0:0:
64,192,9807,128,0,10114:0:0:0:0:
320,192,10114,128,0,10422:0:0:0:0:
192,192,10422,128,0,10730:0:0:0:0:
64,192,10422,128,0,10730:0:0:0:0:
448,192,10884,1,0,0:0:0:0:
320,192,10884,1,0,0:0:0:0:
192,192,11038,1,0,0:0:0:0:
64,192,11038,128,0,11345:0:0:0:0:
448,192,11499,128,0,11653:0:0:0:0:
320,192,11653,1,0,0:0:0:0:
192,192,11653,1,0,0:0:0:0:
64,192,11653,128,0,11807:0:0:0:0:
448,192,11807,1,0,0:0:0:0:
320,192,11807,1,0,0:0:0:0:
192,192,11807,1,0,0:0:0:0:
448,192,11961,1,0,0:0:0:0:
64,192,11961,1,0,0:0:0:0:
448,192,12114,1,0,0:0:0:0:
320,192,12114,1,0,0:0:0:0:
192,192,12268,1,0,0:0:0:0:
64,192,12268,1,0,0:0:0:0:
448,192,12576,128,0,12884:0:0:0:0:
64,192,12576,128,0,12884:0:0:0:0:
320,192,12884,1,0,0:0:0:0:
192,192,12884,1,0,0:0:0:0:
64,192,13191,1,0,0:0:0:0:
320,192,13191,1,0,0:0:0:0:
448,192,13345,1,0,0:0:0:0:
64,192,13499,1,0,0:0:0:0:
320,192,13499,1,0,0:0:0:0:
192,192,13653,1,0,0:0:0:0:
320,192,13807,1,0,0:0:0:0:
448,192,13807,1,0,0:0:0:0:
64,192,13961,1,0,0:0:0:0:
320,192,14114,1,0,0:0:0:0:
448,192,14114,1,0,0:0:0:0:
192,192,14268,1,0,0:0:0:0:
64,192,14422,1,0,0:0:0:0:
448,192,14422,1,0,0:0:0:0:
320,192,14576,1,0,0:0:0:0:
448,192,14730,1,0,0:0:0:0:
64,192,14730,128,0,14884:0:0:0:0:
192,192,14884,1,0,0:0:0:0:
320,192,14884,1,0,0:0:0:0:
448,192,14884,128,0,15038:0:0:0:0:
64,192,15038,1,0,0:0:0:0:
192,192,15038,128,0,15191:0:0:0:0:
448,192,15191,1,0,0:0:0:0:
320,192,15191,128,0,15345:0:0:0:0:
192,192,15345,1,0,0:0:0:0:
64,192,15345,128,0,15499:0:0:0:0:
448,192,15499,128,0,15653:0:0:0:0:
320,192,15499,1,0,0:0:0:0:
64,192,15653,128,0,15807:0:0:0:0:
192,192,15653,1,0,0:0:0:0:
320,192,15653,1,0,0:0:0:0:
448,192,15807,1,0,0:0:0:0:
320,192,15807,128,0,15961:0:0:0:0:
64,192,15961,1,0,0:0:0:0:
192,192,15961,128,0,16114:0:0:0:0:
320,192,16114,1,0,0:0:0:0:
448,192,16114,1,0,0:0:0:0:
320,192,16268,1,0,0:0:0:0:
64,192,16268,128,0,16422:0:0:0:0:
192,192,16422,1,0,0:0:0:0:
448,192,16422,128,0,16576:0:0:0:0:
320,192,16576,1,0,0:0:0:0:
64,192,16576,128,0,16730:0:0:0:0:
192,192,16730,1,0,0:0:0:0:
448,192,16730,128,0,16884:0:0:0:0:
320,192,16884,128,0,17038:0:0:0:0:
64,192,16884,1,0,0:0:0:0:
448,192,17038,1,0,0:0:0:0:
192,192,17038,1,0,0:0:0:0:
64,192,17191,128,0,17345:0:0:0:0:
320,192,17191,1,0,0:0:0:0:
192,192,17345,1,0,0:0:0:0:
448,192,17345,128,0,17499:0:0:0:0:
320,192,17499,1,0,0:0:0:0:
64,192,17499,128,0,17730:0:0:0:0:
192,192,17807,1,0,0:0:0:0:
320,192,17807,1,0,0:0:0:0:
448,192,17807,1,0,0:0:0:0:
64,192,18114,1,0,0:0:0:0:
448,192,18114,1,0,0:0:0:0:
192,192,18268,1,0,0:0:0:0:
448,192,18268,1,0,0:0:0:0:
448,192,18422,1,0,0:0:0:0:
64,192,18422,128,0,18576:0:0:0:0:
320,192,18576,1,0,0:0:0:0:
192,192,18576,1,0,0:0:0:0:
64,192,18730,1,0,0:0:0:0:
448,192,18730,1,0,0:0:0:0:
320,192,18884,1,0,0:0:0:0:
64,192,18884,1,0,0:0:0:0:
192,192,19038,1,0,0:0:0:0:
320,192,19038,1,0,0:0:0:0:
448,192,19038,1,0,0:0:0:0:
64,192,19191,1,0,0:0:0:0:
64,192,19345,128,0,19384:0:0:0:0:
448,192,19345,128,0,19384:0:0:0:0:
192,192,19499,128,0,19538:0:0:0:0:
448,192,19499,128,0,19538:0:0:0:0:
64,192,19653,128,0,19691:0:0:0:0:
448,192,19653,128,0,19691:0:0:0:0:
192,192,19807,1,0,0:0:0:0:
448,192,19961,128,0,19999:0:0:0:0:
64,192,19961,128,0,19999:0:0:0:0:
192,192,20114,128,0,20153:0:0:0:0:
320,192,20114,128,0,20153:0:0:0:0:
64,192,20268,1,0,0:0:0:0:
192,192,20268,1,0,0:0:0:0:
448,192,20345,1,0,0:0:0:0:
320,192,20422,1,0,0:0:0:0:
192,192,20499,1,0,0:0:0:0:
64,192,20576,1,0,0:0:0:0:
448,192,20653,1,0,0:0:0:0:
320,192,20730,1,0,0:0:0:0:
192,192,20807,1,0,0:0:0:0:
64,192,20884,1,0,0:0:0:0:
448,192,20961,1,0,0:0:0:0:
320,192,21038,1,0,0:0:0:0:
192,192,21114,1,0,0:0:0:0:
64,192,21191,1,0,0:0:0:0:
448,192,21268,1,0,0:0:0:0:
320,192,21345,1,0,0:0:0:0:
192,192,21422,1,0,0:0:0:0:
64,192,21499,1,0,0:0:0:0:
448,192,21653,1,0,0:0:0:0:
320,192,21961,1,0,0:0:0:0:
448,192,22114,128,0,22422:0:0:0:0:
192,192,22114,1,0,0:0:0:0:
192,192,22268,1,0,0:0:0:0:
64,192,22422,128,0,22730:0:0:0:0:
320,192,22422,1,0,0:0:0:0:
320,192,22730,1,0,0:0:0:0:
448,192,22730,128,0,22884:0:0:0:0:
192,192,22884,128,0,23038:0:0:0:0:
320,192,23038,1,0,0:0:0:0:
64,192,23038,128,0,23191:0:0:0:0:
448,192,23191,128,0,23345:0:0:0:0:
192,192,23345,128,0,23499:0:0:0:0:
64,192,23345,1,0,0:0:0:0:
320,192,23499,128,0,23653:0:0:0:0:
448,192,23653,1,0,0:0:0:0:
64,192,23653,128,0,23807:0:0:0:0:
192,192,23807,128,0,23961:0:0:0:0:
448,192,23961,128,0,24114:0:0:0:0:
320,192,23961,1,0,0:0:0:0:
64,192,24114,128,0,24268:0:0:0:0:
192,192,24268,1,0,0:0:0:0:
320,192,24268,128,0,24422:0:0:0:0:
448,192,24422,128,0,24576:0:0:0:0:
192,192,24576,1,0,0:0:0:0:
64,192,24576,128,0,24730:0:0:0:0:
320,192,24730,128,0,24884:0:0:0:0:
448,192,24884,128,0,25038:0:0:0:0:
64,192,24884,1,0,0:0:0:0:
320,192,25038,1,0,0:0:0:0:
64,192,25038,128,0,25191:0:0:0:0:
448,192,25191,1,0,0:0:0:0:
192,192,25191,128,0,25345:0:0:0:0:
320,192,25345,128,0,25499:0:0:0:0:
64,192,25499,128,0,25653:0:0:0:0:
192,192,25499,1,0,0:0:0:0:
448,192,25653,128,0,25807:0:0:0:0:
64,192,25807,1,0,0:0:0:0:
320,192,25807,128,0,25961:0:0:0:0:
192,192,25961,128,0,26114:0:0:0:0:
448,192,26114,1,0,0:0:0:0:
64,192,26114,128,0,26268:0:0:0:0:
320,192,26268,128,0,26422:0:0:0:0:
64,192,26422,1,0,0:0:0:0:
448,192,26422,128,0,26576:0:0:0:0:
192,192,26576,128,0,26730:0:0:0:0:
64,192,26730,128,0,26884:0:0:0:0:
320,192,26730,1,0,0:0:0:0:
448,192,26884,128,0,27038:0:0:0:0:
320,192,27038,128,0,27191:0:0:0:0:
192,192,27038,1,0,0:0:0:0:
448,192,27191,128,0,27345:0:0:0:0:
64,192,27268,1,0,0:0:0:0:
192,192,27345,1,0,0:0:0:0:
320,192,27345,128,0,27499:0:0:0:0:
64,192,27499,1,0,0:0:0:0:
192,192,27499,1,0,0:0:0:0:
448,192,27653,128,0,27807:0:0:0:0:
320,192,27653,1,0,0:0:0:0:
64,192,27961,1,0,0:0:0:0:
320,192,27961,1,0,0:0:0:0:
448,192,27961,1,0,0:0:0:0:
192,192,27961,128,0,28114:0:0:0:0:
64,192,28268,1,0,0:0:0:0:
192,192,28268,1,0,0:0:0:0:
448,192,28268,128,0,28422:0:0:0:0:
320,192,28422,128,0,28576:0:0:0:0:
192,192,28576,128,0,28730:0:0:0:0:
448,192,28576,1,0,0:0:0:0:
64,192,28730,128,0,28884:0:0:0:0:
320,192,28730,1,0,0:0:0:0:
320,192,28884,1,0,0:0:0:0:
448,192,28884,128,0,29191:0:0:0:0:
320,192,29191,128,0,29345:0:0:0:0:
192,192,29191,1,0,0:0:0:0:
448,192,29345,128,0,29499:0:0:0:0:
320,192,29499,1,0,0:0:0:0:
192,192,29499,128,0,29653:0:0:0:0:
64,192,29653,128,0,29807:0:0:0:0:
320,192,29807,1,0,0:0:0:0:
448,192,29807,128,0,29961:0:0:0:0:
64,192,29961,1,0,0:0:0:0:
192,192,29961,128,0,30114:0:0:0:0:
448,192,30114,1,0,0:0:0:0:
320,192,30114,128,0,30422:0:0:0:0:
448,192,30422,128,0,30576:0:0:0:0:
448,192,30730,128,0,30884:0:0:0:0:
64,192,30730,1,0,0:0:0:0:
192,192,30730,1,0,0:0:0:0:
320,192,31038,1,0,0:0:0:0:
448,192,31038,1,0,0:0:0:0:
64,192,31038,128,0,31191:0:0:0:0:
448,192,31191,1,0,0:0:0:0:
320,192,31191,1,0,0:0:0:0:
192,192,31268,1,0,0:0:0:0:
320,192,31345,1,0,0:0:0:0:
448,192,31345,128,0,31499:0:0:0:0:
64,192,31499,128,0,31653:0:0:0:0:
192,192,31499,1,0,0:0:0:0:
320,192,31653,128,0,31807:0:0:0:0:
448,192,31653,1,0,0:0:0:0:
64,192,31807,1,0,0:0:0:0:
192,192,31807,128,0,31961:0:0:0:0:
448,192,31961,128,0,32268:0:0:0:0:
320,192,31961,1,0,0:0:0:0:
64,192,32114,1,0,0:0:0:0:
320,192,32268,128,0,32576:0:0:0:0:
192,192,32268,1,0,0:0:0:0:
64,192,32422,1,0,0:0:0:0:
448,192,32576,1,0,0:0:0:0:
192,192,32730,1,0,0:0:0:0:
64,192,32884,1,0,0:0:0:0:
320,192,32884,1,0,0:0:0:0:
448,192,33038,1,0,0:0:0:0:
64,192,33191,1,0,0:0:0:0:
192,192,33191,128,0,33268:0:0:0:0:
320,192,33268,128,0,33345:0:0:0:0:
448,192,33345,128,0,33499:0:0:0:0:
64,192,33499,1,0,0:0:0:0:
320,192,33499,1,0,0:0:0:0:
192,192,33614,128,0,33691:0:0:0:0:
448,192,33807,1,0,0:0:0:0:
320,192,33807,128,0,33922:0:0:0:0:
192,192,33999,128,0,34114:0:0:0:0:
448,192,34114,1,0,0:0:0:0:
64,192,34114,128,0,34230:0:0:0:0:
192,192,34230,128,0,34307:0:0:0:0:
448,192,34422,128,0,34538:0:0:0:0:
320,192,34422,1,0,0:0:0:0:
192,192,34538,128,0,34653:0:0:0:0:
320,192,34653,1,0,0:0:0:0:
64,192,34653,1,0,0:0:0:0:
448,192,34730,128,0,35038:0:0:0:0:
320,192,34807,1,0,0:0:0:0:
64,192,34807,128,0,35038:0:0:0:0:
192,192,35038,128,0,35114:0:0:0:0:
320,192,35114,128,0,35230:0:0:0:0:
192,192,35230,128,0,35345:0:0:0:0:
448,192,35345,1,0,0:0:0:0:
64,192,35461,1,0,0:0:0:0:
320,192,35461,1,0,0:0:0:0:
192,192,35653,1,0,0:0:0:0:
448,192,35653,128,0,35768:0:0:0:0:
320,192,35768,128,0,35884:0:0:0:0:
192,192,35884,128,0,35961:0:0:0:0:
64,192,35961,1,0,0:0:0:0:
448,192,35961,1,0,0:0:0:0:
320,192,36076,1,0,0:0:0:0:
448,192,36191,1,0,0:0:0:0:
64,192,36191,1,0,0:0:0:0:
192,192,36268,128,0,36384:0:0:0:0:
320,192,36268,1,0,0:0:0:0:
64,192,36384,128,0,36499:0:0:0:0:
448,192,36499,1,0,0:0:0:0:
320,192,36499,1,0,0:0:0:0:
64,192,36576,1,0,0:0:0:0:
192,192,36576,1,0,0:0:0:0:
320,192,36691,1,0,0:0:0:0:
64,192,36807,1,0,0:0:0:0:
192,192,36807,1,0,0:0:0:0:
320,192,36884,128,0,36999:0:0:0:0:
448,192,36884,1,0,0:0:0:0:
192,192,36999,128,0,37076:0:0:0:0:
64,192,37076,128,0,37191:0:0:0:0:
448,192,37191,1,0,0:0:0:0:
192,192,37191,1,0,0:0:0:0:
320,192,37268,128,0,37384:0:0:0:0:
192,192,37384,128,0,37499:0:0:0:0:
64,192,37499,1,0,0:0:0:0:
320,192,37499,128,0,37653:0:0:0:0:
64,192,37653,1,0,0:0:0:0:
192,192,37653,1,0,0:0:0:0:
320,192,37730,1,0,0:0:0:0:
448,192,37730,1,0,0:0:0:0:
192,192,37807,1,0,0:0:0:0:
64,192,37807,128,0,37961:0:0:0:0:
192,192,38038,1,0,0:0:0:0:
320,192,38114,128,0,38230:0:0:0:0:
448,192,38114,1,0,0:0:0:0:
192,192,38230,128,0,38345:0:0:0:0:
448,192,38422,128,0,38576:0:0:0:0:
64,192,38422,1,0,0:0:0:0:
192,192,38576,1,0,0:0:0:0:
320,192,38653,1,0,0:0:0:0:
64,192,38730,1,0,0:0:0:0:
192,192,38730,128,0,38884:0:0:0:0:
448,192,38884,1,0,0:0:0:0:
448,192,39038,128,0,39191:0:0:0:0:
64,192,39038,1,0,0:0:0:0:
320,192,39191,128,0,39345:0:0:0:0:
64,192,39345,1,0,0:0:0:0:
192,192,39345,1,0,0:0:0:0:
320,192,39499,1,0,0:0:0:0:
448,192,39499,1,0,0:0:0:0:
192,192,39653,128,0,39961:0:0:0:0:
320,192,39653,128,0,39961:0:0:0:0:
64,192,39961,128,0,40114:0:0:0:0:
192,192,40114,128,0,40268:0:0:0:0:
320,192,40268,128,0,40422:0:0:0:0:
448,192,40268,1,0,0:0:0:0:
192,192,40422,128,0,40576:0:0:0:0:
448,192,40576,1,0,0:0:0:0:
64,192,40576,128,0,40730:0:0:0:0:
320,192,40576,1,0,0:0:0:0:
192,192,40730,128,0,40884:0:0:0:0:
448,192,40730,128,0,40884:0:0:0:0:
64,192,40884,1,0,0:0:0:0:
320,192,40884,128,0,41038:0:0:0:0:
192,192,41038,128,0,41191:0:0:0:0:
320,192,41191,1,0,0:0:0:0:
64,192,41191,1,0,0:0:0:0:
320,192,41384,1,0,0:0:0:0:
448,192,41384,1,0,0:0:0:0:
192,192,41614,1,0,0:0:0:0:
320,192,41614,1,0,0:0:0:0:
192,192,41807,1,0,0:0:0:0:
64,192,41807,1,0,0:0:0:0:
192,192,41999,1,0,0:0:0:0:
320,192,41999,1,0,0:0:0:0:
192,192,42230,1,0,0:0:0:0:
320,192,42230,1,0,0:0:0:0:
448,192,42422,128,0,43038:0:0:0:0:
64,192,42422,128,0,43038:0:0:0:0:
192,192,43038,128,0,43653:0:0:0:0:
320,192,43038,128,0,43653:0:0:0:0:
448,192,43653,1,0,0:0:0:0:
64,192,43653,128,0,43807:0:0:0:0:
192,192,43807,1,0,0:0:0:0:
448,192,43807,128,0,44114:0:0:0:0:
320,192,43961,1,0,0:0:0:0:
64,192,44114,1,0,0:0:0:0:
192,192,44114,1,0,0:0:0:0:
320,192,44191,1,0,0:0:0:0:
448,192,44268,1,0,0:0:0:0:
192,192,44268,1,0,0:0:0:0:
320,192,44499,1,0,0:0:0:0:
64,192,44499,1,0,0:0:0:0:
448,192,44653,1,0,0:0:0:0:
192,192,44653,1,0,0:0:0:0:
64,192,44768,1,0,0:0:0:0:
320,192,44768,1,0,0:0:0:0:
192,192,44884,128,0,45038:0:0:0:0:
448,192,44884,128,0,45191:0:0:0:0:
64,192,45191,1,0,0:0:0:0:
192,192,45191,1,0,0:0:0:0:
192,192,45499,128,0,45807:0:0:0:0:
64,192,45807,128,0,46422:0:0:0:0:
320,192,45807,128,0,46114:0:0:0:0:
192,192,46114,128,0,46268:0:0:0:0:
448,192,46114,1,0,0:0:0:0:
320,192,46268,128,0,46422:0:0:0:0:
192,192,46422,1,0,0:0:0:0:
448,192,46422,1,0,0:0:0:0:
64,192,46576,1,0,0:0:0:0:
192,192,46576,1,0,0:0:0:0:
320,192,46730,128,0,46807:0:0:0:0:
192,192,46807,128,0,46884:0:0:0:0:
320,192,46884,128,0,46961:0:0:0:0:
64,192,47038,1,0,0:0:0:0:
192,192,47038,1,0,0:0:0:0:
320,192,47191,1,0,0:0:0:0:
448,192,47191,1,0,0:0:0:0:
192,192,47268,1,0,0:0:0:0:
64,192,47345,1,0,0:0:0:0:
448,192,47345,128,0,47653:0:0:0:0:
64,192,47653,128,0,47961:0:0:0:0:
192,192,47961,128,0,48114:0:0:0:0:
320,192,48114,1,0,0:0:0:0:
448,192,48114,1,0,0:0:0:0:
192,192,48268,128,0,48576:0:0:0:0:
64,192,48268,1,0,0:0:0:0:
64,192,48576,128,0,48730:0:0:0:0:
448,192,48730,1,0,0:0:0:0:
320,192,48807,1,0,0:0:0:0:
192,192,48884,1,0,0:0:0:0:
64,192,48884,1,0,0:0:0:0:
320,192,49038,1,0,0:0:0:0:
192,192,49114,1,0,0:0:0:0:
320,192,49191,1,0,0:0:0:0:
448,192,49345,1,0,0:0:0:0:
64,192,49345,1,0,0:0:0:0:
192,192,49422,1,0,0:0:0:0:
448,192,49499,128,0,49653:0:0:0:0:
320,192,49499,1,0,0:0:0:0:
192,192,49653,1,0,0:0:0:0:
64,192,49653,128,0,49807:0:0:0:0:
320,192,49807,1,0,0:0:0:0:
448,192,49807,128,0,50114:0:0:0:0:
192,192,50114,1,0,0:0:0:0:
64,192,50114,1,0,0:0:0:0:
320,192,50268,1,0,0:0:0:0:
448,192,50268,1,0,0:0:0:0:
64,192,50422,128,0,51038:0:0:0:0:
448,192,50422,128,0,51038:0:0:0:0:
320,192,51114,1,0,0:0:0:0:
192,192,51191,1,0,0:0:0:0:
320,192,51345,1,0,0:0:0:0:
448,192,51345,1,0,0:0:0:0:
192,192,51499,1,0,0:0:0:0:
320,192,51576,1,0,0:0:0:0:
192,192,51653,1,0,0:0:0:0:
64,192,51807,1,0,0:0:0:0:
192,192,51884,1,0,0:0:0:0:
64,192,51961,1,0,0:0:0:0:
320,192,51961,1,0,0:0:0:0:
448,192,52114,1,0,0:0:0:0:
320,192,52191,1,0,0:0:0:0:
448,192,52268,1,0,0:0:0:0:
192,192,52268,1,0,0:0:0:0:
192,192,52422,1,0,0:0:0:0:
64,192,52422,1,0,0:0:0:0:
320,192,52499,1,0,0:0:0:0:
448,192,52499,1,0,0:0:0:0:
64,192,52576,128,0,52884:0:0:0:0:
192,192,52576,1,0,0:0:0:0:
448,192,52730,128,0,52884:0:0:0:0:
64,192,53038,128,0,53345:0:0:0:0:
320,192,53038,1,0,0:0:0:0:
448,192,53191,1,0,0:0:0:0:
192,192,53191,1,0,0:0:0:0:
320,192,53345,1,0,0:0:0:0:
64,192,53499,1,0,0:0:0:0:
192,192,53499,1,0,0:0:0:0:
192,192,53653,1,0,0:0:0:0:
320,192,53730,1,0,0:0:0:0:
192,192,53807,128,0,53961:0:0:0:0:
448,192,53807,1,0,0:0:0:0:
448,192,53961,1,0,0:0:0:0:
320,192,53961,128,0,54268:0:0:0:0:
64,192,54114,1,0,0:0:0:0:
192,192,54114,1,0,0:0:0:0:
192,192,54268,1,0,0:0:0:0:
448,192,54268,128,0,54422:0:0:0:0:
64,192,54345,1,0,0:0:0:0:
192,192,54422,128,0,54730:0:0:0:0:
320,192,54499,1,0,0:0:0:0:
448,192,54730,128,0,55038:0:0:0:0:
320,192,54730,1,0,0:0:0:0:
64,192,54730,1,0,0:0:0:0:
64,192,55038,1,0,0:0:0:0:
192,192,55038,1,0,0:0:0:0:
320,192,55191,1,0,0:0:0:0:
192,192,55268,1,0,0:0:0:0:
320,192,55345,1,0,0:0:0:0:
192,192,55422,1,0,0:0:0:0:
320,192,55499,1,0,0:0:0:0:
192,192,55576,1,0,0:0:0:0:
448,192,55653,1,0,0:0:0:0:
320,192,55653,1,0,0:0:0:0:
64,192,55807,1,0,0:0:0:0:
320,192,55884,1,0,0:0:0:0:
64,192,55961,1,0,0:0:0:0:
320,192,56038,1,0,0:0:0:0:
64,192,56114,1,0,0:0:0:0:
320,192,56191,1,0,0:0:0:0:
64,192,56268,1,0,0:0:0:0:
192,192,56268,1,0,0:0:0:0:
448,192,56345,1,0,0:0:0:0:
192,192,56422,1,0,0:0:0:0:
448,192,56499,1,0,0:0:0:0:
192,192,56576,1,0,0:0:0:0:
448,192,56653,1,0,0:0:0:0:
192,192,56730,1,0,0:0:0:0:
448,192,56807,1,0,0:0:0:0:
192,192,56884,1,0,0:0:0:0:
320,192,56884,1,0,0:0:0:0:
192,192,57038,1,0,0:0:0:0:
320,192,57038,1,0,0:0:0:0:
64,192,57191,128,0,57499:0:0:0:0:
448,192,57191,128,0,57499:0:0:0:0:
192,192,57499,1,0,0:0:0:0:
320,192,57499,1,0,0:0:0:0:
448,192,57653,1,0,0:0:0:0:
64,192,57730,1,0,0:0:0:0:
448,192,57807,1,0,0:0:0:0:
64,192,57884,1,0,0:0:0:0:
448,192,57961,1,0,0:0:0:0:
64,192,58038,1,0,0:0:0:0:
320,192,58114,1,0,0:0:0:0:
192,192,58114,1,0,0:0:0:0:
64,192,58268,1,0,0:0:0:0:
448,192,58345,1,0,0:0:0:0:
64,192,58422,1,0,0:0:0:0:
448,192,58499,1,0,0:0:0:0:
64,192,58576,1,0,0:0:0:0:
448,192,58653,1,0,0:0:0:0:
192,192,58730,1,0,0:0:0:0:
320,192,58730,1,0,0:0:0:0:
448,192,58961,1,0,0:0:0:0:
320,192,58999,1,0,0:0:0:0:
192,192,59038,1,0,0:0:0:0:
64,192,59076,1,0,0:0:0:0:
320,192,59191,1,0,0:0:0:0:
192,192,59268,1,0,0:0:0:0:
320,192,59345,1,0,0:0:0:0:
448,192,59345,1,0,0:0:0:0:
192,192,59422,1,0,0:0:0:0:
64,192,59422,1,0,0:0:0:0:
448,192,59499,128,0,59653:0:0:0:0:
320,192,59499,1,0,0:0:0:0:
64,192,59653,1,0,0:0:0:0:
192,192,59653,1,0,0:0:0:0:
320,192,59807,1,0,0:0:0:0:
320,192,59884,1,0,0:0:0:0:
64,192,59961,1,0,0:0:0:0:
192,192,59961,1,0,0:0:0:0:
320,192,60114,1,0,0:0:0:0:
320,192,60191,1,0,0:0:0:0:
64,192,60268,1,0,0:0:0:0:
192,192,60268,1,0,0:0:0:0:
320,192,60422,1,0,0:0:0:0:
192,192,60499,1,0,0:0:0:0:
320,192,60576,1,0,0:0:0:0:
320,192,60730,128,0,60884:0:0:0:0:
448,192,60730,1,0,0:0:0:0:
192,192,60884,1,0,0:0:0:0:
64,192,60884,1,0,0:0:0:0:
448,192,60961,1,0,0:0:0:0:
64,192,61038,1,0,0:0:0:0:
448,192,61114,1,0,0:0:0:0:
192,192,61191,1,0,0:0:0:0:
320,192,61191,1,0,0:0:0:0:
64,192,61345,1,0,0:0:0:0:
448,192,61422,1,0,0:0:0:0:
64,192,61499,1,0,0:0:0:0:
320,192,61653,1,0,0:0:0:0:
192,192,61730,1,0,0:0:0:0:
320,192,61807,1,0,0:0:0:0:
64,192,61884,1,0,0:0:0:0:
192,192,61922,1,0,0:0:0:0:
448,192,61961,1,0,0:0:0:0:
320,192,61961,1,0,0:0:0:0:
64,192,62038,1,0,0:0:0:0:
448,192,62114,128,0,62422:0:0:0:0:
192,192,62114,1,0,0:0:0:0:
64,192,62422,1,0,0:0:0:0:
192,192,62422,1,0,0:0:0:0:
320,192,62576,1,0,0:0:0:0:
192,192,62653,1,0,0:0:0:0:
320,192,62730,1,0,0:0:0:0:
64,192,62884,1,0,0:0:0:0:
192,192,62884,1,0,0:0:0:0:
448,192,63038,1,0,0:0:0:0:
64,192,63114,1,0,0:0:0:0:
448,192,63191,1,0,0:0:0:0:
192,192,63345,1,0,0:0:0:0:
64,192,63345,128,0,63653:0:0:0:0:
320,192,63499,1,0,0:0:0:0:
192,192,63576,1,0,0:0:0:0:
320,192,63653,1,0,0:0:0:0:
448,192,63730,1,0,0:0:0:0:
320,192,63807,1,0,0:0:0:0:
192,192,63807,1,0,0:0:0:0:
192,192,64038,1,0,0:0:0:0:
320,192,64038,1,0,0:0:0:0:
64,192,64114,128,0,64576:0:0:0:0:
448,192,64114,128,0,64576:0:0:0:0:
192,192,64576,128,0,64884:0:0:0:0:
320,192,64576,128,0,64884:0:0:0:0:
320,192,67038,1,0,0:0:0:0:
192,192,67038,1,0,0:0:0:0:
192,192,67345,1,0,0:0:0:0:
320,192,67499,1,0,0:0:0:0:
448,192,67653,1,0,0:0:0:0:
64,192,67653,1,0,0:0:0:0:
192,192,67807,1,0,0:0:0:0:
64,192,67961,1,0,0:0:0:0:
192,192,68114,1,0,0:0:0:0:
320,192,68268,1,0,0:0:0:0:
64,192,68268,1,0,0:0:0:0:
192,192,68422,1,0,0:0:0:0:
448,192,68576,1,0,0:0:0:0:
64,192,68730,1,0,0:0:0:0:
320,192,68730,1,0,0:0:0:0:
448,192,68884,1,0,0:0:0:0:
192,192,69038,1,0,0:0:0:0:
64,192,69191,1,0,0:0:0:0:
320,192,69345,1,0,0:0:0:0:
448,192,69499,1,0,0:0:0:0:
64,192,69499,1,0,0:0:0:0:
192,192,69653,1,0,0:0:0:0:
64,192,69807,1,0,0:0:0:0:
192,192,69961,1,0,0:0:0:0:
320,192,70114,1,0,0:0:0:0:
192,192,70268,1,0,0:0:0:0:
320,192,70422,1,0,0:0:0:0:
192,192,70576,1,0,0:0:0:0:
320,192,70730,1,0,0:0:0:0:
64,192,70730,1,0,0:0:0:0:
448,192,70884,1,0,0:0:0:0:
320,192,71038,1,0,0:0:0:0:
192,192,71191,1,0,0:0:0:0:
448,192,71345,1,0,0:0:0:0:
64,192,71345,1,0,0:0:0:0:
320,192,71499,1,0,0:0:0:0:
192,192,71653,1,0,0:0:0:0:
448,192,71653,1,0,0:0:0:0:
320,192,71807,1,0,0:0:0:0:
448,192,71961,1,0,0:0:0:0:
64,192,71961,1,0,0:0:0:0:
320,192,72114,1,0,0:0:0:0:
192,192,72268,1,0,0:0:0:0:
320,192,72422,1,0,0:0:0:0:
192,192,72576,1,0,0:0:0:0:
448,192,72730,1,0,0:0:0:0:
64,192,72884,1,0,0:0:0:0:
448,192,73038,1,0,0:0:0:0:
320,192,73191,1,0,0:0:0:0:
192,192,73191,1,0,0:0:0:0:
64,192,73345,1,0,0:0:0:0:
320,192,73499,1,0,0:0:0:0:
192,192,73653,1,0,0:0:0:0:
64,192,73807,1,0,0:0:0:0:
320,192,73807,1,0,0:0:0:0:
448,192,73961,1,0,0:0:0:0:
320,192,74114,1,0,0:0:0:0:
64,192,74114,1,0,0:0:0:0:
448,192,74268,1,0,0:0:0:0:
192,192,74268,1,0,0:0:0:0:
320,192,74422,1,0,0:0:0:0:
64,192,74422,1,0,0:0:0:0:
192,192,74576,1,0,0:0:0:0:
448,192,74730,1,0,0:0:0:0:
320,192,74884,1,0,0:0:0:0:
192,192,75038,1,0,0:0:0:0:
64,192,75038,1,0,0:0:0:0:
320,192,75191,1,0,0:0:0:0:
448,192,75345,1,0,0:0:0:0:
192,192,75499,1,0,0:0:0:0:
64,192,75653,1,0,0:0:0:0:
448,192,75807,1,0,0:0:0:0:
192,192,75807,1,0,0:0:0:0:
320,192,75961,1,0,0:0:0:0:
64,192,75961,1,0,0:0:0:0:
192,192,76114,1,0,0:0:0:0:
448,192,76114,1,0,0:0:0:0:
192,192,76268,1,0,0:0:0:0:
64,192,76268,1,0,0:0:0:0:
320,192,76422,1,0,0:0:0:0:
192,192,76499,1,0,0:0:0:0:
448,192,76576,1,0,0:0:0:0:
64,192,76576,1,0,0:0:0:0:
320,192,76653,1,0,0:0:0:0:
192,192,76730,1,0,0:0:0:0:
64,192,76807,1,0,0:0:0:0:
320,192,76884,1,0,0:0:0:0:
192,192,77038,1,0,0:0:0:0:
64,192,77191,1,0,0:0:0:0:
448,192,77191,1,0,0:0:0:0:
192,192,77345,1,0,0:0:0:0:
320,192,77499,1,0,0:0:0:0:
64,192,77499,1,0,0:0:0:0:
192,192,77653,1,0,0:0:0:0:
320,192,77807,1,0,0:0:0:0:
64,192,77807,1,0,0:0:0:0:
192,192,77961,1,0,0:0:0:0:
448,192,78114,1,0,0:0:0:0:
64,192,78114,1,0,0:0:0:0:
320,192,78268,1,0,0:0:0:0:
192,192,78422,1,0,0:0:0:0:
448,192,78422,1,0,0:0:0:0:
320,192,78576,1,0,0:0:0:0:
192,192,78730,1,0,0:0:0:0:
64,192,78730,1,0,0:0:0:0:
448,192,78884,1,0,0:0:0:0:
192,192,79038,1,0,0:0:0:0:
320,192,79038,1,0,0:0:0:0:
64,192,79191,1,0,0:0:0:0:
192,192,79345,1,0,0:0:0:0:
448,192,79345,1,0,0:0:0:0:
320,192,79499,1,0,0:0:0:0:
192,192,79653,1,0,0:0:0:0:
448,192,79653,1,0,0:0:0:0:
320,192,79807,1,0,0:0:0:0:
64,192,79961,1,0,0:0:0:0:
192,192,79961,1,0,0:0:0:0:
448,192,80114,1,0,0:0:0:0:
64,192,80268,1,0,0:0:0:0:
192,192,80268,1,0,0:0:0:0:
320,192,80422,1,0,0:0:0:0:
64,192,80576,1,0,0:0:0:0:
448,192,80576,1,0,0:0:0:0:
192,192,80730,1,0,0:0:0:0:
448,192,80884,1,0,0:0:0:0:
64,192,80884,1,0,0:0:0:0:
320,192,81038,1,0,0:0:0:0:
192,192,81191,1,0,0:0:0:0:
448,192,81191,1,0,0:0:0:0:
320,192,81345,1,0,0:0:0:0:
192,192,81499,1,0,0:0:0:0:
448,192,81499,1,0,0:0:0:0:
64,192,81653,1,0,0:0:0:0:
192,192,81807,1,0,0:0:0:0:
448,192,81807,1,0,0:0:0:0:
448,192,81961,1,0,0:0:0:0:
64,192,81961,1,0,0:0:0:0:
192,192,82114,1,0,0:0:0:0:
320,192,82114,1,0,0:0:0:0:
64,192,82268,1,0,0:0:0:0:
448,192,82268,1,0,0:0:0:0:
192,192,82422,1,0,0:0:0:0:
448,192,82422,1,0,0:0:0:0:
64,192,82576,1,0,0:0:0:0:
320,192,82576,1,0,0:0:0:0:
64,192,82730,1,0,0:0:0:0:
448,192,82730,1,0,0:0:0:0:
64,192,82884,1,0,0:0:0:0:
192,192,82884,1,0,0:0:0:0:
192,192,83038,1,0,0:0:0:0:
448,192,83038,1,0,0:0:0:0:
448,192,83191,1,0,0:0:0:0:
64,192,83191,1,0,0:0:0:0:
192,192,83345,1,0,0:0:0:0:
320,192,83345,1,0,0:0:0:0:
64,192,83499,1,0,0:0:0:0:
320,192,83499,1,0,0:0:0:0:
192,192,83653,1,0,0:0:0:0:
448,192,83653,1,0,0:0:0:0:
64,192,83807,1,0,0:0:0:0:
448,192,83807,1,0,0:0:0:0:
192,192,83961,1,0,0:0:0:0:
320,192,83961,1,0,0:0:0:0:
64,192,84114,1,0,0:0:0:0:
448,192,84114,1,0,0:0:0:0:
320,192,84268,1,0,0:0:0:0:
192,192,84268,1,0,0:0:0:0:
64,192,84268,128,0,84576:0:0:0:0:
448,192,84268,128,0,84576:0:0:0:0:
192,192,84576,128,0,84730:0:0:0:0:
320,192,84730,128,0,84884:0:0:0:0:
192,192,84884,128,0,85038:0:0:0:0:
448,192,84884,128,0,85038:0:0:0:0:
320,192,85038,128,0,85191:0:0:0:0:
64,192,85038,128,0,85191:0:0:0:0:
448,192,85191,128,0,85345:0:0:0:0:
64,192,85345,128,0,85499:0:0:0:0:
320,192,85345,128,0,85499:0:0:0:0:
192,192,85499,128,0,85653:0:0:0:0:
64,192,85653,128,0,85807:0:0:0:0:
320,192,85807,128,0,85961:0:0:0:0:
448,192,85961,128,0,86114:0:0:0:0:
192,192,86114,128,0,86268:0:0:0:0:
64,192,86268,128,0,86422:0:0:0:0:
192,192,86422,1,0,0:0:0:0:
320,192,86422,128,0,86576:0:0:0:0:
448,192,86422,1,0,0:0:0:0:
448,192,86576,128,0,86730:0:0:0:0:
192,192,86730,1,0,0:0:0:0:
320,192,86730,1,0,0:0:0:0:
64,192,86884,1,0,0:0:0:0:
192,192,86961,1,0,0:0:0:0:
320,192,87038,1,0,0:0:0:0:
448,192,87038,1,0,0:0:0:0:
320,192,87191,128,0,87345:0:0:0:0:
192,192,87345,1,0,0:0:0:0:
64,192,87345,128,0,87499:0:0:0:0:
320,192,87499,1,0,0:0:0:0:
448,192,87499,128,0,87653:0:0:0:0:
64,192,87653,1,0,0:0:0:0:
192,192,87653,1,0,0:0:0:0:
320,192,87730,1,0,0:0:0:0:
192,192,87807,1,0,0:0:0:0:
64,192,87884,1,0,0:0:0:0:
448,192,87961,1,0,0:0:0:0:
320,192,87961,128,0,88114:0:0:0:0:
64,192,88114,1,0,0:0:0:0:
64,192,88268,1,0,0:0:0:0:
192,192,88268,1,0,0:0:0:0:
320,192,88345,1,0,0:0:0:0:
448,192,88422,1,0,0:0:0:0:
64,192,88422,128,0,88576:0:0:0:0:
192,192,88576,1,0,0:0:0:0:
320,192,88576,1,0,0:0:0:0:
448,192,88730,128,0,88807:0:0:0:0:
320,192,88807,1,0,0:0:0:0:
64,192,88884,1,0,0:0:0:0:
192,192,88884,1,0,0:0:0:0:
320,192,88961,1,0,0:0:0:0:
192,192,89038,1,0,0:0:0:0:
64,192,89038,1,0,0:0:0:0:
320,192,89114,1,0,0:0:0:0:
192,192,89191,1,0,0:0:0:0:
64,192,89191,128,0,89345:0:0:0:0:
320,192,89345,1,0,0:0:0:0:
192,192,89422,1,0,0:0:0:0:
64,192,89499,1,0,0:0:0:0:
448,192,89499,1,0,0:0:0:0:
192,192,89653,1,0,0:0:0:0:
320,192,89807,128,0,89961:0:0:0:0:
448,192,89807,1,0,0:0:0:0:
64,192,89961,128,0,90114:0:0:0:0:
192,192,90114,1,0,0:0:0:0:
448,192,90114,1,0,0:0:0:0:
320,192,90191,1,0,0:0:0:0:
192,192,90268,128,0,90422:0:0:0:0:
64,192,90422,1,0,0:0:0:0:
320,192,90422,1,0,0:0:0:0:
448,192,90422,128,0,90576:0:0:0:0:
320,192,90576,1,0,0:0:0:0:
64,192,90576,128,0,90730:0:0:0:0:
448,192,90730,1,0,0:0:0:0:
320,192,90730,1,0,0:0:0:0:
192,192,90807,128,0,90884:0:0:0:0:
448,192,90884,128,0,91038:0:0:0:0:
64,192,91038,1,0,0:0:0:0:
192,192,91038,1,0,0:0:0:0:
320,192,91191,1,0,0:0:0:0:
64,192,91268,1,0,0:0:0:0:
320,192,91345,1,0,0:0:0:0:
64,192,91499,1,0,0:0:0:0:
192,192,91576,1,0,0:0:0:0:
448,192,91653,128,0,91807:0:0:0:0:
320,192,91653,1,0,0:0:0:0:
64,192,91807,128,0,91961:0:0:0:0:
192,192,91884,1,0,0:0:0:0:
320,192,91961,1,0,0:0:0:0:
448,192,91961,128,0,92114:0:0:0:0:
64,192,92114,1,0,0:0:0:0:
192,192,92268,1,0,0:0:0:0:
320,192,92268,128,0,92422:0:0:0:0:
448,192,92422,128,0,92576:0:0:0:0:
64,192,92576,128,0,92730:0:0:0:0:
192,192,92576,1,0,0:0:0:0:
320,192,92653,1,0,0:0:0:0:
448,192,92730,128,0,92884:0:0:0:0:
64,192,92884,1,0,0:0:0:0:
192,192,92884,128,0,93038:0:0:0:0:
64,192,93191,1,0,0:0:0:0:
192,192,93191,1,0,0:0:0:0:
320,192,93268,1,0,0:0:0:0:
64,192,93345,128,0,93499:0:0:0:0:
448,192,93345,1,0,0:0:0:0:
320,192,93499,1,0,0:0:0:0:
448,192,93499,128,0,93653:0:0:0:0:
192,192,93653,1,0,0:0:0:0:
320,192,93653,1,0,0:0:0:0:
64,192,93807,1,0,0:0:0:0:
192,192,93884,1,0,0:0:0:0:
320,192,93961,1,0,0:0:0:0:
448,192,94038,1,0,0:0:0:0:
64,192,94114,128,0,94422:0:0:0:0:
192,192,94114,1,0,0:0:0:0:
192,192,94422,1,0,0:0:0:0:
448,192,94422,128,0,94576:0:0:0:0:
64,192,94576,128,0,94730:0:0:0:0:
320,192,94653,1,0,0:0:0:0:
192,192,94730,1,0,0:0:0:0:
448,192,94730,1,0,0:0:0:0:
320,192,94884,128,0,95038:0:0:0:0:
192,192,95038,128,0,95191:0:0:0:0:
448,192,95038,128,0,95345:0:0:0:0:
64,192,95191,128,0,95345:0:0:0:0:
320,192,95345,128,0,95499:0:0:0:0:
192,192,95345,128,0,95653:0:0:0:0:
448,192,95499,128,0,96114:0:0:0:0:
64,192,95653,128,0,95807:0:0:0:0:
320,192,95730,1,0,0:0:0:0:
192,192,95807,128,0,95961:0:0:0:0:
64,192,95961,128,0,96268:0:0:0:0:
320,192,96114,128,0,96422:0:0:0:0:
448,192,96268,128,0,96576:0:0:0:0:
64,192,96422,128,0,96576:0:0:0:0:
192,192,96576,1,0,0:0:0:0:
320,192,96576,1,0,0:0:0:0:
64,192,96653,1,0,0:0:0:0:
448,192,96653,1,0,0:0:0:0:
192,192,96730,1,0,0:0:0:0:
320,192,96730,1,0,0:0:0:0:
448,192,96884,1,0,0:0:0:0:
320,192,96884,1,0,0:0:0:0:
64,192,96884,128,0,97038:0:0:0:0:
192,192,97038,128,0,97191:0:0:0:0:
448,192,97191,128,0,97345:0:0:0:0:
320,192,97191,1,0,0:0:0:0:
320,192,97345,128,0,97499:0:0:0:0:
192,192,97499,128,0,97653:0:0:0:0:
64,192,97499,1,0,0:0:0:0:
320,192,97653,128,0,97807:0:0:0:0:
64,192,97807,128,0,97961:0:0:0:0:
192,192,97807,1,0,0:0:0:0:
192,192,97961,128,0,98114:0:0:0:0:
320,192,98114,128,0,98268:0:0:0:0:
448,192,98114,1,0,0:0:0:0:
448,192,98268,128,0,98422:0:0:0:0:
64,192,98422,1,0,0:0:0:0:
192,192,98422,128,0,98576:0:0:0:0:
64,192,98576,128,0,98730:0:0:0:0:
448,192,98730,1,0,0:0:0:0:
320,192,98730,1,0,0:0:0:0:
192,192,98807,1,0,0:0:0:0:
320,192,98884,128,0,99038:0:0:0:0:
64,192,98884,1,0,0:0:0:0:
448,192,99038,128,0,99191:0:0:0:0:
192,192,99038,1,0,0:0:0:0:
192,192,99191,128,0,99345:0:0:0:0:
64,192,99345,128,0,99499:0:0:0:0:
320,192,99345,1,0,0:0:0:0:
320,192,99499,128,0,99653:0:0:0:0:
192,192,99653,128,0,99807:0:0:0:0:
64,192,99653,1,0,0:0:0:0:
320,192,99807,128,0,99961:0:0:0:0:
64,192,99961,1,0,0:0:0:0:
192,192,99961,128,0,100114:0:0:0:0:
320,192,100114,128,0,100268:0:0:0:0:
64,192,100268,128,0,100422:0:0:0:0:
192,192,100268,1,0,0:0:0:0:
320,192,100422,128,0,100576:0:0:0:0:
192,192,100576,1,0,0:0:0:0:
64,192,100576,128,0,100730:0:0:0:0:
448,192,100730,128,0,100884:0:0:0:0:
192,192,100884,1,0,0:0:0:0:
320,192,100884,128,0,101038:0:0:0:0:
192,192,101038,128,0,101191:0:0:0:0:
448,192,101191,1,0,0:0:0:0:
64,192,101191,1,0,0:0:0:0:
320,192,101268,1,0,0:0:0:0:
192,192,101345,1,0,0:0:0:0:
64,192,101345,1,0,0:0:0:0:
448,192,101422,1,0,0:0:0:0:
320,192,101499,1,0,0:0:0:0:
64,192,101499,128,0,101653:0:0:0:0:
192,192,101653,128,0,101807:0:0:0:0:
320,192,101807,1,0,0:0:0:0:
448,192,101807,128,0,101961:0:0:0:0:
320,192,101961,128,0,102114:0:0:0:0:
64,192,102114,1,0,0:0:0:0:
192,192,102114,128,0,102268:0:0:0:0:
448,192,102114,1,0,0:0:0:0:
320,192,102268,128,0,102422:0:0:0:0:
448,192,102422,128,0,102576:0:0:0:0:
64,192,102422,1,0,0:0:0:0:
320,192,102576,128,0,102730:0:0:0:0:
192,192,102576,1,0,0:0:0:0:
192,192,102730,128,0,102884:0:0:0:0:
64,192,102730,1,0,0:0:0:0:
448,192,102884,128,0,103038:0:0:0:0:
320,192,103038,128,0,103191:0:0:0:0:
192,192,103038,1,0,0:0:0:0:
64,192,103191,128,0,103345:0:0:0:0:
192,192,103345,128,0,103499:0:0:0:0:
448,192,103345,1,0,0:0:0:0:
320,192,103499,128,0,103653:0:0:0:0:
64,192,103499,1,0,0:0:0:0:
448,192,103653,1,0,0:0:0:0:
64,192,103653,1,0,0:0:0:0:
192,192,103730,1,0,0:0:0:0:
320,192,103807,1,0,0:0:0:0:
448,192,103807,128,0,103961:0:0:0:0:
320,192,103961,1,0,0:0:0:0:
192,192,103961,1,0,0:0:0:0:
64,192,103961,128,0,104268:0:0:0:0:
192,192,104268,1,0,0:0:0:0:
320,192,104268,128,0,104422:0:0:0:0:
448,192,104422,128,0,104576:0:0:0:0:
64,192,104576,1,0,0:0:0:0:
192,192,104576,1,0,0:0:0:0:
320,192,104730,128,0,104884:0:0:0:0:
448,192,104884,1,0,0:0:0:0:
192,192,104884,128,0,105038:0:0:0:0:
448,192,105038,128,0,105191:0:0:0:0:
192,192,105191,1,0,0:0:0:0:
64,192,105191,1,0,0:0:0:0:
192,192,105345,1,0,0:0:0:0:
320,192,105422,1,0,0:0:0:0:
64,192,105499,1,0,0:0:0:0:
448,192,105499,1,0,0:0:0:0:
320,192,105653,1,0,0:0:0:0:
192,192,105730,1,0,0:0:0:0:
448,192,105807,128,0,105961:0:0:0:0:
64,192,105807,1,0,0:0:0:0:
192,192,105961,1,0,0:0:0:0:
320,192,106038,1,0,0:0:0:0:
448,192,106114,128,0,106422:0:0:0:0:
64,192,106114,128,0,106422:0:0:0:0:
192,192,106422,1,0,0:0:0:0:
320,192,106422,1,0,0:0:0:0:
192,192,106576,1,0,0:0:0:0:
320,192,106653,1,0,0:0:0:0:
448,192,106730,1,0,0:0:0:0:
64,192,106730,1,0,0:0:0:0:
320,192,106884,1,0,0:0:0:0:
192,192,106961,1,0,0:0:0:0:
64,192,107038,1,0,0:0:0:0:
448,192,107038,1,0,0:0:0:0:
320,192,107114,1,0,0:0:0:0:
192,192,107191,1,0,0:0:0:0:
192,192,107345,1,0,0:0:0:0:
448,192,107345,128,0,107499:0:0:0:0:
64,192,107499,128,0,107653:0:0:0:0:
320,192,107653,1,0,0:0:0:0:
448,192,107653,128,0,107807:0:0:0:0:
192,192,107807,1,0,0:0:0:0:
64,192,107807,128,0,107961:0:0:0:0:
320,192,107961,1,0,0:0:0:0:
448,192,107961,128,0,108114:0:0:0:0:
64,192,108114,1,0,0:0:0:0:
192,192,108114,128,0,108268:0:0:0:0:
448,192,108268,128,0,108422:0:0:0:0:
320,192,108268,1,0,0:0:0:0:
64,192,108422,1,0,0:0:0:0:
192,192,108499,1,0,0:0:0:0:
320,192,108576,1,0,0:0:0:0:
64,192,108653,128,0,108730:0:0:0:0:
448,192,108730,128,0,108807:0:0:0:0:
192,192,108730,1,0,0:0:0:0:
192,192,108884,128,0,108961:0:0:0:0:
320,192,108884,1,0,0:0:0:0:
64,192,108961,1,0,0:0:0:0:
320,192,109038,1,0,0:0:0:0:
448,192,109038,128,0,109114:0:0:0:0:
64,192,109114,1,0,0:0:0:0:
320,192,109191,1,0,0:0:0:0:
192,192,109191,128,0,109268:0:0:0:0:
448,192,109268,1,0,0:0:0:0:
320,192,109345,128,0,109422:0:0:0:0:
192,192,109422,128,0,109499:0:0:0:0:
448,192,109499,1,0,0:0:0:0:
64,192,109499,128,0,109653:0:0:0:0:
320,192,109653,128,0,109730:0:0:0:0:
192,192,109730,128,0,109807:0:0:0:0:
320,192,109807,128,0,109884:0:0:0:0:
448,192,109807,1,0,0:0:0:0:
448,192,109961,128,0,110114:0:0:0:0:
64,192,109961,128,0,110114:0:0:0:0:
192,192,110114,1,0,0:0:0:0:
320,192,110114,1,0,0:0:0:0:
192,192,110268,1,0,0:0:0:0:
192,192,110345,1,0,0:0:0:0:
320,192,110422,1,0,0:0:0:0:
448,192,110422,1,0,0:0:0:0:
320,192,110576,1,0,0:0:0:0:
320,192,110653,1,0,0:0:0:0:
64,192,110730,1,0,0:0:0:0:
192,192,110730,1,0,0:0:0:0:
192,192,110884,128,0,110922:0:0:0:0:
192,192,110961,128,0,110999:0:0:0:0:
320,192,111038,1,0,0:0:0:0:
448,192,111038,1,0,0:0:0:0:
320,192,111191,128,0,111230:0:0:0:0:
320,192,111268,128,0,111307:0:0:0:0:
64,192,111345,1,0,0:0:0:0:
192,192,111345,1,0,0:0:0:0:
448,192,111422,1,0,0:0:0:0:
320,192,111499,1,0,0:0:0:0:
64,192,111499,128,0,111653:0:0:0:0:
320,192,111653,1,0,0:0:0:0:
448,192,111653,128,0,111807:0:0:0:0:
64,192,111807,1,0,0:0:0:0:
192,192,111884,1,0,0:0:0:0:
448,192,111961,1,0,0:0:0:0:
320,192,111961,128,0,112114:0:0:0:0:
64,192,112114,128,0,112268:0:0:0:0:
192,192,112268,1,0,0:0:0:0:
320,192,112268,1,0,0:0:0:0:
448,192,112345,128,0,112422:0:0:0:0:
64,192,112422,1,0,0:0:0:0:
192,192,112499,1,0,0:0:0:0:
448,192,112576,1,0,0:0:0:0:
320,192,112576,1,0,0:0:0:0:
64,192,112653,1,0,0:0:0:0:
320,192,112730,1,0,0:0:0:0:
192,192,112730,128,0,112884:0:0:0:0:
320,192,112884,1,0,0:0:0:0:
64,192,112884,128,0,113038:0:0:0:0:
448,192,112961,1,0,0:0:0:0:
320,192,113038,128,0,113191:0:0:0:0:
64,192,113191,1,0,0:0:0:0:
448,192,113191,128,0,113345:0:0:0:0:
320,192,113345,1,0,0:0:0:0:
64,192,113345,1,0,0:0:0:0:
192,192,113422,1,0,0:0:0:0:
64,192,113499,1,0,0:0:0:0:
448,192,113499,1,0,0:0:0:0:
192,192,113576,1,0,0:0:0:0:
64,192,113653,128,0,113807:0:0:0:0:
192,192,113807,1,0,0:0:0:0:
320,192,113807,1,0,0:0:0:0:
448,192,113807,128,0,113961:0:0:0:0:
192,192,113961,1,0,0:0:0:0:
320,192,114038,1,0,0:0:0:0:
192,192,114114,1,0,0:0:0:0:
320,192,114191,1,0,0:0:0:0:
192,192,114268,1,0,0:0:0:0:
320,192,114345,1,0,0:0:0:0:
192,192,114422,1,0,0:0:0:0:
320,192,114499,1,0,0:0:0:0:
192,192,114576,1,0,0:0:0:0:
320,192,114653,1,0,0:0:0:0:
192,192,114730,1,0,0:0:0:0:
320,192,114807,1,0,0:0:0:0:
192,192,114884,1,0,0:0:0:0:
320,192,114961,1,0,0:0:0:0:
192,192,115038,1,0,0:0:0:0:
64,192,115038,128,0,115191:0:0:0:0:
320,192,115191,1,0,0:0:0:0:
448,192,115191,1,0,0:0:0:0:
320,192,115422,1,0,0:0:0:0:
192,192,115422,1,0,0:0:0:0:
192,192,115653,1,0,0:0:0:0:
64,192,115653,1,0,0:0:0:0:
192,192,115884,1,0,0:0:0:0:
320,192,115884,1,0,0:0:0:0:
64,192,116114,1,0,0:0:0:0:
320,192,116114,1,0,0:0:0:0:
192,192,116114,1,0,0:0:0:0:
448,192,116114,1,0,0:0:0:0:
