osu file format v14

[General]
AudioFilename: audio.mp3
AudioLeadIn: 0
PreviewTime: 89781
Countdown: 1
SampleSet: Normal
StackLeniency: 0.7
Mode: 1
LetterboxInBreaks: 0
WidescreenStoryboard: 1

[Editor]
Bookmarks: 6031,16031,28531,48531,58531,68531,73531,78531,88531,91031,111031,116031
DistanceSpacing: 1.1
BeatDivisor: 2
GridSize: 32
TimelineZoom: 0.8999997

[Metadata]
Title:Engoku OVERKILL
TitleUnicode:焔極OVERKILL
Artist:RoughSketch vs. L.E.D.-G
ArtistUnicode:RoughSketch vs. L.E.D.-G
Creator:Yales
Version:Kantan
Source:beatmania IIDX 24 SINOBUZ
Tags:エンゴクオーバーキル Hardcore Koujyo Sinobuzu Den 攻城シノバズ伝 KONAMI 25 CANNON BALLERS original soundtrack Konami
BeatmapID:1860264
BeatmapSetID:889395

[Difficulty]
HPDrainRate:8
CircleSize:2
OverallDifficulty:3
ApproachRate:5
SliderMultiplier:1.4
SliderTickRate:1

[Events]
//Background and Video events
0,0,"bg.jpg",0,65
//Break Periods
//Storyboard Layer 0 (Background)
//Storyboard Layer 1 (Fail)
//Storyboard Layer 2 (Pass)
//Storyboard Layer 3 (Foreground)
//Storyboard Sound Samples

[TimingPoints]
1031,312.5,4,1,0,50,1,0
5874,-100,4,1,0,90,0,0
21031,-100,4,1,0,95,0,0
23531,-100,4,1,0,100,0,0
26031,-90.9090909090909,4,1,0,100,0,0
26187,-100,4,1,0,50,0,0
27906,-100,4,1,0,75,0,0
28452,-100,4,1,0,100,0,0
68452,-100,4,1,0,75,0,0
68609,-100,4,1,0,50,0,0
73452,-100,4,1,0,75,0,0
74781,-100,4,1,0,85,0,0
77281,-100,4,1,0,50,0,0
77984,-100,4,1,0,75,0,0
78531,-100,4,1,0,100,0,0
88531,-90.9090909090909,4,1,0,100,0,0
88609,-100,4,1,0,50,0,0
89781,-100,4,1,0,75,0,0
91031,-100,4,1,0,100,0,1
100718,-100,4,1,0,100,0,0
101812,-100,4,1,0,100,0,1
111031,-100,4,1,0,100,0,0

[HitObjects]
256,192,1031,12,0,4781,0:0:0:0:
256,192,6031,5,4,0:0:0:0:
256,192,6656,1,0,0:0:0:0:
256,192,7124,1,8,0:0:0:0:
256,192,7437,1,0,0:0:0:0:
256,192,8843,1,8,0:0:0:0:
256,192,9468,1,0,0:0:0:0:
256,192,9937,1,0,0:0:0:0:
256,192,10249,1,8,0:0:0:0:
256,192,10718,1,8,0:0:0:0:
256,192,11343,1,8,0:0:0:0:
256,192,11656,1,0,0:0:0:0:
256,192,12124,1,8,0:0:0:0:
256,192,12437,1,0,0:0:0:0:
256,192,13843,1,8,0:0:0:0:
256,192,14468,1,0,0:0:0:0:
256,192,16031,1,4,0:0:0:0:
256,192,16656,1,8,0:0:0:0:
256,192,16968,1,0,0:0:0:0:
256,192,17593,1,0,0:0:0:0:
256,192,17906,1,8,0:0:0:0:
256,192,18531,1,8,0:0:0:0:
256,192,19156,1,8,0:0:0:0:
256,192,19468,1,0,0:0:0:0:
256,192,19781,1,8,0:0:0:0:
256,192,20406,1,0,0:0:0:0:
256,192,21031,1,8,0:0:0:0:
256,192,22281,1,8,0:0:0:0:
256,192,22593,1,8,0:0:0:0:
256,192,22906,1,0,0:0:0:0:
256,192,23531,1,8,0:0:0:0:
256,192,24156,1,8,0:0:0:0:
256,192,24781,1,8,0:0:0:0:
256,192,25093,1,0,0:0:0:0:
256,192,25406,1,8,0:0:0:0:
256,192,25718,1,0,0:0:0:0:
256,192,26031,12,0,27281,0:0:0:0:
256,192,28531,5,12,0:0:0:0:
256,192,29156,1,8,0:0:0:0:
256,192,29468,1,0,0:0:0:0:
256,192,30093,1,0,0:0:0:0:
256,192,30406,1,8,0:0:0:0:
256,192,30718,1,8,0:0:0:0:
256,192,31031,1,0,0:0:0:0:
256,192,31656,1,8,0:0:0:0:
256,192,32281,5,0,0:0:0:0:
256,192,32906,1,8,0:0:0:0:
256,192,33843,1,12,0:0:0:0:
256,192,34156,1,0,0:0:0:0:
256,192,34781,1,8,0:0:0:0:
256,192,35093,1,0,0:0:0:0:
256,192,35406,1,0,0:0:0:0:
256,192,35718,1,8,0:0:0:0:
256,192,36656,1,12,0:0:0:0:
256,192,37124,1,0,0:0:0:0:
256,192,37593,1,0,0:0:0:0:
256,192,37906,1,8,0:0:0:0:
256,192,38531,5,12,0:0:0:0:
256,192,39156,1,8,0:0:0:0:
256,192,39468,1,0,0:0:0:0:
256,192,40093,1,0,0:0:0:0:
256,192,40406,1,8,0:0:0:0:
256,192,40718,1,8,0:0:0:0:
256,192,41031,1,4,0:0:0:0:
256,192,41656,1,8,0:0:0:0:
256,192,42281,5,0,0:0:0:0:
256,192,42906,1,8,0:0:0:0:
256,192,43843,1,12,0:0:0:0:
256,192,44468,1,0,0:0:0:0:
256,192,45093,1,0,0:0:0:0:
256,192,45406,1,8,0:0:0:0:
256,192,45718,1,0,0:0:0:0:
256,192,46031,1,8,0:0:0:0:
256,192,46656,5,8,0:0:0:0:
256,192,46968,1,0,0:0:0:0:
256,192,47281,1,8,0:0:0:0:
256,192,48218,1,0,0:0:0:0:
256,192,48531,5,12,0:0:0:0:
256,192,49156,1,0,0:0:0:0:
256,192,49781,1,8,0:0:0:0:
256,192,50406,1,8,0:0:0:0:
256,192,50718,1,0,0:0:0:0:
256,192,51031,1,8,0:0:0:0:
256,192,51968,1,8,0:0:0:0:
256,192,52281,1,0,0:0:0:0:
256,192,52906,1,8,0:0:0:0:
256,192,53218,1,8,0:0:0:0:
256,192,53531,1,0,0:0:0:0:
256,192,54156,1,0,0:0:0:0:
256,192,54781,1,8,0:0:0:0:
256,192,55093,1,0,0:0:0:0:
256,192,55406,1,8,0:0:0:0:
256,192,56031,1,12,0:0:0:0:
256,192,56343,1,0,0:0:0:0:
256,192,56656,1,8,0:0:0:0:
256,192,56968,1,0,0:0:0:0:
256,192,57281,1,8,0:0:0:0:
256,192,58531,1,8,0:0:0:0:
256,192,58843,1,8,0:0:0:0:
256,192,59156,1,0,0:0:0:0:
256,192,59468,1,0,0:0:0:0:
256,192,59781,1,8,0:0:0:0:
256,192,61031,1,8,0:0:0:0:
256,192,61343,1,0,0:0:0:0:
256,192,61656,1,8,0:0:0:0:
256,192,61968,1,0,0:0:0:0:
256,192,62281,1,8,0:0:0:0:
256,192,62906,1,0,0:0:0:0:
256,192,63531,1,8,0:0:0:0:
256,192,63843,1,8,0:0:0:0:
256,192,64156,1,0,0:0:0:0:
256,192,64468,1,0,0:0:0:0:
256,192,64781,1,8,0:0:0:0:
256,192,65406,1,0,0:0:0:0:
256,192,66031,1,8,0:0:0:0:
256,192,66343,1,8,0:0:0:0:
256,192,66656,1,8,0:0:0:0:
256,192,66968,1,0,0:0:0:0:
256,192,67281,1,8,0:0:0:0:
256,192,68531,12,8,72281,0:0:0:0:
256,192,73531,5,4,0:0:0:0:
256,192,74156,1,8,0:0:0:0:
256,192,74781,1,4,0:0:0:0:
256,192,75406,1,8,0:0:0:0:
256,192,76031,1,4,0:0:0:0:
256,192,76343,1,8,0:0:0:0:
256,192,76968,1,8,0:0:0:0:
256,192,77281,1,0,0:0:0:0:
256,192,78531,1,12,0:0:0:0:
256,192,78843,1,0,0:0:0:0:
256,192,79468,1,0,0:0:0:0:
256,192,79781,1,8,0:0:0:0:
256,192,80093,1,0,0:0:0:0:
256,192,81031,1,12,0:0:0:0:
256,192,81343,1,0,0:0:0:0:
256,192,81968,1,0,0:0:0:0:
256,192,82281,1,8,0:0:0:0:
256,192,82593,1,8,0:0:0:0:
256,192,83531,1,12,0:0:0:0:
256,192,83843,1,0,0:0:0:0:
256,192,84468,1,0,0:0:0:0:
256,192,84781,1,8,0:0:0:0:
256,192,85093,1,0,0:0:0:0:
256,192,86031,1,12,0:0:0:0:
256,192,86343,1,0,0:0:0:0:
256,192,86812,1,0,0:0:0:0:
256,192,87281,1,8,0:0:0:0:
256,192,87749,1,0,0:0:0:0:
256,192,88218,1,8,0:0:0:0:
256,192,88531,12,0,89781,0:0:0:0:
256,192,91031,5,12,0:0:0:0:
256,192,91343,1,8,0:0:0:0:
256,192,91656,1,0,0:0:0:0:
256,192,91968,1,0,0:0:0:0:
256,192,92281,1,8,0:0:0:0:
256,192,92906,1,0,0:0:0:0:
256,192,93531,1,8,0:0:0:0:
256,192,93843,1,0,0:0:0:0:
256,192,94156,1,8,0:0:0:0:
256,192,94468,1,0,0:0:0:0:
256,192,94781,1,8,0:0:0:0:
256,192,96031,1,12,0:0:0:0:
256,192,96343,1,8,0:0:0:0:
256,192,96656,1,0,0:0:0:0:
256,192,96968,1,0,0:0:0:0:
256,192,97281,1,8,0:0:0:0:
256,192,97906,1,0,0:0:0:0:
256,192,98531,1,8,0:0:0:0:
256,192,98843,1,8,0:0:0:0:
256,192,99156,1,8,0:0:0:0:
256,192,99468,1,8,0:0:0:0:
256,192,99781,1,0,0:0:0:0:
256,192,100718,1,0,0:0:0:0:
256,192,101031,1,8,0:0:0:0:
256,192,101812,1,0,0:0:0:0:
256,192,102281,1,8,0:0:0:0:
256,192,102593,1,0,0:0:0:0:
256,192,102906,1,8,0:0:0:0:
256,192,103218,1,0,0:0:0:0:
256,192,103531,1,8,0:0:0:0:
256,192,104156,1,0,0:0:0:0:
256,192,104781,1,8,0:0:0:0:
256,192,105093,1,8,0:0:0:0:
256,192,105406,1,0,0:0:0:0:
256,192,106031,1,8,0:0:0:0:
256,192,106343,1,0,0:0:0:0:
256,192,107281,1,8,0:0:0:0:
256,192,107593,1,0,0:0:0:0:
256,192,108531,1,8,0:0:0:0:
256,192,108843,1,0,0:0:0:0:
256,192,109312,1,0,0:0:0:0:
256,192,109781,1,8,0:0:0:0:
256,192,111031,1,12,0:0:0:0:
256,192,111343,1,8,0:0:0:0:
256,192,111656,1,0,0:0:0:0:
256,192,112281,1,0,0:0:0:0:
256,192,112593,1,8,0:0:0:0:
256,192,113218,1,8,0:0:0:0:
256,192,113531,1,0,0:0:0:0:
256,192,113843,1,8,0:0:0:0:
256,192,114468,1,0,0:0:0:0:
256,192,115406,1,8,0:0:0:0:
256,192,116031,1,12,0:0:0:0:
256,192,116656,1,8,0:0:0:0:
256,192,116968,1,8,0:0:0:0:
256,192,117281,1,0,0:0:0:0:
256,192,117906,1,8,0:0:0:0:
256,192,118218,1,0,0:0:0:0:
256,192,118843,1,8,0:0:0:0:
256,192,119155,1,0,0:0:0:0:
256,192,119468,1,0,0:0:0:0:
256,192,119781,1,8,0:0:0:0:
256,192,120406,1,8,0:0:0:0:
256,192,120718,1,8,0:0:0:0:
256,192,121031,1,4,0:0:0:0:
