osu file format v14

[General]
AudioFilename: audio.mp3
AudioLeadIn: 0
PreviewTime: 96799
Countdown: 0
SampleSet: None
StackLeniency: 0.7
Mode: 2
LetterboxInBreaks: 0
WidescreenStoryboard: 1

[Editor]
Bookmarks: 3465,18132,23465,34132,44799,55465,66132,76799,87465,98132,108799,119465,124799
DistanceSpacing: 2
BeatDivisor: 4
GridSize: 16
TimelineZoom: 1.9

[Metadata]
Title:Alice in Voodooland
TitleUnicode:Alice in Voodooland
Artist:RoughSketch ft.Aikapin
ArtistUnicode:RoughSketch ft.Aikapin
Creator:Seija
Version:Platter
Source:REFLEC BEAT plus
Tags:
BeatmapID:1934233
BeatmapSetID:926053

[Difficulty]
HPDrainRate:4
CircleSize:3.5
OverallDifficulty:8
ApproachRate:8
SliderMultiplier:1.8
SliderTickRate:2

[Events]
//Background and Video events
0,0,"Konachan.com - 242916 alice_in_wonderland alice_margatroid apron blonde_hair blue_eyes clouds dress headband petals ra-bit ribbons short_hair sky socks touhou.jpg",0,0
//Break Periods
//Storyboard Layer 0 (Background)
//Storyboard Layer 1 (Fail)
//Storyboard Layer 2 (Pass)
//Storyboard Layer 3 (Foreground)
//Storyboard Sound Samples

[TimingPoints]
3466,333.333333333333,4,2,1,100,1,0
3466,-100,4,2,1,100,0,0
7465,-100,4,1,1,50,0,0
18132,-100,4,2,1,50,0,0
23465,-100,4,1,2,50,0,0
23715,-100,4,2,1,50,0,0
44799,-100,4,1,3,50,0,0
44965,-100,4,2,1,50,0,0
46132,-100,4,1,3,50,0,0
46299,-100,4,2,1,50,0,0
47465,-100,4,1,3,50,0,0
47632,-100,4,2,1,50,0,0
48799,-100,4,1,3,50,0,0
48965,-100,4,2,1,50,0,0
50132,-100,4,1,3,50,0,0
50299,-100,4,2,1,50,0,0
51465,-100,4,1,3,50,0,0
51632,-100,4,2,1,50,0,0
52799,-100,4,1,3,50,0,0
66132,-100,4,2,1,50,0,0
76799,-83.3333333333333,4,2,1,50,0,1
96799,-100,4,1,3,50,0,0
97799,-100,4,2,1,50,0,0
98132,-83.3333333333333,4,2,1,50,0,1
110799,-100,4,2,1,50,0,0
111465,-100,4,2,1,50,0,1
113465,-100,4,2,1,50,0,0
114132,-100,4,2,1,50,0,1
119465,-100,4,1,2,50,0,0
119632,-100,4,1,1,50,0,0
124965,-100,4,2,1,30,0,0
126132,-100,4,2,1,20,0,0
127465,-100,4,2,1,10,0,0

[Colours]
Combo1 : 192,80,175
Combo2 : 244,19,64
Combo3 : 177,177,177
Combo4 : 132,158,251

[HitObjects]
256,192,3465,12,0,7132,0:0:0:0:
133,235,7465,6,0,P|85:158|149:157,1,180,0|0,0:0|0:0,0:0:0:0:
275,142,8132,1,0,0:0:0:0:
116,148,8465,1,0,0:0:0:0:
341,186,8799,6,0,P|394:259|317:288,1,180,0|0,0:0|0:0,0:0:0:0:
182,308,9465,1,0,0:0:0:0:
365,309,9799,1,0,0:0:0:0:
166,218,10132,6,0,L|366:221,1,180,0|0,0:0|0:0,0:0:0:0:
171,182,10799,1,0,0:0:0:0:
171,182,11132,1,0,0:0:0:0:
332,110,11465,6,0,L|147:112,1,180,0|0,0:0|0:0,0:0:0:0:
334,232,12132,1,0,0:0:0:0:
334,232,12465,1,0,0:0:0:0:
192,272,12799,6,0,P|108:241|179:182,1,180,0|0,0:0|0:0,0:0:0:0:
321,158,13465,2,0,L|319:340,1,180,0|0,0:0|0:0,0:0:0:0:
118,309,14132,6,0,L|316:303,1,180,0|0,0:0|0:0,0:0:0:0:
423,253,14799,2,0,P|482:311|405:344,1,180,0|0,0:0|0:0,0:0:0:0:
143,333,15465,6,0,L|350:306,2,180,0|0|0,0:0|0:0|0:0,0:0:0:0:
318,234,16465,1,0,0:0:0:0:
435,148,16799,6,0,L|218:169,2,180,0|0|0,0:0|0:0|0:0,0:0:0:0:
267,242,17799,1,0,0:0:0:0:
428,298,18132,5,10,0:1:0:0:
276,293,18465,1,0,0:0:0:0:
375,243,18799,1,0,0:0:0:0:
190,226,19132,1,0,0:0:0:0:
308,194,19465,5,0,0:0:0:0:
151,146,19799,1,0,0:0:0:0:
278,113,20132,1,0,0:0:0:0:
119,80,20465,1,0,0:0:0:0:
224,80,20632,1,0,0:0:0:0:
461,78,20799,6,0,L|261:120,2,180,0|0|0,0:0|0:0|0:0,0:0:0:0:
243,204,21965,1,0,0:0:0:0:
331,149,22132,6,0,L|134:147,1,180,0|0,0:0|0:0,0:0:0:0:
331,214,22799,2,0,P|381:292|317:323,1,180,0|0,0:0|0:0,0:0:0:0:
128,307,23465,6,0,L|125:176,1,90,6|0,0:0|0:0,0:0:0:0:
227,155,23799,2,0,L|443:132,2,180,8|8|8,0:1|0:1|0:1,0:0:0:0:
343,222,24632,1,0,0:1:0:0:
202,275,24799,6,0,P|165:226|214:203,1,90,8|0,0:1|0:1,0:0:0:0:
274,184,25132,2,0,L|401:182,1,90,8|0,0:1|0:1,0:0:0:0:
196,160,25465,2,0,L|197:280,1,90,8|0,0:1|0:1,0:0:0:0:
280,250,25799,1,8,0:1:0:0:
383,247,25965,2,0,L|311:245,1,45,8|8,0:1|0:1,0:0:0:0:
161,220,26132,6,0,L|5:333,2,180,8|8|8,0:1|0:1|0:1,0:0:0:0:
44,211,26965,1,0,0:1:0:0:
150,142,27132,2,0,L|38:142,1,90,8|0,0:1|0:1,0:0:0:0:
302,318,27465,6,0,P|360:299|290:234,1,180,8|8,0:1|0:1,0:0:0:0:
181,229,27965,1,0,0:1:0:0:
275,179,28132,2,0,L|163:181,2,90,8|8|8,0:1|0:1|0:1,0:0:0:0:
168,245,28632,1,0,0:1:0:0:
403,208,28799,6,0,P|455:295|379:323,1,180,10|8,0:1|0:1,0:0:0:0:
299,340,29299,1,0,0:0:0:0:
421,338,29465,2,0,L|425:245,1,90,8|0,0:1|0:1,0:0:0:0:
294,232,29799,2,0,L|288:119,1,90,8|0,0:1|0:1,0:0:0:0:
450,98,30132,6,0,L|273:163,2,180,8|8|8,0:1|0:1|0:1,0:0:0:0:
320,225,30965,1,8,0:1:0:0:
195,264,31132,2,0,L|141:184,1,90,8|8,0:1|0:1,0:0:0:0:
207,178,31382,1,0,0:1:0:0:
263,175,31465,6,0,L|270:75,1,90,8|8,0:1|0:1,0:0:0:0:
117,99,31799,2,0,P|64:126|124:201,1,180,8|8,0:1|0:1,0:0:0:0:
220,198,32299,1,0,0:1:0:0:
80,188,32465,2,0,L|76:298,1,90,8|8,0:1|0:1,0:0:0:0:
142,277,32715,1,8,0:1:0:0:
318,288,32799,6,0,L|325:171,1,90,8|8,0:1|0:1,0:0:0:0:
186,177,33132,2,0,P|128:115|197:98,1,180,8|8,0:1|0:1,0:0:0:0:
320,100,33632,1,8,0:1:0:0:
188,92,33799,2,0,L|180:207,1,90,8|0,0:1|0:1,0:0:0:0:
415,218,34132,6,0,P|464:229|394:298,1,180,2|8,0:1|0:1,0:0:0:0:
207,261,34799,2,0,L|407:253,1,180,8|8,0:1|0:1,0:0:0:0:
214,339,35465,6,0,P|156:289|228:225,1,180,8|8,0:1|0:1,0:0:0:0:
321,217,35965,1,0,0:1:0:0:
179,146,36132,2,0,L|381:146,1,180,8|8,0:1|0:1,0:0:0:0:
146,236,36799,6,0,L|330:159,2,180,8|8|8,0:1|0:1|0:1,0:0:0:0:
277,293,37799,2,0,L|399:295,1,90,8|0,0:1|0:1,0:0:0:0:
223,186,38132,6,0,P|161:254|251:302,1,180,8|8,0:1|0:1,0:0:0:0:
369,274,38799,2,0,L|379:157,1,90,8|0,0:1|0:1,0:0:0:0:
249,144,39132,2,0,L|139:136,1,90,8|8,0:1|0:1,0:0:0:0:
303,103,39465,6,0,P|360:133|274:194,1,180,8|8,0:1|0:1,0:0:0:0:
165,224,40132,2,0,P|121:265|202:312,1,180,8|8,0:1|0:1,0:0:0:0:
349,316,40632,1,0,0:1:0:0:
227,206,40799,6,0,L|413:205,1,180,8|8,0:1|0:1,0:0:0:0:
297,155,41299,1,0,0:1:0:0:
445,158,41465,2,0,L|460:283,1,90,8|0,0:1|0:1,0:0:0:0:
292,276,41799,2,0,L|276:380,1,90,0|0,0:1|0:1,0:0:0:0:
430,233,42132,6,0,L|236:249,2,180,8|8|8,0:1|0:1|0:1,0:0:0:0:
213,191,43132,1,8,0:1:0:0:
356,137,43465,5,8,0:1:0:0:
431,182,43632,1,8,0:1:0:0:
381,260,43799,1,8,0:1:0:0:
282,267,43965,1,8,0:1:0:0:
381,260,44132,1,8,0:1:0:0:
294,315,44299,1,8,0:1:0:0:
244,241,44465,1,8,0:1:0:0:
335,212,44632,1,8,0:1:0:0:
100,239,44799,6,0,P|55:167|131:133,1,180,2|0,0:0|0:0,0:0:0:0:
302,122,45465,2,0,L|100:122,1,180,0|0,0:0|0:0,0:0:0:0:
303,269,46132,6,0,P|361:231|297:157,1,180,2|0,0:0|0:0,0:0:0:0:
159,111,46799,2,0,L|364:111,1,180,0|0,0:0|0:0,0:0:0:0:
180,188,47465,6,0,L|0:280,2,180,2|0|0,0:0|0:0|0:0,0:0:0:0:
14,178,48465,1,0,0:0:0:0:
261,137,48799,6,0,L|448:132,2,180,2|0|0,0:0|0:0|0:0,0:0:0:0:
406,245,49799,1,0,0:0:0:0:
212,284,50132,6,0,L|206:153,1,90,2|0,0:0|0:0,0:0:0:0:
334,166,50465,2,0,L|342:68,1,90,0|0,0:0|0:0,0:0:0:0:
217,69,50799,1,0,0:0:0:0:
162,133,50965,1,0,0:0:0:0:
193,204,51132,1,0,0:0:0:0:
280,217,51299,1,0,0:0:0:0:
442,214,51465,6,0,P|473:258|394:335,1,180,2|0,0:0|0:0,0:0:0:0:
277,334,51965,1,0,0:0:0:0:
415,326,52132,2,0,L|412:226,1,90,0|0,0:0|0:0,0:0:0:0:
276,226,52465,2,0,L|172:226,1,90,0|0,0:0|0:0,0:0:0:0:
337,162,52799,5,2,0:0:0:0:
256,192,52965,12,0,54799,0:0:0:0:
157,166,55465,6,0,P|96:242|219:353,1,270,6|0,0:0|0:0,0:0:0:0:
336,253,56132,2,0,L|143:264,1,180,0|0,0:0|0:0,0:0:0:0:
341,170,56799,6,0,P|439:236|339:303,1,270,2|0,0:0|0:0,0:0:0:0:
215,315,57465,2,0,L|416:306,1,180,0|0,0:0|0:0,0:0:0:0:
216,126,58132,6,0,P|137:200|254:268,1,270,2|0,0:0|0:0,0:0:0:0:
366,254,58799,2,0,L|389:361,1,90,0|0,0:0|0:0,0:0:0:0:
265,348,59132,1,0,0:0:0:0:
419,196,59465,6,0,P|337:264|450:329,1,270,2|0,0:0|0:0,0:0:0:0:
301,332,60132,2,0,L|177:333,1,90,0|0,0:0|0:0,0:0:0:0:
340,261,60465,1,0,0:0:0:0:
129,300,60799,6,0,P|60:244|175:157,1,270,2|0,0:0|0:0,0:0:0:0:
296,135,61465,2,0,L|297:256,1,90,0|0,0:0|0:0,0:0:0:0:
195,224,61799,1,0,0:0:0:0:
384,231,62132,6,0,L|113:235,1,270,2|0,0:0|0:0,0:0:0:0:
252,169,62799,2,0,L|370:167,1,90,0|0,0:0|0:0,0:0:0:0:
211,111,63132,1,0,0:0:0:0:
408,149,63465,6,0,P|425:246|261:300,1,270,2|0,0:0|0:0,0:0:0:0:
155,300,64132,2,0,L|125:192,1,90,0|0,0:0|0:0,0:0:0:0:
254,189,64465,1,0,0:0:0:0:
60,136,64799,6,0,L|328:278,1,270,2|0,0:0|0:0,0:0:0:0:
150,296,65465,2,0,P|54:255|154:184,1,270,0|0,0:0|0:0,0:0:0:0:
382,192,66132,6,0,L|390:75,1,90,10|0,0:1|0:1,0:0:0:0:
261,111,66465,2,0,L|253:6,1,90,8|0,0:1|0:1,0:0:0:0:
395,165,66799,2,0,L|471:233,1,90,8|0,0:1|0:1,0:0:0:0:
307,281,67132,2,0,L|198:284,1,90,8|0,0:1|0:1,0:0:0:0:
357,168,67465,5,8,0:1:0:0:
409,226,67632,1,0,0:1:0:0:
367,291,67799,1,8,0:1:0:0:
279,295,67965,1,0,0:1:0:0:
174,299,68132,2,0,L|174:187,1,90,8|0,0:1|0:1,0:0:0:0:
285,182,68465,2,0,L|397:145,1,90,8|8,0:1|0:1,0:0:0:0:
92,226,68799,6,0,L|87:101,1,90,8|0,0:1|0:1,0:0:0:0:
201,140,69132,2,0,L|203:44,1,90,8|0,0:1|0:1,0:0:0:0:
88,222,69465,2,0,L|9:283,1,90,8|0,0:1|0:1,0:0:0:0:
183,295,69799,2,0,L|282:216,1,90,8|0,0:1|0:1,0:0:0:0:
106,229,70132,5,8,0:1:0:0:
38,157,70299,1,0,0:1:0:0:
104,98,70465,1,8,0:1:0:0:
190,77,70632,2,0,L|245:53,2,45,0|0|8,0:1|0:1|0:1,0:0:0:0:
104,98,70965,1,0,0:1:0:0:
242,132,71132,2,0,L|361:135,1,90,8|0,0:1|0:1,0:0:0:0:
87,273,71465,5,10,0:1:0:0:
51,208,71632,1,8,0:1:0:0:
104,147,71799,1,8,0:1:0:0:
185,143,71965,1,8,0:1:0:0:
295,150,72132,1,8,0:1:0:0:
372,166,72299,1,8,0:1:0:0:
407,242,72465,1,8,0:1:0:0:
325,258,72632,1,8,0:1:0:0:
151,91,72799,5,10,0:1:0:0:
114,140,72882,1,0,0:1:0:0:
129,185,72965,1,0,0:1:0:0:
188,212,73049,1,0,0:1:0:0:
239,226,73132,1,0,0:1:0:0:
282,272,73215,1,0,0:1:0:0:
258,311,73299,1,0,0:1:0:0:
208,335,73382,1,0,0:1:0:0:
147,339,73465,5,8,0:1:0:0:
89,314,73549,1,0,0:1:0:0:
55,268,73632,1,0,0:1:0:0:
28,216,73715,1,0,0:1:0:0:
35,162,73799,1,8,0:1:0:0:
72,113,73882,1,0,0:1:0:0:
131,87,73965,1,0,0:1:0:0:
195,85,74049,1,0,0:1:0:0:
425,189,74132,5,0,0:1:0:0:
253,293,74465,1,0,0:1:0:0:
425,189,74799,1,0,0:1:0:0:
259,287,75132,1,0,0:1:0:0:
373,286,75299,1,8,0:1:0:0:
259,287,75465,6,0,P|193:221|248:178,1,180,8|8,0:1|0:1,0:0:0:0:
334,153,76132,2,0,L|136:150,1,180,8|8,0:1|0:1,0:0:0:0:
394,212,76799,6,0,P|434:271|381:322,1,107.999996704102,2|0,0:1|0:1,0:0:0:0:
268,318,77132,2,0,L|75:192,2,215.999993408203,8|8|8,0:1|0:1|0:1,0:0:0:0:
143,329,77965,1,0,0:1:0:0:
293,318,78132,6,0,L|330:215,1,107.999996704102,8|0,0:1|0:1,0:0:0:0:
170,209,78465,2,0,L|149:91,1,107.999996704102,8|0,0:1|0:1,0:0:0:0:
297,86,78799,2,0,P|376:176|290:223,1,215.999993408203,8|8,0:1|0:1,0:0:0:0:
194,231,79299,1,0,0:1:0:0:
362,178,79465,6,0,L|410:306,1,107.999996704102,8|0,0:1|0:0,0:0:0:0:
290,325,79799,2,0,L|159:324,1,107.999996704102,8|0,0:1|0:1,0:0:0:0:
300,231,80132,2,0,L|495:353,1,215.999993408203,8|8,0:1|0:1,0:0:0:0:
354,353,80632,1,0,0:1:0:0:
212,342,80799,6,0,P|182:280|204:265,1,107.999996704102,8|0,0:1|0:1,0:0:0:0:
335,241,81132,2,0,P|384:186|293:117,1,215.999993408203,8|8,0:1|0:1,0:0:0:0:
174,137,81632,1,0,0:1:0:0:
135,118,81715,1,0,0:1:0:0:
185,93,81799,2,0,L|316:91,1,107.999996704102,8|0,0:1|0:1,0:0:0:0:
248,90,82049,1,0,0:1:0:0:
71,129,82132,6,0,L|63:253,1,107.999996704102,10|0,0:1|0:1,0:0:0:0:
194,284,82465,2,0,L|281:379,1,107.999996704102,8|0,0:1|0:1,0:0:0:0:
126,361,82799,2,0,P|61:307|166:252,1,215.999993408203,8|8,0:1|0:1,0:0:0:0:
257,230,83299,1,0,0:1:0:0:
415,233,83465,6,0,L|431:346,1,107.999996704102,8|0,0:1|0:1,0:0:0:0:
315,344,83799,2,0,P|249:297|350:218,1,215.999993408203,8|8,0:1|0:1,0:0:0:0:
425,205,84299,1,0,0:1:0:0:
319,125,84465,2,0,L|443:122,1,107.999996704102,8|0,0:1|0:1,0:0:0:0:
235,215,84799,6,0,L|39:326,2,215.999993408203,8|8|8,0:1|0:1|0:1,0:0:0:0:
134,185,85632,1,0,0:1:0:0:
266,149,85799,2,0,L|379:192,1,107.999996704102,8|0,0:1|0:1,0:0:0:0:
130,280,86132,6,0,L|112:149,1,107.999996704102,8|0,0:1|0:1,0:0:0:0:
265,117,86465,2,0,P|315:178|222:283,1,215.999993408203,8|8,0:1|0:1,0:0:0:0:
134,276,86965,1,0,0:1:0:0:
261,264,87132,2,0,L|388:259,1,107.999996704102,8|0,0:1|0:1,0:0:0:0:
126,164,87465,6,0,L|327:81,2,215.999993408203,10|8|8,0:1|0:1|0:1,0:0:0:0:
263,207,88299,1,0,0:0:0:0:
408,220,88465,2,0,L|420:339,1,107.999996704102,8|0,0:1|0:1,0:0:0:0:
281,329,88799,6,0,L|193:247,1,107.999996704102,8|0,0:1|0:1,0:0:0:0:
326,204,89132,2,0,P|442:262|476:338,1,215.999993408203,8|8,0:1|0:1,0:0:0:0:
330,341,89632,1,0,0:0:0:0:
200,250,89799,2,0,L|143:157,1,107.999996704102,8|0,0:1|0:1,0:0:0:0:
212,150,90049,1,8,0:1:0:0:
382,251,90132,6,0,L|385:132,1,107.999996704102,8|0,0:1|0:1,0:0:0:0:
265,118,90465,2,0,L|146:119,1,107.999996704102,8|0,0:1|0:1,0:0:0:0:
329,228,90799,2,0,P|398:173|299:114,1,215.999993408203,8|8,0:1|0:1,0:0:0:0:
227,112,91299,1,0,0:1:0:0:
373,296,91465,5,8,0:1:0:0:
239,293,91632,2,0,L|196:337,2,53.9999983520508,0|0|8,0:1|0:1|0:1,0:0:0:0:
379,247,91965,1,0,0:1:0:0:
248,226,92132,2,0,L|225:113,1,107.999996704102,8|0,0:1|0:1,0:0:0:0:
347,106,92465,2,0,L|464:160,1,107.999996704102,8|0,0:1|0:1,0:0:0:0:
385,170,92715,1,0,0:1:0:0:
187,172,92799,6,0,L|192:305,1,107.999996704102,10|0,0:1|0:1,0:0:0:0:
335,287,93132,2,0,L|328:167,1,107.999996704102,0|0,0:1|0:1,0:0:0:0:
187,172,93465,2,0,P|117:102|215:80,1,215.999993408203,8|0,0:1|0:1,0:0:0:0:
302,68,93965,1,0,0:1:0:0:
150,80,94132,6,0,L|148:211,1,107.999996704102,8|0,0:1|0:0,0:0:0:0:
261,204,94465,2,0,L|485:287,1,215.999993408203,8|8,0:1|0:1,0:0:0:0:
356,269,94965,1,0,0:1:0:0:
223,265,95132,1,8,0:1:0:0:
210,289,95215,1,0,0:1:0:0:
221,309,95299,1,0,0:1:0:0:
352,282,95465,6,0,P|385:316|326:342,1,107.999996704102,8|0,0:1|0:1,0:0:0:0:
296,351,95799,2,0,L|166:348,1,107.999996704102,8|0,0:1|0:1,0:0:0:0:
252,319,96049,1,0,0:1:0:0:
318,307,96132,2,0,L|425:306,1,107.999996704102,8|8,0:1|0:1,0:0:0:0:
335,225,96465,1,8,0:1:0:0:
442,220,96632,1,8,0:1:0:0:
325,172,96799,5,2,0:0:0:0:
434,167,97132,1,2,0:0:0:0:
272,119,97465,1,2,0:0:0:0:
439,123,97799,1,0,0:0:0:0:
346,120,97965,1,0,0:0:0:0:
85,271,98132,5,10,0:1:0:0:
13,228,98299,1,0,0:1:0:0:
57,162,98465,1,8,0:1:0:0:
135,153,98632,1,0,0:1:0:0:
223,167,98799,2,0,L|344:197,2,107.999996704102,8|0|8,0:1|0:1|0:1,0:0:0:0:
117,156,99299,1,0,0:1:0:0:
358,110,99465,5,8,0:1:0:0:
438,152,99632,1,0,0:1:0:0:
406,233,99799,1,8,0:1:0:0:
315,254,99965,1,0,0:1:0:0:
216,271,100132,2,0,L|72:298,2,107.999996704102,8|0|8,0:1|0:1|0:1,0:0:0:0:
315,254,100632,1,0,0:1:0:0:
72,267,100799,6,0,L|54:137,1,107.999996704102,10|0,0:1|0:1,0:0:0:0:
203,129,101132,2,0,L|229:277,1,107.999996704102,8|0,0:1|0:1,0:0:0:0:
104,268,101465,1,8,0:1:0:0:
46,227,101632,1,0,0:1:0:0:
95,171,101799,1,8,0:1:0:0:
171,161,101965,1,0,0:1:0:0:
309,163,102132,6,0,L|318:288,1,107.999996704102,8|0,0:1|0:1,0:0:0:0:
208,276,102465,1,8,0:1:0:0:
112,240,102632,2,0,L|191:240,1,53.9999983520508,0|0,0:1|0:1,0:0:0:0:
229,236,102799,2,0,L|233:113,1,107.999996704102,8|0,0:1|0:1,0:0:0:0:
169,129,103049,1,8,0:1:0:0:
106,127,103132,2,0,L|101:265,1,107.999996704102,8|0,0:1|0:1,0:0:0:0:
280,255,103465,5,10,0:1:0:0:
352,240,103632,1,0,0:1:0:0:
330,162,103799,1,8,0:1:0:0:
241,148,103965,1,0,0:1:0:0:
355,109,104132,1,8,0:1:0:0:
212,102,104299,2,0,L|206:190,1,53.9999983520508,0|0,0:1|0:1,0:0:0:0:
274,164,104465,1,8,0:1:0:0:
401,166,104632,1,0,0:1:0:0:
262,221,104799,6,0,L|164:287,2,107.999996704102,8|0|8,0:1|0:1|0:1,0:0:0:0:
132,197,105299,1,0,0:0:0:0:
259,189,105465,2,0,L|263:310,1,107.999996704102,8|0,0:1|0:1,0:0:0:0:
129,215,105799,2,0,L|120:88,1,107.999996704102,8|0,0:1|0:1,0:0:0:0:
353,88,106132,6,0,L|486:79,2,107.999996704102,8|0|8,0:1|0:1|0:1,0:0:0:0:
239,130,106632,2,0,L|243:249,1,107.999996704102,0|8,0:1|0:1,0:0:0:0:
357,240,106965,1,0,0:1:0:0:
249,345,107132,2,0,L|383:340,1,107.999996704102,8|0,0:1|0:1,0:0:0:0:
244,263,107465,6,0,L|119:258,2,107.999996704102,8|0|8,0:1|0:1|0:1,0:0:0:0:
173,191,107965,2,0,L|177:121,1,53.9999983520508,8|8,0:1|0:1,0:0:0:0:
242,132,108132,1,8,0:1:0:0:
346,136,108299,1,0,0:1:0:0:
245,78,108465,1,8,0:1:0:0:
139,131,108632,1,0,0:1:0:0:
382,108,108799,5,10,0:1:0:0:
461,144,108965,1,0,0:1:0:0:
501,228,109132,1,8,0:1:0:0:
417,238,109299,1,0,0:1:0:0:
320,242,109465,2,0,L|205:249,2,107.999996704102,8|0|8,0:1|0:1|0:1,0:0:0:0:
417,238,109965,1,0,0:1:0:0:
266,209,110132,6,0,L|253:91,1,107.999996704102,8|0,0:1|0:1,0:0:0:0:
386,131,110465,2,0,L|404:15,1,107.999996704102,8|0,0:1|0:1,0:0:0:0:
227,75,110799,1,8,0:1:0:0:
303,71,110965,1,0,0:1:0:0:
375,69,111132,1,8,0:1:0:0:
444,68,111299,1,0,0:1:0:0:
157,189,111465,5,10,0:1:0:0:
86,160,111632,1,0,0:1:0:0:
107,88,111799,1,8,0:1:0:0:
187,84,111965,1,0,0:1:0:0:
88,77,112132,2,0,L|-20:128,2,90,8|0|8,0:1|0:1|0:1,0:0:0:0:
215,77,112632,1,0,0:1:0:0:
374,77,112799,6,0,L|387:189,1,90,8|0,0:1|0:1,0:0:0:0:
258,190,113132,2,0,L|236:295,1,90,8|0,0:1|0:1,0:0:0:0:
400,286,113465,5,8,0:1:0:0:
436,275,113632,1,0,0:1:0:0:
414,248,113799,1,8,0:1:0:0:
368,246,113965,1,0,0:1:0:0:
134,273,114132,5,14,0:1:0:0:
70,232,114299,1,0,0:1:0:0:
94,161,114465,1,8,0:1:0:0:
176,146,114632,1,0,0:1:0:0:
288,149,114799,1,8,0:1:0:0:
178,114,114965,1,0,0:1:0:0:
295,85,115132,1,8,0:1:0:0:
170,89,115299,2,0,L|168:162,1,45,8|8,0:1|0:1,0:0:0:0:
247,148,115465,5,2,0:1:0:0:
324,175,115632,1,0,0:1:0:0:
294,252,115799,1,8,0:1:0:0:
205,255,115965,1,0,0:1:0:0:
115,259,116132,1,8,0:1:0:0:
227,297,116299,1,0,0:1:0:0:
99,294,116465,1,8,0:1:0:0:
221,300,116632,2,0,L|255:299,2,22.5,0|0|0,0:1|0:1|0:1,0:0:0:0:
155,298,116799,5,10,0:1:0:0:
104,276,116882,1,0,0:1:0:0:
74,238,116965,1,0,0:1:0:0:
72,186,117049,1,0,0:1:0:0:
99,138,117132,1,0,0:1:0:0:
148,108,117215,1,0,0:1:0:0:
202,97,117299,1,0,0:1:0:0:
264,97,117382,1,0,0:1:0:0:
330,107,117465,6,0,L|370:109,14,22.5,8|0|0|0|0|0|0|0|0|0|0|0|0|0|0,0:1|0:0|0:0|0:0|0:0|0:0|0:0|0:0|0:0|0:0|0:0|0:0|0:0|0:0|0:0,0:0:0:0:
132,130,118132,6,0,P|108:208|394:140,1,630,2|0,0:1|0:0,0:0:0:0:
94,256,119465,6,0,L|297:255,1,180,4|0,0:0|0:0,0:0:0:0:
127,146,120132,2,0,P|116:254|195:301,1,180,0|0,0:0|0:0,0:0:0:0:
346,145,120799,6,0,P|395:195|321:275,1,180,0|0,0:0|0:0,0:0:0:0:
186,285,121465,2,0,L|368:276,1,180,0|0,0:0|0:0,0:0:0:0:
194,189,122132,6,0,P|126:286|179:321,1,180,0|0,0:0|0:0,0:0:0:0:
291,326,122799,2,0,L|486:322,1,180,0|0,0:0|0:0,0:0:0:0:
342,260,123465,6,0,P|292:218|386:166,1,180,0|0,0:0|0:0,0:0:0:0:
448,89,124132,2,0,L|269:89,1,180,0|0,0:0|0:0,0:0:0:0:
441,93,124799,1,2,0:1:0:0:
256,192,124965,12,0,128799,0:0:0:0:
